osu file format v14

[General]
AudioFilename: audio.mp3
AudioLeadIn: 0
PreviewTime: 35383
Countdown: 0
SampleSet: Soft
StackLeniency: 0.7
Mode: 0
LetterboxInBreaks: 0
WidescreenStoryboard: 1

[Editor]
DistanceSpacing: 1.6
BeatDivisor: 4
GridSize: 4
TimelineZoom: 1.9

[Metadata]
Title:Imagination (TV Size)
TitleUnicode:イマジネーション (TV Size)
Artist:SPYAIR
ArtistUnicode:SPYAIR
Creator:browiec
Version:Hard
Source:ハイキュー!!
Tags:Haikyu!! Haikyuu!! volleyball opening op 1 anime japanese j-rock jrock rock male vocals
BeatmapID:2444150
BeatmapSetID:1171789

[Difficulty]
HPDrainRate:4
CircleSize:3.6
OverallDifficulty:6.5
ApproachRate:8
SliderMultiplier:1.4
SliderTickRate:1

[Events]
//Background and Video events
0,0,"stixy is spamming me.jpg",0,0
//Break Periods
//Storyboard Layer 0 (Background)
//Storyboard Layer 1 (Fail)
//Storyboard Layer 2 (Pass)
//Storyboard Layer 3 (Foreground)
//Storyboard Layer 4 (Overlay)
//Storyboard Sound Samples

[TimingPoints]
825,294.117647058824,4,2,1,30,1,0
4942,-142.857142857143,4,2,1,50,0,0
13766,-142.857142857143,4,2,1,65,0,0
14942,-117.647058823529,4,2,1,65,0,0
24354,-129.87012987013,4,2,1,60,0,0
33766,-200,4,2,1,60,0,0
34942,-117.647058823529,4,2,1,60,0,0
35972,-100,4,2,1,70,0,0
56119,-117.647058823529,4,2,1,70,0,0
56707,-133.333333333333,4,2,1,50,0,0
57148,-142.857142857143,4,2,1,55,0,0
61560,-117.647058823529,4,2,1,55,0,0
61854,-117.647058823529,4,2,1,60,0,0
66560,-100,4,2,1,70,0,0
77883,-200,4,2,1,50,0,0
78325,-111.111111111111,4,2,1,65,0,0

[Colours]
Combo1 : 223,223,223
Combo2 : 206,0,0
Combo3 : 92,92,92
Combo4 : 240,240,0

[HitObjects]
256,192,825,12,2,4942,0:2:0:0:
277,113,5530,6,0,P|297:161|282:213,1,97.9999970092774,6|2,3:2|0:2,0:2:0:0:
220,245,5972,2,0,L|118:234,1,97.9999970092774,2|2,0:2|0:2,0:2:0:0:
23,355,6560,2,0,L|183:348,1,146.999995513916,2|0,0:2|0:2,0:2:0:0:
310,279,7295,2,0,P|319:240|293:183,1,97.9999970092774,2|2,0:2|0:2,0:2:0:0:
152,129,7883,6,0,P|132:81|147:29,1,97.9999970092774,6|2,3:2|0:2,0:2:0:0:
209,3,8325,2,0,L|311:14,1,97.9999970092774,2|2,0:2|0:2,0:2:0:0:
433,105,8913,2,0,L|411:255,1,146.999995513916,2|0,0:2|0:2,0:2:0:0:
312,372,9648,2,0,L|304:266,1,97.9999970092774,2|2,0:2|0:2,0:2:0:0:
205,153,10236,6,0,P|253:168|340:121,2,146.999995513916,6|2|2,3:2|0:2|0:2,0:2:0:0:
70,71,11413,2,0,L|81:220,2,146.999995513916,6|2|2,3:2|0:2|0:2,0:2:0:0:
133,24,12442,1,2,0:2:0:0:
133,24,12589,6,0,P|191:22|235:57,1,97.9999970092774,6|2,3:2|0:2,0:2:0:0:
267,107,13030,2,0,L|257:210,2,97.9999970092774,2|2|2,0:2|0:2|0:2,0:2:0:0:
314,33,13766,5,12,0:2:0:0:
314,33,13913,1,0,3:2:0:0:
400,51,14060,2,0,L|395:106,1,48.9999985046387,12|0,0:2|0:2,0:2:0:0:
400,191,14354,1,2,3:2:0:0:
400,191,14501,1,0,3:2:0:0:
479,230,14648,2,0,L|473:299,1,48.9999985046387,10|0,0:2|0:0,0:2:0:0:
423,351,14942,6,0,P|382:359|321:303,1,119.000002269745,6|10,3:2|0:2,0:2:0:0:
291,231,15383,2,0,L|297:162,1,59.5000011348725,2|0,0:2|0:2,0:2:0:0:
227,115,15677,2,0,L|221:55,1,59.5000011348725,2|8,0:2|0:2,0:2:0:0:
145,7,15972,6,0,P|91:6|40:56,1,119.000002269745,2|0,0:2|0:2,0:2:0:0:
9,131,16413,1,8,0:2:0:0:
9,131,16560,1,0,0:2:0:0:
71,194,16707,2,0,L|65:322,1,119.000002269745,2|10,0:2|0:2,0:2:0:0:
232,374,17295,6,0,P|300:372|343:323,1,119.000002269745,2|10,3:2|0:2,0:2:0:0:
318,251,17736,2,0,L|312:186,1,59.5000011348725,2|0,0:2|0:2,0:2:0:0:
250,127,18030,2,0,L|256:62,1,59.5000011348725,2|8,0:2|0:2,0:2:0:0:
329,17,18325,6,0,P|394:9|439:51,1,119.000002269745,2|0,0:2|0:2,0:2:0:0:
496,110,18766,1,8,0:2:0:0:
496,110,18913,1,0,0:2:0:0:
431,171,19060,2,0,L|436:294,1,119.000002269745,2|10,0:2|0:2,0:2:0:0:
280,377,19648,6,0,L|288:247,1,119.000002269745,2|8,3:2|0:2,0:2:0:0:
258,173,20089,2,0,P|217:152|152:182,1,119.000002269745,2|0,0:2|0:2,0:2:0:0:
100,251,20530,1,10,0:2:0:0:
100,251,20677,1,2,0:2:0:0:
26,199,20825,6,0,P|9:154|39:82,1,119.000002269745,2|8,3:2|0:2,0:2:0:0:
90,22,21266,2,0,L|216:39,1,119.000002269745,2|0,0:2|0:2,0:2:0:0:
258,111,21707,1,10,0:2:0:0:
406,12,22001,6,0,L|400:134,1,119.000002269745,2|8,3:2|0:2,0:2:0:0:
326,180,22442,2,0,L|332:302,1,119.000002269745,2|0,0:2|0:2,0:2:0:0:
384,370,22883,2,0,L|454:374,1,59.5000011348725,10|0,0:2|0:2,0:2:0:0:
492,298,23177,6,0,P|504:265|466:187,1,119.000002269745,2|10,3:2|0:2,0:2:0:0:
406,138,23619,1,0,0:2:0:0:
406,138,23766,2,0,L|281:152,1,119.000002269745,2|10,0:2|0:2,0:0:0:0:
220,209,24207,1,8,0:2:0:0:
156,142,24354,6,0,L|143:20,1,107.799997861633,4|0,3:2|0:2,0:2:0:0:
58,43,24795,2,0,L|46:150,1,107.799997861633,0|0,3:2|0:2,0:2:0:0:
98,219,25236,1,10,0:2:0:0:
12,368,25530,5,2,0:2:0:0:
12,368,25677,2,0,L|123:357,1,107.799997861633,2|2,0:2|0:2,0:2:0:0:
181,296,26119,2,0,L|292:307,1,107.799997861633,10|2,0:2|0:2,0:2:0:0:
350,365,26560,1,2,0:2:0:0:
350,365,26707,5,0,3:2:0:0:
489,264,27001,2,0,L|499:131,2,107.799997861633,2|2|10,0:2|0:2|0:2,0:2:0:0:
328,327,27883,6,0,P|284:335|224:311,2,107.799997861633,2|2|10,0:2|3:2|0:2,0:2:0:0:
404,294,28619,2,0,L|419:164,1,107.799997861633,0|0,3:2|0:2,0:2:0:0:
461,113,29060,6,0,P|476:71|448:1,1,107.799997861633,4|0,3:2|0:2,0:2:0:0:
372,4,29501,2,0,L|242:19,1,107.799997861633,0|0,3:2|0:2,0:2:0:0:
215,87,29942,1,10,0:2:0:0:
51,26,30236,5,2,0:2:0:0:
51,26,30383,2,0,L|66:148,1,107.799997861633,2|2,0:2|0:2,0:2:0:0:
125,194,30825,2,0,L|110:316,1,107.799997861633,10|2,0:2|0:2,0:2:0:0:
165,368,31266,1,2,0:2:0:0:
165,368,31413,5,0,3:2:0:0:
256,221,31707,2,0,P|292:212|326:216,1,53.8999989308167,2|0,0:2|3:2,0:2:0:0:
391,250,32001,2,0,P|398:286|396:320,1,53.8999989308167,2|0,0:2|0:2,0:2:0:0:
332,366,32295,2,0,L|213:357,1,107.799997861633,14|0,0:2|0:2,0:2:0:0:
148,307,32736,5,0,3:2:0:0:
148,307,32883,2,0,L|144:240,1,53.8999989308167,0|0,3:2|3:2,0:0:0:0:
68,192,33177,2,0,L|72:125,1,53.8999989308167,0|0,3:2|3:2,0:0:0:0:
116,53,33472,1,0,3:2:0:0:
116,53,33619,1,0,3:2:0:0:
204,108,33766,6,0,B|295:91|295:91|355:115|355:115|456:102,1,245,6|0,3:2|0:2,0:2:0:0:
510,178,34942,5,10,3:2:0:0:
423,230,35089,1,10,3:2:0:0:
498,297,35236,1,10,3:2:0:0:
484,318,35972,6,0,P|424:342|348:310,1,140,6|0,3:2|3:2,0:2:0:0:
280,256,36413,2,0,L|288:172,1,70,10|0,0:2|0:2,0:2:0:0:
372,136,36707,1,2,3:2:0:0:
372,136,36854,2,0,L|364:52,1,70,2|8,3:2|0:2,0:0:0:0:
280,16,37148,6,0,B|192:0|192:0|132:28,1,140,2|0,3:2|3:2,0:2:0:0:
68,80,37589,2,0,L|76:164,1,70,10|0,0:2|0:2,0:2:0:0:
162,203,37883,1,2,3:2:0:0:
162,203,38030,2,0,L|154:287,1,70,2|8,3:2|0:2,0:0:0:0:
227,359,38325,6,0,P|287:367|343:307,1,140,2|2,3:2|3:2,0:2:0:0:
325,217,38766,1,8,0:2:0:0:
325,217,38913,2,0,L|317:133,1,70,2|0,0:2|3:2,0:2:0:0:
369,65,39207,1,2,3:2:0:0:
369,65,39354,1,8,0:2:0:0:
445,125,39501,6,0,L|438:194,1,70,2|0,3:2|0:2,0:2:0:0:
485,285,39795,1,2,3:2:0:0:
485,285,39942,1,8,0:2:0:0:
269,365,40236,2,0,L|277:285,1,70,2|2,3:2|3:2,0:0:0:0:
325,217,40530,1,8,0:2:0:0:
237,147,40677,6,0,B|161:131|177:183|89:167,1,140,6|0,3:2|3:2,0:2:0:0:
17,115,41119,2,0,P|9:75|21:39,1,70,10|0,0:2|0:2,0:2:0:0:
109,7,41413,1,2,3:2:0:0:
109,7,41560,2,0,P|147:20|172:48,1,70,2|8,3:2|0:2,0:0:0:0:
197,135,41854,6,0,L|185:279,1,140,2|0,3:2|3:2,0:2:0:0:
237,359,42295,2,0,L|317:351,1,70,10|0,0:2|0:2,0:2:0:0:
389,299,42589,1,2,3:2:0:0:
389,299,42736,2,0,L|381:219,1,70,2|8,3:2|0:2,0:2:0:0:
309,144,43030,6,0,P|261:120|185:156,1,140,2|2,3:2|3:2,0:2:0:0:
137,236,43472,1,8,0:2:0:0:
137,236,43619,2,0,L|145:316,1,70,2|0,0:2|3:2,0:0:0:0:
61,360,43913,1,2,3:2:0:0:
61,360,44060,1,8,0:2:0:0:
13,276,44207,6,0,L|21:124,1,140,2|0,3:2|3:2,0:2:0:0:
81,60,44648,1,8,0:2:0:0:
227,197,44942,1,10,0:2:0:0:
227,197,45089,2,0,L|304:186,1,70,2|8,3:2|0:2,0:0:0:0:
404,216,45383,6,0,P|454:164|420:86,1,140,6|0,3:2|3:2,0:2:0:0:
344,80,45825,2,0,L|256:68,1,70,10|0,0:2|0:2,0:2:0:0:
193,16,46119,1,2,3:2:0:0:
193,16,46266,2,0,L|105:28,1,70,2|8,3:2|0:2,0:0:0:0:
53,92,46560,6,0,B|29:160|29:160|65:244,1,140,2|0,3:2|3:2,0:2:0:0:
129,288,47001,2,0,L|213:280,1,70,10|0,0:2|0:2,0:2:0:0:
269,213,47295,1,2,3:2:0:0:
269,213,47442,2,0,P|268:157|252:128,1,70,2|8,3:2|0:2,0:0:0:0:
305,45,47736,6,0,L|385:49,1,70,2|0,3:2|0:2,0:2:0:0:
470,22,48030,2,0,L|466:102,1,70,2|8,3:2|0:2,0:2:0:0:
502,186,48325,2,0,L|350:174,1,140,2|2,0:2|3:2,0:2:0:0:
278,226,48766,1,8,0:2:0:0:
278,226,48913,6,0,L|270:306,1,70,2|0,3:2|0:2,0:2:0:0:
194,354,49207,1,2,3:2:0:0:
194,354,49354,1,8,0:2:0:0:
55,222,49648,1,2,3:2:0:0:
55,222,49795,2,0,L|128:211,1,70,2|10,3:2|0:2,0:0:0:0:
231,243,50089,6,0,B|307:231|291:279|375:267,1,140,6|2,3:2|3:2,0:2:0:0:
443,211,50530,1,8,0:2:0:0:
443,211,50677,2,0,L|451:131,1,70,2|0,0:2|3:2,0:2:0:0:
403,55,50972,2,0,P|363:43|323:47,1,70,2|8,3:2|0:2,0:0:0:0:
255,103,51266,6,0,L|263:251,1,140,2|2,3:2|3:2,0:2:0:0:
231,335,51707,1,8,0:2:0:0:
231,335,51854,2,0,L|155:347,1,70,2|0,0:2|3:2,0:2:0:0:
75,299,52148,2,0,P|55:263|55:227,1,70,2|8,3:2|0:2,0:0:0:0:
97,147,52442,1,2,3:2:0:0:
61,40,52589,6,0,L|145:52,1,70,12|0,0:2|3:2,0:0:0:0:
196,122,52883,2,0,L|280:110,1,70,8|0,0:2|3:2,0:0:0:0:
360,81,53177,1,8,0:2:0:0:
360,81,53325,1,0,3:2:0:0:
412,164,53472,2,0,L|404:256,1,70,10|0,0:2|3:2,0:0:0:0:
483,314,53766,5,14,0:2:0:0:
387,330,53913,2,0,P|339:326|311:338,1,70,2|8,3:2|0:2,0:0:0:0:
231,374,54207,2,0,P|175:370|135:294,1,140,2|2,3:2|3:2,0:0:0:0:
199,230,54648,1,8,0:2:0:0:
199,230,54795,1,2,3:2:0:0:
119,150,54942,6,0,B|75:94|75:94|103:6,1,140,12|8,3:2|3:2,0:2:0:0:
191,10,55383,2,0,B|235:66|235:66|207:154,1,140,8|8,3:2|3:2,0:2:0:0:
187,222,55825,2,0,L|195:294,1,70,8|0,3:2|0:2,0:2:0:0:
263,358,56119,5,12,3:2:0:0:
364,164,56707,6,0,L|356:248,1,78.7500030040742,2|2,3:2|0:0,0:0:0:0:
244,340,57148,6,0,B|372:292|340:404|484:364,1,244.999992523194,6|2,3:2|0:2,0:2:0:0:
496,132,58325,2,0,P|432:112|320:232,1,244.999992523194,6|2,3:2|0:2,0:2:0:0:
176,376,59501,6,0,L|156:112,1,244.999992523194,6|0,3:2|0:2,0:2:0:0:
368,24,60677,2,0,B|380:116|380:116|360:176|360:176|368:272,1,244.999992523194,6|2,3:2|3:2,0:2:0:0:
320,336,61560,2,0,L|252:328,1,59.5000011348725,2|0,3:2|3:2,0:0:0:0:
180,348,61854,6,0,P|132:356|72:292,1,119.000002269745,6|0,3:2|0:2,0:2:0:0:
32,248,62295,2,0,L|36:180,1,59.5000011348725,2|0,3:2|0:2,0:2:0:0:
84,120,62589,1,10,0:2:0:0:
232,204,62883,1,2,0:2:0:0:
232,204,63030,6,0,P|280:216|344:164,1,119.000002269745,2|0,3:2|0:2,0:2:0:0:
384,112,63472,2,0,L|376:32,1,59.5000011348725,2|0,3:2|0:2,0:2:0:0:
308,16,63766,1,10,0:2:0:0:
308,16,63913,1,2,0:2:0:0:
164,101,64207,6,0,L|170:179,1,59.5000011348725,2|0,3:2|0:2,0:2:0:0:
219,226,64501,2,0,L|214:285,1,59.5000011348725,10|0,0:2|0:2,0:2:0:0:
272,344,64795,2,0,P|332:364|381:331,1,119.000002269745,2|2,3:2|3:2,0:0:0:0:
416,264,65236,1,8,0:2:0:0:
416,264,65383,6,0,L|424:144,1,119.000002269745,6|0,3:2|3:2,0:2:0:0:
468,76,65825,1,8,0:2:0:0:
312,16,66119,1,10,3:2:0:0:
312,16,66266,2,0,L|317:63,2,29.7500005674362,10|8|8,3:2|3:2|3:2,0:2:0:0:
214,12,66560,6,0,B|174:44|174:44|206:148,1,140,6|0,3:2|3:2,0:2:0:0:
210,226,67001,2,0,L|286:218,1,70,10|0,0:2|0:2,0:2:0:0:
364,172,67295,1,2,3:2:0:0:
364,172,67442,2,0,L|440:180,1,70,2|8,3:2|0:2,0:0:0:0:
504,248,67736,6,0,P|500:296|404:340,1,140,2|0,3:2|3:2,0:2:0:0:
361,272,68177,2,0,P|317:264|285:272,1,70,10|0,0:2|0:2,0:2:0:0:
204,307,68472,1,2,3:2:0:0:
204,307,68619,2,0,P|160:315|128:307,1,70,2|8,3:2|0:2,0:0:0:0:
91,207,68913,6,0,L|75:55,1,140,2|2,3:2|3:2,0:2:0:0:
151,4,69354,1,8,0:2:0:0:
151,4,69501,2,0,L|231:12,1,70,2|0,0:2|3:2,0:2:0:0:
303,63,69795,1,2,3:2:0:0:
303,63,69942,1,8,0:2:0:0:
219,111,70089,6,0,L|227:191,1,70,2|0,3:2|0:2,0:2:0:0:
167,259,70383,1,2,3:2:0:0:
167,259,70530,1,8,0:2:0:0:
340,361,70825,1,2,3:2:0:0:
340,361,70972,2,0,L|329:292,1,70,2|10,3:2|0:2,0:0:0:0:
385,195,71266,6,0,L|393:51,1,140,6|2,3:2|3:2,0:2:0:0:
311,3,71707,1,8,0:2:0:0:
311,3,71854,2,0,P|263:-5|227:7,1,70,2|0,0:2|3:2,0:2:0:0:
175,71,72148,2,0,P|167:119|179:155,1,70,2|8,3:2|0:2,0:0:0:0:
239,211,72442,6,0,B|323:187|307:243|403:219,1,140,2|2,3:2|3:2,0:2:0:0:
475,215,72883,1,8,0:2:0:0:
475,215,73030,2,0,P|487:255|479:295,1,70,2|0,0:2|3:2,0:2:0:0:
419,359,73325,2,0,P|379:371|339:363,1,70,2|8,3:2|0:2,0:0:0:0:
259,333,73619,1,2,3:2:0:0:
341,257,73766,6,0,L|349:177,1,70,12|0,0:2|3:2,0:0:0:0:
418,118,74060,2,0,L|410:38,1,70,8|0,0:2|3:2,0:0:0:0:
323,16,74354,1,8,0:2:0:0:
323,16,74501,1,0,3:2:0:0:
247,78,74648,2,0,P|211:82|171:70,1,70,10|0,0:2|3:2,0:0:0:0:
76,27,74942,5,14,0:2:0:0:
30,113,75089,2,0,L|38:193,1,70,2|8,3:2|0:2,0:0:0:0:
5,275,75383,2,0,P|57:279|125:219,1,140,2|2,3:2|3:2,0:0:0:0:
174,144,75825,1,8,0:2:0:0:
174,144,75972,1,2,3:2:0:0:
233,238,76119,6,0,L|381:246,1,140,12|0,3:2|3:2,0:2:0:0:
413,158,76560,2,0,L|273:150,1,140,8|8,3:2|3:2,0:2:0:0:
233,62,77001,2,0,L|317:66,1,70,8|0,3:2|0:2,0:2:0:0:
393,26,77295,5,14,3:2:0:0:
408,44,77883,2,0,L|400:128,1,70,2|0,0:2|0:2,0:2:0:0:
328,172,78325,6,0,B|268:188|268:188|180:168,1,125.999996154785,6|0,3:2|3:2,0:2:0:0:
149,97,78766,2,0,L|81:101,1,62.9999980773926,10|0,0:2|0:2,0:2:0:0:
15,163,79060,1,2,3:2:0:0:
15,163,79207,2,0,L|19:231,1,62.9999980773926,2|8,3:2|0:2,0:0:0:0:
68,306,79501,6,0,P|120:326|188:278,1,125.999996154785,2|0,3:2|3:2,0:2:0:0:
234,218,79942,2,0,L|230:142,1,62.9999980773926,10|0,0:2|0:2,0:2:0:0:
279,75,80236,1,2,3:2:0:0:
279,75,80383,1,2,3:2:0:0:
345,142,80530,1,8,0:2:0:0:
405,69,80677,6,0,P|457:65|501:137,1,125.999996154785,2|0,3:2|3:2,0:2:0:0:
458,203,81119,2,0,L|462:271,1,62.9999980773926,10|0,0:2|0:2,0:2:0:0:
383,318,81413,2,0,L|387:382,2,62.9999980773926,2|2|8,3:2|3:2|0:2,0:0:0:0:
319,247,81854,6,0,B|255:235|263:283|187:275,1,125.999996154785,0|2,3:2|3:2,0:2:0:0:
115,232,82295,2,0,L|107:168,1,62.9999980773926,10|0,0:2|0:2,0:0:0:0:
42,108,82589,1,2,3:2:0:0:
42,108,82736,1,2,3:2:0:0:
206,14,83030,6,0,P|250:10|306:74,1,125.999996154785,6|2,3:2|3:2,0:2:0:0:
256,146,83472,2,0,L|248:230,1,62.9999980773926,10|0,0:2|0:2,0:2:0:0:
175,265,83766,1,2,3:2:0:0:
175,265,83913,2,0,L|183:349,1,62.9999980773926,2|8,3:2|0:2,0:2:0:0:
265,369,84207,6,0,B|317:361|317:361|345:369|345:369|397:361,1,125.999996154785,2|0,3:2|3:2,0:0:0:0:
466,308,84648,2,0,P|474:268|462:232,1,62.9999980773926,10|2,0:2|0:2,0:0:0:0:
409,180,84942,1,0,3:2:0:0:
409,180,85089,2,0,P|369:172|333:184,1,62.9999980773926,2|10,3:2|0:2,0:0:0:0:
280,243,85383,6,0,B|224:259|224:259|140:239,1,125.999996154785,4|0,3:2|3:2,0:0:0:0:
91,174,85825,2,0,L|83:102,1,62.9999980773926,10|0,0:2|0:2,0:2:0:0:
144,39,86119,1,2,3:2:0:0:
144,39,86266,2,0,L|216:31,1,62.9999980773926,2|8,3:2|0:2,0:2:0:0:
300,24,86560,6,0,L|292:164,1,125.999996154785,2|2,3:2|3:2,0:2:0:0:
213,201,87001,2,0,L|221:269,1,62.9999980773926,10|2,0:2|0:2,0:0:0:0:
296,319,87295,2,0,L|288:387,2,62.9999980773926,2|2|10,3:2|3:2|0:2,0:0:0:0:
353,243,87736,1,2,3:2:0:0:
424,324,87883,6,0,P|468:320|500:244,1,125.999996154785,14|0,0:2|3:2,0:0:0:0:
504,152,88325,2,0,B|436:132|448:180|368:164,1,125.999996154785,14|0,0:2|3:2,0:0:0:0:
300,116,88766,1,14,0:2:0:0:
300,116,88913,1,0,3:2:0:0:
208,160,89060,1,14,0:2:0:0:
