osu file format v14

[General]
AudioFilename: audio.mp3
AudioLeadIn: 0
PreviewTime: 35383
Countdown: 0
SampleSet: Soft
StackLeniency: 0.7
Mode: 0
LetterboxInBreaks: 0
WidescreenStoryboard: 1

[Editor]
DistanceSpacing: 1
BeatDivisor: 4
GridSize: 4
TimelineZoom: 1.9

[Metadata]
Title:Imagination (TV Size)
TitleUnicode:イマジネーション (TV Size)
Artist:SPYAIR
ArtistUnicode:SPYAIR
Creator:browiec
Version:Ambition
Source:ハイキュー!!
Tags:Haikyu!! Haikyuu!! volleyball opening op 1 anime japanese j-rock jrock rock male vocals
BeatmapID:2444148
BeatmapSetID:1171789

[Difficulty]
HPDrainRate:6
CircleSize:4
OverallDifficulty:9.3
ApproachRate:9.4
SliderMultiplier:1.85
SliderTickRate:1

[Events]
//Background and Video events
0,0,"stixy is spamming me.jpg",0,0
//Break Periods
//Storyboard Layer 0 (Background)
//Storyboard Layer 1 (Fail)
//Storyboard Layer 2 (Pass)
//Storyboard Layer 3 (Foreground)
//Storyboard Layer 4 (Overlay)
//Storyboard Sound Samples

[TimingPoints]
825,294.117647058824,4,2,1,30,1,0
4795,-100,4,2,1,5,0,0
4942,-166.666666666667,4,2,1,50,0,0
5530,-133.333333333333,4,2,1,50,0,0
13766,-117.647058823529,4,2,1,65,0,0
24354,-133.333333333333,4,2,1,60,0,0
33766,-222.222222222222,4,2,1,60,0,0
35972,-100,4,2,1,70,0,0
56707,-133.333333333333,4,2,1,50,0,0
57148,-181.818181818182,4,2,1,55,0,0
61854,-133.333333333333,4,2,1,60,0,0
65383,-117.647058823529,4,2,1,60,0,0
66560,-100,4,2,1,70,0,0
77883,-166.666666666667,4,2,1,50,0,0
78325,-100,4,2,1,65,0,0
89354,-100,4,2,1,30,0,0

[Colours]
Combo1 : 223,223,223
Combo2 : 206,0,0
Combo3 : 92,92,92
Combo4 : 240,240,0

[HitObjects]
256,192,825,12,0,4795,0:2:0:0:
328,32,4942,6,0,L|320:152,1,110.999996612549,2|2,0:2|0:2,0:2:0:0:
484,292,5530,6,0,B|416:272|416:328|336:308,1,138.750005292893,6|2,3:2|0:2,0:2:0:0:
224,340,5972,2,0,P|264:288|248:192,1,138.750005292893,2|2,0:2|0:2,0:2:0:0:
64,116,6560,2,0,B|144:108|144:108|192:124|192:124|272:116,1,208.125007939339,2|0,0:2|0:2,0:2:0:0:
400,292,7295,6,0,L|416:148,1,138.750005292893,2|2,0:2|0:2,0:2:0:0:
216,12,7883,6,0,P|172:44|192:136,1,138.750005292893,6|2,3:2|0:2,0:2:0:0:
284,196,8325,2,0,B|212:180|228:236|136:212,1,138.750005292893,2|2,0:2|0:2,0:2:0:0:
16,352,8913,2,0,B|72:316|72:316|224:356,1,208.125007939339,2|0,0:2|0:2,0:2:0:0:
384,224,9648,6,0,L|368:372,1,138.750005292893,2|2,0:2|0:2,0:2:0:0:
232,160,10236,6,0,B|152:148|152:148|100:172|100:172|16:160,2,208.125007939339,6|2|2,3:2|0:2|0:2,0:2:0:0:
464,12,11413,6,0,L|452:160,1,138.750005292893,6|0,3:2|0:2,0:2:0:0:
320,84,11854,2,0,L|336:228,1,138.750005292893,2|0,0:2|0:2,0:2:0:0:
312,384,12295,1,2,0:2:0:0:
416,276,12442,1,2,0:2:0:0:
248,308,12589,6,0,B|180:288|188:344|108:328,1,138.750005292893,6|2,3:2|0:2,0:2:0:0:
128,168,13030,2,0,P|136:216|132:256,1,69.3750026464463,2|0,0:2|0:2,0:2:0:0:
244,124,13325,2,0,P|236:172|240:212,1,69.3750026464463,2|0,0:2|0:2,0:2:0:0:
340,320,13619,1,2,0:2:0:0:
392,100,13766,5,12,0:2:0:0:
252,288,13913,1,0,3:2:0:0:
480,212,14060,2,0,P|488:168|476:124,1,78.6250014996529,12|0,0:2|0:2,0:2:0:0:
272,36,14354,1,2,3:2:0:0:
368,228,14501,1,0,3:2:0:0:
252,16,14648,2,0,P|200:8|144:76,1,117.937502249479,10|0,0:2|0:2,0:2:0:0:
76,96,14942,6,0,L|88:188,1,78.6250014996529,6|0,3:2|0:2,0:2:0:0:
128,316,15236,1,10,0:2:0:0:
184,156,15383,2,0,P|228:144|276:156,1,78.6250014996529,2|0,0:2|0:2,0:2:0:0:
276,300,15677,2,0,P|243:267|230:220,1,78.6250014996529,2|8,0:2|0:2,0:2:0:0:
336,92,15972,6,0,B|400:84|400:84|432:96|432:96|492:88,1,157.250002999306,2|0,0:2|0:2,0:2:0:0:
508,248,16413,1,8,0:2:0:0:
384,172,16560,1,0,0:2:0:0:
412,336,16707,2,0,L|424:248,1,78.6250014996529,2|0,0:2|0:2,0:2:0:0:
280,180,17001,2,0,L|290:257,1,78.6250014996529,10|0,0:2|0:2,0:2:0:0:
184,360,17295,6,0,P|132:372|96:360,1,78.6250014996529,2|0,3:2|0:2,0:2:0:0:
0,264,17589,1,10,0:2:0:0:
152,200,17736,2,0,L|144:288,1,78.6250014996529,2|0,0:2|0:2,0:2:0:0:
280,376,18030,2,0,L|272:288,1,78.6250014996529,2|8,0:2|0:2,0:2:0:0:
176,112,18325,6,0,P|108:120|60:204,1,157.250002999306,2|0,0:2|0:2,0:2:0:0:
104,344,18766,1,8,0:2:0:0:
152,200,18913,1,0,0:2:0:0:
224,348,19060,2,0,P|264:360|304:352,1,78.6250014996529,2|0,0:2|0:2,0:2:0:0:
416,252,19354,2,0,P|376:264|336:256,1,78.6250014996529,10|0,0:2|0:2,0:2:0:0:
348,96,19648,6,0,B|396:72|396:72|372:192,1,157.250002999306,2|8,3:2|0:2,0:2:0:0:
244,328,20089,2,0,B|240:268|240:268|252:232|252:232|248:168,1,157.250002999306,2|0,0:2|0:2,0:2:0:0:
80,40,20530,1,10,0:2:0:0:
144,200,20677,1,2,0:2:0:0:
228,52,20825,6,0,B|320:36|296:96|392:80,1,157.250002999306,2|8,3:2|0:2,0:2:0:0:
504,164,21266,2,0,P|464:152|388:236,1,157.250002999306,2|0,0:2|0:2,0:2:0:0:
332,352,21707,1,10,0:2:0:0:
276,200,21854,1,2,0:2:0:0:
212,360,22001,6,0,P|220:316|220:272,1,78.6250014996529,2|0,3:2|0:2,0:2:0:0:
172,136,22295,1,8,0:2:0:0:
96,284,22442,2,0,P|88:240|88:196,1,78.6250014996529,2|0,0:2|0:2,0:2:0:0:
144,48,22736,1,0,0:2:0:0:
244,192,22883,2,0,P|292:200|328:192,1,78.6250014996529,10|0,0:2|0:2,0:2:0:0:
272,28,23177,6,0,L|280:124,1,78.6250014996529,2|0,3:2|0:2,0:2:0:0:
404,252,23472,2,0,L|412:156,1,78.6250014996529,10|0,0:2|0:2,0:2:0:0:
212,220,23766,1,2,0:2:0:0:
412,276,23913,1,8,0:2:0:0:
248,108,24060,1,10,0:2:0:0:
332,340,24207,1,8,0:2:0:0:
468,112,24354,6,0,P|420:92|336:136,1,138.750005292893,4|0,3:2|0:2,0:2:0:0:
288,224,24795,2,0,P|240:244|156:200,1,138.750005292893,0|0,3:2|0:2,0:2:0:0:
72,120,25236,2,0,P|76:168|72:212,1,69.3750026464463,10|0,0:2|0:2,0:2:0:0:
4,292,25530,5,2,0:2:0:0:
4,292,25677,2,0,L|76:284,1,69.3750026464463,2|0,0:2|3:2,0:2:0:0:
172,208,25972,1,2,0:2:0:0:
172,208,26119,2,0,L|244:216,1,69.3750026464463,10|0,0:2|0:2,0:2:0:0:
392,288,26413,1,2,0:2:0:0:
236,336,26560,1,2,0:2:0:0:
364,196,26707,6,0,L|372:288,1,69.3750026464463,0|0,3:2|0:2,0:2:0:0:
432,132,27001,2,0,P|400:108|364:104,1,69.3750026464463,2|0,0:2|3:2,0:2:0:0:
236,176,27295,2,0,P|272:160|294:131,1,69.3750026464463,2|0,0:2|0:2,0:2:0:0:
148,68,27589,2,0,P|143:107|157:140,1,69.3750026464463,10|0,0:2|0:2,0:2:0:0:
252,264,27883,6,0,B|176:280|188:224|108:240,2,138.750005292893,2|2|10,0:2|3:2|0:2,0:2:0:0:
344,164,28619,2,0,L|356:308,1,138.750005292893,0|0,3:2|0:2,0:2:0:0:
125,360,29060,6,0,P|97:316|137:224,1,138.750005292893,4|0,3:2|0:2,0:2:0:0:
208,160,29501,2,0,P|236:116|200:24,1,138.750005292893,0|0,3:2|0:2,0:2:0:0:
84,88,29942,2,0,L|160:96,1,69.3750026464463,10|0,0:2|0:2,0:2:0:0:
128,248,30236,5,2,0:2:0:0:
128,248,30383,2,0,P|120:200|124:168,1,69.3750026464463,2|0,0:2|3:2,0:2:0:0:
256,296,30677,1,2,0:2:0:0:
256,296,30824,2,0,P|264:248|260:216,1,69.3750026464463,10|0,0:2|0:2,0:2:0:0:
282,60,31119,1,2,0:2:0:0:
358,211,31266,1,2,0:2:0:0:
392,32,31413,6,0,L|384:120,1,69.3750026464463,0|0,3:2|0:2,0:2:0:0:
443,239,31707,2,0,P|407:243|363:219,1,69.3750026464463,2|0,0:2|3:2,0:2:0:0:
224,99,32001,2,0,P|260:95|304:119,1,69.3750026464463,2|0,0:2|0:2,0:2:0:0:
260,304,32295,2,0,B|220:272|220:272|248:172,1,138.750005292893,14|0,0:2|0:2,0:2:0:0:
106,58,32736,5,0,3:2:0:0:
136,238,32883,1,0,3:2:0:0:
256,84,33030,1,0,3:2:0:0:
40,180,33177,1,0,3:2:0:0:
288,276,33325,1,0,3:2:0:0:
192,16,33472,1,0,3:2:0:0:
48,280,33619,1,0,3:2:0:0:
332,124,33766,6,0,B|416:56|504:124|504:124|488:188|428:208,1,291.374991107941,6|0,3:2|0:2,0:2:0:0:
140,332,34942,5,10,3:2:0:0:
248,32,35089,1,10,3:2:0:0:
360,328,35236,1,10,3:2:0:0:
468,212,35972,6,0,B|376:184|392:272|268:240,1,185,6|0,3:2|3:2,0:2:0:0:
188,48,36413,2,0,P|240:72|268:124,1,92.5,10|0,0:2|0:2,0:2:0:0:
136,320,36707,1,2,3:2:0:0:
96,72,36854,1,2,3:2:0:0:
292,245,37001,1,8,0:2:0:0:
8,192,37148,6,0,B|64:156|64:156|184:196,1,185,2|0,3:2|3:2,0:2:0:0:
296,364,37589,2,0,L|304:264,1,92.5,10|0,0:2|0:2,0:2:0:0:
328,0,37883,1,2,3:2:0:0:
176,193,38030,1,2,3:2:0:0:
408,104,38177,1,8,0:2:0:0:
136,28,38325,6,0,L|236:40,1,92.5,2|0,3:2|0:2,0:2:0:0:
428,128,38619,2,0,L|328:140,1,92.5,2|8,3:2|0:2,0:2:0:0:
92,244,38913,2,0,P|80:184|96:140,1,92.5,2|0,0:2|3:2,0:2:0:0:
324,248,39207,1,2,3:2:0:0:
88,336,39354,1,8,0:2:0:0:
292,140,39501,6,0,L|300:240,1,92.5,2|0,3:2|0:2,0:2:0:0:
172,376,39795,1,2,3:2:0:0:
80,136,39942,2,0,P|136:124|176:136,1,92.5,8|0,0:2|0:2,0:2:0:0:
376,280,40236,1,2,3:2:0:0:
128,216,40383,1,2,3:2:0:0:
376,136,40530,1,8,0:2:0:0:
264,376,40677,6,0,B|256:300|256:300|272:260|272:260|264:188,1,185,6|0,3:2|3:2,0:2:0:0:
120,0,41119,2,0,L|112:112,1,92.5,10|0,0:2|0:2,0:2:0:0:
168,328,41413,1,2,3:2:0:0:
256,104,41560,1,2,3:2:0:0:
88,268,41707,1,8,0:2:0:0:
336,164,41854,6,0,B|444:144|416:216|520:200,1,185,2|0,3:2|3:2,0:2:0:0:
288,360,42295,2,0,P|260:304|264:256,1,92.5,10|0,0:2|0:2,0:2:0:0:
348,56,42589,1,2,3:2:0:0:
440,284,42736,2,0,L|336:292,1,92.5,2|8,3:2|0:2,0:2:0:0:
188,52,43030,6,0,P|152:96|152:152,1,92.5,2|0,3:2|0:2,0:2:0:0:
259,275,43325,2,0,P|238:221|190:193,1,92.5,2|8,3:2|0:2,0:2:0:0:
8,280,43619,1,2,0:2:0:0:
228,364,43766,1,0,3:2:0:0:
131,129,43913,1,2,3:2:0:0:
28,364,44060,1,8,0:2:0:0:
228,176,44207,6,0,B|352:148|352:148|412:184,1,185,2|0,3:2|3:2,0:2:0:0:
228,364,44648,1,8,0:2:0:0:
152,104,44795,1,0,3:2:0:0:
344,300,44942,1,10,0:2:0:0:
336,48,45089,1,2,3:2:0:0:
152,228,45236,1,8,0:2:0:0:
424,104,45383,6,0,P|476:128|468:260,1,185,6|0,3:2|3:2,0:2:0:0:
316,376,45825,2,0,P|320:312|312:264,1,92.5,10|0,0:2|0:2,0:2:0:0:
128,88,46119,1,2,3:2:0:0:
216,320,46266,1,2,3:2:0:0:
316,96,46413,1,8,0:2:0:0:
40,196,46560,6,0,B|140:172|120:252|224:224,1,185,2|0,3:2|3:2,0:2:0:0:
344,360,47001,2,0,P|340:300|356:252,1,92.5,10|0,0:2|0:2,0:2:0:0:
476,80,47295,1,2,3:2:0:0:
232,144,47442,1,2,3:2:0:0:
460,268,47589,1,8,0:2:0:0:
320,36,47736,6,0,L|328:136,1,92.5,2|0,3:2|0:2,0:2:0:0:
156,312,48030,2,0,L|164:212,1,92.5,2|8,3:2|0:2,0:2:0:0:
408,188,48325,2,0,P|372:220|312:224,1,92.5,2|0,0:2|3:2,0:2:0:0:
128,36,48619,1,2,3:2:0:0:
327,128,48766,1,8,0:2:0:0:
72,208,48913,6,0,L|64:116,1,92.5,2|0,3:2|0:2,0:2:0:0:
300,40,49207,1,2,3:2:0:0:
152,268,49354,2,0,P|110:300|61:311,1,92.5,8|0,0:2|0:2,0:2:0:0:
152,8,49648,1,2,3:2:0:0:
248,264,49795,1,2,3:2:0:0:
324,8,49942,1,10,0:2:0:0:
404,248,50089,6,0,P|460:256|496:240,1,92.5,6|0,3:2|0:2,0:2:0:0:
332,36,50383,2,0,P|276:28|240:44,1,92.5,2|8,3:2|0:2,0:2:0:0:
136,248,50677,2,0,L|124:144,1,92.5,2|0,0:2|3:2,0:2:0:0:
368,224,50972,1,2,3:2:0:0:
144,344,51119,1,8,0:2:0:0:
324,132,51266,6,0,P|392:128|428:144,1,92.5,2|0,3:2|0:2,0:2:0:0:
496,336,51560,2,0,P|428:340|392:324,1,92.5,2|8,3:2|0:2,0:2:0:0:
236,116,51854,2,0,L|228:224,1,92.5,2|0,0:2|3:2,0:2:0:0:
56,376,52148,1,2,3:2:0:0:
120,148,52295,1,8,0:2:0:0:
248,348,52442,1,2,3:2:0:0:
316,56,52589,5,12,0:2:0:0:
160,304,52736,1,0,3:2:0:0:
240,0,52883,5,8,0:2:0:0:
328,292,53030,1,0,3:2:0:0:
132,28,53177,5,8,0:2:0:0:
384,204,53325,1,0,3:2:0:0:
68,244,53472,5,10,0:2:0:0:
328,40,53619,1,0,3:2:0:0:
240,360,53766,5,14,0:2:0:0:
72,96,53913,1,2,3:2:0:0:
320,312,54060,5,8,0:2:0:0:
344,20,54207,1,2,3:2:0:0:
164,304,54354,5,8,0:2:0:0:
400,100,54501,1,2,3:2:0:0:
388,380,54648,5,8,0:2:0:0:
284,96,54795,1,2,3:2:0:0:
92,360,54942,6,0,P|76:312|84:264,1,92.5,12|0,3:2|3:2,0:2:0:0:
156,44,55236,1,8,3:2:0:0:
328,288,55383,2,0,P|280:304|232:296,1,92.5,8|0,3:2|0:2,0:2:0:0:
16,180,55677,1,8,3:2:0:0:
288,108,55825,2,0,L|276:220,1,92.5,8|0,3:2|0:2,0:2:0:0:
112,352,56119,5,12,3:2:0:0:
40,112,56707,6,0,L|52:228,1,104.06250396967,2|2,3:2|0:0,0:0:0:0:
124,332,57148,6,0,B|224:324|224:324|276:348|276:348|376:340,1,254.375007762909,6|2,3:2|0:2,0:2:0:0:
496,152,58325,6,0,P|396:232|308:164,1,254.375007762909,6|2,3:2|0:2,0:2:0:0:
164,0,59501,6,0,B|236:52|236:52|184:216,1,254.375007762909,6|0,3:2|0:2,0:2:0:0:
28,292,60677,6,0,B|136:252|116:344|228:312,1,203.500006210327,6|0,3:2|3:2,0:2:0:0:
360,184,61413,1,2,3:2:0:0:
308,352,61560,1,2,3:2:0:0:
224,208,61707,1,0,3:2:0:0:
392,304,61854,6,0,P|388:248|400:160,1,138.750005292893,6|0,3:2|0:2,0:2:0:0:
448,68,62295,2,0,P|400:72|360:64,1,69.3750026464463,2|0,3:2|0:2,0:2:0:0:
196,40,62589,1,10,0:2:0:0:
308,160,62736,1,2,0:2:0:0:
296,0,62883,1,2,0:2:0:0:
184,132,63030,6,0,B|160:216|160:216|192:276,1,138.750005292893,2|0,3:2|0:2,0:2:0:0:
272,336,63472,2,0,L|280:256,1,69.3750026464463,2|0,3:2|0:2,0:2:0:0:
320,136,63766,1,10,0:2:0:0:
400,264,63913,2,0,L|392:184,1,69.3750026464463,2|0,0:2|0:2,0:2:0:0:
264,60,64207,6,0,P|292:88|300:132,1,69.3750026464463,2|0,3:2|0:2,0:2:0:0:
176,192,64501,2,0,P|186:153|220:124,1,69.3750026464463,10|0,0:2|0:2,0:2:0:0:
380,80,64795,1,2,3:2:0:0:
276,224,64942,1,8,0:2:0:0:
244,36,65089,1,2,3:2:0:0:
368,200,65236,1,8,0:2:0:0:
160,88,65383,6,0,B|80:64|96:136|0:116,1,157.250002999306,6|0,3:2|3:2,0:2:0:0:
156,344,65825,1,8,0:2:0:0:
248,120,65972,1,0,3:2:0:0:
40,236,66119,1,10,3:2:0:0:
40,236,66192,1,8,3:2:0:0:
40,236,66266,2,0,L|92:240,3,39.3125007498264,10|8|8|8,3:2|3:2|3:2|3:2,0:2:0:0:
176,368,66560,6,0,B|184:296|184:296|168:256|168:256|180:180,1,185,6|0,3:2|3:2,0:2:0:0:
336,24,67001,2,0,L|344:124,1,92.5,10|0,0:2|0:2,0:2:0:0:
288,336,67295,1,2,3:2:0:0:
184,100,67442,1,2,3:2:0:0:
424,192,67589,1,8,0:2:0:0:
172,308,67736,6,0,P|116:324|32:228,1,185,2|0,3:2|3:2,0:2:0:0:
164,24,68177,2,0,P|160:84|168:124,1,92.5,10|0,0:2|0:2,0:2:0:0:
288,336,68472,1,2,3:2:0:0:
352,96,68619,1,2,3:2:0:0:
160,280,68766,1,8,0:2:0:0:
436,196,68913,6,0,L|336:188,1,92.5,2|0,3:2|0:2,0:2:0:0:
128,44,69207,2,0,L|228:36,1,92.5,2|8,3:2|0:2,0:2:0:0:
188,292,69501,2,0,P|172:240|180:204,1,92.5,2|0,0:2|3:2,0:2:0:0:
348,16,69795,1,2,3:2:0:0:
268,244,69942,1,8,0:2:0:0:
440,44,70089,6,0,L|432:144,1,92.5,2|0,3:2|0:2,0:2:0:0:
364,352,70383,1,2,3:2:0:0:
272,148,70530,2,0,P|224:136|176:148,1,92.5,8|0,0:2|0:2,0:2:0:0:
108,376,70825,1,2,3:2:0:0:
344,236,70972,1,2,3:2:0:0:
72,160,71119,1,10,0:2:0:0:
316,340,71266,6,0,P|372:340|408:320,1,92.5,6|0,3:2|0:2,0:2:0:0:
240,136,71560,2,0,P|212:184|211:225,1,92.5,2|8,3:2|0:2,0:2:0:0:
454,172,71854,2,0,P|425:123|390:102,1,92.5,2|0,0:2|3:2,0:2:0:0:
148,96,72148,1,2,3:2:0:0:
344,240,72295,1,8,0:2:0:0:
248,0,72442,6,0,L|240:104,1,92.5,2|0,3:2|0:2,0:2:0:0:
104,316,72736,2,0,L|96:212,1,92.5,2|8,3:2|0:2,0:2:0:0:
336,48,73030,2,0,L|328:152,1,92.5,2|0,0:2|3:2,0:2:0:0:
208,336,73325,1,2,3:2:0:0:
144,96,73472,1,8,0:2:0:0:
300,288,73619,1,2,3:2:0:0:
356,24,73766,5,12,0:2:0:0:
124,192,73913,1,0,3:2:0:0:
432,232,74060,5,8,0:2:0:0:
268,28,74207,1,0,3:2:0:0:
208,336,74354,5,8,0:2:0:0:
392,108,74501,1,0,3:2:0:0:
340,368,74648,5,10,0:2:0:0:
272,112,74795,1,0,3:2:0:0:
92,376,74942,5,14,0:2:0:0:
176,88,75089,1,2,3:2:0:0:
356,352,75236,5,8,0:2:0:0:
112,168,75383,1,2,3:2:0:0:
428,88,75530,5,8,0:2:0:0:
252,336,75677,1,2,3:2:0:0:
248,16,75825,5,8,0:2:0:0:
392,264,75972,1,2,3:2:0:0:
124,48,76119,6,0,L|132:148,1,92.5,12|0,3:2|3:2,0:2:0:0:
156,360,76413,1,0,3:2:0:0:
320,128,76560,2,0,P|264:116|216:136,1,92.5,8|0,3:2|0:2,0:2:0:0:
28,184,76854,1,8,3:2:0:0:
280,300,77001,2,0,L|272:200,1,92.5,8|0,3:2|0:2,0:2:0:0:
108,32,77295,5,14,3:2:0:0:
92,16,77883,2,0,B|116:48|116:48|92:136,1,110.999996612549,2|0,0:2|0:2,0:2:0:0:
16,212,78325,6,0,B|92:204|92:204|132:220|132:220|220:212,1,185,6|0,3:2|3:2,0:2:0:0:
364,320,78766,2,0,L|256:308,1,92.5,10|0,0:2|0:2,0:2:0:0:
340,96,79060,1,2,3:2:0:0:
384,300,79207,1,2,3:2:0:0:
456,88,79354,1,8,0:2:0:0:
232,184,79501,6,0,P|176:176|132:52,1,185,2|0,3:2|3:2,0:2:0:0:
325,6,79942,2,0,P|341:54|337:106,1,92.5,10|0,0:2|0:2,0:2:0:0:
284,288,80236,1,2,3:2:0:0:
216,88,80383,1,2,3:2:0:0:
144,288,80530,1,8,0:2:0:0:
328,116,80677,6,0,B|432:92|408:168|516:140,1,185,2|0,3:2|3:2,0:2:0:0:
372,332,81119,2,0,P|376:280|368:228,1,92.5,10|0,0:2|0:2,0:2:0:0:
152,136,81413,1,2,3:2:0:0:
268,320,81560,1,2,3:2:0:0:
328,116,81707,1,8,0:2:0:0:
164,296,81854,6,0,B|112:320|112:320|-16:288,1,185,0|2,3:2|3:2,0:2:0:0:
16,48,82295,1,10,0:2:0:0:
104,224,82442,1,0,0:2:0:0:
212,36,82589,1,2,3:2:0:0:
12,136,82736,1,2,3:2:0:0:
220,224,82883,1,8,0:2:0:0:
116,16,83030,6,0,B|108:96|108:96|124:128|124:128|116:208,1,185,6|2,3:2|3:2,0:2:0:0:
244,336,83472,2,0,L|236:236,1,92.5,10|0,0:2|0:2,0:2:0:0:
288,52,83766,1,2,3:2:0:0:
420,252,83913,2,0,P|364:268|312:252,1,92.5,2|8,3:2|0:2,0:2:0:0:
164,176,84207,5,2,3:2:0:0:
376,80,84354,2,0,L|368:180,1,92.5,2|0,0:2|3:2,0:2:0:0:
260,352,84648,1,10,0:2:0:0:
172,100,84795,2,0,L|180:200,1,92.5,2|0,0:2|3:2,0:2:0:0:
352,336,85089,1,2,3:2:0:0:
276,136,85236,1,10,0:2:0:0:
172,324,85383,1,4,3:2:0:0:
412,232,85530,6,0,P|364:244|308:224,1,92.5,2|0,0:2|3:2,0:2:0:0:
228,56,85825,2,0,P|276:44|332:60,1,92.5,10|0,0:2|0:2,0:2:0:0:
212,240,86119,1,2,3:2:0:0:
128,32,86266,2,0,L|140:136,1,92.5,2|8,3:2|0:2,0:2:0:0:
0,276,86560,6,0,B|104:260|68:332|184:316,1,185,2|2,3:2|3:2,0:2:0:0:
328,168,87001,1,10,0:2:0:0:
272,360,87148,1,2,0:2:0:0:
248,120,87295,1,2,3:2:0:0:
352,316,87442,1,2,3:2:0:0:
376,84,87589,1,10,0:2:0:0:
276,272,87736,1,2,3:2:0:0:
232,4,87883,5,14,0:2:0:0:
388,236,88030,1,0,3:2:0:0:
120,148,88177,1,0,3:2:0:0:
456,40,88325,5,14,0:2:0:0:
296,296,88472,1,0,3:2:0:0:
328,0,88619,1,0,3:2:0:0:
408,328,88766,5,14,0:2:0:0:
296,88,88913,1,0,3:2:0:0:
197,335,89060,2,0,B|158:352|121:329|121:329|109:341|109:341|73:320|22:341,1,185,14|0,0:2|0:0,0:2:0:0:
