osu file format v14

[General]
AudioFilename: audio.mp3
AudioLeadIn: 0
PreviewTime: 33764
Countdown: 0
SampleSet: Soft
StackLeniency: 0.7
Mode: 2
LetterboxInBreaks: 0
WidescreenStoryboard: 1

[Editor]
DistanceSpacing: 1
BeatDivisor: 4
GridSize: 32
TimelineZoom: 2.799999

[Metadata]
Title:Imagination (TV Size)
TitleUnicode:イマジネーション (TV Size)
Artist:SPYAIR
ArtistUnicode:SPYAIR
Creator:Secre
Version:Imagine
Source:ハイキュー!!
Tags:haikyu!! haikyuu!! volleyball first season opening op 1 one anime japanese j-rock jrock rock male vocals chickenbible dako
BeatmapID:2558470
BeatmapSetID:1230643

[Difficulty]
HPDrainRate:6
CircleSize:4.4
OverallDifficulty:9.4
ApproachRate:9.4
SliderMultiplier:2.05
SliderTickRate:2

[Events]
//Background and Video events
0,0,"yo that food lookin like it slaps tho.jpg",0,0
//Break Periods
//Storyboard Layer 0 (Background)
//Storyboard Layer 1 (Fail)
//Storyboard Layer 2 (Pass)
//Storyboard Layer 3 (Foreground)
//Storyboard Layer 4 (Overlay)
//Storyboard Sound Samples

[TimingPoints]
823,294.117647058824,4,2,1,55,1,0
5528,-100,4,2,1,80,0,0
12587,-100,4,2,1,80,0,0
14940,-100,4,2,1,65,0,0
15970,-83.3333333333333,4,2,1,65,0,0
16264,-100,4,2,1,65,0,0
35970,-100,4,2,1,80,0,1
37146,-80,4,2,1,80,0,1
37587,-100,4,2,1,80,0,1
41852,-80,4,2,1,80,0,1
42293,-100,4,2,1,80,0,1
56117,-100,4,2,1,65,0,0
66558,-100,4,2,1,80,0,1
74940,-100,4,2,1,80,0,0
77293,-100,4,2,1,80,0,0
77881,-100,4,2,1,70,0,0

[Colours]
Combo1 : 239,211,56
Combo2 : 255,51,66
Combo3 : 63,63,63

[HitObjects]
256,192,3175,12,0,5234,0:0:0:0:
356,194,5528,6,0,L|246:204,1,102.5,6|0,0:2|0:0,0:0:0:0:
97,159,5823,1,0,0:0:0:0:
251,118,5970,2,0,L|263:229,1,102.5
105,213,6264,2,0,L|227:209,1,102.5
446,249,6558,6,0,P|444:179|328:133,1,205
192,177,6999,2,0,L|178:74,1,102.5
338,90,7293,2,0,L|232:92,1,102.5
72,120,7587,2,0,L|179:122,1,102.5
441,163,7881,6,0,L|454:276,1,102.5,6|0,0:2|0:0,0:0:0:0:
302,237,8175,1,0,0:0:0:0:
440,166,8323,2,0,L|322:174,1,102.5
179,173,8617,2,0,L|314:173,1,102.5
67,250,8911,6,0,P|61:190|200:133,1,205
304,113,9352,2,0,L|312:232,1,102.5
152,242,9646,2,0,L|260:241,1,102.5
420,197,9940,2,0,L|299:201,1,102.5
62,205,10234,6,0,L|183:200,2,102.5,6|0|0,0:2|0:0|0:0,0:0:0:0:
218,133,10675,2,0,L|325:131,2,102.5
373,79,11117,2,0,L|475:80,1,102.5
231,130,11411,6,0,L|104:137,2,102.5,12|0|0,0:0|0:0|0:0,0:0:0:0:
395,157,11852,2,0,L|505:154,2,102.5
241,169,12293,1,0,0:0:0:0:
395,157,12440,1,0,0:0:0:0:
149,239,12587,6,0,L|137:119,1,102.5,6|0,0:2|0:0,0:0:0:0:
294,108,12881,1,0,0:0:0:0:
145,129,13028,2,0,L|36:133,1,102.5
198,197,13323,2,0,L|341:194,1,102.5
145,128,13617,1,0,0:0:0:0:
426,137,13764,5,8,0:0:0:0:
280,139,13911,1,8,0:3:0:0:
491,94,14058,1,8,0:0:0:0:
352,95,14205,1,0,0:0:0:0:
132,104,14352,1,8,0:3:0:0:
392,93,14499,1,8,0:3:0:0:
78,100,14646,2,0,P|27:137|96:181,1,153.75,8|0,0:0|0:0,0:0:0:0:
301,164,14940,6,0,L|419:164,1,102.5,12|0,0:0|0:0,0:0:0:0:
239,126,15234,1,8,0:2:0:0:
396,90,15381,2,0,L|403:214,1,102.5
159,244,15675,2,0,L|142:130,1,102.5,0|8,0:0|0:0,0:0:0:0:
403,206,15970,6,0,L|238:207,1,122.999996246338
497,124,16264,1,0,0:0:0:0:
385,168,16411,1,8,0:0:0:0:
497,124,16558,1,0,0:0:0:0:
148,228,16705,2,0,P|146:173|136:89,1,102.5
357,116,16999,1,8,0:0:0:0:
240,91,17146,1,0,0:0:0:0:
447,137,17293,6,0,L|455:246,1,102.5,2|0,0:2|0:0,0:0:0:0:
285,237,17587,1,8,0:0:0:0:
437,137,17734,2,0,L|332:141,1,102.5
114,152,18028,2,0,L|228:152,1,102.5,0|8,0:0|0:0,0:0:0:0:
482,248,18323,6,0,L|481:132,1,102.5
309,166,18617,1,0,0:0:0:0:
465,141,18764,1,8,0:0:0:0:
319,135,18911,1,0,0:0:0:0:
176,115,19058,1,0,0:0:0:0:
316,111,19205,1,0,0:0:0:0:
441,98,19352,1,8,0:0:0:0:
290,95,19499,1,0,0:0:0:0:
32,203,19646,6,0,L|156:204,2,102.5,8|8|8,0:3|0:3|0:0,0:0:0:0:
263,154,20087,2,0,L|399:150,2,102.5
21,117,20528,1,8,0:0:0:0:
173,139,20675,1,0,0:0:0:0:
21,226,20823,6,0,L|144:225,2,102.5,12|0|8,0:3|0:0|0:0,0:0:0:0:
254,162,21264,2,0,L|128:163,2,102.5,0|0|8,0:0|0:0|0:3,0:0:0:0:
484,102,21705,2,0,L|493:238,1,102.5,8|0,0:0|0:0,0:0:0:0:
208,214,21999,6,0,L|337:209,2,102.5,2|0|8,0:3|0:0|0:0,0:0:0:0:
474,157,22440,2,0,L|360:161,2,102.5
190,161,22881,2,0,L|73:168,1,102.5,8|8,0:0|0:3,0:0:0:0:
373,100,23175,6,0,L|388:234,1,102.5,8|0,0:3|0:0,0:0:0:0:
70,91,23470,2,0,L|55:225,1,102.5,8|0,0:0|0:0,0:0:0:0:
312,149,23764,1,2,0:0:0:0:
162,154,23911,1,8,0:2:0:0:
389,108,24058,1,8,0:2:0:0:
106,105,24205,1,8,0:2:0:0:
428,82,24352,5,12,0:3:0:0:
182,153,24646,1,2,0:0:0:0:
419,158,24793,1,8,0:3:0:0:
182,153,25087,2,0,L|291:151,2,102.5,0|8|0,0:0|0:0|0:0,0:0:0:0:
435,96,25528,6,0,L|441:210,1,102.5
62,102,25970,2,0,L|53:221,1,102.5,0|8,0:0|0:0,0:0:0:0:
435,96,26411,2,0,L|441:210,1,102.5
139,170,26705,5,6,0:2:0:0:
390,215,26999,2,0,L|146:247,2,205,0|0|8,0:0|0:0|0:0,0:0:0:0:
124,268,27881,6,0,L|115:37,1,205,0|8,0:0|0:3,0:0:0:0:
381,73,28470,2,0,P|488:159|369:253,1,307.5,8|0,0:0|0:0,0:0:0:0:
82,106,29058,5,6,0:2:0:0:
330,153,29352,1,0,0:0:0:0:
79,153,29499,1,8,0:3:0:0:
330,153,29793,2,0,L|221:151,2,102.5,0|8|0,0:0|0:0|0:0,0:0:0:0:
77,96,30234,6,0,L|71:210,1,102.5
450,102,30675,2,0,L|459:221,1,102.5,0|8,0:0|0:0,0:0:0:0:
77,96,31117,2,0,L|71:210,1,102.5
329,193,31411,6,0,L|200:192,1,102.5,6|0,0:2|0:0,0:0:0:0:
475,113,31705,1,2,0:0:0:0:
319,125,31852,1,8,0:3:0:0:
475,113,31999,1,2,0:0:0:0:
162,138,32146,1,2,0:0:0:0:
472,171,32293,2,0,L|346:176,1,102.5,8|0,0:0|0:0,0:0:0:0:
125,208,32587,5,2,0:0:0:0:
272,189,32734,1,2,0:0:0:0:
66,153,32881,1,8,0:3:0:0:
298,136,33028,1,8,0:3:0:0:
37,194,33175,5,8,0:0:0:0:
330,169,33323,1,8,0:0:0:0:
113,91,33470,1,8,0:0:0:0:
416,89,33617,1,8,0:0:0:0:
112,281,33764,6,0,P|98:207|463:268,1,717.5,4|0,0:0|0:0,0:0:0:0:
112,281,34940,5,8,0:0:0:0:
463,265,35087,1,8,0:0:0:0:
101,280,35234,2,0,L|92:150,1,102.5,8|0,0:0|0:0,0:0:0:0:
194,171,35528,1,0,0:0:0:0:
400,233,35675,2,0,P|451:186|391:148,1,153.75
78,282,35970,6,0,P|21:236|100:172,1,205,4|8,0:2|0:3,0:0:0:0:
353,187,36411,2,0,L|461:185,1,102.5,8|0,0:0|0:0,0:0:0:0:
175,159,36705,1,8,0:3:0:0:
322,140,36852,1,8,0:3:0:0:
175,159,36999,1,8,0:0:0:0:
430,146,37146,6,0,L|165:159,1,256.25,2|8,0:0|0:3,0:0:0:0:
438,96,37587,2,0,L|446:233,1,102.5,8|0,0:0|0:0,0:0:0:0:
151,185,37881,1,8,0:3:0:0:
282,137,38028,1,8,0:3:0:0:
409,102,38175,1,8,0:2:0:0:
50,247,38323,6,0,L|33:120,1,102.5,2|0,0:0|0:0,0:0:0:0:
256,86,38617,2,0,L|260:216,1,102.5,8|8,0:3|0:2,0:0:0:0:
462,247,38911,2,0,L|479:120,1,102.5,2|8,0:0|0:3,0:0:0:0:
146,223,39205,2,0,L|129:96,1,102.5,8|8,0:3|0:0,0:0:0:0:
423,147,39499,6,0,L|275:153,1,102.5,8|0,0:3|0:0,0:0:0:0:
47,163,39793,1,8,0:3:0:0:
192,140,39940,1,8,0:0:0:0:
47,163,40087,1,0,0:0:0:0:
366,172,40234,1,8,0:3:0:0:
141,126,40381,1,8,0:3:0:0:
371,113,40528,1,8,0:2:0:0:
165,222,40675,6,0,P|106:177|204:101,1,205,4|8,0:2|0:3,0:0:0:0:
438,98,41117,2,0,L|448:232,1,102.5,8|0,0:0|0:0,0:0:0:0:
163,221,41411,1,8,0:3:0:0:
388,189,41558,1,8,0:3:0:0:
163,221,41705,1,8,0:0:0:0:
463,166,41852,6,0,L|184:174,1,256.25,8|8,0:3|0:3,0:0:0:0:
472,87,42293,2,0,L|481:219,1,102.5,8|0,0:0|0:0,0:0:0:0:
241,201,42587,1,8,0:3:0:0:
393,114,42734,2,0,L|405:225,1,102.5,8|8,0:3|0:0,0:0:0:0:
107,276,43028,6,0,P|56:219|122:196,1,153.75,8|0,0:3|0:0,0:0:0:0:
269,178,43323,1,8,0:3:0:0:
161,196,43470,1,8,0:0:0:0:
405,276,43617,2,0,P|454:222|383:198,1,153.75
254,163,43911,1,8,0:3:0:0:
352,218,44058,1,8,0:0:0:0:
116,244,44205,6,0,P|64:196|138:177,1,153.75,8|0,0:3|0:0,0:0:0:0:
392,149,44499,1,0,0:2:0:0:
264,101,44646,1,8,0:0:0:0:
392,149,44793,1,0,0:2:0:0:
138,173,44940,6,0,L|212:172,1,51.25,8|0,0:0|0:0,0:0:0:0:
405,129,45087,2,0,L|475:130,1,51.25,8|0,0:2|0:0,0:0:0:0:
237,107,45234,2,0,L|163:107,1,51.25,8|0,0:0|0:0,0:0:0:0:
418,248,45381,6,0,P|475:218|386:138,1,205,4|8,0:2|0:3,0:0:0:0:
160,234,45823,2,0,L|144:114,1,102.5,8|0,0:0|0:0,0:0:0:0:
421,137,46117,1,8,0:3:0:0:
254,186,46264,2,0,L|361:189,1,102.5,8|8,0:3|0:0,0:0:0:0:
71,222,46558,6,0,L|201:226,2,102.5,8|0|8,0:3|0:0|0:3,0:0:0:0:
337,161,46999,2,0,L|453:162,1,102.5,8|0,0:0|0:0,0:0:0:0:
142,157,47293,1,8,0:3:0:0:
277,106,47440,1,8,0:3:0:0:
410,80,47587,1,8,0:0:0:0:
110,266,47734,6,0,P|60:227|141:182,1,153.75,8|0,0:3|0:0,0:0:0:0:
242,147,48028,1,8,0:3:0:0:
106,162,48175,1,8,0:0:0:0:
242,147,48323,1,2,0:0:0:0:
26,232,48470,1,8,0:3:0:0:
171,227,48617,1,8,0:3:0:0:
19,230,48764,1,8,0:0:0:0:
302,146,48911,6,0,P|371:194|286:263,1,205,8|8,0:3|0:3,0:0:0:0:
55,260,49352,2,0,L|48:142,1,102.5,8|0,0:0|0:0,0:0:0:0:
355,171,49646,2,0,L|262:172,1,51.25,8|0,0:3|0:0,0:0:0:0:
60,136,49793,2,0,L|111:134,1,51.25,8|0,0:3|0:0,0:0:0:0:
355,171,49940,2,0,L|428:170,1,51.25,8|0,0:0|0:0,0:0:0:0:
114,266,50087,6,0,L|96:140,1,102.5,12|0,0:2|0:0,0:0:0:0:
385,215,50381,1,8,0:3:0:0:
257,240,50528,1,8,0:0:0:0:
385,215,50675,1,2,0:0:0:0:
142,178,50823,1,8,0:3:0:0:
378,149,50970,1,8,0:3:0:0:
142,178,51117,1,8,0:0:0:0:
396,259,51264,6,0,L|409:131,1,102.5,8|0,0:3|0:0,0:0:0:0:
171,155,51558,1,8,0:3:0:0:
323,151,51705,1,8,0:0:0:0:
171,155,51852,1,2,0:0:0:0:
426,182,51999,1,8,0:3:0:0:
171,155,52146,1,8,0:3:0:0:
426,182,52293,2,0,L|435:71,1,102.5,8|8,0:0|0:3,0:0:0:0:
121,188,52587,5,8,0:0:0:0:
261,180,52734,1,8,0:3:0:0:
31,243,52881,2,0,L|24:136,1,102.5,8|8,0:0|0:3,0:0:0:0:
324,171,53175,1,8,0:0:0:0:
184,163,53323,1,8,0:3:0:0:
414,226,53470,2,0,L|421:119,1,102.5,8|8,0:0|0:3,0:0:0:0:
109,150,53764,5,8,0:0:0:0:
252,135,53911,1,2,0:0:0:0:
109,150,54058,1,8,0:0:0:0:
252,135,54205,1,8,0:3:0:0:
474,152,54352,1,8,0:0:0:0:
242,184,54499,1,8,0:3:0:0:
474,152,54646,1,8,0:0:0:0:
242,184,54793,1,8,0:3:0:0:
474,152,54940,6,0,L|359:153,1,102.5,12|0,0:0|0:3,0:0:0:0:
105,148,55234,1,8,0:0:0:0:
413,153,55381,1,8,0:0:0:0:
260,153,55528,1,2,0:0:0:0:
413,153,55675,1,8,0:0:0:0:
80,248,55823,2,0,L|71:132,1,102.5,8|0,0:0|0:0,0:0:0:0:
408,98,56117,5,12,0:0:0:0:
145,172,56705,1,12,0:3:0:0:
411,150,56852,1,2,0:0:0:0:
24,281,57146,6,0,P|24:213|145:162,1,205,4|0,0:0|0:0,0:0:0:0:
294,128,57587,2,0,L|302:237,1,102.5,2|0,0:0|0:0,0:0:0:0:
151,197,57881,1,0,0:0:0:0:
296,128,58028,2,0,L|415:130,1,102.5
121,262,58323,6,0,P|58:218|148:149,1,205,4|0,0:2|0:0,0:0:0:0:
286,115,58764,2,0,L|297:224,1,102.5,2|0,0:0|0:0,0:0:0:0:
146,216,59058,1,0,0:0:0:0:
296,234,59205,1,0,0:0:0:0:
146,216,59352,1,0,0:0:0:0:
428,95,59499,6,0,L|435:197,1,102.5,4|0,0:0|0:0,0:0:0:0:
276,201,59793,2,0,L|268:91,1,102.5
106,183,60087,2,0,L|93:68,1,102.5
256,83,60381,2,0,L|374:83,1,102.5
106,240,60675,6,0,P|49:199|137:122,1,205,4|0,0:2|0:0,0:0:0:0:
229,134,61117,1,0,0:0:0:0:
368,123,61264,1,8,0:3:0:0:
229,134,61411,1,8,0:3:0:0:
95,144,61558,1,8,0:3:0:0:
229,134,61705,1,8,0:3:0:0:
479,206,61852,6,0,L|346:206,2,102.5,4|0|0,0:2|0:0|0:0,0:0:0:0:
314,140,62293,2,0,L|206:142,1,102.5,8|0,0:3|0:0,0:0:0:0:
487,132,62587,1,8,0:0:0:0:
336,149,62734,1,2,0:0:0:0:
487,132,62881,1,2,0:0:0:0:
231,239,63028,6,0,P|223:172|366:127,1,205,4|0,0:0|0:0,0:0:0:0:
173,129,63470,2,0,L|64:130,1,102.5,8|0,0:3|0:0,0:0:0:0:
232,178,63764,2,0,L|117:177,2,102.5,8|2|2,0:0|0:0|0:0,0:0:0:0:
478,111,64205,6,0,L|489:220,1,102.5,8|0,0:3|0:0,0:0:0:0:
336,211,64499,2,0,L|458:207,1,102.5,8|0,0:0|0:0,0:0:0:0:
190,190,64793,2,0,L|180:88,1,102.5,8|8,0:3|0:0,0:0:0:0:
329,83,65087,1,8,0:3:0:0:
179,87,65234,1,8,0:0:0:0:
445,247,65381,6,0,P|496:216|422:128,1,205,4|8,0:0|0:3,0:0:0:0:
151,219,65823,2,0,L|139:108,1,102.5,8|8,0:0|0:3,0:0:0:0:
408,121,66117,2,0,L|322:120,1,51.25,8|8,0:0|0:0,0:0:0:0:
119,133,66264,2,0,L|208:127,1,51.25,8|8,0:0|0:0,0:0:0:0:
446,88,66411,2,0,L|379:90,1,51.25,8|8,0:0|0:0,0:0:0:0:
138,237,66558,6,0,P|78:180|173:122,1,205,4|8,0:0|0:3,0:0:0:0:
379,232,66999,2,0,L|383:112,1,102.5,8|0,0:0|0:0,0:0:0:0:
112,143,67293,1,8,0:3:0:0:
249,186,67440,2,0,L|142:189,1,102.5,8|8,0:3|0:0,0:0:0:0:
441,222,67734,6,0,L|311:226,2,102.5,12|0|8,0:3|0:0|0:3,0:0:0:0:
175,161,68175,2,0,L|59:162,1,102.5,8|0,0:0|0:0,0:0:0:0:
398,150,68470,1,8,0:3:0:0:
242,109,68617,1,8,0:3:0:0:
89,80,68764,1,8,0:0:0:0:
402,266,68911,6,0,P|452:227|371:182,1,153.75,4|0,0:0|0:0,0:0:0:0:
266,167,69205,1,8,0:3:0:0:
407,164,69352,1,8,0:0:0:0:
266,167,69499,1,2,0:0:0:0:
486,232,69646,1,8,0:3:0:0:
353,229,69793,1,8,0:3:0:0:
486,232,69940,1,8,0:0:0:0:
210,146,70087,6,0,P|141:194|226:263,1,205,8|8,0:3|0:3,0:0:0:0:
457,260,70528,2,0,L|464:142,1,102.5,8|0,0:0|0:0,0:0:0:0:
167,164,70823,2,0,L|260:165,1,51.25,8|0,0:3|0:0,0:0:0:0:
461,136,70970,2,0,L|410:134,1,51.25,8|0,0:3|0:0,0:0:0:0:
167,164,71117,2,0,L|94:163,1,51.25,8|0,0:0|0:0,0:0:0:0:
398,266,71264,6,0,L|416:140,1,102.5,4|0,0:0|0:0,0:0:0:0:
165,164,71558,1,8,0:3:0:0:
313,187,71705,1,8,0:0:0:0:
165,164,71852,1,2,0:0:0:0:
412,139,71999,1,8,0:3:0:0:
165,164,72146,1,8,0:3:0:0:
412,139,72293,1,8,0:0:0:0:
116,259,72440,6,0,L|103:131,1,102.5,12|0,0:3|0:0,0:0:0:0:
335,157,72734,1,8,0:3:0:0:
201,153,72881,1,8,0:0:0:0:
335,157,73028,1,2,0:0:0:0:
78,146,73175,5,8,0:3:0:0:
335,157,73323,1,8,0:3:0:0:
78,146,73470,2,0,L|67:23,1,102.5,8|8,0:0|0:3,0:0:0:0:
391,188,73764,5,12,0:0:0:0:
262,181,73911,1,8,0:3:0:0:
481,243,74058,2,0,L|488:136,1,102.5,8|8,0:0|0:3,0:0:0:0:
188,171,74352,1,8,0:0:0:0:
328,163,74499,1,8,0:3:0:0:
98,226,74646,2,0,L|91:119,1,102.5,8|8,0:0|0:3,0:0:0:0:
403,150,74940,5,12,0:0:0:0:
260,135,75087,1,2,0:0:0:0:
403,150,75234,1,8,0:0:0:0:
260,135,75381,1,8,0:3:0:0:
38,152,75528,1,8,0:0:0:0:
270,184,75675,1,8,0:3:0:0:
38,152,75823,1,8,0:0:0:0:
270,184,75970,1,8,0:3:0:0:
38,152,76117,6,0,L|153:153,1,102.5,8|8,0:0|0:3,0:0:0:0:
407,148,76411,1,8,0:3:0:0:
99,153,76558,1,8,0:0:0:0:
252,153,76705,1,0,0:0:0:0:
99,153,76852,1,8,0:0:0:0:
432,248,76999,2,0,L|441:132,1,102.5,8|0,0:0|0:0,0:0:0:0:
104,98,77293,6,0,P|33:147|122:197,1,205,12|0,0:0|0:0,0:0:0:0:
490,173,77881,2,0,L|366:176,2,102.5,2|2|2,0:0|0:0|0:0,0:0:0:0:
202,250,78323,6,0,L|416:253,1,205,12|0,0:3|0:2,0:0:0:0:
143,195,78764,2,0,L|129:72,1,102.5,8|0,0:0|0:0,0:0:0:0:
371,106,79058,2,0,L|264:105,2,102.5,8|8|8,0:3|0:3|0:0,0:0:0:0:
124,222,79499,6,0,L|347:214,1,205,8|8,0:3|0:3,0:0:0:0:
50,275,79940,2,0,L|28:127,1,102.5,8|0,0:0|0:0,0:0:0:0:
319,136,80234,1,8,0:3:0:0:
175,124,80381,1,8,0:3:0:0:
27,121,80528,1,8,0:0:0:0:
281,193,80675,6,0,B|459:189|459:189|463:157,1,205,8|8,0:3|0:3,0:0:0:0:
206,212,81117,2,0,L|201:94,1,102.5,8|0,0:0|0:0,0:0:0:0:
458,128,81411,2,0,L|350:128,2,102.5,8|8|8,0:3|0:3|0:0,0:0:0:0:
209,207,81852,6,0,L|430:207,1,205,8|8,0:3|0:3,0:0:0:0:
138,255,82293,2,0,L|127:117,1,102.5,8|0,0:0|0:0,0:0:0:0:
374,133,82587,1,8,0:3:0:0:
225,139,82734,1,8,0:3:0:0:
374,133,82881,1,8,0:0:0:0:
78,231,83028,6,0,P|22:178|115:113,1,205,4|8,0:0|0:3,0:0:0:0:
324,96,83470,2,0,L|333:222,1,102.5,8|0,0:0|0:0,0:0:0:0:
64,211,83764,1,8,0:3:0:0:
210,187,83911,1,8,0:3:0:0:
64,211,84058,1,8,0:0:0:0:
210,187,84205,1,8,0:3:0:0:
448,211,84352,5,2,0:0:0:0:
302,187,84499,1,8,0:3:0:0:
448,211,84646,1,8,0:0:0:0:
302,187,84793,1,2,0:0:0:0:
21,164,84940,1,8,0:3:0:0:
253,132,85087,1,8,0:3:0:0:
487,114,85234,1,8,0:0:0:0:
163,228,85381,6,0,P|164:162|290:107,1,205,4|8,0:2|0:3,0:0:0:0:
487,114,85823,2,0,L|494:233,1,102.5,8|0,0:0|0:0,0:0:0:0:
212,177,86117,1,8,0:3:0:0:
462,135,86264,2,0,L|326:136,1,102.5,8|8,0:3|0:0,0:0:0:0:
95,247,86558,6,0,L|323:235,1,205,12|8,0:3|0:3,0:0:0:0:
61,283,86999,2,0,L|42:162,1,102.5,8|2,0:0|0:0,0:0:0:0:
369,155,87293,1,8,0:3:0:0:
114,198,87440,1,8,0:3:0:0:
369,155,87587,1,8,0:0:0:0:
114,198,87734,1,8,0:3:0:0:
479,201,87881,6,0,L|365:205,1,102.5,8|8,0:0|0:3,0:0:0:0:
111,173,88175,1,8,0:3:0:0:
358,201,88323,2,0,L|466:196,1,102.5,8|8,0:0|0:3,0:0:0:0:
111,173,88617,1,8,0:3:0:0:
421,104,88764,2,0,L|431:222,1,102.5,8|8,0:0|0:3,0:0:0:0:
71,197,89058,5,12,0:0:0:0:
