osu file format v14

[General]
AudioFilename: audio.mp3
AudioLeadIn: 0
PreviewTime: 35519
Countdown: 0
SampleSet: Soft
StackLeniency: 0.7
Mode: 3
LetterboxInBreaks: 0
SpecialStyle: 0
WidescreenStoryboard: 1

[Editor]
DistanceSpacing: 1.2
BeatDivisor: 4
GridSize: 4
TimelineZoom: 1.9

[Metadata]
Title:Imagination (TV Size)
TitleUnicode:イマジネーション (TV Size)
Artist:SPYAIR
ArtistUnicode:SPYAIR
Creator:Mirsaaa
Version:Hard // 1st Tempo
Source:ハイキュー!!
Tags:Japanese Anime アニメ Rock Jrock J-rock Haikyu!! Haikyuu!! Haikyuu Haikyu Guitar Electric Keysound Male Vocal High Kyuu!! Kyuu HQ!! HQ Opening OP 1 One Kōtarō Bokuto Kotaro Koutarou 木兎 光太郎 Tetsurō Kuroo Tetsuro Tetsurou 黒尾 鉄朗 AICL-2672 UZ MOMIKEN Volleyball Barēbōru Bareboru Bareibouru バレーボール [AyanoTatemaya] HinagikuKatsura
BeatmapID:4081112
BeatmapSetID:1967567

[Difficulty]
HPDrainRate:8
CircleSize:4
OverallDifficulty:8
ApproachRate:5
SliderMultiplier:1.4
SliderTickRate:1

[Events]
//Background and Video events
0,0,"BEGEH.jpg",0,0
//Break Periods
//Storyboard Layer 0 (Background)
//Storyboard Layer 1 (Fail)
//Storyboard Layer 2 (Pass)
//Storyboard Layer 3 (Foreground)
//Storyboard Layer 4 (Overlay)
//Storyboard Sound Samples
Sample,31990,0,"SCG_C#5.wav",80
Sample,32726,0,"4-9.wav",80
Sample,32873,0,"4-9.wav",80
Sample,33020,0,"4-9.wav",80
Sample,34932,0,"5-12.wav",60
Sample,34932,0,"3-9.wav",60
Sample,35079,0,"5-12.wav",60
Sample,35079,0,"3-9.wav",60
Sample,35226,0,"5-12.wav",60
Sample,36696,0,"4-13^6-16s.wav",50
Sample,36990,0,"4-13^6-16s.wav",50
Sample,37873,0,"4-14.wav",50
Sample,38167,0,"4-14.wav",50
Sample,38461,0,"4-16.wav",50
Sample,38755,0,"4-16.wav",50
Sample,38755,0,"Hat open.wav",50
Sample,39049,0,"4-16.wav",50
Sample,39049,0,"Hat open.wav",50
Sample,39343,0,"4-16.wav",50
Sample,39343,0,"Hat open.wav",50
Sample,39638,0,"4-13^6-16s.wav",50
Sample,39932,0,"4-13^6-16s.wav",50
Sample,40226,0,"4-13^6-16s.wav",50
Sample,41402,0,"4-9.wav",50
Sample,41696,0,"4-9.wav",50
Sample,42579,0,"4-8s.wav",50
Sample,42873,0,"4-8s.wav",50
Sample,43167,0,"4-6.wav",50
Sample,43461,0,"4-6.wav",50
Sample,43461,0,"Hat open.wav",50
Sample,43755,0,"4-6.wav",50
Sample,43755,0,"Hat open.wav",50
Sample,44049,0,"4-6.wav",50
Sample,44049,0,"Hat open.wav",50
Sample,44343,0,"4-4.wav",50
Sample,44638,0,"4-4.wav",50
Sample,46108,0,"4-13^6-16s.wav",50
Sample,46402,0,"4-13^6-16s.wav",50
Sample,47285,0,"4-14.wav",50
Sample,47579,0,"4-14.wav",50
Sample,47873,0,"4-16.wav",50
Sample,48167,0,"4-16.wav",50
Sample,48167,0,"Hat open.wav",50
Sample,48461,0,"4-16.wav",50
Sample,48461,0,"Hat open.wav",50
Sample,48755,0,"4-16.wav",50
Sample,48755,0,"Hat open.wav",50
Sample,49049,0,"4-13^6-16s.wav",50
Sample,49343,0,"4-13^6-16s.wav",50
Sample,49638,0,"4-13^6-16s.wav",50
Sample,50520,0,"4-9.wav",50
Sample,50814,0,"4-9.wav",50
Sample,51108,0,"4-9.wav",50
Sample,51696,0,"4-8s.wav",50
Sample,51990,0,"4-8s.wav",50
Sample,52726,0,"4-9.wav",50
Sample,52873,0,"4-9.wav",50
Sample,53020,0,"4-9.wav",50
Sample,53167,0,"4-11.wav",60
Sample,53314,0,"4-11.wav",60
Sample,53461,0,"4-11.wav",60
Sample,53608,0,"4-11.wav",60
Sample,54049,0,"4-12.wav",70
Sample,54196,0,"4-12.wav",70
Sample,54343,0,"4-14.wav",60
Sample,54490,0,"4-14.wav",60
Sample,54638,0,"4-14.wav",60
Sample,54785,0,"4-14.wav",60
Sample,67285,0,"4-13^6-16s.wav",50
Sample,67579,0,"4-13^6-16s.wav",50
Sample,68461,0,"4-14.wav",50
Sample,68755,0,"4-14.wav",50
Sample,69049,0,"4-16.wav",50
Sample,69343,0,"4-16.wav",50
Sample,69343,0,"Hat open.wav",50
Sample,69638,0,"4-16.wav",50
Sample,69638,0,"Hat open.wav",50
Sample,69932,0,"4-16.wav",50
Sample,69932,0,"Hat open.wav",50
Sample,70226,0,"4-13^6-16s.wav",50
Sample,70520,0,"4-13^6-16s.wav",50
Sample,70814,0,"4-13^6-16s.wav",50
Sample,71696,0,"4-9.wav",50
Sample,71990,0,"4-9.wav",50
Sample,72285,0,"4-9.wav",50
Sample,72873,0,"4-8s.wav",50
Sample,73167,0,"4-8s.wav",50
Sample,73902,0,"4-9.wav",60
Sample,74049,0,"4-9.wav",60
Sample,74196,0,"4-9.wav",60
Sample,74343,0,"4-11.wav",60
Sample,74490,0,"4-11.wav",60
Sample,74638,0,"4-11.wav",60
Sample,74785,0,"4-11.wav",60
Sample,75226,0,"4-12.wav",70
Sample,75373,0,"4-12.wav",70
Sample,75520,0,"4-14.wav",60
Sample,75667,0,"4-14.wav",60
Sample,75814,0,"4-14.wav",60
Sample,75961,0,"4-14.wav",60
Sample,77873,0,"SCG_D#5s.wav",100
Sample,78020,0,"SCG_D#5s.wav",100
Sample,78755,0,"SCG_G5s.wav",100
Sample,78755,0,"4-13^6-16s.wav",80
Sample,79049,0,"SCG_D#5s.wav",100
Sample,79049,0,"4-9s.wav",80
Sample,79196,0,"SCG_D#5s.wav",100
Sample,79343,0,"4-9.wav",80
Sample,79490,0,"SCG_F5s.wav",100
Sample,79638,0,"4-11.wav",80
Sample,79932,0,"SCG_A#5s.wav",100
Sample,79932,0,"4-16.wav",80
Sample,80226,0,"SCG_G#5s.wav",100
Sample,80226,0,"5-10~5-9.wav",80
Sample,80373,0,"SCG_G5s.wav",100
Sample,80520,0,"SCG_F5s.wav",100
Sample,80520,0,"4-11.wav",80
Sample,80667,0,"SCG_G5s.wav",100
Sample,80814,0,"5-9s.wav",80
Sample,80961,0,"SCG_G5s.wav",100
Sample,81108,0,"SCG_F5s.wav",100
Sample,81108,0,"4-11.wav",80
Sample,81402,0,"SCG_D#5s.wav",100
Sample,81402,0,"4-9.wav",80
Sample,81549,0,"SCG_D5s.wav",100
Sample,81696,0,"SCG_F5s.wav",100
Sample,81696,0,"4-11.wav",80
Sample,81843,0,"SCG_A#4.wav",100
Sample,81990,0,"4-4.wav",60
Sample,82138,0,"SCG_D#5s.wav",100
Sample,82285,0,"SCG_D5s.wav",100
Sample,82285,0,"4-8s.wav",80
Sample,82432,0,"SCG_D5s.wav",100
Sample,82579,0,"SCG_C5s.wav",100
Sample,82579,0,"4-6.wav",80
Sample,82726,0,"SCG_D5s.wav",100
Sample,83020,0,"SCG_D#5s.wav",100
Sample,83314,0,"SCG_G4s.wav",100
Sample,83461,0,"SCG_G#4s.wav",100
Sample,83461,0,"3-7s.wav",80
Sample,83608,0,"SCG_G#4s.wav",100
Sample,83755,0,"SCG_A#4.wav",100
Sample,83755,0,"3-7s.wav",80
Sample,84049,0,"3-9.wav",80
Sample,84196,0,"SCG_C5s.wav",100
Sample,84343,0,"3-11.wav",80
Sample,84638,0,"3-11.wav",80
Sample,84785,0,"SCG_D5s.wav",100
Sample,84932,0,"3-13s.wav",80
Sample,85079,0,"SCG_D#5s.wav",100
Sample,85226,0,"3-14.wav",80
Sample,85814,0,"SCG_D#6s.wav",100
Sample,85814,0,"6-12s.wav",80
Sample,86108,0,"SCG_D6s.wav",100
Sample,86108,0,"6-11s.wav",70
Sample,86255,0,"SCG_A#5s.wav",100
Sample,86549,0,"SCG_G5s.wav",100
Sample,86843,0,"SCG_F5s.wav",100
Sample,86990,0,"5-9s.wav",80
Sample,86990,0,"SCG_G5s.wav",100
Sample,87138,0,"SCG_A#5s.wav",100
Sample,87285,0,"6-12s.wav",70
Sample,87285,0,"SCG_D#6s.wav",100
Sample,87432,0,"SCG_A#5s.wav",100
Sample,87579,0,"6-12s.wav",70
Sample,87579,0,"SCG_D#6s.wav",100
Sample,87726,0,"SCG_D#6s.wav",100

[TimingPoints]
-362,294.117647058824,4,2,1,50,1,0
35961,-100,4,2,1,50,0,1
56108,-100,4,2,1,50,0,0
66549,-100,4,2,1,50,0,1
77285,-100,4,2,1,50,0,0

[HitObjects]
448,192,667,5,0,0:0:0:0:
192,192,814,1,0,0:0:0:0:
64,192,1108,1,0,0:0:0:0:
192,192,1402,1,0,0:0:0:0:
448,192,1549,1,0,0:0:0:0:
192,192,1696,1,0,0:0:0:0:
320,192,1843,1,0,0:0:0:0:
448,192,2138,1,0,0:0:0:0:
64,192,2285,1,0,0:0:0:0:
320,192,2579,1,0,0:0:0:0:
192,192,2726,1,0,0:0:0:0:
320,192,2873,1,0,0:0:0:0:
64,192,3020,1,0,0:0:0:0:
192,192,3167,1,0,0:0:0:0:
448,192,3461,1,0,0:0:0:0:
320,192,3755,1,0,0:0:0:0:
64,192,4049,1,0,0:0:0:0:
448,192,4196,1,0,0:0:0:0:
320,192,4490,1,0,0:0:0:0:
192,192,4638,1,0,0:0:0:0:
64,192,4932,1,0,0:0:0:0:
320,192,5226,1,0,0:0:0:0:
64,192,5520,1,6,0:0:0:0:
192,192,5520,1,0,0:0:0:100:SCG_C#5.wav
448,192,5520,128,0,7873:0:0:0:100:SCG_F#5.wav
320,192,5814,1,0,0:0:0:0:
64,192,5961,1,0,0:0:0:0:
192,192,6255,1,0,0:0:0:0:
320,192,6402,1,0,0:0:0:0:
64,192,6549,1,0,0:0:0:0:
320,192,6990,1,0,0:0:0:0:
192,192,7285,1,0,0:0:0:0:
320,192,7579,1,0,0:0:0:0:
64,192,7873,1,6,0:0:0:0:
192,192,7873,128,0,10226:0:0:0:100:SCG_C#5.wav
320,192,7873,1,0,0:0:0:100:SCG_F5.wav
64,192,8167,1,0,0:0:0:0:
448,192,8314,1,0,0:0:0:0:
320,192,8608,1,0,0:0:0:0:
64,192,8755,1,0,0:0:0:0:
448,192,8902,1,0,0:0:0:0:
64,192,9343,1,0,0:0:0:0:
320,192,9638,1,0,0:0:0:0:
448,192,9932,1,0,0:0:0:0:
64,192,10226,1,6,0:0:0:0:
320,192,10226,128,0,11402:0:0:0:100:SCG_D#5.wav
448,192,10226,1,0,0:0:0:100:SCG_F#5.wav
192,192,10520,1,0,0:0:0:0:
448,192,10667,1,0,0:0:0:0:
192,192,11108,1,0,0:0:0:0:
64,192,11402,128,6,12579:0:0:0:0:
192,192,11402,1,0,0:0:0:100:SCG_C#5.wav
448,192,11402,1,0,0:0:0:100:SCG_F5.wav
320,192,11696,1,0,0:0:0:0:
192,192,11843,1,0,0:0:0:0:
192,192,12285,1,0,0:0:0:0:
448,192,12432,1,0,0:0:0:0:
192,192,12579,128,6,13755:0:0:0:0:
320,192,12579,1,0,0:0:0:100:SCG_F#4.wav
448,192,12579,1,0,0:0:0:100:SCG_D#5.wav
64,192,12873,1,0,0:0:0:0:
320,192,13020,1,0,0:0:0:0:
448,192,13314,1,0,0:0:0:0:
320,192,13461,1,0,0:0:0:0:
64,192,13608,1,0,0:0:0:100:SCG_F#5.wav
320,192,13755,1,8,0:0:0:0:
448,192,13755,1,4,0:0:0:0:
64,192,13902,1,2,0:0:0:0:
192,192,13902,1,0,0:0:0:0:
320,192,14049,1,8,0:0:0:0:
448,192,14049,1,4,0:0:0:0:
64,192,14343,1,2,0:0:0:0:
192,192,14343,1,0,0:0:0:50:Tom1.wav
192,192,14490,1,2,0:0:0:0:
320,192,14490,1,0,0:0:0:50:Tom2.wav
320,192,14638,1,8,0:0:0:0:
448,192,14638,1,0,0:0:0:0:
64,192,14932,1,2,0:0:0:0:
192,192,14932,1,4,0:0:0:0:
448,192,14932,1,0,0:0:0:0:
320,192,15226,1,8,0:0:0:0:
448,192,15226,1,0,0:0:0:0:
64,192,15373,1,0,0:0:0:20:soft-hitclap.wav
192,192,15520,1,0,0:0:0:20:soft-hitclap.wav
320,192,15667,1,0,0:0:0:20:soft-hitclap.wav
64,192,15814,1,8,0:0:0:0:
192,192,15814,1,0,0:0:0:0:
448,192,15961,1,0,0:0:0:20:soft-hitclap.wav
320,192,16108,1,0,0:0:0:20:soft-hitclap.wav
192,192,16255,1,0,0:0:0:20:soft-hitclap.wav
64,192,16402,1,8,0:0:0:0:
448,192,16402,1,0,0:0:0:0:
320,192,16549,1,0,0:0:0:20:soft-hitclap.wav
192,192,16696,1,0,0:0:0:20:soft-hitclap.wav
64,192,16843,1,0,0:0:0:20:soft-hitclap.wav
320,192,16990,1,8,0:0:0:0:
448,192,16990,1,0,0:0:0:0:
192,192,17138,1,0,0:0:0:20:soft-hitclap.wav
64,192,17285,1,2,0:0:0:0:
448,192,17285,1,0,0:0:0:0:
320,192,17432,1,0,0:0:0:20:soft-hitclap.wav
64,192,17579,1,8,0:0:0:0:
192,192,17579,1,0,0:0:0:0:
320,192,17726,1,0,0:0:0:20:soft-hitclap.wav
448,192,17873,1,0,0:0:0:20:soft-hitclap.wav
64,192,18020,1,0,0:0:0:20:soft-hitclap.wav
192,192,18167,1,8,0:0:0:0:
320,192,18167,1,0,0:0:0:0:
448,192,18314,1,0,0:0:0:20:soft-hitclap.wav
64,192,18461,1,0,0:0:0:20:soft-hitclap.wav
192,192,18608,1,0,0:0:0:20:soft-hitclap.wav
320,192,18755,1,8,0:0:0:0:
448,192,18755,1,0,0:0:0:0:
192,192,18902,1,0,0:0:0:20:soft-hitclap.wav
64,192,19049,1,0,0:0:0:20:soft-hitclap.wav
448,192,19196,1,0,0:0:0:20:soft-hitclap.wav
192,192,19343,1,8,0:0:0:0:
320,192,19343,1,0,0:0:0:0:
64,192,19490,1,0,0:0:0:20:soft-hitclap.wav
320,192,19638,1,2,0:0:0:0:
448,192,19638,1,0,0:0:0:0:
192,192,19785,1,0,0:0:0:20:soft-hitclap.wav
64,192,19932,1,8,0:0:0:0:
448,192,19932,1,0,0:0:0:0:
320,192,20079,1,0,0:0:0:20:soft-hitclap.wav
192,192,20226,1,0,0:0:0:20:soft-hitclap.wav
320,192,20373,1,0,0:0:0:20:soft-hitclap.wav
64,192,20520,1,8,0:0:0:0:
448,192,20520,1,0,0:0:0:0:
192,192,20667,1,0,0:0:0:20:soft-hitclap.wav
320,192,20814,1,2,0:0:0:0:
448,192,20814,1,0,0:0:0:0:
64,192,20961,1,0,0:0:0:20:soft-hitclap.wav
320,192,21108,1,8,0:0:0:0:
448,192,21108,1,0,0:0:0:0:
192,192,21255,1,0,0:0:0:20:soft-hitclap.wav
448,192,21402,1,0,0:0:0:20:soft-hitclap.wav
64,192,21549,1,0,0:0:0:20:soft-hitclap.wav
192,192,21696,1,8,0:0:0:0:
320,192,21696,1,0,0:0:0:0:
448,192,21843,1,0,0:0:0:20:soft-hitclap.wav
64,192,21990,1,2,0:0:0:0:
192,192,21990,1,0,0:0:0:0:
320,192,22138,1,0,0:0:0:20:soft-hitclap.wav
192,192,22285,1,8,0:0:0:0:
448,192,22285,1,0,0:0:0:0:
64,192,22432,1,0,0:0:0:20:soft-hitclap.wav
320,192,22579,1,0,0:0:0:20:soft-hitclap.wav
192,192,22726,1,0,0:0:0:20:soft-hitclap.wav
64,192,22873,1,8,0:0:0:0:
448,192,22873,1,0,0:0:0:0:
320,192,23020,1,0,0:0:0:20:soft-hitclap.wav
64,192,23167,1,2,0:0:0:0:
192,192,23167,1,0,0:0:0:0:
448,192,23314,1,0,0:0:0:20:soft-hitclap.wav
192,192,23461,1,8,0:0:0:0:
320,192,23461,1,0,0:0:0:0:
64,192,23608,1,0,0:0:0:20:soft-hitclap.wav
320,192,23755,1,0,0:0:0:20:soft-hitclap.wav
64,192,23902,1,8,0:0:0:0:
192,192,23902,1,0,0:0:0:0:
64,192,24049,1,8,0:0:0:0:
192,192,24049,1,0,0:0:0:0:
320,192,24196,1,8,0:0:0:0:
448,192,24196,1,0,0:0:0:0:
64,192,24343,1,2,0:0:0:0:
320,192,24343,128,4,24638:0:0:0:0:
448,192,24343,1,0,0:0:0:60:SCG_B4.wav
192,192,24638,1,0,0:0:0:0:
64,192,24785,1,2,0:0:0:0:
448,192,24785,1,0,0:0:0:0:
320,192,24932,1,0,0:0:0:0:
192,192,25079,1,0,0:0:0:0:
320,192,25226,1,8,0:0:0:0:
448,192,25226,128,0,25520:0:0:0:0:
64,192,25520,128,0,25667:0:0:0:0:
320,192,25667,128,0,25961:0:0:0:0:
192,192,25814,1,2,0:0:0:0:
64,192,25961,128,0,26108:0:0:0:0:
320,192,26108,128,8,26402:0:0:0:0:
448,192,26108,1,0,0:0:0:0:
64,192,26402,128,0,26549:0:0:0:0:
320,192,26549,128,0,26990:0:0:0:0:
64,192,26696,1,2,0:0:0:0:
192,192,26696,1,0,0:0:0:60:SCG_C#5.wav
448,192,26990,128,0,27285:0:0:0:0:
192,192,27138,1,2,0:0:0:0:
64,192,27285,128,0,27579:0:0:0:0:
320,192,27579,128,8,27873:0:0:0:0:
448,192,27579,1,0,0:0:0:0:
192,192,27873,128,0,28167:0:0:0:0:
64,192,28167,128,2,28461:0:0:0:0:
320,192,28167,1,0,0:0:0:0:
320,192,28461,1,8,0:0:0:0:
448,192,28461,1,0,0:0:0:0:
64,192,28608,1,2,0:0:0:0:
192,192,28608,1,0,0:0:0:50:Hat open.wav
448,192,28755,1,0,0:0:0:0:
64,192,29049,1,2,0:0:0:0:
192,192,29049,1,4,0:0:0:0:
320,192,29049,1,0,0:0:0:60:SCG_B4.wav
320,192,29343,1,0,0:0:0:0:
64,192,29490,1,2,0:0:0:0:
448,192,29490,1,0,0:0:0:0:
192,192,29638,1,0,0:0:0:0:
320,192,29785,1,0,0:0:0:0:
64,192,29932,128,8,30226:0:0:0:0:
192,192,29932,1,0,0:0:0:0:
448,192,30226,128,0,30373:0:0:0:0:
192,192,30373,128,0,30667:0:0:0:0:
320,192,30520,1,2,0:0:0:0:
448,192,30667,128,0,30814:0:0:0:0:
64,192,30814,1,8,0:0:0:0:
192,192,30814,128,0,31108:0:0:0:0:
448,192,31108,128,0,31255:0:0:0:0:
192,192,31255,128,0,31696:0:0:0:0:
320,192,31402,1,0,0:0:0:80:SCG_C#5.wav
448,192,31402,1,2,0:0:0:0:
64,192,31696,128,0,31990:0:0:0:80:SCG_C#5.wav
448,192,31843,1,2,0:0:0:0:
320,192,31990,128,0,32285:0:0:0:50:Hat open.wav
192,192,32138,1,0,0:0:0:0:
64,192,32285,1,8,0:0:0:0:
192,192,32285,1,4,0:0:0:0:
448,192,32285,1,0,0:0:0:80:4-9.wav
320,192,32432,1,0,0:0:0:80:4-9.wav
64,192,32579,1,0,0:0:0:80:4-9.wav
64,192,32726,1,0,0:0:0:30:soft-hitclap.wav
448,192,32873,1,0,0:0:0:30:soft-hitclap.wav
448,192,33020,1,0,0:0:0:30:soft-hitclap.wav
64,192,33167,1,8,0:0:0:0:
192,192,33167,1,0,0:0:0:80:4-11.wav
64,192,33314,1,8,0:0:0:0:
192,192,33314,1,0,0:0:0:80:4-11.wav
320,192,33461,1,8,0:0:0:0:
448,192,33461,1,0,0:0:0:80:4-11.wav
320,192,33608,1,8,0:0:0:0:
448,192,33608,1,0,0:0:0:80:4-11.wav
64,192,33755,128,2,34932:0:0:0:0:
192,192,33755,1,4,0:0:0:0:
448,192,33755,1,0,0:0:0:70:4-14_long.wav
320,192,34932,1,8,0:0:0:0:
448,192,34932,1,0,0:0:0:50:Tom2.wav
192,192,35079,1,8,0:0:0:0:
320,192,35079,1,0,0:0:0:50:Tom2.wav
64,192,35226,128,8,35520:0:0:0:0:
192,192,35226,1,0,0:0:0:50:Tom2.wav
448,192,35226,128,0,35520:0:0:0:60:3-9.wav
64,192,35961,128,2,36255:0:0:0:0:
192,192,35961,1,4,0:0:0:0:
448,192,35961,1,0,0:0:0:50:4-13^6-16s.wav
320,192,36255,1,2,0:0:0:0:
448,192,36255,1,0,0:0:0:50:4-13^6-16s.wav
64,192,36402,1,8,0:0:0:0:
192,192,36402,1,0,0:0:0:50:Hat open.wav
448,192,36402,1,0,0:0:0:50:4-13^6-16s.wav
320,192,36549,1,0,0:0:0:50:4-13^6-16s.wav
64,192,36696,1,2,0:0:0:0:
192,192,36696,1,0,0:0:0:50:Hat open.wav
320,192,36843,1,2,0:0:0:0:
448,192,36843,1,0,0:0:0:50:4-13^6-16s.wav
64,192,36990,1,8,0:0:0:0:
192,192,36990,1,0,0:0:0:50:Hat open.wav
320,192,37138,1,2,0:0:0:0:
448,192,37138,128,0,37432:0:0:0:50:4-14.wav
64,192,37432,1,2,0:0:0:0:
192,192,37432,1,0,0:0:0:50:4-14.wav
64,192,37579,1,8,0:0:0:0:
320,192,37579,1,0,0:0:0:50:Hat open.wav
448,192,37579,1,0,0:0:0:50:4-14.wav
192,192,37726,1,0,0:0:0:50:4-14.wav
320,192,37873,1,2,0:0:0:0:
448,192,37873,1,0,0:0:0:50:Hat open.wav
64,192,38020,1,2,0:0:0:0:
192,192,38020,1,0,0:0:0:50:4-14.wav
320,192,38167,1,8,0:0:0:0:
448,192,38167,1,0,0:0:0:50:Hat open.wav
64,192,38314,1,2,0:0:0:0:
192,192,38314,1,0,0:0:0:50:4-16.wav
320,192,38461,1,0,0:0:0:50:Hat open.wav
64,192,38608,1,2,0:0:0:0:
448,192,38608,1,0,0:0:0:50:4-16.wav
192,192,38755,1,8,0:0:0:0:
320,192,38902,1,0,0:0:0:50:4-16.wav
448,192,38902,1,0,0:0:0:0:
192,192,39049,1,2,0:0:0:0:
64,192,39196,1,2,0:0:0:0:
448,192,39196,1,0,0:0:0:50:4-16.wav
320,192,39343,1,8,0:0:0:0:
64,192,39490,1,2,0:0:0:0:
192,192,39490,1,0,0:0:0:50:4-13^6-16s.wav
320,192,39638,1,0,0:0:0:50:Hat open.wav
64,192,39785,1,2,0:0:0:0:
448,192,39785,1,0,0:0:0:50:4-13^6-16s.wav
192,192,39932,1,8,0:0:0:0:
320,192,39932,1,0,0:0:0:50:Hat open.wav
320,192,40226,1,2,0:0:0:0:
448,192,40226,1,0,0:0:0:50:Hat open.wav
64,192,40373,1,2,0:0:0:0:
192,192,40373,1,0,0:0:0:50:4-11^6-14s.wav
320,192,40520,1,8,0:0:0:0:
448,192,40520,1,0,0:0:0:50:4-11^6-14s.wav
64,192,40667,1,2,0:0:0:0:
192,192,40667,128,4,40961:0:0:0:0:
448,192,40667,1,0,0:0:0:50:4-9.wav
320,192,40961,1,2,0:0:0:0:
448,192,40961,1,0,0:0:0:50:4-9.wav
64,192,41108,1,8,0:0:0:0:
192,192,41108,1,0,0:0:0:50:Hat open.wav
448,192,41108,1,0,0:0:0:50:4-9.wav
320,192,41255,1,0,0:0:0:50:4-9.wav
64,192,41402,1,2,0:0:0:0:
192,192,41402,1,0,0:0:0:50:Hat open.wav
320,192,41549,1,2,0:0:0:0:
448,192,41549,1,0,0:0:0:50:4-9.wav
64,192,41696,1,8,0:0:0:0:
192,192,41696,1,0,0:0:0:50:Hat open.wav
320,192,41843,128,2,42138:0:0:0:0:
448,192,41843,1,0,0:0:0:50:4-8s.wav
64,192,42138,1,2,0:0:0:0:
192,192,42138,1,0,0:0:0:50:4-8s.wav
64,192,42285,1,8,0:0:0:0:
320,192,42285,1,0,0:0:0:50:Hat open.wav
448,192,42285,1,0,0:0:0:50:4-8s.wav
192,192,42432,1,0,0:0:0:50:4-8s.wav
320,192,42579,1,2,0:0:0:0:
448,192,42579,1,0,0:0:0:50:Hat open.wav
64,192,42726,1,2,0:0:0:0:
192,192,42726,1,0,0:0:0:50:4-8s.wav
320,192,42873,1,8,0:0:0:0:
448,192,42873,1,0,0:0:0:50:Hat open.wav
64,192,43020,1,2,0:0:0:0:
192,192,43020,1,0,0:0:0:50:4-6.wav
448,192,43167,1,0,0:0:0:50:Hat open.wav
192,192,43314,1,2,0:0:0:0:
320,192,43314,1,0,0:0:0:50:4-6.wav
64,192,43461,1,8,0:0:0:0:
320,192,43608,1,0,0:0:0:50:4-6.wav
448,192,43608,1,0,0:0:0:0:
192,192,43755,1,2,0:0:0:0:
64,192,43902,1,2,0:0:0:0:
448,192,43902,1,0,0:0:0:50:4-6.wav
320,192,44049,1,8,0:0:0:0:
64,192,44196,1,2,0:0:0:0:
192,192,44196,1,0,0:0:0:50:4-4.wav
448,192,44343,1,0,0:0:0:50:Hat open.wav
64,192,44490,1,2,0:0:0:0:
192,192,44490,1,0,0:0:0:50:4-4.wav
320,192,44638,1,8,0:0:0:0:
448,192,44638,1,0,0:0:0:50:Hat open.wav
64,192,44785,1,2,0:0:0:0:
192,192,44785,1,0,0:0:0:50:4-4.wav
320,192,44932,1,8,0:0:0:0:
448,192,44932,1,0,0:0:0:50:4-4.wav
64,192,45079,1,2,0:0:0:0:
192,192,45079,1,0,0:0:0:50:4-4.wav
320,192,45226,1,8,0:0:0:0:
448,192,45226,1,0,0:0:0:50:4-4.wav
64,192,45373,1,2,0:0:0:0:
192,192,45373,1,4,0:0:0:0:
448,192,45373,128,0,45667:0:0:0:50:4-13^6-16s.wav
192,192,45667,1,2,0:0:0:0:
320,192,45667,1,0,0:0:0:50:4-13^6-16s.wav
64,192,45814,1,8,0:0:0:0:
320,192,45814,1,0,0:0:0:50:Hat open.wav
448,192,45814,1,0,0:0:0:50:4-13^6-16s.wav
192,192,45961,1,0,0:0:0:50:4-13^6-16s.wav
320,192,46108,1,2,0:0:0:0:
448,192,46108,1,0,0:0:0:50:Hat open.wav
64,192,46255,1,2,0:0:0:0:
192,192,46255,1,0,0:0:0:50:4-13^6-16s.wav
320,192,46402,1,8,0:0:0:0:
448,192,46402,1,0,0:0:0:50:Hat open.wav
64,192,46549,128,2,46843:0:0:0:0:
192,192,46549,1,0,0:0:0:50:4-14.wav
320,192,46843,1,2,0:0:0:0:
448,192,46843,1,0,0:0:0:50:4-14.wav
64,192,46990,1,8,0:0:0:0:
192,192,46990,1,0,0:0:0:50:Hat open.wav
448,192,46990,1,0,0:0:0:50:4-14.wav
320,192,47138,1,0,0:0:0:50:4-14.wav
64,192,47285,1,2,0:0:0:0:
192,192,47285,1,0,0:0:0:50:Hat open.wav
320,192,47432,1,2,0:0:0:0:
448,192,47432,1,0,0:0:0:50:4-14.wav
64,192,47579,1,8,0:0:0:0:
192,192,47579,1,0,0:0:0:50:Hat open.wav
320,192,47726,1,2,0:0:0:0:
448,192,47726,1,0,0:0:0:50:4-16.wav
64,192,47873,1,0,0:0:0:50:Hat open.wav
192,192,48020,1,2,0:0:0:0:
320,192,48020,1,0,0:0:0:50:4-16.wav
448,192,48167,1,8,0:0:0:0:
64,192,48314,1,0,0:0:0:50:4-16.wav
192,192,48314,1,0,0:0:0:0:
320,192,48461,1,2,0:0:0:0:
64,192,48608,1,2,0:0:0:0:
448,192,48608,1,0,0:0:0:50:4-16.wav
192,192,48755,1,8,0:0:0:0:
320,192,48902,1,2,0:0:0:0:
448,192,48902,1,0,0:0:0:50:4-13^6-16s.wav
192,192,49049,1,0,0:0:0:50:Hat open.wav
64,192,49196,1,2,0:0:0:0:
448,192,49196,1,0,0:0:0:50:4-13^6-16s.wav
192,192,49343,1,8,0:0:0:0:
320,192,49343,1,0,0:0:0:50:Hat open.wav
320,192,49638,1,2,0:0:0:0:
448,192,49638,1,0,0:0:0:50:Hat open.wav
64,192,49785,1,2,0:0:0:0:
192,192,49785,1,0,0:0:0:50:4-11^6-14s.wav
320,192,49932,1,8,0:0:0:0:
448,192,49932,1,0,0:0:0:50:4-11^6-14s.wav
64,192,50079,1,2,0:0:0:0:
192,192,50079,128,4,50373:0:0:0:0:
448,192,50079,1,0,0:0:0:50:4-9.wav
320,192,50373,1,2,0:0:0:0:
448,192,50373,1,0,0:0:0:50:4-9.wav
64,192,50520,1,8,0:0:0:0:
192,192,50520,1,0,0:0:0:50:Hat open.wav
320,192,50667,1,0,0:0:0:50:4-9.wav
64,192,50814,1,2,0:0:0:0:
448,192,50814,1,0,0:0:0:50:Hat open.wav
192,192,50961,1,2,0:0:0:0:
320,192,50961,1,0,0:0:0:50:4-9.wav
64,192,51108,1,8,0:0:0:0:
448,192,51108,1,0,0:0:0:50:Hat open.wav
192,192,51255,1,2,0:0:0:0:
320,192,51255,128,0,51549:0:0:0:50:4-8s.wav
64,192,51549,1,2,0:0:0:0:
448,192,51549,1,0,0:0:0:50:4-8s.wav
192,192,51696,1,8,0:0:0:0:
320,192,51696,1,0,0:0:0:50:Hat open.wav
448,192,51843,1,0,0:0:0:50:4-8s.wav
64,192,51990,1,2,0:0:0:0:
192,192,51990,1,0,0:0:0:50:Hat open.wav
320,192,52138,1,2,0:0:0:0:
448,192,52138,1,0,0:0:0:50:4-8s.wav
64,192,52285,1,8,0:0:0:0:
192,192,52285,1,0,0:0:0:50:4-8s.wav
320,192,52432,1,2,0:0:0:0:
448,192,52432,1,0,0:0:0:50:4-8s.wav
64,192,52579,1,8,0:0:0:0:
192,192,52579,1,4,0:0:0:0:
448,192,52579,1,0,0:0:0:50:4-9.wav
320,192,52726,1,2,0:0:0:0:
64,192,52873,1,8,0:0:0:0:
192,192,52873,1,0,0:0:0:50:Hat open.wav
448,192,53020,1,2,0:0:0:0:
192,192,53167,1,8,0:0:0:0:
320,192,53167,1,0,0:0:0:50:Hat open.wav
64,192,53314,1,2,0:0:0:0:
320,192,53461,1,8,0:0:0:0:
448,192,53461,1,0,0:0:0:50:Hat open.wav
192,192,53608,1,2,0:0:0:0:
64,192,53755,1,8,0:0:0:0:
320,192,53755,1,4,0:0:0:0:
448,192,53755,1,0,0:0:0:70:4-12.wav
192,192,53902,1,0,0:0:0:70:4-12.wav
64,192,54049,1,8,0:0:0:0:
448,192,54049,1,0,0:0:0:50:Hat open.wav
320,192,54196,1,2,0:0:0:0:
64,192,54343,1,8,0:0:0:0:
192,192,54343,1,0,0:0:0:50:Hat open.wav
448,192,54490,1,2,0:0:0:0:
192,192,54638,1,8,0:0:0:0:
320,192,54638,1,0,0:0:0:50:Hat open.wav
64,192,54785,1,2,0:0:0:0:
192,192,54932,1,12,0:0:0:0:
320,192,54932,1,0,0:0:0:60:4-16.wav
448,192,54932,1,0,0:0:0:80:4-9^5-9s.wav
64,192,55079,1,2,0:0:0:0:
320,192,55226,1,8,0:0:0:0:
448,192,55226,1,0,0:0:0:0:
64,192,55373,1,8,0:0:0:0:
192,192,55373,1,0,0:0:0:50:Tom2.wav
448,192,55373,128,0,55667:0:0:0:80:4-9^5-9s.wav
64,192,55667,1,8,0:0:0:0:
192,192,55667,1,0,0:0:0:0:
64,192,55814,128,8,56108:0:0:0:0:
320,192,55814,1,0,0:0:0:50:Tom2.wav
448,192,55814,1,0,0:0:0:80:4-9^5-9s.wav
192,192,56108,1,8,0:0:0:0:
320,192,56108,1,0,0:0:0:50:Hat open.wav
448,192,56108,1,0,0:0:0:80:4-9^5-9s.wav
320,192,56696,1,0,0:0:0:50:Tom1.wav
448,192,56696,1,0,0:0:0:0:
64,192,57138,128,2,58314:0:0:0:0:
192,192,57138,128,4,57579:0:0:0:0:
448,192,57138,1,0,0:0:0:0:
320,192,57579,1,0,0:0:0:0:
448,192,57873,1,0,0:0:0:0:
192,192,58020,1,0,0:0:0:0:
192,192,58314,128,2,58755:0:0:0:0:
320,192,58314,1,4,0:0:0:0:
448,192,58314,128,0,59490:0:0:0:0:
64,192,58755,1,0,0:0:0:0:
192,192,59049,1,0,0:0:0:0:
320,192,59196,1,0,0:0:0:0:
64,192,59490,128,2,59785:0:0:0:0:
192,192,59490,128,4,60667:0:0:0:0:
320,192,59490,1,0,0:0:0:0:
448,192,59785,1,0,0:0:0:0:
320,192,60079,128,0,60373:0:0:0:0:
64,192,60373,1,0,0:0:0:0:
64,192,60667,1,2,0:0:0:0:
320,192,60667,128,4,61255:0:0:0:0:
448,192,60667,128,0,60961:0:0:0:0:
192,192,60961,1,0,0:0:0:0:
64,192,61255,1,0,0:0:0:50:Tom1.wav
448,192,61255,1,0,0:0:0:0:
64,192,61402,1,0,0:0:0:50:Tom1.wav
320,192,61402,1,0,0:0:0:0:
192,192,61549,1,0,0:0:0:50:Tom2.wav
448,192,61549,1,0,0:0:0:0:
64,192,61696,1,0,0:0:0:50:Tom3.wav
448,192,61696,1,0,0:0:0:0:
64,192,61843,1,2,0:0:0:0:
192,192,61843,128,4,62285:0:0:0:0:
320,192,61843,1,0,0:0:0:0:
320,192,62285,1,2,0:0:0:0:
448,192,62285,1,0,0:0:0:50:Hat open.wav
64,192,62579,1,8,0:0:0:0:
192,192,62579,1,0,0:0:0:0:
448,192,62726,1,0,0:0:0:0:
320,192,62873,1,0,0:0:0:50:Hat open.wav
192,192,63020,128,2,63461:0:0:0:0:
448,192,63020,1,0,0:0:0:0:
64,192,63167,1,0,0:0:0:50:Hat open.wav
64,192,63461,1,2,0:0:0:0:
320,192,63461,1,0,0:0:0:50:Hat open.wav
192,192,63755,1,8,0:0:0:0:
448,192,63755,1,0,0:0:0:0:
320,192,63902,128,0,64196:0:0:0:0:
64,192,64049,1,0,0:0:0:50:Hat open.wav
192,192,64196,1,2,0:0:0:0:
448,192,64196,1,0,0:0:0:0:
320,192,64343,1,0,0:0:0:50:Hat open.wav
64,192,64490,1,8,0:0:0:0:
192,192,64490,1,0,0:0:0:0:
448,192,64638,1,0,0:0:0:50:Hat open.wav
192,192,64785,1,2,0:0:0:0:
320,192,64785,1,0,0:0:0:0:
64,192,64932,1,8,0:0:0:0:
448,192,64932,1,0,0:0:0:50:Hat open.wav
192,192,65079,1,2,0:0:0:0:
320,192,65079,1,0,0:0:0:0:
64,192,65226,1,8,0:0:0:0:
448,192,65226,1,0,0:0:0:0:
64,192,65373,1,2,0:0:0:0:
192,192,65373,128,4,65667:0:0:0:0:
320,192,65373,1,0,0:0:0:0:
320,192,65667,1,2,0:0:0:0:
448,192,65667,1,0,0:0:0:0:
64,192,65814,1,8,0:0:0:0:
192,192,65814,1,0,0:0:0:50:Hat open.wav
320,192,65961,1,2,0:0:0:0:
448,192,65961,1,0,0:0:0:0:
64,192,66108,1,8,0:0:0:0:
192,192,66108,1,0,0:0:0:0:
448,192,66182,1,8,0:0:0:0:
320,192,66255,1,8,0:0:0:0:
64,192,66329,1,8,0:0:0:0:
192,192,66402,1,8,0:0:0:0:
320,192,66476,1,8,0:0:0:0:
64,192,66549,128,2,66843:0:0:0:0:
192,192,66549,1,4,0:0:0:0:
448,192,66549,1,0,0:0:0:50:4-13^6-16s.wav
192,192,66843,1,2,0:0:0:0:
320,192,66843,1,0,0:0:0:50:4-13^6-16s.wav
64,192,66990,1,8,0:0:0:0:
192,192,66990,1,4,0:0:0:0:
448,192,66990,1,0,0:0:0:50:4-13^6-16s.wav
320,192,67138,1,0,0:0:0:50:4-13^6-16s.wav
64,192,67285,1,2,0:0:0:0:
192,192,67285,1,0,0:0:0:50:Hat open.wav
320,192,67432,1,2,0:0:0:0:
448,192,67432,1,0,0:0:0:50:4-13^6-16s.wav
64,192,67579,1,8,0:0:0:0:
192,192,67579,1,0,0:0:0:50:Hat open.wav
320,192,67726,1,2,0:0:0:0:
448,192,67726,128,0,68020:0:0:0:50:4-14.wav
64,192,68020,1,2,0:0:0:0:
192,192,68020,1,0,0:0:0:50:4-14.wav
64,192,68167,1,8,0:0:0:0:
320,192,68167,1,0,0:0:0:50:Hat open.wav
448,192,68167,1,0,0:0:0:50:4-14.wav
192,192,68314,1,0,0:0:0:50:4-14.wav
320,192,68461,1,2,0:0:0:0:
448,192,68461,1,0,0:0:0:50:Hat open.wav
64,192,68608,1,2,0:0:0:0:
192,192,68608,1,0,0:0:0:50:4-14.wav
320,192,68755,1,8,0:0:0:0:
448,192,68755,1,0,0:0:0:50:Hat open.wav
64,192,68902,1,2,0:0:0:0:
192,192,68902,1,0,0:0:0:50:4-16.wav
448,192,69049,1,0,0:0:0:50:Hat open.wav
192,192,69196,1,2,0:0:0:0:
320,192,69196,1,0,0:0:0:50:4-16.wav
64,192,69343,1,8,0:0:0:0:
320,192,69490,1,0,0:0:0:50:4-16.wav
448,192,69490,1,0,0:0:0:0:
192,192,69638,1,2,0:0:0:0:
64,192,69785,1,2,0:0:0:0:
448,192,69785,1,0,0:0:0:50:4-16.wav
320,192,69932,1,8,0:0:0:0:
64,192,70079,1,2,0:0:0:0:
192,192,70079,1,0,0:0:0:50:4-13^6-16s.wav
320,192,70226,1,0,0:0:0:50:Hat open.wav
64,192,70373,1,2,0:0:0:0:
448,192,70373,1,0,0:0:0:50:4-13^6-16s.wav
192,192,70520,1,8,0:0:0:0:
320,192,70520,1,0,0:0:0:50:Hat open.wav
64,192,70814,1,2,0:0:0:0:
192,192,70814,1,0,0:0:0:50:Hat open.wav
320,192,70961,1,2,0:0:0:0:
448,192,70961,1,0,0:0:0:50:4-11^6-14s.wav
64,192,71108,1,8,0:0:0:0:
192,192,71108,1,0,0:0:0:50:4-11^6-14s.wav
64,192,71255,1,2,0:0:0:0:
320,192,71255,128,4,71549:0:0:0:0:
448,192,71255,1,0,0:0:0:50:4-9.wav
64,192,71549,1,2,0:0:0:0:
192,192,71549,1,0,0:0:0:50:4-9.wav
320,192,71696,1,8,0:0:0:0:
448,192,71696,1,0,0:0:0:50:Hat open.wav
192,192,71843,1,0,0:0:0:50:4-9.wav
64,192,71990,1,2,0:0:0:0:
448,192,71990,1,0,0:0:0:50:Hat open.wav
192,192,72138,1,2,0:0:0:0:
320,192,72138,1,0,0:0:0:50:4-9.wav
64,192,72285,1,8,0:0:0:0:
448,192,72285,1,0,0:0:0:50:Hat open.wav
192,192,72432,128,2,72726:0:0:0:0:
320,192,72432,1,0,0:0:0:50:4-8s.wav
64,192,72726,1,2,0:0:0:0:
448,192,72726,1,0,0:0:0:50:4-8s.wav
192,192,72873,1,8,0:0:0:0:
320,192,72873,1,0,0:0:0:50:Hat open.wav
64,192,73020,1,0,0:0:0:50:4-8s.wav
320,192,73167,1,2,0:0:0:0:
448,192,73167,1,0,0:0:0:50:Hat open.wav
64,192,73314,1,2,0:0:0:0:
192,192,73314,1,0,0:0:0:50:4-8s.wav
320,192,73461,1,8,0:0:0:0:
448,192,73461,1,0,0:0:0:50:4-8s.wav
64,192,73608,1,2,0:0:0:0:
192,192,73608,1,0,0:0:0:50:4-8s.wav
64,192,73755,1,8,0:0:0:0:
320,192,73755,1,4,0:0:0:0:
448,192,73755,1,0,0:0:0:60:4-9.wav
192,192,73902,1,2,0:0:0:0:
320,192,74049,1,8,0:0:0:0:
448,192,74049,1,0,0:0:0:50:Hat open.wav
64,192,74196,1,2,0:0:0:0:
192,192,74343,1,8,0:0:0:0:
320,192,74343,1,0,0:0:0:50:Hat open.wav
448,192,74490,1,2,0:0:0:0:
64,192,74638,1,8,0:0:0:0:
192,192,74638,1,0,0:0:0:50:Hat open.wav
320,192,74785,1,2,0:0:0:0:
64,192,74932,1,8,0:0:0:0:
192,192,74932,1,4,0:0:0:0:
448,192,74932,1,0,0:0:0:70:4-12.wav
320,192,75079,1,0,0:0:0:70:4-12.wav
64,192,75226,1,8,0:0:0:0:
448,192,75226,1,0,0:0:0:50:Hat open.wav
192,192,75373,1,2,0:0:0:0:
320,192,75520,1,8,0:0:0:0:
448,192,75520,1,0,0:0:0:50:Hat open.wav
64,192,75667,1,2,0:0:0:0:
192,192,75814,1,8,0:0:0:0:
320,192,75814,1,0,0:0:0:50:Hat open.wav
448,192,75961,1,2,0:0:0:0:
64,192,76108,1,12,0:0:0:0:
192,192,76108,1,0,0:0:0:60:4-16.wav
320,192,76108,1,0,0:0:0:80:4-9^5-9s.wav
448,192,76255,1,2,0:0:0:0:
64,192,76402,1,2,0:0:0:0:
192,192,76402,1,0,0:0:0:0:
64,192,76549,128,8,76843:0:0:0:0:
320,192,76549,1,0,0:0:0:50:Tom2.wav
448,192,76549,1,0,0:0:0:80:4-9^5-9s.wav
320,192,76843,1,8,0:0:0:0:
448,192,76843,1,0,0:0:0:0:
64,192,76990,1,8,0:0:0:0:
192,192,76990,1,0,0:0:0:50:Tom2.wav
448,192,76990,128,0,77285:0:0:0:80:4-9^5-9s.wav
64,192,77285,1,2,0:0:0:0:
192,192,77285,1,4,0:0:0:0:
320,192,77285,1,0,0:0:0:80:4-9^5-9s.wav
448,192,77873,1,0,0:0:0:80:4-9s.wav
448,192,78020,128,0,78314:0:0:0:80:4-9.wav
64,192,78314,1,6,0:0:0:0:
192,192,78314,1,0,0:0:0:80:4-11.wav
320,192,78314,1,0,0:0:0:100:SCG_F5s.wav
448,192,78461,1,0,0:0:0:80:4-11.wav
64,192,78608,1,2,0:0:0:0:
192,192,78608,1,0,0:0:0:80:4-11.wav
320,192,78755,1,8,0:0:0:0:
448,192,78755,1,0,0:0:0:50:Hat open.wav
192,192,78902,1,0,0:0:0:80:4-13^6-16s.wav
320,192,79049,1,2,0:0:0:0:
448,192,79049,1,0,0:0:0:50:Hat open.wav
64,192,79196,1,2,0:0:0:0:
192,192,79196,1,0,0:0:0:80:4-9.wav
320,192,79343,1,8,0:0:0:0:
448,192,79343,1,0,0:0:0:50:Hat open.wav
64,192,79490,1,2,0:0:0:0:
192,192,79490,1,0,0:0:0:80:4-11.wav
320,192,79638,1,0,0:0:0:50:Hat open.wav
64,192,79785,1,2,0:0:0:0:
448,192,79785,1,0,0:0:0:80:4-11.wav
192,192,79932,1,8,0:0:0:0:
320,192,79932,1,0,0:0:0:50:Hat open.wav
64,192,80079,1,0,0:0:0:80:4-16.wav
320,192,80226,1,2,0:0:0:0:
448,192,80226,1,0,0:0:0:50:Hat open.wav
64,192,80373,1,2,0:0:0:0:
192,192,80373,1,0,0:0:0:80:5-9s.wav
320,192,80520,1,8,0:0:0:0:
448,192,80520,1,0,0:0:0:50:Hat open.wav
64,192,80667,1,2,0:0:0:0:
192,192,80667,1,0,0:0:0:80:5-9s.wav
320,192,80814,1,0,0:0:0:50:Hat open.wav
192,192,80961,1,2,0:0:0:0:
448,192,80961,1,0,0:0:0:80:5-9s.wav
64,192,81108,1,8,0:0:0:0:
320,192,81108,1,0,0:0:0:50:Hat open.wav
192,192,81255,1,0,0:0:0:80:4-11.wav
320,192,81402,1,2,0:0:0:0:
448,192,81402,1,0,0:0:0:50:Hat open.wav
64,192,81549,1,2,0:0:0:0:
192,192,81549,1,0,0:0:0:80:4-8s.wav
320,192,81696,1,8,0:0:0:0:
448,192,81696,1,0,0:0:0:50:Hat open.wav
64,192,81843,1,2,0:0:0:0:
192,192,81843,1,0,0:0:0:60:4-4.wav
320,192,81990,1,0,0:0:0:50:Hat open.wav
64,192,82138,1,2,0:0:0:0:
192,192,82138,1,0,0:0:0:80:4-9s.wav
320,192,82285,1,8,0:0:0:0:
448,192,82285,1,0,0:0:0:50:Hat open.wav
192,192,82432,1,0,0:0:0:80:4-8s.wav
64,192,82579,1,2,0:0:0:0:
448,192,82579,1,0,0:0:0:50:Hat open.wav
192,192,82726,1,2,0:0:0:0:
320,192,82726,1,0,0:0:0:80:4-8s.wav
64,192,82873,1,8,0:0:0:0:
448,192,82873,1,0,0:0:0:80:4-8s.wav
192,192,83020,1,6,0:0:0:0:
320,192,83020,1,0,0:0:0:80:4-9^6-12s.wav
448,192,83167,1,0,0:0:0:80:4-9^6-12s.wav
64,192,83314,1,2,0:0:0:0:
192,192,83314,1,0,0:0:0:80:3-6^5-9s.wav
320,192,83461,1,8,0:0:0:0:
448,192,83461,1,0,0:0:0:50:Hat open.wav
192,192,83608,1,0,0:0:0:80:3-7s.wav
64,192,83755,1,2,0:0:0:0:
320,192,83755,1,0,0:0:0:50:Hat open.wav
192,192,83902,1,2,0:0:0:0:
448,192,83902,1,0,0:0:0:80:3-9.wav
64,192,84049,1,8,0:0:0:0:
320,192,84049,1,0,0:0:0:50:Hat open.wav
192,192,84196,1,2,0:0:0:0:
448,192,84196,1,0,0:0:0:80:3-11.wav
320,192,84343,1,0,0:0:0:50:Hat open.wav
64,192,84490,1,2,0:0:0:0:
192,192,84490,1,0,0:0:0:80:3-11.wav
320,192,84638,1,8,0:0:0:0:
448,192,84638,1,0,0:0:0:50:Hat open.wav
192,192,84785,1,0,0:0:0:80:3-13s.wav
320,192,84932,1,2,0:0:0:0:
448,192,84932,1,0,0:0:0:50:Hat open.wav
64,192,85079,1,2,0:0:0:0:
192,192,85079,1,0,0:0:0:80:3-14.wav
320,192,85226,1,8,0:0:0:0:
448,192,85226,1,0,0:0:0:50:Hat open.wav
64,192,85373,1,6,0:0:0:0:
192,192,85373,1,0,0:0:0:80:4-11.wav
448,192,85373,1,0,0:0:0:100:SCG_F5s.wav
320,192,85520,1,0,0:0:0:80:4-11^6-14s.wav
64,192,85667,1,2,0:0:0:0:
192,192,85667,1,0,0:0:0:80:4-11^6-14s.wav
320,192,85814,1,8,0:0:0:0:
448,192,85814,128,0,86108:0:0:0:50:Hat open.wav
64,192,86108,1,2,0:0:0:0:
192,192,86108,1,0,0:0:0:50:Hat open.wav
320,192,86255,1,2,0:0:0:0:
448,192,86255,1,0,0:0:0:70:5-12.wav
64,192,86402,1,8,0:0:0:0:
192,192,86402,1,0,0:0:0:50:Hat open.wav
320,192,86549,128,2,86843:0:0:0:0:
448,192,86549,1,0,0:0:0:80:5-9s.wav
64,192,86843,1,2,0:0:0:0:
192,192,86843,1,0,0:0:0:80:4-11.wav
320,192,86990,1,8,0:0:0:0:
448,192,86990,1,0,0:0:0:50:Hat open.wav
192,192,87138,1,0,0:0:0:70:5-12.wav
64,192,87285,1,2,0:0:0:0:
448,192,87285,1,0,0:0:0:50:Hat open.wav
192,192,87432,1,2,0:0:0:0:
320,192,87432,1,0,0:0:0:70:5-12.wav
64,192,87579,1,8,0:0:0:0:
448,192,87579,1,0,0:0:0:50:Tom2.wav
192,192,87726,1,2,0:0:0:0:
320,192,87726,1,0,0:0:0:70:6-12s.wav
320,192,87873,1,0,0:0:0:50:Hat open.wav
448,192,87873,1,0,0:0:0:80:4-9^5-9s.wav
64,192,87873,128,8,88167:0:0:0:0:
192,192,88020,1,2,0:0:0:0:
320,192,88167,1,2,0:0:0:0:
448,192,88167,1,0,0:0:0:0:
64,192,88314,1,8,0:0:0:0:
192,192,88314,1,0,0:0:0:50:Hat open.wav
448,192,88314,128,0,88608:0:0:0:80:4-9^5-9s.wav
320,192,88461,1,2,0:0:0:0:
64,192,88608,1,2,0:0:0:0:
192,192,88608,1,0,0:0:0:0:
64,192,88755,128,8,89049:0:0:0:0:
320,192,88755,1,0,0:0:0:50:Hat open.wav
448,192,88755,1,0,0:0:0:80:4-9^5-9s.wav
192,192,88902,1,2,0:0:0:0:
192,192,89049,1,8,0:0:0:0:
320,192,89049,1,0,0:0:0:50:Hat open.wav
448,192,89049,1,0,0:0:0:80:4-9^5-9s.wav
