osu file format v14

[General]
AudioFilename: audio.mp3
AudioLeadIn: 0
PreviewTime: 35519
Countdown: 0
SampleSet: Soft
StackLeniency: 0.7
Mode: 3
LetterboxInBreaks: 0
SpecialStyle: 0
WidescreenStoryboard: 1

[Editor]
DistanceSpacing: 1.2
BeatDivisor: 2
GridSize: 4
TimelineZoom: 1.8

[Metadata]
Title:Imagination (TV Size)
TitleUnicode:イマジネーション (TV Size)
Artist:SPYAIR
ArtistUnicode:SPYAIR
Creator:Mirsaaa
Version:Easy // 3rd Tempo
Source:ハイキュー!!
Tags:Japanese Anime アニメ Rock Jrock J-rock Haikyu!! Haikyuu!! Haikyuu Haikyu Guitar Electric Keysound Male Vocal High Kyuu!! Kyuu HQ!! HQ Opening OP 1 One Kōtarō Bokuto Kotaro Koutarou 木兎 光太郎 Tetsurō Kuroo Tetsuro Tetsurou 黒尾 鉄朗 AICL-2672 UZ MOMIKEN Volleyball Barēbōru Bareboru Bareibouru バレーボール [AyanoTatemaya] HinagikuKatsura
BeatmapID:4080649
BeatmapSetID:1967567

[Difficulty]
HPDrainRate:7
CircleSize:4
OverallDifficulty:7
ApproachRate:5
SliderMultiplier:1.4
SliderTickRate:1

[Events]
//Background and Video events
0,0,"BEGEH.jpg",0,0
//Break Periods
//Storyboard Layer 0 (Background)
//Storyboard Layer 1 (Fail)
//Storyboard Layer 2 (Pass)
//Storyboard Layer 3 (Foreground)
//Storyboard Layer 4 (Overlay)
//Storyboard Sound Samples
Sample,5520,0,"SCG_C#5.wav",100
Sample,5520,0,"SCG_F#5.wav",100
Sample,7873,0,"SCG_C#5.wav",100
Sample,7873,0,"SCG_F5.wav",100
Sample,10226,0,"SCG_D#5.wav",100
Sample,10226,0,"SCG_F#5.wav",100
Sample,11402,0,"SCG_C#5.wav",100
Sample,11402,0,"SCG_F5.wav",100
Sample,12579,0,"SCG_F#4.wav",100
Sample,12579,0,"SCG_D#5.wav",100
Sample,14343,0,"Tom1.wav",50
Sample,14490,0,"Tom2.wav",50
Sample,26696,0,"SCG_C#5.wav",60
Sample,28608,0,"Hat open.wav",50
Sample,31402,0,"SCG_C#5.wav",80
Sample,31990,0,"SCG_C#5.wav",80
Sample,32873,0,"4-9.wav",80
Sample,33167,0,"4-11.wav",80
Sample,33461,0,"4-11.wav",80
Sample,34932,0,"3-9.wav",60
Sample,34932,0,"Tom2.wav",50
Sample,34932,0,"5-12.wav",60
Sample,35079,0,"Tom2.wav",50
Sample,35079,0,"3-9.wav",60
Sample,35079,0,"5-12.wav",60
Sample,35226,0,"3-9.wav",60
Sample,35226,0,"Tom2.wav",50
Sample,35226,0,"5-12.wav",60
Sample,36402,0,"Hat open.wav",50
Sample,36402,0,"4-13^6-16s.wav",50
Sample,36696,0,"Hat open.wav",50
Sample,36696,0,"4-13^6-16s.wav",50
Sample,36843,0,"4-13^6-16s.wav",50
Sample,37138,0,"4-14.wav",50
Sample,37579,0,"Hat open.wav",50
Sample,37579,0,"4-14.wav",50
Sample,37873,0,"Hat open.wav",50
Sample,37873,0,"4-14.wav",50
Sample,38020,0,"4-14.wav",50
Sample,38314,0,"4-16.wav",50
Sample,38608,0,"4-16.wav",50
Sample,39196,0,"4-16.wav",50
Sample,39490,0,"4-13^6-16s.wav",50
Sample,39785,0,"4-13^6-16s.wav",50
Sample,40226,0,"Hat open.wav",50
Sample,40226,0,"4-13^6-16s.wav",50
Sample,40373,0,"4-11^6-14s.wav",50
Sample,41108,0,"4-9.wav",50
Sample,41108,0,"Hat open.wav",50
Sample,41402,0,"4-9.wav",50
Sample,41402,0,"Hat open.wav",50
Sample,41549,0,"4-9.wav",50
Sample,41843,0,"4-8s.wav",50
Sample,42285,0,"4-8s.wav",50
Sample,42285,0,"Hat open.wav",50
Sample,42579,0,"4-8s.wav",50
Sample,42579,0,"Hat open.wav",50
Sample,42726,0,"4-8s.wav",50
Sample,43020,0,"4-6.wav",50
Sample,43314,0,"4-6.wav",50
Sample,43902,0,"4-6.wav",50
Sample,44196,0,"4-4.wav",50
Sample,44638,0,"Hat open.wav",50
Sample,44638,0,"4-4.wav",50
Sample,44932,0,"4-4.wav",50
Sample,45079,0,"4-4.wav",50
Sample,45814,0,"Hat open.wav",50
Sample,45814,0,"4-13^6-16s.wav",50
Sample,46108,0,"Hat open.wav",50
Sample,46108,0,"4-13^6-16s.wav",50
Sample,46255,0,"4-13^6-16s.wav",50
Sample,46549,0,"4-14.wav",50
Sample,46990,0,"Hat open.wav",50
Sample,46990,0,"4-14.wav",50
Sample,47285,0,"Hat open.wav",50
Sample,47285,0,"4-14.wav",50
Sample,47432,0,"4-14.wav",50
Sample,47726,0,"4-16.wav",50
Sample,48020,0,"4-16.wav",50
Sample,48608,0,"4-16.wav",50
Sample,48902,0,"4-13^6-16s.wav",50
Sample,49196,0,"4-13^6-16s.wav",50
Sample,49638,0,"Hat open.wav",50
Sample,49638,0,"4-13^6-16s.wav",50
Sample,49785,0,"4-11^6-14s.wav",50
Sample,49932,0,"4-11^6-14s.wav",50
Sample,50373,0,"4-9.wav",50
Sample,50961,0,"4-9.wav",50
Sample,51255,0,"4-8s.wav",50
Sample,51549,0,"4-8s.wav",50
Sample,52138,0,"4-8s.wav",50
Sample,52432,0,"4-8s.wav",50
Sample,52579,0,"4-9.wav",50
Sample,52873,0,"4-9.wav",50
Sample,52873,0,"Hat open.wav",50
Sample,53167,0,"4-11.wav",60
Sample,53167,0,"Hat open.wav",50
Sample,53461,0,"4-11.wav",60
Sample,53461,0,"Hat open.wav",50
Sample,53755,0,"4-12.wav",70
Sample,54049,0,"Hat open.wav",50
Sample,54049,0,"4-12.wav",70
Sample,54343,0,"Hat open.wav",50
Sample,54343,0,"4-14.wav",60
Sample,54638,0,"Hat open.wav",50
Sample,54638,0,"4-14.wav",60
Sample,54932,0,"4-9^5-9s.wav",80
Sample,55373,0,"4-9^5-9s.wav",80
Sample,55814,0,"4-9^5-9s.wav",80
Sample,56108,0,"4-9^5-9s.wav",80
Sample,62285,0,"Hat open.wav",50
Sample,63461,0,"Hat open.wav",50
Sample,65814,0,"Hat open.wav",50
Sample,67285,0,"4-13^6-16s.wav",50
Sample,67285,0,"Hat open.wav",50
Sample,67432,0,"4-13^6-16s.wav",50
Sample,67726,0,"4-14.wav",50
Sample,68167,0,"4-14.wav",50
Sample,68167,0,"Hat open.wav",50
Sample,68461,0,"4-14.wav",50
Sample,68461,0,"Hat open.wav",50
Sample,68608,0,"4-14.wav",50
Sample,68902,0,"4-16.wav",50
Sample,69196,0,"4-16.wav",50
Sample,69785,0,"4-16.wav",50
Sample,70079,0,"4-13^6-16s.wav",50
Sample,70373,0,"4-13^6-16s.wav",50
Sample,70814,0,"4-13^6-16s.wav",50
Sample,70814,0,"Hat open.wav",50
Sample,70961,0,"4-11^6-14s.wav",50
Sample,71108,0,"4-11^6-14s.wav",50
Sample,71549,0,"4-9.wav",50
Sample,72138,0,"4-9.wav",50
Sample,72432,0,"4-8s.wav",50
Sample,72726,0,"4-8s.wav",50
Sample,73314,0,"4-8s.wav",50
Sample,73608,0,"4-8s.wav",50
Sample,73755,0,"4-9.wav",60
Sample,74049,0,"Hat open.wav",50
Sample,74049,0,"4-9.wav",60
Sample,74343,0,"Hat open.wav",50
Sample,74343,0,"4-11.wav",60
Sample,74638,0,"Hat open.wav",50
Sample,74638,0,"4-11.wav",60
Sample,74932,0,"4-12.wav",70
Sample,75226,0,"4-12.wav",70
Sample,75226,0,"Hat open.wav",50
Sample,75520,0,"4-14.wav",60
Sample,75520,0,"Hat open.wav",50
Sample,75814,0,"4-14.wav",60
Sample,75814,0,"Hat open.wav",50
Sample,76108,0,"4-9^5-9s.wav",80
Sample,76549,0,"4-9^5-9s.wav",80
Sample,76990,0,"4-9^5-9s.wav",80
Sample,77873,0,"SCG_D#5s.wav",100
Sample,78020,0,"SCG_D#5s.wav",100
Sample,78314,0,"SCG_F5s.wav",100
Sample,78755,0,"SCG_G5s.wav",100
Sample,78755,0,"4-13^6-16s.wav",80
Sample,78755,0,"Hat open.wav",50
Sample,79049,0,"SCG_D#5s.wav",100
Sample,79049,0,"Hat open.wav",50
Sample,79049,0,"4-9s.wav",80
Sample,79196,0,"SCG_D#5s.wav",100
Sample,79196,0,"4-9.wav",80
Sample,79490,0,"SCG_F5s.wav",100
Sample,79490,0,"4-11.wav",80
Sample,79932,0,"SCG_A#5s.wav",100
Sample,79932,0,"4-16.wav",80
Sample,79932,0,"Hat open.wav",50
Sample,80226,0,"SCG_G#5s.wav",100
Sample,80226,0,"Hat open.wav",50
Sample,80226,0,"5-10~5-9.wav",80
Sample,80373,0,"SCG_G5s.wav",100
Sample,80373,0,"5-9s.wav",80
Sample,80520,0,"SCG_F5s.wav",100
Sample,80520,0,"4-11.wav",80
Sample,80520,0,"Hat open.wav",50
Sample,80667,0,"5-9s.wav",80
Sample,80667,0,"SCG_G5s.wav",100
Sample,81108,0,"SCG_F5s.wav",100
Sample,81108,0,"Hat open.wav",50
Sample,81108,0,"4-11.wav",80
Sample,81402,0,"SCG_D#5s.wav",100
Sample,81402,0,"4-9.wav",80
Sample,81402,0,"Hat open.wav",50
Sample,81549,0,"4-8s.wav",80
Sample,81549,0,"SCG_D5s.wav",100
Sample,81696,0,"SCG_F5s.wav",100
Sample,81696,0,"Hat open.wav",50
Sample,81696,0,"4-11.wav",80
Sample,81843,0,"SCG_A#4.wav",100
Sample,81843,0,"4-4.wav",60
Sample,82138,0,"SCG_D#5s.wav",100
Sample,82138,0,"4-9s.wav",80
Sample,82285,0,"SCG_D5s.wav",100
Sample,82285,0,"4-8s.wav",80
Sample,82285,0,"Hat open.wav",50
Sample,82579,0,"Hat open.wav",50
Sample,82579,0,"SCG_C5s.wav",100
Sample,82579,0,"4-6.wav",80
Sample,82726,0,"4-8s.wav",80
Sample,82726,0,"SCG_D5s.wav",100
Sample,83020,0,"4-9^6-12s.wav",80
Sample,83020,0,"SCG_D#5s.wav",100
Sample,83314,0,"3-6^5-9s.wav",80
Sample,83314,0,"SCG_G4s.wav",100
Sample,83461,0,"Hat open.wav",50
Sample,83461,0,"3-7s.wav",80
Sample,83461,0,"SCG_G#4s.wav",100
Sample,83755,0,"Hat open.wav",50
Sample,83755,0,"SCG_A#4.wav",100
Sample,83755,0,"3-7s.wav",80
Sample,84196,0,"3-11.wav",80
Sample,84196,0,"SCG_C5s.wav",100
Sample,84785,0,"SCG_D5s.wav",100
Sample,85079,0,"SCG_D#5s.wav",100
Sample,85079,0,"3-14.wav",80
Sample,85373,0,"4-11.wav",80
Sample,85373,0,"SCG_F5s.wav",100
Sample,85814,0,"SCG_D#6s.wav",100
Sample,85814,0,"6-12s.wav",80
Sample,85814,0,"Hat open.wav",50
Sample,86108,0,"6-11s.wav",70
Sample,86108,0,"SCG_D6s.wav",100
Sample,86108,0,"Hat open.wav",50
Sample,86255,0,"SCG_A#5s.wav",100
Sample,86255,0,"5-12.wav",70
Sample,86549,0,"5-9s.wav",80
Sample,86549,0,"SCG_G5s.wav",100
Sample,86843,0,"SCG_F5s.wav",100
Sample,86843,0,"4-11.wav",80
Sample,86990,0,"5-9s.wav",80
Sample,86990,0,"SCG_G5s.wav",100
Sample,86990,0,"Hat open.wav",50
Sample,87138,0,"SCG_A#5s.wav",100
Sample,87285,0,"SCG_D#6s.wav",100
Sample,87285,0,"6-12s.wav",70
Sample,87285,0,"Hat open.wav",50
Sample,87579,0,"Tom2.wav",50
Sample,87579,0,"SCG_D#6s.wav",100
Sample,87579,0,"6-12s.wav",70
Sample,87873,0,"4-9^5-9s.wav",80
Sample,88314,0,"4-9^5-9s.wav",80
Sample,88755,0,"4-9^5-9s.wav",80
Sample,89049,0,"4-9^5-9s.wav",80

[TimingPoints]
-362,294.117647058824,4,2,1,50,1,0
35961,-100,4,2,1,50,0,1
56108,-100,4,2,1,50,0,0
66549,-100,4,2,1,50,0,1
77285,-100,4,2,1,50,0,0

[HitObjects]
320,192,2579,128,0,5520:0:0:0:0:
64,192,5520,128,6,7873:0:0:0:0:
448,192,7873,128,6,10226:0:0:0:0:
192,192,10226,128,6,11402:0:0:0:0:
320,192,11402,128,6,12579:0:0:0:0:
64,192,12579,128,6,13755:0:0:0:0:
320,192,13755,1,12,0:0:0:0:
320,192,14049,1,12,0:0:0:0:
192,192,14343,1,2,0:0:0:0:
448,192,14490,1,2,0:0:0:0:
64,192,14638,1,8,0:0:0:0:
192,192,14932,1,2,0:0:0:0:
320,192,14932,1,4,0:0:0:0:
448,192,15226,1,8,0:0:0:0:
64,192,15814,1,8,0:0:0:0:
448,192,16402,1,8,0:0:0:0:
64,192,16990,1,8,0:0:0:0:
448,192,17285,1,2,0:0:0:0:
192,192,17579,1,8,0:0:0:0:
320,192,18167,1,8,0:0:0:0:
192,192,18755,1,8,0:0:0:0:
320,192,19343,1,8,0:0:0:0:
64,192,19638,1,2,0:0:0:0:
448,192,19932,1,8,0:0:0:0:
192,192,20520,1,8,0:0:0:0:
320,192,20814,1,2,0:0:0:0:
448,192,21108,1,8,0:0:0:0:
64,192,21696,1,8,0:0:0:0:
320,192,21990,1,2,0:0:0:0:
64,192,22285,1,8,0:0:0:0:
320,192,22873,1,8,0:0:0:0:
192,192,23167,1,2,0:0:0:0:
448,192,23461,1,8,0:0:0:0:
64,192,23755,1,0,0:0:0:20:soft-hitclap.wav
320,192,24049,1,8,0:0:0:0:
64,192,24343,1,6,0:0:0:0:
192,192,24343,1,0,0:0:0:60:SCG_B4.wav
448,192,24785,1,2,0:0:0:0:
192,192,25226,1,8,0:0:0:0:
320,192,25520,128,0,25961:0:0:0:0:
64,192,25961,128,0,26402:0:0:0:0:
448,192,26402,128,0,26696:0:0:0:0:
192,192,26696,1,2,0:0:0:0:
64,192,27138,1,2,0:0:0:0:
320,192,27579,1,8,0:0:0:0:
448,192,28167,1,2,0:0:0:0:
64,192,28461,1,8,0:0:0:0:
320,192,28608,1,2,0:0:0:0:
192,192,29049,1,6,0:0:0:0:
448,192,29049,1,0,0:0:0:60:SCG_B4.wav
64,192,29490,1,2,0:0:0:0:
320,192,29932,1,8,0:0:0:0:
192,192,30226,128,0,30667:0:0:0:0:
448,192,30667,128,0,31108:0:0:0:0:
64,192,31108,128,0,31402:0:0:0:0:
320,192,31402,1,2,0:0:0:0:
192,192,31696,1,0,0:0:0:80:SCG_C#5.wav
64,192,31990,1,0,0:0:0:50:Hat open.wav
320,192,32285,1,12,0:0:0:0:
448,192,32285,1,0,0:0:0:80:4-9.wav
64,192,32579,1,0,0:0:0:80:4-9.wav
192,192,32873,1,0,0:0:0:30:soft-hitclap.wav
320,192,33167,1,8,0:0:0:0:
448,192,33461,1,8,0:0:0:0:
64,192,33755,128,6,34932:0:0:0:0:
192,192,33755,1,0,0:0:0:70:4-14_long.wav
448,192,34932,1,8,0:0:0:0:
192,192,35079,1,8,0:0:0:0:
320,192,35226,1,8,0:0:0:0:
320,192,35961,1,6,0:0:0:0:
448,192,35961,128,0,36402:0:0:0:50:4-13^6-16s.wav
64,192,36402,1,8,0:0:0:0:
192,192,36696,1,2,0:0:0:0:
448,192,36843,1,2,0:0:0:0:
64,192,37138,128,2,37579:0:0:0:0:
320,192,37579,1,8,0:0:0:0:
448,192,37873,1,2,0:0:0:0:
192,192,38020,1,2,0:0:0:0:
320,192,38314,128,2,38608:0:0:0:0:
64,192,38608,128,2,38902:0:0:0:0:
448,192,38902,128,0,39196:0:0:0:50:4-16.wav
192,192,39196,128,2,39490:0:0:0:0:
320,192,39490,128,2,39785:0:0:0:0:
64,192,39785,1,2,0:0:0:0:
448,192,40226,1,2,0:0:0:0:
192,192,40373,1,2,0:0:0:0:
320,192,40667,128,6,41108:0:0:0:0:
448,192,40667,1,0,0:0:0:50:4-9.wav
192,192,41108,1,8,0:0:0:0:
64,192,41402,1,2,0:0:0:0:
448,192,41549,1,2,0:0:0:0:
192,192,41843,128,2,42285:0:0:0:0:
320,192,42285,1,8,0:0:0:0:
448,192,42579,1,2,0:0:0:0:
64,192,42726,1,2,0:0:0:0:
320,192,43020,128,2,43314:0:0:0:0:
192,192,43314,128,2,43608:0:0:0:0:
448,192,43608,128,0,43902:0:0:0:50:4-6.wav
64,192,43902,128,2,44196:0:0:0:0:
320,192,44196,1,2,0:0:0:0:
448,192,44638,1,8,0:0:0:0:
64,192,44932,1,8,0:0:0:0:
320,192,45079,1,2,0:0:0:0:
64,192,45373,128,6,45814:0:0:0:0:
192,192,45373,1,0,0:0:0:50:4-13^6-16s.wav
320,192,45814,1,8,0:0:0:0:
448,192,46108,1,2,0:0:0:0:
192,192,46255,1,2,0:0:0:0:
320,192,46549,128,2,46990:0:0:0:0:
64,192,46990,1,8,0:0:0:0:
192,192,47285,1,2,0:0:0:0:
448,192,47432,1,2,0:0:0:0:
64,192,47726,128,2,48020:0:0:0:0:
320,192,48020,128,2,48314:0:0:0:0:
192,192,48314,128,0,48608:0:0:0:50:4-16.wav
448,192,48608,128,2,48902:0:0:0:0:
64,192,48902,128,2,49196:0:0:0:0:
320,192,49196,1,2,0:0:0:0:
192,192,49638,1,2,0:0:0:0:
448,192,49785,1,2,0:0:0:0:
64,192,49932,1,8,0:0:0:0:
192,192,50079,1,6,0:0:0:0:
320,192,50079,128,0,50373:0:0:0:50:4-9.wav
64,192,50373,128,2,50667:0:0:0:0:
448,192,50667,128,0,50961:0:0:0:50:4-9.wav
192,192,50961,128,2,51255:0:0:0:0:
320,192,51255,128,2,51549:0:0:0:0:
64,192,51549,128,2,51843:0:0:0:0:
192,192,51843,128,0,52138:0:0:0:50:4-8s.wav
448,192,52138,128,2,52432:0:0:0:0:
64,192,52432,1,2,0:0:0:0:
320,192,52579,1,12,0:0:0:0:
320,192,52873,1,8,0:0:0:0:
192,192,53167,1,8,0:0:0:0:
192,192,53461,1,8,0:0:0:0:
448,192,53755,1,12,0:0:0:0:
448,192,54049,1,8,0:0:0:0:
64,192,54343,1,8,0:0:0:0:
64,192,54638,1,8,0:0:0:0:
320,192,54932,1,12,0:0:0:0:
448,192,54932,1,0,0:0:0:60:4-16.wav
192,192,55226,1,8,0:0:0:0:
64,192,55373,1,8,0:0:0:0:
448,192,55373,1,0,0:0:0:50:Tom2.wav
320,192,55667,1,8,0:0:0:0:
64,192,55814,1,8,0:0:0:0:
192,192,55814,1,0,0:0:0:50:Tom2.wav
320,192,56108,1,8,0:0:0:0:
448,192,56108,1,0,0:0:0:50:Hat open.wav
192,192,56696,1,0,0:0:0:50:Tom1.wav
320,192,57138,128,6,58314:0:0:0:0:
64,192,58314,128,6,59490:0:0:0:0:
448,192,59490,128,6,60667:0:0:0:0:
192,192,60667,128,6,61402:0:0:0:0:
320,192,61402,1,0,0:0:0:50:Tom1.wav
64,192,61549,1,0,0:0:0:50:Tom2.wav
448,192,61696,1,0,0:0:0:50:Tom3.wav
192,192,61843,128,6,62285:0:0:0:0:
320,192,62285,1,2,0:0:0:0:
64,192,62579,1,8,0:0:0:0:
448,192,62726,1,0,0:0:0:0:
192,192,62873,1,0,0:0:0:50:Hat open.wav
320,192,63020,128,2,63461:0:0:0:0:
64,192,63461,1,2,0:0:0:0:
448,192,63755,1,8,0:0:0:0:
192,192,63902,1,0,0:0:0:0:
64,192,64196,128,2,64490:0:0:0:0:
320,192,64490,128,8,64785:0:0:0:0:
192,192,64785,128,2,65079:0:0:0:0:
448,192,65079,128,2,65373:0:0:0:0:
64,192,65373,1,2,0:0:0:0:
192,192,65373,1,4,0:0:0:0:
320,192,65667,1,2,0:0:0:0:
64,192,65814,1,8,0:0:0:0:
192,192,66108,1,8,0:0:0:0:
448,192,66255,128,8,66549:0:0:0:0:
64,192,66549,128,6,66990:0:0:0:0:
192,192,66549,1,0,0:0:0:50:4-13^6-16s.wav
320,192,66990,1,12,0:0:0:0:
448,192,66990,1,0,0:0:0:50:4-13^6-16s.wav
192,192,67285,1,2,0:0:0:0:
448,192,67432,1,2,0:0:0:0:
320,192,67726,128,2,68167:0:0:0:0:
64,192,68167,1,8,0:0:0:0:
448,192,68461,1,2,0:0:0:0:
192,192,68608,1,2,0:0:0:0:
320,192,68902,128,2,69196:0:0:0:0:
64,192,69196,128,2,69490:0:0:0:0:
192,192,69490,128,0,69785:0:0:0:50:4-16.wav
448,192,69785,128,2,70079:0:0:0:0:
320,192,70079,128,2,70373:0:0:0:0:
64,192,70373,1,2,0:0:0:0:
192,192,70814,1,2,0:0:0:0:
320,192,70961,1,2,0:0:0:0:
64,192,71108,1,8,0:0:0:0:
320,192,71255,128,6,71549:0:0:0:0:
448,192,71255,1,0,0:0:0:50:4-9.wav
192,192,71549,128,2,71843:0:0:0:0:
448,192,71843,128,0,72138:0:0:0:50:4-9.wav
64,192,72138,128,2,72432:0:0:0:0:
192,192,72432,128,2,72726:0:0:0:0:
320,192,72726,128,2,73020:0:0:0:0:
448,192,73020,128,0,73314:0:0:0:50:4-8s.wav
192,192,73314,128,2,73608:0:0:0:0:
320,192,73608,1,2,0:0:0:0:
64,192,73755,1,12,0:0:0:0:
64,192,74049,1,8,0:0:0:0:
448,192,74343,1,8,0:0:0:0:
448,192,74638,1,8,0:0:0:0:
192,192,74932,1,12,0:0:0:0:
192,192,75226,1,8,0:0:0:0:
320,192,75520,1,8,0:0:0:0:
320,192,75814,1,8,0:0:0:0:
64,192,76108,1,12,0:0:0:0:
192,192,76108,1,0,0:0:0:60:4-16.wav
320,192,76402,1,2,0:0:0:0:
64,192,76549,1,8,0:0:0:0:
448,192,76549,1,0,0:0:0:50:Tom2.wav
192,192,76843,1,8,0:0:0:0:
320,192,76990,1,8,0:0:0:0:
448,192,76990,1,0,0:0:0:50:Tom2.wav
64,192,77285,1,6,0:0:0:0:
192,192,77285,1,0,0:0:0:80:4-9^5-9s.wav
448,192,77873,1,0,0:0:0:80:4-9s.wav
64,192,78020,128,0,78314:0:0:0:80:4-9.wav
320,192,78314,128,6,78755:0:0:0:0:
448,192,78314,1,0,0:0:0:80:4-11.wav
192,192,78755,128,8,79049:0:0:0:0:
64,192,79049,1,2,0:0:0:0:
448,192,79196,128,2,79490:0:0:0:0:
192,192,79490,128,2,79932:0:0:0:0:
320,192,79932,128,8,80226:0:0:0:0:
64,192,80226,1,2,0:0:0:0:
448,192,80373,1,2,0:0:0:0:
320,192,80520,1,8,0:0:0:0:
192,192,80667,128,2,81108:0:0:0:0:
448,192,81108,128,8,81402:0:0:0:0:
64,192,81402,1,2,0:0:0:0:
320,192,81549,1,2,0:0:0:0:
192,192,81696,1,8,0:0:0:0:
64,192,81843,128,2,82138:0:0:0:0:
320,192,82138,1,2,0:0:0:0:
192,192,82285,128,8,82579:0:0:0:0:
448,192,82579,1,2,0:0:0:0:
320,192,82726,128,2,83020:0:0:0:0:
64,192,83020,128,6,83314:0:0:0:0:
320,192,83314,1,2,0:0:0:0:
192,192,83461,128,8,83755:0:0:0:0:
448,192,83755,128,2,84196:0:0:0:0:
64,192,84196,128,2,84785:0:0:0:0:
320,192,84785,128,0,85079:0:0:0:80:3-13s.wav
448,192,85079,128,2,85373:0:0:0:0:
192,192,85373,128,6,85814:0:0:0:0:
320,192,85814,128,8,86108:0:0:0:0:
64,192,86108,1,2,0:0:0:0:
448,192,86255,128,2,86549:0:0:0:0:
64,192,86549,128,2,86843:0:0:0:0:
320,192,86843,1,2,0:0:0:0:
192,192,86990,1,8,0:0:0:0:
448,192,87138,1,0,0:0:0:70:5-12.wav
320,192,87285,128,2,87579:0:0:0:0:
64,192,87579,128,8,87873:0:0:0:0:
320,192,87873,1,8,0:0:0:0:
448,192,87873,1,0,0:0:0:50:Hat open.wav
192,192,88167,1,2,0:0:0:0:
64,192,88314,1,8,0:0:0:0:
448,192,88314,1,0,0:0:0:50:Hat open.wav
320,192,88608,1,2,0:0:0:0:
64,192,88755,1,8,0:0:0:0:
192,192,88755,1,0,0:0:0:50:Hat open.wav
320,192,89049,1,8,0:0:0:0:
448,192,89049,1,0,0:0:0:50:Hat open.wav
