osu file format v14

[General]
AudioFilename: audio.mp3
AudioLeadIn: 0
PreviewTime:163630
Countdown: 0
SampleSet: Soft
StackLeniency: 0.3
Mode: 0
LetterboxInBreaks: 0
WidescreenStoryboard: 1

[Editor]
DistanceSpacing: 0.7
BeatDivisor: 4
GridSize: 4
TimelineZoom: 1

[Metadata]
Title:I'M A BELIEVER
TitleUnicode:アイム・ア・ビリーバー
Artist:SPYAIR
ArtistUnicode:SPYAIR
Creator:Nevo
Version:torriru's Insane
Source:ハイキュー!! セカンドシーズン
Tags:2nd second season japanese anime opening rock jrock vocal haikyu!! haikyuu!! volleyball show amb1d3x Hishiro Chizuru Shirahane Suou torriru xandit armin a_r_m_i_n im full ver version
BeatmapID:2960323
BeatmapSetID:1433638

[Difficulty]
HPDrainRate:5
CircleSize:3.6
OverallDifficulty:8.5
ApproachRate:9
SliderMultiplier:1.8
SliderTickRate:1

[Events]
//Background and Video events
0,0,"haikyu-art-scale-6_00x.jpg",0,0
//Break Periods
//Storyboard Layer 0 (Background)
//Storyboard Layer 1 (Fail)
//Storyboard Layer 2 (Pass)
//Storyboard Layer 3 (Foreground)
//Storyboard Layer 4 (Overlay)
//Storyboard Sound Samples

[TimingPoints]
389,309.278350515464,4,2,1,70,1,0
389,-142.857142857143,4,2,1,70,0,0
10285,-142.857142857143,4,2,1,60,0,0
18945,-111.111111111111,4,2,1,60,0,0
19254,-111.111111111111,4,2,1,70,0,0
20105,-111.111111111111,4,2,1,5,0,0
20182,-125,4,2,1,70,0,0
30079,-117.647058823529,4,2,1,70,0,0
35028,-125,4,2,1,70,0,0
37811,-111.111111111111,4,2,1,70,0,0
39821,-100,4,2,1,80,0,1
58533,-125,4,2,1,80,0,1
59461,-100,4,2,1,80,0,1
59693,-100,4,2,1,5,0,1
59770,-111.111111111111,4,2,1,80,0,0
65956,-111.111111111111,4,2,1,70,0,0
67193,-100,4,2,1,80,0,0
72141,-100,4,2,1,60,0,0
76780,-111.111111111111,4,2,1,70,0,0
77012,-111.111111111111,4,2,1,5,0,0
77090,-125,4,2,1,65,0,0
85749,-111.111111111111,4,2,1,65,0,0
86986,-111.111111111111,4,2,1,70,0,0
96883,-117.647058823529,4,2,1,70,0,0
101832,-125,4,2,1,70,0,0
104615,-111.111111111111,4,2,1,70,0,0
106626,-100,4,2,1,80,0,1
125337,-125,4,2,1,80,0,1
126265,-100,4,2,1,80,0,1
126497,-100,4,2,1,5,0,1
126574,-111.111111111111,4,2,1,80,0,0
132760,-111.111111111111,4,2,1,70,0,0
133997,-100,4,2,1,80,0,0
140028,-100,4,2,1,80,0,1
148842,-142.857142857143,4,2,1,80,0,1
149383,-142.857142857143,4,2,1,5,0,1
149461,-142.857142857143,4,2,1,80,0,1
150002,-142.857142857143,4,2,1,5,0,1
150079,-142.857142857143,4,2,1,70,0,0
151162,-100,4,2,1,70,0,0
151471,-142.857142857143,4,2,1,70,0,0
153636,-100,4,2,1,70,0,0
155028,-125,4,2,1,70,0,0
158430,-111.111111111111,4,2,1,70,0,0
161213,-142.857142857143,4,2,1,70,0,0
161600,-142.857142857143,4,2,1,5,0,0
161677,-142.857142857143,4,2,1,70,0,0
162064,-142.857142857143,4,2,1,5,0,0
162141,-166.666666666667,4,2,1,70,0,0
162760,-100,4,2,1,70,0,0
164770,-100,4,2,1,80,0,1
183481,-125,4,2,1,80,0,1
184409,-100,4,2,1,80,0,1
184641,-100,4,2,1,5,0,1
184718,-111.111111111111,4,2,1,80,0,0
190904,-111.111111111111,4,2,1,70,0,0
192141,-100,4,2,1,80,0,0
196007,-100,4,2,1,70,0,0
196471,-100,4,2,1,80,0,0
196626,-100,4,2,1,70,0,0
197090,-100,4,2,1,80,0,0
200956,-100,4,2,1,70,0,0
202038,-142.857142857143,4,2,1,60,0,0
210698,-142.857142857143,4,2,1,50,0,0
211548,-166.666666666667,4,2,1,5,0,0

[Colours]
Combo1 : 253,207,102
Combo2 : 255,128,0
Combo3 : 192,192,192

[HitObjects]
0,151,389,6,1,B|41:144|41:144|78:168|78:168|119:162,1,125.999996154785,6|2,1:2|0:0,0:0:0:0:
230,86,852,2,1,B|204:91|192:114|192:114|204:190,1,126,2|2,3:2|3:2,0:0:0:0:
280,284,1316,2,0,P|249:270|215:273,1,62.9999999999999,0|2,0:0|0:0,0:0:0:0:
323,359,1626,6,0,P|350:339|365:308,1,62.9999999999999,2|0,0:0|0:0,0:0:0:0:
347,228,1935,1,2,0:0:0:0:
347,228,2090,2,1,B|379:205|419:225|402:231|439:248|470:230,1,126,2|2,3:2|3:2,0:0:0:0:
406,78,2553,2,0,P|392:109|395:143,1,62.9999999999999,0|2,0:0|0:0,0:0:0:0:
448,7,2863,6,1,P|380:-2|331:41,1,126,4|2,1:2|0:0,0:0:0:0:
243,110,3327,2,1,B|256:32|256:32|232:25|217:5,1,126,2|2,3:2|3:2,0:0:0:0:
103,78,3791,2,0,P|134:92|168:89,1,62.9999999999999,0|2,0:0|0:0,0:0:0:0:
62,3,4100,6,0,P|34:22|19:53,1,62.9999999999999,2|0,0:0|0:0,0:0:0:0:
120,163,4409,1,2,0:0:0:0:
120,163,4564,2,1,B|80:168|80:168|43:144|43:144|2:151,1,126,2|2,3:2|3:2,0:0:0:0:
161,232,5028,2,0,P|188:212|203:181,1,62.9999999999999,0|2,0:0|0:0,0:0:0:0:
134,308,5337,6,1,B|166:331|206:311|189:305|226:288|257:306,1,126,4|2,1:2|0:0,0:0:0:0:
343,358,5801,2,1,B|331:282|331:282|343:259|369:254,1,126,2|2,3:2|3:2,0:0:0:0:
459,298,6265,2,0,P|443:325|418:343,1,62.9999999999999,0|2,0:0|0:0,0:0:0:0:
451,208,6574,2,0,P|482:207|510:220,1,62.9999999999999,2|0,0:0|0:0,0:0:0:0:
369,253,6883,1,2,0:0:0:0:
369,253,7038,6,0,L|394:109,1,126,2|2,3:2|3:2,0:0:0:0:
268,70,7502,2,0,P|296:82|327:82,1,62.9999999999999,0|2,0:0|0:0,0:0:0:0:
225,0,7811,6,0,P|199:18|184:45,1,62.9999999999999,4|0,1:2|0:0,0:0:0:0:
264,159,8120,1,2,0:0:0:0:
264,159,8275,2,1,B|224:153|224:153|187:177|187:177|146:170,1,126,2|2,3:2|3:2,0:0:0:0:
64,280,8739,2,0,L|127:268,1,62.9999999999999,0|2,0:0|0:0,0:0:0:0:
264,248,9048,1,4,1:2:0:0:
400,80,10285,6,1,B|414:98|438:105|438:105|425:183,1,126,6|2,1:2|0:0,0:0:0:0:
380,264,10749,2,0,P|408:276|439:276,1,62.9999999999999,2|0,0:0|0:0,0:0:0:0:
336,192,11059,2,0,P|311:210|296:237,1,62.9999999999999,2|0,0:0|0:0,0:0:0:0:
425,183,11368,6,0,L|414:120,1,62.9999999999999,2|0,0:0|0:0,0:0:0:0:
492,24,11677,2,1,P|431:34|380:0,1,126,2|0,0:0|0:0,0:0:0:0:
276,88,12141,2,0,L|338:77,1,62.9999999999999,2|0,0:0|0:0,0:0:0:0:
247,175,12450,2,0,L|185:165,1,62.9999999999999,2|0,0:0|0:0,0:0:0:0:
84,72,12760,6,1,B|96:148|96:148|84:171|58:176,1,126,2|2,0:0|0:0,0:0:0:0:
0,280,13224,2,0,L|62:269,1,62.9999999999999,2|0,0:0|0:0,0:0:0:0:
160,364,13533,2,0,L|97:353,1,62.9999999999999,2|0,0:0|0:0,0:0:0:0:
192,240,13842,2,1,B|233:233|233:233|270:257|270:257|310:252,1,126,2|0,0:0|0:0,0:0:0:0:
431,333,14461,5,2,0:0:0:0:
431,333,14615,2,0,P|443:305|443:274,1,62.9999999999999,2|0,0:0|0:0,0:0:0:0:
309,252,14925,2,0,P|327:276|354:291,1,62.9999999999999,2|0,0:0|0:0,0:0:0:0:
348,174,15234,6,1,P|287:164|236:198,1,126,2|0,0:0|0:0,0:0:0:0:
121,265,15698,2,1,B|147:260|159:237|159:237|147:161,1,126,2|0,0:0|0:0,0:0:0:0:
69,67,16162,2,0,P|97:79|128:79,1,62.9999999999999,2|0,0:0|0:0,0:0:0:0:
256,54,16471,2,0,P|231:72|216:99,1,62.9999999999999,2|0,0:0|0:0,0:0:0:0:
284,250,16780,2,0,L|309:106,1,126,2|0,0:0|0:0,0:0:0:0:
458,32,17399,6,0,P|430:20|399:20,1,62.9999999999999,2|2,0:0|0:0,0:0:0:0:
293,93,17708,2,1,B|334:86|334:86|371:110|371:110|411:105,1,126,2|0,0:0|0:0,0:0:0:0:
240,23,18172,2,1,P|205:74|215:135,1,126,2|0,0:0|0:0,0:0:0:0:
352,194,18636,2,0,P|324:182|293:182,1,62.9999999999999,2|0,0:0|0:0,0:0:0:0:
400,290,18945,6,0,P|436:269|452:230,1,80.9999975280763,2|0,0:0|0:0,0:0:0:0:
310,279,19254,2,0,L|324:360,1,81.0000000000001,14|0,0:0|0:0,0:0:0:0:
207,269,19564,1,10,0:3:0:0:
207,269,19641,1,8,0:3:0:0:
207,269,19718,2,0,L|215:222,1,40.5,4|4,0:3|0:3,0:0:0:0:
295,100,19873,2,1,P|243:134|182:124,1,121.5,14|0,0:0|0:0,0:0:0:0:
164,99,20182,6,0,L|176:28,1,72,6|0,1:2|0:0,0:0:0:0:
51,131,20492,1,10,0:0:0:0:
51,131,20646,2,0,L|63:201,1,72,2|0,0:0|1:2,0:0:0:0:
153,303,20956,2,0,P|120:286|81:288,1,72,2|8,1:2|0:0,0:0:0:0:
192,381,21265,2,0,P|223:360|240:326,1,72,2|0,0:0|1:2,0:0:0:0:
153,213,21574,6,1,B|200:204|200:204|243:232|243:232|291:226,1,144,2|0,1:2|0:0,0:0:0:0:
342,151,22038,2,0,P|309:134|270:136,1,72,2|0,1:2|1:2,0:0:0:0:
380,236,22347,2,0,P|411:215|428:181,1,72,10|0,0:0|0:0,0:0:0:0:
344,57,22657,6,1,B|376:75|418:56|398:49|444:26|480:53,1,144,2|10,1:2|0:0,0:0:0:0:
274,110,23120,2,0,P|257:77|259:38,1,72,2|0,0:0|1:2,0:0:0:0:
357,145,23430,2,0,P|336:176|302:193,1,72,2|8,1:2|0:0,0:0:0:0:
160,268,23739,6,1,B|189:262|203:235|203:235|189:149,1,144,2|0,0:0|1:2,0:0:0:0:
243,79,24203,2,0,P|211:62|175:62,1,72,8|2,0:0|0:0,0:0:0:0:
87,212,24512,1,2,1:2:0:0:
35,61,24667,1,12,0:0:0:0:
176,200,24821,2,0,P|176:235|159:267,1,72,14|0,0:0|0:0,0:0:0:0:
40,335,25131,6,1,B|87:326|87:326|130:354|130:354|178:348,1,144,6|8,1:2|0:0,0:0:0:0:
290,234,25595,2,0,L|265:375,1,144,2|0,0:0|1:2,0:0:0:0:
239,164,26059,2,0,P|270:147|306:147,1,72,10|0,0:0|0:0,0:0:0:0:
409,322,26368,6,1,B|379:316|365:289|365:289|379:203,1,144,2|8,1:2|0:0,0:0:0:0:
498,128,26832,2,1,B|461:152|415:129|435:122|393:103|361:121,1,144,2|0,0:0|1:2,0:0:0:0:
310,213,27296,2,0,P|346:216|379:203,1,72,10|0,0:0|0:0,0:0:0:0:
239,153,27605,6,0,L|214:294,1,144,2|8,1:2|0:0,0:0:0:0:
115,320,28069,2,0,L|139:178,1,144,2|0,0:0|1:2,0:0:0:0:
37,107,28533,2,0,P|72:110|105:96,1,72,8|0,0:0|0:0,0:0:0:0:
245,45,28842,5,0,1:2:0:0:
139,178,28997,1,0,1:2:0:0:
86,15,29151,2,0,P|121:11|154:25,1,72,12|0,0:0|0:0,0:0:0:0:
232,184,29461,1,2,1:2:0:0:
232,184,29615,1,0,1:2:0:0:
333,34,29770,2,0,L|349:133,1,72,14|0,0:0|0:0,0:0:0:0:
371,271,30079,5,6,1:2:0:0:
371,271,30234,2,0,P|333:275|297:260,1,76.5000000000003,2|0,1:2|1:2,0:0:0:0:
429,207,30543,2,0,P|451:237|456:275,1,76.5000000000003,2|8,0:0|0:0,0:0:0:0:
456,274,31162,6,0,L|481:122,1,153.000000000001,10|2,0:0|1:2,0:0:0:0:
337,68,31626,2,0,P|371:82|409:78,1,76.5000000000003,0|0,1:2|0:0,0:0:0:0:
293,0,31935,2,0,P|262:22|247:57,1,76.5000000000003,10|0,0:0|0:0,0:0:0:0:
310,200,32244,2,0,P|305:162|282:132,1,76.5000000000003,2|0,0:0|0:0,0:0:0:0:
148,185,32553,5,2,1:2:0:0:
148,185,32708,2,0,L|223:197,1,76.5000000000003,2|0,1:2|1:2,0:0:0:0:
83,119,33017,2,0,P|60:149|55:186,1,76.5000000000003,2|8,0:0|0:0,0:0:0:0:
55,186,33636,6,1,B|103:176|103:176|148:205|148:205|197:199,1,153.000000000001,10|2,0:0|1:2,0:0:0:0:
251,116,34100,2,0,P|216:101|178:105,1,76.5000000000003,0|2,1:2|0:0,0:0:0:0:
294,196,34409,2,0,P|324:173|339:138,1,76.5000000000003,10|0,0:0|0:0,0:0:0:0:
439,54,34718,1,10,0:3:0:0:
440,63,34796,1,8,0:3:0:0:
442,72,34873,1,4,0:3:0:0:
444,82,34950,1,4,0:3:0:0:
446,91,35028,6,0,L|459:166,1,72,6|0,1:2|0:0,0:0:0:0:
362,93,35337,2,0,L|375:168,1,72,0|2,1:2|1:2,0:0:0:0:
280,271,35646,2,0,L|293:196,1,72,2|0,1:2|0:0,0:0:0:0:
196,269,35956,2,0,L|209:194,1,72,0|0,1:2|0:0,0:0:0:0:
62,59,36265,5,10,0:0:0:0:
254,116,36419,2,0,P|219:101|181:105,1,72,2|0,0:0|1:2,0:0:0:0:
309,200,36729,2,1,P|350:136|338:63,1,144,10|0,0:0|0:0,0:0:0:0:
183,103,37193,2,0,L|254:116,1,72,10|0,0:0|0:0,0:0:0:0:
464,152,37502,5,6,1:2:0:0:
464,152,37811,6,0,L|384:138,1,81,0|8,1:2|0:0,0:0:0:0:
328,288,38120,2,0,L|410:273,1,81.0000000000001,8|8,1:2|0:0,0:0:0:0:
224,216,38430,1,8,1:2:0:0:
328,376,38584,1,0,0:0:0:0:
392,192,38739,1,4,1:2:0:0:
4,164,39821,6,1,B|61:152|61:152|115:186|115:186|177:174,1,180,6|0,1:2|1:2,0:0:0:0:
240,64,40285,2,0,P|198:46|153:51,1,90,8|2,0:0|0:0,0:0:0:0:
296,160,40595,1,2,1:2:0:0:
296,160,40749,2,0,P|332:133|350:91,1,90,2|8,1:2|0:0,0:0:0:0:
180,152,41059,6,0,L|213:340,1,180,2|2,1:2|1:2,0:0:0:0:
384,272,41523,1,8,0:0:0:0:
384,272,41677,2,0,P|342:254|297:259,1,90,2|0,0:0|1:2,0:0:0:0:
436,368,41986,2,0,P|472:341|490:299,1,90,2|8,1:2|0:0,0:0:0:0:
356,144,42296,6,1,P|428:200|518:178,1,180,6|0,1:2|1:2,0:0:0:0:
432,16,42760,2,0,L|447:104,1,90,8|2,0:0|0:0,0:0:0:0:
270,157,43069,1,2,1:2:0:0:
270,157,43224,2,0,P|311:139|356:144,1,90,2|8,1:2|0:0,0:0:0:0:
228,248,43533,6,0,P|192:221|173:180,1,90,2|0,1:2|0:0,0:0:0:0:
327,239,43842,2,0,P|321:283|295:319,1,90,2|8,1:2|0:0,0:0:0:0:
270,157,44151,2,0,L|358:141,1,90,2|0,0:0|1:2,0:0:0:0:
472,56,44461,1,2,1:2:0:0:
472,56,44615,2,0,L|383:40,1,90,8|0,0:0|0:0,0:0:0:0:
327,239,44925,6,1,B|384:227|384:227|438:261|438:261|494:250,1,180,6|8,1:2|0:0,0:0:0:0:
284,327,45389,2,0,P|247:300|229:259,1,90,2|0,0:0|1:2,0:0:0:0:
357,158,45698,2,0,P|353:202|327:239,1,90,2|8,1:2|0:0,0:0:0:0:
298,82,46007,6,1,P|384:67|451:122,1,180,2|0,0:0|1:2,0:0:0:0:
262,166,46471,2,0,P|225:139|207:98,1,90,8|2,0:0|0:0,0:0:0:0:
357,158,46780,2,0,L|341:246,1,90,2|0,1:2|1:2,0:0:0:0:
268,384,47090,2,0,L|252:296,1,90,10|0,0:0|0:0,0:0:0:0:
106,188,47399,6,1,B|142:195|160:229|160:229|142:338,1,180,6|12,1:2|0:0,0:0:0:0:
18,167,47863,1,0,0:0:0:0:
18,167,48017,2,0,P|36:126|72:100,1,90,2|0,1:2|0:0,0:0:0:0:
191,201,48327,2,0,P|146:205|106:188,1,90,8|2,0:0|0:0,0:0:0:0:
297,119,48636,5,6,1:2:0:0:
145,23,48791,2,0,L|161:111,1,90,2|8,1:2|0:0,0:0:0:0:
277,246,49100,2,0,P|235:228|191:232,1,90,6|8,1:2|0:3,0:0:0:0:
296,368,49409,1,2,1:2:0:0:
318,364,49486,1,0,1:2:0:0:
340,360,49564,1,4,0:3:0:0:
362,356,49641,1,4,0:3:0:0:
384,352,49718,6,1,B|396:295|396:295|362:241|362:241|373:185,1,180,6|0,1:2|1:2,0:0:0:0:
262,86,50182,2,0,P|304:104|348:100,1,90,8|2,0:0|0:0,0:0:0:0:
223,0,50492,1,2,1:2:0:0:
223,0,50646,2,0,P|186:27|167:67,1,90,2|8,1:2|0:0,0:0:0:0:
288,190,50956,6,0,L|110:221,1,180,2|2,1:2|1:2,0:0:0:0:
326,280,51419,1,8,0:0:0:0:
326,280,51574,2,0,P|362:252|381:212,1,90,2|0,0:0|1:2,0:0:0:0:
257,109,51883,2,0,P|262:153|288:190,1,90,2|8,1:2|0:0,0:0:0:0:
352,65,52193,6,1,P|284:9|198:24,1,180,6|0,1:2|1:2,0:0:0:0:
241,197,52657,2,0,L|257:109,1,90,8|2,0:0|0:0,0:0:0:0:
183,273,52966,1,2,1:2:0:0:
183,273,53120,2,0,P|225:291|269:287,1,90,2|8,1:2|0:0,0:0:0:0:
143,183,53430,6,0,P|106:210|87:250,1,90,2|0,1:2|0:0,0:0:0:0:
241,197,53739,2,0,P|236:152|210:116,1,90,2|8,1:2|0:0,0:0:0:0:
80,48,54048,2,0,L|168:32,1,90,2|0,0:0|1:2,0:0:0:0:
298,132,54358,1,2,1:2:0:0:
298,132,54512,2,0,L|210:116,1,90,8|0,0:0|0:0,0:0:0:0:
386,76,54821,6,1,P|401:161|345:229,1,180,6|8,1:2|0:0,0:0:0:0:
210,116,55285,2,0,L|298:132,1,90,2|0,0:0|1:2,0:0:0:0:
192,0,55595,2,0,L|104:16,1,90,2|8,1:2|0:0,0:0:0:0:
109,186,55904,6,0,P|127:144|123:100,1,90,2|0,0:0|1:2,0:0:0:0:
20,229,56213,2,0,P|47:265|87:284,1,90,2|8,0:0|0:0,0:0:0:0:
197,170,56523,2,0,L|109:186,1,90,2|0,0:0|1:2,0:0:0:0:
243,307,56832,2,0,L|331:323,1,90,2|8,1:2|0:0,0:0:0:0:
461,205,57141,1,2,0:0:0:0:
461,205,57296,6,1,B|404:193|404:193|350:227|350:227|294:216,1,180,6|8,1:2|0:0,0:0:0:0:
182,67,57760,1,2,0:0:0:0:
182,67,57914,2,1,B|200:176|200:176|182:210|146:217,1,180,0|8,1:2|0:0,0:0:0:0:
0,97,58378,1,0,1:2:0:0:
0,97,58533,6,0,L|88:113,2,72,8|0|0,0:0|1:2|1:2,0:0:0:0:
146,216,58997,2,0,L|58:232,2,72,0|8|12,1:2|0:3|0:3,0:0:0:0:
232,168,59461,2,1,P|241:234|203:292,1,135,14|0,0:0|0:0,0:0:0:0:
180,312,59770,6,1,B|232:301|232:301|281:332|281:332|332:322,1,161.999995056153,4|8,1:2|0:0,0:0:0:0:
427,298,60234,1,2,0:0:0:0:
427,298,60389,2,0,P|430:337|414:374,1,81.0000000000001,2|2,1:2|1:2,0:0:0:0:
362,233,60698,2,0,P|394:210|434:205,1,81.0000000000001,10|2,0:0|0:0,0:0:0:0:
330,322,61007,6,0,L|210:300,1,121.5,2|2,1:2|0:0,0:0:0:0:
178,294,61316,1,8,0:0:0:0:
92,238,61471,2,0,P|75:274|78:314,1,81.0000000000001,2|0,0:0|1:2,0:0:0:0:
181,194,61780,1,0,1:2:0:0:
181,194,61935,2,0,P|158:161|122:143,1,81.0000000000001,14|0,0:0|0:0,0:0:0:0:
73,1,62244,6,1,P|136:53|217:35,1,162,6|8,1:2|0:0,0:0:0:0:
326,136,62708,1,2,0:0:0:0:
326,136,62863,2,0,L|230:119,1,81.0000000000001,2|2,1:2|1:2,0:0:0:0:
416,115,63172,2,0,P|420:155|403:192,1,81.0000000000001,10|0,0:0|0:0,0:0:0:0:
275,274,63481,6,0,L|253:154,1,121.5,2|2,1:2|0:0,0:0:0:0:
246,121,63791,1,8,0:0:0:0:
187,33,63945,2,0,P|223:15|263:19,1,81.0000000000001,2|0,0:0|1:2,0:0:0:0:
144,120,64254,1,0,1:2:0:0:
144,120,64409,2,0,P|111:97|93:60,1,81.0000000000001,14|0,0:0|0:0,0:0:0:0:
246,121,64718,6,0,L|213:301,1,162,6|8,1:2|0:0,0:0:0:0:
80,220,65182,1,2,0:0:0:0:
166,354,65337,1,2,1:2:0:0:
166,354,65492,2,0,P|202:371|242:367,1,81.0000000000001,2|10,1:2|0:0,0:0:0:0:
409,232,65801,1,2,1:2:0:0:
216,280,65956,5,14,0:0:0:0:
399,363,66110,1,2,0:0:0:0:
399,363,67193,6,0,L|414:274,1,90,12|0,0:0|0:0,0:0:0:0:
292,163,67502,2,0,L|307:251,1,90,8|2,0:0|0:0,0:0:0:0:
353,72,67811,2,0,P|312:53|268:56,1,90,8|0,0:0|1:2,0:0:0:0:
132,152,68120,1,10,0:0:0:0:
292,163,68275,1,0,1:2:0:0:
175,0,68430,6,0,L|190:88,1,90,8|2,0:0|0:0,0:0:0:0:
43,173,68739,2,0,L|59:85,1,90,8|0,0:0|1:2,0:0:0:0:
101,250,69048,2,0,P|60:268|16:265,1,90,10|0,0:0|1:2,0:0:0:0:
188,236,69358,1,10,0:0:0:0:
43,173,69512,1,2,1:2:0:0:
159,320,69667,6,0,P|203:323|243:304,1,90,10|0,0:0|0:0,0:0:0:0:
130,169,69976,2,0,P|103:205|100:249,1,90,8|2,0:0|0:0,0:0:0:0:
278,217,70285,2,0,P|258:176|222:151,1,90,8|0,0:0|1:2,0:0:0:0:
67,100,70595,1,10,0:0:0:0:
188,236,70749,1,0,1:2:0:0:
192,32,70904,5,8,1:2:0:0:
40,180,71059,1,8,1:2:0:0:
278,217,71523,5,8,1:2:0:0:
67,100,71677,1,8,1:2:0:0:
156,316,72141,5,6,1:2:0:0:
256,192,72218,12,0,74461,0:0:0:0:
277,11,74615,5,8,0:0:0:0:
426,190,74770,1,8,0:0:0:0:
195,129,75852,5,8,0:0:0:0:
422,54,76007,1,8,0:0:0:0:
294,243,76471,5,10,0:3:0:0:
294,243,76626,1,8,0:3:0:0:
157,49,76780,2,1,P|217:42|266:75,1,121.499996292114,14|0,0:0|0:0,0:0:0:0:
183,200,77090,6,0,L|195:129,1,72,6|0,0:0|0:0,0:0:0:0:
67,44,77399,1,10,0:0:0:0:
67,44,77553,2,0,L|79:115,1,72,2|0,0:0|1:2,0:0:0:0:
183,200,77863,2,0,P|152:217|116:217,1,72,2|8,1:2|0:0,0:0:0:0:
224,120,78172,2,0,P|254:138|272:169,1,72,2|0,0:0|1:2,0:0:0:0:
224,286,78481,6,1,B|271:277|271:277|314:305|314:305|360:296,1,144,2|0,1:2|0:0,0:0:0:0:
417,214,78945,2,0,P|386:197|350:197,1,72,2|0,1:2|1:2,0:0:0:0:
454,307,79254,2,0,P|484:288|502:257,1,72,10|0,0:0|0:0,0:0:0:0:
384,96,79564,2,1,P|442:134|512:126,1,144,2|10,1:2|0:0,0:0:0:0:
308,44,80028,2,0,P|291:75|291:111,1,72,2|0,0:0|1:2,0:0:0:0:
433,144,80337,2,0,P|414:113|384:96,1,72,2|8,1:2|0:0,0:0:0:0:
260,229,80646,6,1,B|289:223|304:196|304:196|290:110,1,144,2|0,0:0|1:2,0:0:0:0:
172,216,81110,2,0,P|171:251|189:282,1,72,8|2,0:0|0:0,0:0:0:0:
376,248,81419,1,2,1:2:0:0:
220,148,81574,1,12,0:0:0:0:
364,336,81729,2,0,P|399:337|430:319,1,72,14|0,0:0|0:0,0:0:0:0:
406,129,82038,6,1,B|377:135|362:162|362:162|376:248,1,144,6|8,1:2|0:0,0:0:0:0:
488,76,82502,2,1,P|430:38|360:46,1,144,2|0,0:0|1:2,0:0:0:0:
339,146,82966,2,0,P|375:147|406:129,1,72,10|0,0:0|0:0,0:0:0:0:
264,92,83275,2,0,P|245:122|245:157,1,72,2|0,1:2|1:2,0:0:0:0:
256,4,83584,6,1,B|209:-5|209:-5|166:23|166:23|118:17,1,144,10|0,0:0|1:2,0:0:0:0:
144,160,84048,1,0,1:2:0:0:
144,160,84203,2,0,P|144:124|125:94,1,72,10|2,0:0|0:0,0:0:0:0:
104,252,84512,2,1,P|174:258|232:218,1,144,2|8,1:2|0:0,0:0:0:0:
364,128,84976,2,1,B|335:134|320:161|320:161|334:247,1,144,2|0,0:0|1:2,0:0:0:0:
452,136,85440,2,0,P|452:100|433:70,1,72,10|0,0:0|0:0,0:0:0:0:
284,142,85749,6,0,L|364:128,1,81,2|0,1:2|1:2,0:0:0:0:
216,88,86059,2,0,P|196:122|196:162,1,80.9999975280763,10|0,0:0|0:0,0:0:0:0:
344,44,86368,1,8,0:3:0:0:
344,44,86445,1,0,0:0:0:0:
344,44,86523,2,0,L|297:52,1,40.5,0|0,1:2|1:2,0:0:0:0:
424,136,86677,2,0,L|445:16,1,121.5,12|0,0:0|0:0,0:0:0:0:
344,44,86986,6,0,L|330:124,1,81.0000000000001,6|0,1:2|0:0,0:0:0:0:
437,215,87296,1,10,0:0:0:0:
438,216,87450,2,0,L|424:136,1,81.0000000000001,2|0,0:0|1:2,0:0:0:0:
376,296,87760,2,0,P|410:316|450:316,1,81.0000000000001,2|8,1:2|0:0,0:0:0:0:
336,204,88069,2,0,P|301:223|281:258,1,81.0000000000001,2|0,0:0|1:2,0:0:0:0:
438,216,88378,6,0,L|466:53,1,162,2|0,1:2|0:0,0:0:0:0:
308,52,88842,2,0,P|348:52|382:32,1,81.0000000000001,2|0,1:2|1:2,0:0:0:0:
236,0,89151,2,0,P|215:34|215:74,1,81.0000000000001,10|0,0:0|0:0,0:0:0:0:
352,156,89461,6,0,L|272:142,1,81.0000000000001,2|0,1:2|1:2,0:0:0:0:
188,252,89770,1,10,0:0:0:0:
188,252,89925,2,0,L|266:238,1,81.0000000000001,2|0,0:0|1:2,0:0:0:0:
116,192,90234,2,0,P|95:226|95:266,1,81.0000000000001,2|8,1:2|0:0,0:0:0:0:
244,120,90543,6,1,B|202:147|149:121|172:113|125:91|88:112,1,162,2|0,0:0|1:2,0:0:0:0:
308,64,91007,2,0,P|329:98|329:138,1,81.0000000000001,8|2,0:0|0:0,0:0:0:0:
272,280,91316,1,2,1:2:0:0:
424,180,91471,1,12,0:0:0:0:
244,120,91626,2,0,L|258:199,1,81.0000000000001,14|0,0:0|0:0,0:0:0:0:
392,344,91935,6,1,B|340:334|340:334|292:364|292:364|240:358,1,162,6|8,1:2|0:0,0:0:0:0:
124,220,92399,2,0,L|151:379,1,162,2|0,0:0|1:2,0:0:0:0:
184,156,92863,2,0,P|150:135|110:135,1,81.0000000000001,10|0,0:0|0:0,0:0:0:0:
248,244,93172,6,1,P|288:172|271:91,1,162,2|8,1:2|0:0,0:0:0:0:
216,320,93636,2,1,B|257:347|310:321|287:313|334:291|371:312,1,162,2|0,0:0|1:2,0:0:0:0:
512,360,94100,2,0,P|478:381|438:381,1,81.0000000000001,10|0,0:0|0:0,0:0:0:0:
424,160,94409,6,1,B|456:166|473:197|473:197|457:293,1,162,2|8,1:2|0:0,0:0:0:0:
336,112,94873,2,1,P|396:64|483:85,1,162,2|0,0:0|1:2,0:0:0:0:
344,208,95337,2,0,P|303:208|269:187,1,81.0000000000001,8|0,0:0|0:0,0:0:0:0:
188,43,95646,5,0,1:2:0:0:
336,112,95801,1,0,1:2:0:0:
187,216,95956,2,0,L|172:136,1,81.0000000000001,12|0,0:0|0:0,0:0:0:0:
66,227,96265,1,10,0:3:0:0:
66,227,96419,1,0,1:2:0:0:
167,302,96574,2,0,P|207:302|241:281,1,81.0000000000001,14|0,0:0|0:0,0:0:0:0:
344,200,96883,5,6,1:2:0:0:
344,200,97038,2,0,P|324:233|325:272,1,76.5000000000003,2|0,1:2|1:2,0:0:0:0:
425,168,97347,2,0,P|406:134|371:115,1,76.5000000000003,2|8,0:0|0:0,0:0:0:0:
374,115,97966,6,1,B|326:105|326:105|281:134|281:134|232:125,1,153.000000000001,10|2,0:0|1:2,0:0:0:0:
172,49,98430,2,0,P|205:29|244:30,1,76.5000000000003,0|0,1:2|0:0,0:0:0:0:
132,133,98739,2,0,P|98:114|79:80,1,76.5000000000003,10|0,0:0|0:0,0:0:0:0:
231,124,99048,2,0,L|217:198,1,76.5000000000003,2|0,0:0|0:0,0:0:0:0:
132,305,99358,5,6,1:2:0:0:
132,305,99512,2,0,P|165:285|204:286,1,76.5000000000003,2|0,1:2|1:2,0:0:0:0:
96,384,99821,2,0,P|62:365|43:331,1,76.5000000000003,2|8,0:0|0:0,0:0:0:0:
43,333,100440,6,0,L|68:181,1,153.000000000001,10|2,0:0|1:2,0:0:0:0:
208,112,100904,2,0,P|175:132|136:131,1,76.5000000000003,0|2,1:2|0:0,0:0:0:0:
244,32,101213,2,0,P|277:50|296:84,1,76.5000000000003,10|0,0:0|0:0,0:0:0:0:
224,204,101523,2,0,L|267:196,1,38.2500000000001,10|8,0:3|0:3,0:0:0:0:
416,124,101677,2,0,L|378:117,1,38.2500000000001,4|4,0:3|0:3,0:0:0:0:
240,288,101832,6,0,L|314:274,1,72,6|0,1:2|0:0,0:0:0:0:
224,204,102141,2,0,L|313:187,1,72,0|2,1:2|1:2,0:0:0:0:
416,124,102450,2,0,L|342:110,1,72,2|0,1:2|0:0,0:0:0:0:
432,40,102760,2,0,L|358:26,1,72,0|0,1:2|0:0,0:0:0:0:
160,136,103069,5,10,0:0:0:0:
244,12,103224,2,0,P|256:45|249:81,1,72,2|0,0:0|1:2,0:0:0:0:
112,208,103533,2,1,P|176:167|249:179,1,144,10|0,0:0|0:0,0:0:0:0:
200,336,103997,2,0,P|188:303|195:267,1,72,10|8,0:0|0:3,0:0:0:0:
288,384,104306,5,6,1:2:0:0:
288,384,104615,6,0,L|368:370,1,81,0|8,1:2|0:0,0:0:0:0:
480,264,104925,2,0,L|400:250,1,81.0000000000001,8|8,1:2|0:0,0:0:0:0:
220,216,105234,1,8,1:2:0:0:
400,132,105389,1,0,0:0:0:0:
260,302,105543,1,4,1:2:0:0:
95,84,106626,6,1,B|84:140|84:140|118:194|118:194|106:251,1,180,6|0,1:2|1:2,0:0:0:0:
204,116,107090,2,0,P|211:72|195:30,1,90,8|2,0:0|0:0,0:0:0:0:
128,192,107399,1,2,1:2:0:0:
128,192,107553,2,0,P|162:220|206:227,1,90,2|8,1:2|0:0,0:0:0:0:
316,152,107863,6,1,B|298:259|298:259|317:294|352:301,1,180,2|2,1:2|1:2,0:0:0:0:
392,84,108327,1,8,0:0:0:0:
392,84,108481,2,0,P|357:55|313:48,1,90,2|0,0:0|1:2,0:0:0:0:
412,184,108791,2,0,P|453:168|481:133,1,90,2|8,1:2|0:0,0:0:0:0:
317,152,109100,6,0,L|140:184,1,180,6|0,1:2|1:2,0:0:0:0:
84,100,109564,2,0,P|125:84|169:91,1,90,8|2,0:0|0:0,0:0:0:0:
88,264,109873,1,2,1:2:0:0:
88,264,110028,2,0,P|53:235|37:194,1,90,2|8,1:2|0:0,0:0:0:0:
226,198,110337,6,0,L|138:183,1,90,2|0,1:2|0:0,0:0:0:0:
340,64,110646,2,0,L|251:79,1,90,2|8,1:2|0:0,0:0:0:0:
416,184,110956,2,0,L|327:168,1,90,2|0,0:0|1:2,0:0:0:0:
504,236,111265,1,2,1:2:0:0:
504,236,111419,2,0,P|519:194|512:150,1,90,8|0,0:0|0:0,0:0:0:0:
344,344,111729,6,1,B|400:355|400:355|454:321|454:321|511:333,1,180,6|8,1:2|0:0,0:0:0:0:
264,292,112193,2,0,P|249:334|256:378,1,90,2|0,0:0|1:2,0:0:0:0:
352,248,112502,2,0,P|323:214|281:198,1,90,2|8,1:2|0:0,0:0:0:0:
128,300,112811,6,1,B|163:293|182:258|182:258|164:151,1,180,2|0,0:0|1:2,0:0:0:0:
296,0,113275,1,8,0:0:0:0:
280,180,113430,1,2,0:0:0:0:
128,52,113584,2,0,P|171:45|213:60,1,90,2|0,1:2|1:2,0:0:0:0:
60,136,113894,2,0,P|31:101|23:57,1,90,10|0,0:0|0:0,0:0:0:0:
163,150,114203,6,0,L|131:327,1,180,6|8,1:2|0:0,0:0:0:0:
324,280,114667,1,0,0:0:0:0:
324,280,114821,2,0,P|282:265|238:272,1,90,2|0,1:2|0:0,0:0:0:0:
376,372,115131,2,0,P|409:343|425:301,1,90,8|2,0:0|0:0,0:0:0:0:
292,172,115440,5,6,1:2:0:0:
492,208,115595,2,0,L|403:192,1,90,2|8,1:2|0:0,0:0:0:0:
292,64,115904,2,0,L|381:48,1,90,6|8,1:2|0:3,0:0:0:0:
200,212,116213,1,2,1:2:0:0:
196,190,116291,1,0,1:2:0:0:
192,168,116368,1,4,0:3:0:0:
188,146,116445,1,4,0:3:0:0:
184,124,116523,6,1,B|127:112|127:112|73:146|73:146|17:135,1,180,6|0,1:2|1:2,0:0:0:0:
200,212,116986,2,0,P|243:218|285:203,1,90,8|2,0:0|0:0,0:0:0:0:
248,36,117296,1,2,1:2:0:0:
248,36,117450,2,0,L|232:125,1,90,2|8,1:2|0:0,0:0:0:0:
384,232,117760,2,0,P|390:189|375:147,1,90,2|0,1:2|0:0,0:0:0:0:
304,308,118069,2,0,P|338:334|382:342,1,90,2|8,1:2|0:0,0:0:0:0:
200,212,118378,5,2,0:0:0:0:
392,132,118533,1,2,1:2:0:0:
304,308,118687,2,0,L|215:324,1,90,2|8,1:2|0:0,0:0:0:0:
32,222,118997,6,1,B|89:234|89:234|143:200|143:200|199:211,1,180,6|0,1:2|1:2,0:0:0:0:
80,36,119461,2,0,P|64:77|70:121,1,90,8|2,0:0|0:0,0:0:0:0:
280,176,119770,1,2,1:2:0:0:
88,232,119925,1,2,1:2:0:0:
232,80,120079,1,10,0:0:0:0:
316,276,120234,6,0,P|271:282|230:266,1,90,2|0,1:2|0:0,0:0:0:0:
388,200,120543,2,0,P|415:235|422:279,1,90,2|8,1:2|0:0,0:0:0:0:
280,176,120852,2,0,L|296:87,1,90,2|0,0:0|1:2,0:0:0:0:
124,0,121162,1,2,1:2:0:0:
124,0,121316,2,0,L|140:89,1,90,8|0,0:0|0:0,0:0:0:0:
24,232,121626,6,1,P|91:176|177:190,1,180,6|8,1:2|0:0,0:0:0:0:
136,360,122090,2,0,L|120:271,1,90,2|0,0:0|1:2,0:0:0:0:
280,176,122399,2,0,L|264:265,1,90,2|8,1:2|0:0,0:0:0:0:
224,88,122708,6,0,P|265:72|309:78,1,90,2|0,0:0|1:2,0:0:0:0:
172,176,123017,2,0,P|137:147|120:106,1,90,2|8,0:0|0:0,0:0:0:0:
280,176,123327,2,0,L|264:265,1,90,2|0,0:0|1:2,0:0:0:0:
144,384,123636,2,0,L|128:295,1,90,2|8,1:2|0:0,0:0:0:0:
16,188,123945,5,2,0:0:0:0:
16,188,124100,2,1,P|102:202|169:146,1,180,2|8,1:2|0:0,0:0:0:0:
269,9,124564,1,2,0:0:0:0:
269,9,124718,2,1,B|257:66|257:66|291:120|291:120|280:176,1,180,0|8,1:2|0:0,0:0:0:0:
340,264,125182,1,0,1:2:0:0:
340,264,125337,6,0,L|269:276,2,72,8|0|0,0:0|1:2|1:2,0:0:0:0:
440,200,125801,2,0,L|510:212,2,72,0|8|12,1:2|0:3|0:3,0:0:0:0:
308,32,126265,2,1,P|343:88|333:153,1,135,14|0,0:0|0:0,0:0:0:0:
304,176,126574,6,1,B|253:166|253:166|204:196|204:196|152:185,1,161.999995056153,4|8,1:2|0:0,0:0:0:0:
96,104,127038,1,2,0:0:0:0:
96,104,127193,2,0,P|132:87|172:90,1,81.0000000000001,2|2,1:2|1:2,0:0:0:0:
52,192,127502,2,0,P|19:168|1:132,1,80.9999975280763,10|2,0:0|0:0,0:0:0:0:
151,185,127811,6,0,L|129:304,1,121.5,2|2,1:2|0:0,0:0:0:0:
125,335,128120,1,8,0:0:0:0:
308,280,128275,2,0,P|271:263|231:266,1,81.0000000000001,2|0,0:0|1:2,0:0:0:0:
352,368,128584,1,0,1:2:0:0:
352,368,128739,2,0,P|384:344|402:308,1,81.0000000000001,14|0,0:0|0:0,0:0:0:0:
343,171,129048,6,1,B|349:203|379:219|379:219|478:203,1,162,6|8,1:2|0:0,0:0:0:0:
392,96,129512,1,2,0:0:0:0:
392,96,129667,2,0,P|355:79|315:82,1,81.0000000000001,2|2,1:2|1:2,0:0:0:0:
329,250,129976,2,0,L|342:170,1,81.0000000000001,10|2,0:0|0:0,0:0:0:0:
213,20,130285,6,0,L|235:139,1,121.5,2|2,1:2|0:0,0:0:0:0:
239,170,130595,1,8,0:0:0:0:
62,108,130749,2,0,P|99:91|139:94,1,81.0000000000001,2|0,0:0|1:2,0:0:0:0:
101,263,131059,1,0,1:2:0:0:
101,263,131213,2,0,L|114:183,1,81.0000000000001,14|0,0:0|0:0,0:0:0:0:
187,320,131523,6,1,P|119:362|40:350,1,162,6|8,1:2|0:0,0:0:0:0:
113,183,131986,1,2,0:0:0:0:
191,324,132141,1,2,1:2:0:0:
191,324,132296,2,0,P|231:326|267:309,1,81.0000000000001,2|10,1:2|0:0,0:0:0:0:
367,134,132605,1,2,1:2:0:0:
204,228,132760,5,14,0:0:0:0:
401,252,132914,1,2,0:0:0:0:
401,252,133997,6,0,L|312:236,1,90,12|0,0:0|0:0,0:0:0:0:
195,157,134306,2,0,L|284:141,1,90,8|2,0:0|0:0,0:0:0:0:
112,211,134615,2,0,P|96:169|103:125,1,90,8|0,0:0|1:2,0:0:0:0:
217,295,134925,1,10,0:0:0:0:
283,141,135079,1,0,1:2:0:0:
402,340,135234,6,0,P|445:347|487:331,1,90,8|2,0:0|0:0,0:0:0:0:
338,267,135543,2,0,P|309:301|302:345,1,90,8|0,0:0|1:2,0:0:0:0:
434,247,135852,2,0,L|418:158,1,90,10|0,0:0|1:2,0:0:0:0:
314,7,136162,1,10,0:0:0:0:
473,82,136316,1,2,1:2:0:0:
317,149,136471,6,0,P|273:156|231:140,1,90,10|0,0:0|0:0,0:0:0:0:
107,9,136780,2,0,P|135:43|142:87,1,90,8|2,0:0|0:0,0:0:0:0:
90,260,137090,2,0,P|105:218|140:190,1,90,8|0,0:0|1:2,0:0:0:0:
317,149,137399,1,10,0:0:0:0:
174,265,137553,1,0,1:2:0:0:
244,72,137708,5,8,1:2:0:0:
316,264,137863,1,8,1:2:0:0:
396,64,138327,5,8,1:2:0:0:
240,196,138481,1,8,1:2:0:0:
240,196,139873,1,8,0:0:0:0:
167,25,140028,6,1,B|110:13|110:13|56:47|56:47|0:36,1,180,6|0,1:2|1:2,0:0:0:0:
147,196,140492,2,0,P|154:152|138:110,1,90,8|0,0:0|0:0,0:0:0:0:
73,263,140801,1,2,1:2:0:0:
73,263,140956,2,0,P|108:291|151:298,1,90,2|8,1:2|0:0,0:0:0:0:
318,166,141265,6,0,B|283:172|283:172|257:165|257:165|235:181|235:181|146:196,1,180,2|0,1:2|1:2,0:0:0:0:
318,73,141729,2,0,P|362:80|396:108,1,90,8|2,0:0|0:0,0:0:0:0:
464,288,142038,1,2,1:2:0:0:
318,166,142193,1,2,1:2:0:0:
512,197,142347,1,10,0:0:0:0:
319,275,142502,6,1,B|241:261|241:261|224:270|224:270|143:255,1,180,6|2,1:2|1:2,0:0:0:0:
12,353,142966,2,0,P|55:360|97:344,1,90,8|2,0:0|0:0,0:0:0:0:
202,161,143275,1,2,1:2:0:0:
42,265,143430,1,2,1:2:0:0:
241,261,143584,1,10,0:0:0:0:
34,150,143739,6,1,B|90:139|90:139|144:173|144:173|201:161,1,180,2|2,1:2|1:2,0:0:0:0:
387,139,144203,1,10,0:0:0:0:
246,37,144358,2,0,L|157:21,1,90,2|0,0:0|1:2,0:0:0:0:
321,87,144667,1,2,1:2:0:0:
321,87,144821,2,0,P|336:45|329:1,1,90,10|0,0:0|0:0,0:0:0:0:
202,118,145131,6,0,L|142:128,2,60,6|2|2,1:2|0:0|0:0,0:0:0:0:
280,169,145440,6,0,L|339:179,2,60,10|2|2,0:0|0:0|0:0,0:0:0:0:
200,209,145749,6,0,L|140:219,2,60,2|2|2,1:2|0:0|0:0,0:0:0:0:
273,259,146059,6,0,L|332:269,2,60,10|2|2,0:0|0:0|0:0,0:0:0:0:
213,321,146368,5,2,1:2:0:0:
182,326,146471,5,2,0:0:0:0:
152,330,146574,5,2,0:0:0:0:
121,334,146677,6,0,L|131:274,2,60,10|2|2,0:0|0:0|0:0,0:0:0:0:
47,238,146986,6,0,L|37:179,2,60,2|2|2,1:2|0:0|0:0,0:0:0:0:
150,185,147296,6,0,L|160:125,2,60,10|2|2,0:0|0:0|0:0,0:0:0:0:
82,67,147605,5,14,0:0:0:0:
116,31,147708,5,2,0:0:0:0:
163,21,147811,5,2,0:0:0:0:
209,38,147914,6,0,L|290:50,2,60,14|2|2,0:0|0:0|0:0,0:0:0:0:
82,67,148224,6,0,L|22:77,2,60,14|2|2,0:0|0:0|0:0,0:0:0:0:
205,127,148533,6,0,L|265:137,2,60,14|2|2,0:0|0:0|0:0,0:0:0:0:
11,198,148842,6,1,B|80:184|80:184|147:226|147:226|217:211,1,220.499993270874,14|0,0:0|0:0,0:0:0:0:
264,136,149461,6,0,P|152:147|142:264,1,220.5,6|0,1:2|0:0,0:0:0:0:
216,211,150079,5,6,1:2:0:0:
216,211,151007,5,8,0:0:0:0:
339,140,151162,2,0,L|323:228,1,90,6|0,1:2|0:0,0:0:0:0:
207,66,151471,2,1,B|249:89|305:64|278:55|339:24|387:60,1,188.999994232178,2|2,0:0|0:0,0:0:0:0:
385,59,152553,5,6,1:2:0:0:
385,59,153481,5,10,0:0:0:0:
288,176,153636,2,0,P|244:183|202:167,1,90,6|0,1:2|0:0,0:0:0:0:
64,48,153945,2,1,B|100:55|118:89|118:89|100:197,1,180,2|2,0:0|0:0,0:0:0:0:
1,294,154409,2,0,P|42:278|86:285,1,90,10|0,0:3|1:2,0:0:0:0:
251,343,154718,1,14,0:3:0:0:
228,347,154796,1,0,0:0:0:0:
206,351,154873,1,0,0:0:0:0:
184,355,154950,1,0,0:0:0:0:
162,359,155028,6,0,L|75:372,1,72,6|0,1:2|0:0,0:0:0:0:
157,274,155337,2,0,L|70:287,1,72,0|2,1:2|0:0,0:0:0:0:
9,185,155646,2,0,L|96:198,1,72,2|0,1:2|0:0,0:0:0:0:
14,100,155956,2,0,L|101:113,1,72,0|0,1:2|0:0,0:0:0:0:
236,135,156265,5,14,1:2:0:0:
167,0,156419,2,0,P|153:34|159:71,1,72,2|0,0:0|1:2,0:0:0:0:
324,119,156729,2,1,B|338:31|338:31|324:4|294:-1,1,144,10|0,1:2|0:0,0:0:0:0:
300,204,157193,2,0,P|335:208|368:194,1,72,10|0,1:2|1:2,0:0:0:0:
420,21,157502,5,6,1:2:0:0:
420,21,157811,1,0,1:2:0:0:
358,85,157966,1,8,0:0:0:0:
443,108,158120,1,8,0:0:0:0:
331,3,158275,1,8,0:0:0:0:
422,193,158430,6,0,P|460:197|496:182,1,81,8|0,0:0|0:0,0:0:0:0:
358,85,158739,2,0,L|327:258,1,161.999995056153,4|0,1:2|0:0,0:0:0:0:
304,332,159203,1,2,1:2:0:0:
304,332,159280,1,0,1:2:0:0:
304,332,159358,2,0,P|344:336|382:320,1,80.9999975280763,10|0,0:0|1:2,0:0:0:0:
240,258,159667,2,0,P|215:289|211:330,1,80.9999975280763,2|0,0:0|0:0,0:0:0:0:
329,244,159976,6,1,B|339:191|339:191|308:142|308:142|318:91,1,162.562500000001,4|0,1:2|0:0,0:0:0:0:
239,0,160440,1,0,1:2:0:0:
239,0,160517,1,0,1:2:0:0:
239,0,160595,2,0,L|225:78,1,81.0000000000001,10|0,0:0|1:2,0:0:0:0:
121,125,160904,2,0,L|135:45,1,81.0000000000001,8|0,0:0|0:0,0:0:0:0:
87,210,161213,6,1,B|127:233|174:212|152:204|200:182|237:204,1,157.499995193482,6|0,1:2|0:0,0:0:0:0:
291,143,161677,6,0,L|262:297,1,157.5,6|0,1:2|0:0,0:0:0:0:
348,300,162141,6,0,L|357:246,1,53.9999983520508,4|0,1:2|0:0,0:0:0:0:
392,60,162450,1,6,1:2:0:0:
475,238,162605,1,0,1:0:0:0:
291,143,162760,6,0,L|246:151,3,44.9999999999999,8|8|8|8,0:3|0:3|0:3|0:3,0:0:0:0:
392,60,163069,2,0,L|436:68,3,45,4|4|4|4,0:3|0:3|0:3|0:3,0:0:0:0:
288,0,163378,5,0,1:2:0:0:
265,3,163456,1,0,1:2:0:0:
243,7,163533,1,0,1:2:0:0:
221,11,163610,1,0,1:2:0:0:
199,15,163687,1,4,1:2:0:0:
443,321,164770,6,1,B|386:309|386:309|332:343|332:343|276:332,1,180,6|0,1:2|1:2,0:0:0:0:
227,232,165234,2,0,P|268:216|312:223,1,90,8|2,0:0|0:0,0:0:0:0:
177,359,165543,1,2,1:2:0:0:
133,202,165698,2,0,L|149:107,1,90,2|8,1:2|0:0,0:0:0:0:
314,70,166007,6,0,P|270:77|228:61,1,90,2|0,1:2|0:0,0:0:0:0:
382,1,166316,2,0,P|410:35|417:79,1,90,2|8,1:2|0:0,0:0:0:0:
306,222,166626,2,0,P|321:180|356:152,1,90,2|0,0:0|1:2,0:0:0:0:
447,294,166935,1,2,1:2:0:0:
512,148,167090,1,8,0:0:0:0:
347,300,167244,6,1,B|300:329|243:301|268:292|216:268|176:291,1,180,6|0,1:2|1:2,0:0:0:0:
296,136,167708,2,0,P|312:178|306:222,1,90,8|2,0:0|0:0,0:0:0:0:
145,162,168017,1,2,1:2:0:0:
247,52,168172,2,0,P|288:35|332:43,1,90,2|8,1:2|0:0,0:0:0:0:
488,134,168481,6,0,L|399:118,1,90,2|0,1:2|0:0,0:0:0:0:
306,222,168791,2,0,L|394:206,1,90,2|8,1:2|0:0,0:0:0:0:
242,147,169100,2,0,P|213:180|207:224,1,90,2|0,0:0|1:2,0:0:0:0:
394,206,169409,1,2,1:2:0:0:
292,65,169564,2,0,P|250:47|207:55,1,90,8|0,0:0|0:0,0:0:0:0:
77,150,169873,6,1,B|113:143|131:109|131:109|113:0,1,180,6|8,1:2|0:0,0:0:0:0:
22,221,170337,2,0,P|63:238|106:230,1,90,2|0,0:0|1:2,0:0:0:0:
243,128,170646,2,0,P|207:155|192:196,1,90,2|8,1:2|0:0,0:0:0:0:
317,384,170956,6,0,L|283:194,1,180,2|0,0:0|1:2,0:0:0:0:
379,77,171419,1,8,0:0:0:0:
383,268,171574,1,2,0:0:0:0:
243,127,171729,2,0,P|199:119|158:136,1,90,2|0,1:2|1:2,0:0:0:0:
270,277,172038,2,0,P|298:243|304:199,1,90,10|0,0:0|0:0,0:0:0:0:
130,353,172347,6,1,B|177:324|234:352|209:361|261:385|301:362,1,180,6|8,1:2|0:0,0:0:0:0:
422,253,172811,1,0,0:0:0:0:
279,192,172966,2,0,P|261:232|269:276,1,90,2|0,1:2|0:0,0:0:0:0:
352,131,173275,2,0,P|318:102|274:96,1,90,8|2,0:0|0:0,0:0:0:0:
422,253,173584,5,6,1:2:0:0:
453,78,173739,2,0,L|437:166,1,90,2|8,1:2|0:0,0:0:0:0:
495,353,174048,2,0,P|453:335|410:343,1,90,6|8,1:2|0:3,0:0:0:0:
268,384,174358,1,2,1:2:0:0:
271,361,174435,1,0,1:2:0:0:
275,339,174512,1,4,0:3:0:0:
279,317,174590,1,4,0:3:0:0:
283,295,174667,6,1,B|295:238|295:238|261:184|261:184|272:128,1,180,6|0,1:2|1:2,0:0:0:0:
133,26,175131,1,8,0:0:0:0:
169,199,175285,1,2,0:0:0:0:
282,41,175440,1,2,1:2:0:0:
89,143,175595,2,0,P|71:183|78:227,1,90,2|8,1:2|0:0,0:0:0:0:
251,154,175904,6,0,P|224:118|183:102,1,90,2|0,1:2|0:0,0:0:0:0:
248,250,176213,2,0,P|292:245|326:216,1,90,2|8,1:2|0:0,0:0:0:0:
169,199,176523,2,0,L|152:299,1,90,2|0,0:0|1:2,0:0:0:0:
327,217,176832,2,0,L|312:128,1,90,2|8,1:2|0:0,0:0:0:0:
173,39,177141,6,1,B|220:68|277:40|252:31|304:7|344:30,1,180,6|0,1:2|1:2,0:0:0:0:
478,151,177605,1,8,0:0:0:0:
312,128,177760,1,2,0:0:0:0:
464,40,177914,1,2,1:2:0:0:
345,209,178069,2,0,P|301:216|260:198,1,90,2|8,1:2|0:0,0:0:0:0:
327,39,178378,6,0,L|312:128,1,90,2|0,1:2|0:0,0:0:0:0:
164,236,178687,2,0,L|148:147,1,90,2|8,1:2|0:0,0:0:0:0:
200,328,178997,2,0,P|156:335|115:317,1,90,2|0,0:0|1:2,0:0:0:0:
300,248,179306,1,2,1:2:0:0:
148,147,179461,2,0,L|164:236,1,90,8|0,0:0|0:0,0:0:0:0:
248,40,179770,6,1,B|191:28|191:28|137:62|137:62|81:51,1,180,6|8,1:2|0:0,0:0:0:0:
137,231,180234,2,0,P|130:187|148:147,1,90,2|0,0:0|1:2,0:0:0:0:
212,296,180543,2,0,P|177:324|133:329,1,90,2|8,1:2|0:0,0:0:0:0:
240,200,180852,6,0,L|338:217,1,90,2|0,0:0|1:2,0:0:0:0:
452,96,181162,2,0,L|363:111,1,90,2|8,0:0|0:0,0:0:0:0:
296,312,181471,2,0,L|394:329,1,90,2|0,0:0|1:2,0:0:0:0:
512,172,181780,2,0,L|423:187,1,90,2|8,1:2|0:0,0:0:0:0:
240,108,182090,5,2,0:0:0:0:
452,12,182244,2,1,B|395:0|395:0|341:34|341:34|285:23,1,180,6|8,1:2|0:0,0:0:0:0:
144,152,182708,1,2,0:0:0:0:
144,152,182863,2,1,B|162:43|162:43|144:9|108:2,1,180,0|8,1:2|0:0,0:0:0:0:
0,216,183327,5,0,1:2:0:0:
0,216,183481,2,0,L|82:201,2,72,8|0|0,0:0|1:2|1:2,0:0:0:0:
148,304,183945,2,0,L|77:291,2,72,0|8|12,1:2|0:3|0:3,0:0:0:0:
216,228,184409,2,1,P|251:284|241:349,1,135,14|0,0:0|0:0,0:0:0:0:
216,364,184718,6,1,B|268:353|268:353|316:384|316:384|367:374,1,161.999995056153,4|8,1:2|0:0,0:0:0:0:
424,238,185182,1,2,0:0:0:0:
424,238,185337,2,0,L|342:223,1,81.0000000000001,2|2,1:2|1:2,0:0:0:0:
466,320,185646,2,0,P|498:296|512:259,1,81.0000000000001,10|2,0:0|0:0,0:0:0:0:
396,88,185956,6,0,L|418:214,1,121.5,2|2,1:2|0:0,0:0:0:0:
424,238,186265,1,8,0:0:0:0:
248,196,186419,2,0,P|284:179|323:185,1,81.0000000000001,2|0,0:0|1:2,0:0:0:0:
204,280,186729,1,0,1:2:0:0:
204,280,186883,2,0,P|171:256|157:219,1,81.0000000000001,14|0,0:0|0:0,0:0:0:0:
218,107,187193,6,1,B|167:96|167:96|118:126|118:126|68:117,1,162,6|8,1:2|0:0,0:0:0:0:
20,40,187657,1,2,0:0:0:0:
20,40,187811,2,0,P|56:23|95:29,1,81.0000000000001,2|2,1:2|1:2,0:0:0:0:
114,177,188120,2,0,P|82:154|68:117,1,81.0000000000001,10|0,0:0|0:0,0:0:0:0:
228,20,188430,6,0,L|205:146,1,121.5,2|2,1:2|0:0,0:0:0:0:
200,170,188739,1,8,0:0:0:0:
308,69,188894,2,0,L|292:156,1,81.0000000000001,2|0,0:0|1:2,0:0:0:0:
360,255,189203,1,0,1:2:0:0:
360,255,189358,2,0,P|323:238|284:244,1,81.0000000000001,14|0,0:0|0:0,0:0:0:0:
166,324,189667,6,1,B|200:303|248:325|225:333|277:359|319:332,1,162,6|8,1:2|0:0,0:0:0:0:
440,230,190131,1,2,0:0:0:0:
269,164,190285,1,2,1:2:0:0:
269,164,190440,2,0,L|284:244,1,81.0000000000001,2|10,1:2|0:0,0:0:0:0:
401,97,190749,1,2,1:2:0:0:
251,72,190904,5,14,0:0:0:0:
440,230,191059,1,2,0:0:0:0:
440,230,192141,6,0,P|396:237|354:221,1,91.1250000000001,12|0,0:0|0:0,0:0:0:0:
251,72,192450,2,0,P|279:106|286:150,1,90,8|2,0:0|0:0,0:0:0:0:
208,312,192760,2,0,P|223:270|258:242,1,90,8|0,0:0|1:2,0:0:0:0:
405,140,193069,1,10,0:0:0:0:
303,322,193224,1,0,1:2:0:0:
200,140,193378,6,0,L|111:124,1,90,8|2,0:0|0:0,0:0:0:0:
0,264,193687,2,0,L|88:248,1,90,8|0,0:0|1:2,0:0:0:0:
200,384,193997,2,0,L|111:368,1,90,10|0,0:0|1:2,0:0:0:0:
280,200,194306,1,10,0:0:0:0:
288,384,194461,1,2,1:2:0:0:
192,184,194615,6,0,P|207:142|242:114,1,90,10|0,0:0|0:0,0:0:0:0:
312,288,194925,2,0,P|268:295|226:279,1,90,8|2,0:0|0:0,0:0:0:0:
342,132,195234,2,0,P|370:166|377:210,1,90,8|0,0:0|1:2,0:0:0:0:
280,372,195543,1,10,0:0:0:0:
280,200,195698,1,0,1:2:0:0:
400,348,195852,5,8,1:2:0:0:
208,284,196007,1,8,1:2:0:0:
470,294,196471,5,8,1:2:0:0:
280,372,196626,1,8,1:2:0:0:
280,372,197090,6,0,P|236:379|194:363,1,90,12|0,0:0|0:0,0:0:0:0:
344,300,197399,2,0,P|372:334|379:378,1,90,8|2,0:0|0:0,0:0:0:0:
248,272,197708,2,0,L|263:181,1,90,8|0,0:0|1:2,0:0:0:0:
388,32,198017,1,10,0:0:0:0:
412,232,198172,1,0,1:2:0:0:
256,32,198327,6,0,P|212:24|170:40,1,90,8|2,0:0|0:0,0:0:0:0:
352,110,198636,2,0,P|380:75|388:32,1,90,8|0,0:0|1:2,0:0:0:0:
240,144,198945,2,0,L|255:232,1,90,10|0,0:0|1:2,0:0:0:0:
388,384,199254,1,10,0:0:0:0:
428,184,199409,1,2,1:2:0:0:
288,332,199564,6,0,P|244:339|202:323,1,90,10|0,0:0|0:0,0:0:0:0:
240,144,199873,2,0,L|255:232,1,90,8|2,0:0|0:0,0:0:0:0:
96,296,200182,2,0,P|111:254|146:226,1,90,8|0,0:0|1:2,0:0:0:0:
344,200,200492,1,10,0:0:0:0:
202,323,200646,1,0,1:2:0:0:
328,120,200801,5,8,1:2:0:0:
376,340,200956,1,8,1:2:0:0:
480,136,201419,5,8,1:2:0:0:
272,268,201574,1,8,1:2:0:0:
272,268,202038,6,1,B|231:261|231:261|194:285|194:285|153:279,1,125.999996154785,6|2,1:2|0:0,0:0:0:0:
52,208,202502,2,0,L|77:353,1,126,2|2,3:2|3:2,0:0:0:0:
96,136,202966,2,0,P|65:122|31:125,1,62.9999999999999,0|2,0:0|0:0,0:0:0:0:
144,208,203275,6,0,P|171:188|186:157,1,62.9999999999999,2|0,0:0|0:0,0:0:0:0:
256,96,203584,1,2,0:0:0:0:
256,96,203739,2,0,L|277:220,1,126,2|2,3:2|3:2,0:0:0:0:
356,312,204203,2,0,P|327:298|296:299,1,62.9999999999999,0|2,0:0|0:0,0:0:0:0:
408,380,204512,6,1,P|444:328|431:268,1,126,4|2,1:2|0:0,0:0:0:0:
328,188,204976,2,1,B|360:211|400:191|383:185|420:168|451:186,1,126,2|2,3:2|3:2,0:0:0:0:
256,232,205440,2,0,P|242:203|243:172,1,62.9999999999999,0|2,0:0|0:0,0:0:0:0:
356,96,205749,6,0,L|293:106,1,62.9999999999999,2|0,0:0|0:0,0:0:0:0:
192,28,206059,1,2,0:0:0:0:
192,28,206213,2,1,B|233:35|233:35|270:11|270:11|311:17,1,126,2|2,3:2|3:2,0:0:0:0:
120,80,206677,2,0,P|106:51|107:20,1,62.9999999999999,0|2,0:0|0:0,0:0:0:0:
216,156,206986,6,1,B|188:139|151:156|168:162|128:180|88:160,1,126,4|2,1:2|0:0,0:0:0:0:
272,228,207450,2,1,P|308:176|295:116,1,126,2|2,3:2|3:2,0:0:0:0:
184,248,207914,2,0,P|170:276|171:307,1,62.9999999999999,0|2,0:0|0:0,0:0:0:0:
317,268,208224,6,0,P|299:242|271:227,1,62.9999999999999,2|0,0:0|0:0,0:0:0:0:
268,356,208533,1,2,0:0:0:0:
268,356,208687,2,1,B|307:350|307:350|344:374|344:374|385:367,1,126,2|2,3:2|3:2,0:0:0:0:
432,272,209151,2,0,P|403:258|372:259,1,62.9999999999999,0|2,0:0|0:0,0:0:0:0:
488,344,209461,6,1,P|524:292|511:232,1,126,4|2,1:2|0:0,0:0:0:0:
392,160,209925,2,0,P|420:173|451:172,1,62.9999999999999,2|0,3:2|0:0,0:0:0:0:
348,84,210234,1,2,3:2:0:0:
348,84,210389,2,0,P|322:101|307:129,1,62.9999999999999,0|2,0:0|0:0,0:0:0:0:
256,224,210698,6,0,L|317:212,1,62.9999999999999,4|2,1:2|0:0,0:0:0:0:
184,184,211007,1,2,0:0:0:0:
184,184,211162,2,0,P|171:212|172:243,1,62.9999999999999,2|0,0:0|0:0,0:0:0:0:
224,96,211471,6,1,B|164:84|164:84|107:119|107:119|47:107,1,189,2|0,0:0|0:0,0:0:0:0:
