osu file format v14

[General]
AudioFilename: audio.mp3
AudioLeadIn: 0
PreviewTime:163630
Countdown: 0
SampleSet: Soft
StackLeniency: 0.7
Mode: 0
LetterboxInBreaks: 0
WidescreenStoryboard: 1

[Editor]
DistanceSpacing: 0.7
BeatDivisor: 4
GridSize: 4
TimelineZoom: 0.4999999

[Metadata]
Title:I'M A BELIEVER
TitleUnicode:アイム・ア・ビリーバー
Artist:SPYAIR
ArtistUnicode:SPYAIR
Creator:Nevo
Version:amb1's Extra
Source:ハイキュー!! セカンドシーズン
Tags:2nd second season japanese anime opening rock jrock vocal haikyu!! haikyuu!! volleyball show amb1d3x Hishiro Chizuru Shirahane Suou torriru xandit armin a_r_m_i_n im full ver version
BeatmapID:2962964
BeatmapSetID:1433638

[Difficulty]
HPDrainRate:6
CircleSize:4
OverallDifficulty:8
ApproachRate:9.2
SliderMultiplier:1.7
SliderTickRate:1

[Events]
//Background and Video events
0,0,"haikyu-art-scale-6_00x.jpg",0,0
//Break Periods
//Storyboard Layer 0 (Background)
//Storyboard Layer 1 (Fail)
//Storyboard Layer 2 (Pass)
//Storyboard Layer 3 (Foreground)
//Storyboard Layer 4 (Overlay)
//Storyboard Sound Samples

[TimingPoints]
389,309.278350515464,4,2,1,70,1,0
389,-142.857142857143,4,2,1,70,0,0
10285,-125,4,2,1,60,0,0
19254,-100,4,2,1,70,0,0
39821,-83.3333333333333,4,2,1,80,0,0
65956,-83.3333333333333,4,2,1,70,0,0
67193,-83.3333333333333,4,2,1,80,0,0
72141,-83.3333333333333,4,2,1,60,0,0
76780,-111.111111111111,4,2,1,70,0,0
77090,-100,4,2,1,65,0,0
86986,-100,4,2,1,70,0,0
106626,-83.3333333333333,4,2,1,80,0,0
132760,-83.3333333333333,4,2,1,70,0,0
133997,-83.3333333333333,4,2,1,80,0,0
138945,-500,4,2,1,70,0,0
139254,-500,4,2,1,5,0,0
139409,-500,4,2,1,70,0,0
140028,-71.4285714285714,4,2,1,80,0,1
144821,-83.3333333333333,4,2,1,80,0,1
145131,-83.3333333333333,4,2,1,80,0,1
148842,-133.333333333333,4,2,1,80,0,0
150079,-133.333333333333,4,2,1,70,0,0
155028,-100,4,2,1,70,0,0
164770,-71.4285714285714,4,2,1,80,0,0
184718,-83.3333333333333,4,2,1,80,0,0
190904,-83.3333333333333,4,2,1,70,0,0
192141,-76.9230769230769,4,2,1,80,0,0
196007,-76.9230769230769,4,2,1,70,0,0
196471,-76.9230769230769,4,2,1,80,0,0
196626,-76.9230769230769,4,2,1,70,0,0
197090,-76.9230769230769,4,2,1,80,0,0
200956,-76.9230769230769,4,2,1,70,0,0
202038,-133.333333333333,4,2,1,60,0,0
210698,-76.9230769230769,4,2,1,50,0,0

[Colours]
Combo1 : 253,207,102
Combo2 : 255,128,0
Combo3 : 192,192,192

[HitObjects]
184,257,389,5,6,1:2:0:0:
256,192,466,12,4,2863,1:2:0:0:
256,192,2940,12,4,5337,1:2:0:0:
256,192,5414,12,4,7811,1:2:0:0:
256,192,7889,12,4,9048,1:2:0:0:
43,40,9667,6,0,L|35:99,1,59.4999981842042,2|0,0:0|0:0,0:0:0:0:
124,72,9976,2,0,L|116:131,1,59.4999981842042,2|0,0:0|0:0,0:0:0:0:
8,240,10285,6,0,B|85:226|65:281|135:270,1,136,6|2,1:2|0:0,0:0:0:0:
221,267,10749,2,0,L|211:191,1,68,2|0,0:0|0:0,0:0:0:0:
307,291,11059,2,0,L|297:215,1,68,2|0,0:0|0:0,0:0:0:0:
331,85,11368,6,0,P|365:137|429:129,1,102,2|0,0:0|0:0,0:0:0:0:
419,133,11677,1,2,0:0:0:0:
451,52,11832,2,0,P|434:23|402:15,1,68
255,100,12141,2,0,L|163:88,1,68,2|0,0:0|0:0,0:0:0:0:
228,18,12450,2,0,L|136:6,1,68,2|0,0:0|0:0,0:0:0:0:
63,154,12760,6,0,P|105:188|125:283,1,136,2|2,0:0|0:0,0:0:0:0:
22,311,13224,2,0,P|4:343|0:373,1,68,2|0,0:0|0:0,0:0:0:0:
141,270,13533,2,0,P|145:232|135:202,1,68,2|0,0:0|0:0,0:0:0:0:
229,346,13842,2,0,B|297:333|303:373|362:358,1,136,2|0,0:0|0:0,0:0:0:0:
503,194,14306,6,0,L|427:184,1,68,0|2,0:0|0:0,0:0:0:0:
292,215,14615,1,2,0:0:0:0:
292,215,14770,1,0,0:0:0:0:
352,149,14925,2,0,P|345:99|314:59,1,102,2|0,0:0|0:0,0:0:0:0:
282,70,15234,6,0,B|210:86|214:42|142:62,1,136,2|0,0:0|0:0,0:0:0:0:
148,60,15698,1,2,0:0:0:0:
57,120,15852,2,0,P|86:135|104:164,1,68
185,152,16162,2,0,P|186:185|170:215,1,68,2|0,0:0|0:0,0:0:0:0:
6,344,16471,6,0,L|156:362,1,136,2|2,0:0|0:0,0:0:0:0:
140,360,16935,1,0,0:0:0:0:
228,315,17090,2,0,L|311:304,1,68
420,367,17399,1,2,0:0:0:0:
420,367,17553,1,2,0:0:0:0:
488,212,17708,6,0,P|477:142|421:98,1,136,2|0,0:0|0:0,0:0:0:0:
275,9,18172,2,0,P|286:79|342:123,1,136,2|0,0:0|0:0,0:0:0:0:
502,132,18636,2,0,P|477:108|446:95,1,68,2|0,0:0|0:0,0:0:0:0:
334,135,18945,2,0,P|304:152|270:156,1,68,2|0,0:0|0:0,0:0:0:0:
115,30,19254,6,0,L|95:188,1,127.5,14|0,0:0|0:0,0:0:0:0:
32,202,19564,1,10,0:3:0:0:
35,218,19641,1,8,0:3:0:0:
37,234,19718,1,4,0:3:0:0:
40,250,19796,1,4,0:3:0:0:
43,266,19873,2,0,B|144:279,1,85,14|0,0:0|0:0,0:0:0:0:
363,361,20182,6,0,P|333:282|360:203,1,170,6|10,1:2|0:0,0:0:0:0:
360,203,20646,1,2,0:0:0:0:
431,156,20801,1,0,1:2:0:0:
395,78,20956,1,2,1:2:0:0:
281,179,21110,2,0,P|238:165|211:131,1,85,8|2,0:0|0:0,0:0:0:0:
66,0,21419,5,0,1:2:0:0:
0,54,21574,1,2,1:2:0:0:
48,123,21729,2,0,P|58:206|42:289,1,170,8|2,0:0|1:2,0:0:0:0:
162,379,22193,1,0,1:2:0:0:
162,379,22347,2,0,P|139:316|142:267,1,85,10|0,0:0|0:0,0:0:0:0:
274,138,22657,5,2,1:2:0:0:
274,138,22811,1,0,1:2:0:0:
345,199,22966,2,0,L|432:188,1,85,10|2,0:0|0:0,0:0:0:0:
512,73,23275,1,0,1:2:0:0:
434,29,23430,1,2,1:2:0:0:
413,201,23584,2,0,L|328:211,1,85,8|2,0:0|0:0,0:0:0:0:
92,108,23894,5,0,1:2:0:0:
175,54,24048,1,0,1:2:0:0:
256,257,24203,1,8,0:0:0:0:
264,272,24512,5,2,1:2:0:0:
334,120,24667,1,12,0:0:0:0:
448,178,24821,1,14,0:0:0:0:
448,178,24976,1,0,1:0:0:0:
207,140,25131,6,0,P|151:159|107:264,1,170,6|8,1:2|0:0,0:0:0:0:
105,254,25595,1,2,0:0:0:0:
149,326,25749,1,0,1:2:0:0:
80,376,25904,1,0,1:2:0:0:
0,230,26059,2,0,L|11:138,1,85,10|0,0:0|0:0,0:0:0:0:
212,24,26368,5,2,1:2:0:0:
212,24,26523,1,0,1:2:0:0:
280,76,26677,2,0,L|300:245,1,170,8|0,0:0|1:2,0:0:0:0:
300,244,27141,1,0,1:2:0:0:
378,116,27296,2,0,L|367:31,1,85,10|0,0:0|0:0,0:0:0:0:
512,243,27605,5,2,1:2:0:0:
512,243,27760,1,0,1:2:0:0:
505,151,27914,2,0,P|435:194|429:282,1,170,8|0,0:0|1:2,0:0:0:0:
426,276,28378,1,0,1:2:0:0:
284,348,28533,2,0,P|324:335|366:338,1,85,8|0,0:0|0:0,0:0:0:0:
200,218,28842,5,0,1:2:0:0:
131,318,28997,1,0,1:2:0:0:
18,124,29151,1,12,0:0:0:0:
10,113,29461,5,2,1:2:0:0:
96,37,29615,1,0,1:2:0:0:
241,120,29770,2,0,L|352:106,1,85,14|0,0:0|0:0,0:0:0:0:
508,34,30079,5,6,1:2:0:0:
508,34,30234,1,2,1:2:0:0:
433,83,30389,2,0,L|410:265,2,170,0|8|0,1:2|0:0|0:0,0:0:0:0:
379,172,31162,2,0,L|470:160,1,85,10|0,0:0|0:0,0:0:0:0:
321,244,31471,1,2,1:2:0:0:
321,244,31626,2,0,L|236:233,1,85,0|0,1:2|0:0,0:0:0:0:
64,64,31935,6,0,P|112:128|92:240,1,170,10|2,0:0|0:0,0:0:0:0:
64,64,32553,1,2,1:2:0:0:
141,10,32708,1,2,1:2:0:0:
248,88,32863,2,0,L|430:65,2,170,0|8|0,1:2|0:0|0:0,0:0:0:0:
331,124,33636,2,0,L|342:35,1,85,10|0,0:0|0:0,0:0:0:0:
412,169,33945,1,2,1:2:0:0:
412,169,34100,2,0,L|423:80,1,85,0|2,1:2|0:0,0:0:0:0:
488,260,34409,6,0,P|425:255|375:292,1,127.5,10|0,0:0|0:0,0:0:0:0:
327,352,34718,2,0,P|298:347|279:331,3,42.5,10|8|4|4,0:3|0:3|0:3|0:3,0:0:0:0:
383,302,35028,5,6,1:2:0:0:
275,204,35337,1,0,1:2:0:0:
132,315,35646,1,2,1:2:0:0:
15,132,35956,1,0,1:2:0:0:
256,16,36265,5,10,0:0:0:0:
328,77,36419,2,0,L|338:160,1,85,2|0,0:0|1:2,0:0:0:0:
262,23,36729,1,10,0:0:0:0:
200,92,36883,2,0,B|126:127|112:52|21:100,1,170,0|10,1:2|0:0,0:0:0:0:
36,93,37347,1,0,0:0:0:0:
204,192,37502,5,6,1:2:0:0:
204,192,37811,1,0,1:2:0:0:
314,238,37966,1,8,0:0:0:0:
303,357,38120,1,8,1:2:0:0:
187,384,38275,1,8,0:0:0:0:
126,282,38430,1,8,1:2:0:0:
477,89,38739,5,4,1:2:0:0:
48,98,39821,6,0,L|267:71,1,203.999993774414,6|0,1:2|1:2,0:0:0:0:
150,32,40285,2,0,L|138:135,1,101.999996887207,8|2,0:0|0:0,0:0:0:0:
105,358,40595,1,2,1:2:0:0:
0,294,40749,1,2,1:2:0:0:
0,294,40827,1,0,1:0:0:0:
0,294,40904,1,8,0:0:0:0:
196,230,41059,6,0,B|303:222|275:285|393:278,1,203.999993774414,2|2,1:2|1:2,0:0:0:0:
442,136,41523,2,0,P|395:152|365:193,1,101.999996887207,8|2,0:0|0:0,0:0:0:0:
453,342,41832,1,0,1:2:0:0:
453,342,41986,1,2,1:2:0:0:
512,234,42141,1,8,0:0:0:0:
294,346,42296,6,0,L|80:319,1,203.999993774414,6|0,1:2|1:2,0:0:0:0:
187,281,42760,2,0,L|200:384,1,101.999996887207,8|2,0:0|0:0,0:0:0:0:
98,222,43069,1,2,1:2:0:0:
249,144,43224,1,2,1:2:0:0:
249,144,43301,1,0,1:0:0:0:
249,144,43378,1,8,0:0:0:0:
89,23,43533,6,0,P|42:40|0:69,1,101.999996887207,2|0,1:2|0:0,0:0:0:0:
258,154,43842,2,0,P|306:136|348:107,1,101.999996887207,2|8,1:2|0:0,0:0:0:0:
98,31,44151,2,0,P|51:48|9:77,1,101.999996887207,2|0,0:0|1:2,0:0:0:0:
271,165,44461,2,0,P|319:147|361:118,2,101.999996887207,2|8|0,1:2|0:0|0:0,0:0:0:0:
5,206,44925,5,6,1:2:0:0:
82,265,45079,2,0,L|69:372,1,101.999996887207,2|8,0:0|0:0,0:0:0:0:
181,234,45389,2,0,L|168:341,1,101.999996887207,2|0,0:0|1:2,0:0:0:0:
281,211,45698,1,2,1:2:0:0:
281,211,45852,1,8,0:0:0:0:
358,353,46007,5,2,1:2:0:0:
358,353,46084,1,0,1:2:0:0:
358,353,46162,1,0,1:2:0:0:
411,264,46316,2,0,L|534:248,1,101.999996887207,0|8,1:2|0:0,0:0:0:0:
306,79,46626,5,2,0:0:0:0:
242,136,46780,2,0,B|196:150|196:150|155:116,1,101.999996887207,2|0,1:2|1:2,0:0:0:0:
321,68,47090,2,0,B|368:53|368:53|409:87,1,101.999996887207,10|0,0:0|0:0,0:0:0:0:
253,346,47399,6,0,L|232:135,1,203.999993774414,6|12,1:2|0:0,0:0:0:0:
232,143,47863,1,0,0:0:0:0:
187,245,48017,2,0,L|299:258,2,101.999996887207,2|0|8,1:2|0:0|0:0,0:0:0:0:
8,129,48481,5,2,0:0:0:0:
110,45,48636,1,6,1:2:0:0:
110,45,48791,1,2,1:2:0:0:
191,236,48945,1,8,0:0:0:0:
114,153,49100,5,6,1:2:0:0:
311,77,49254,1,8,0:3:0:0:
461,224,49409,1,2,1:2:0:0:
460,239,49486,1,0,1:2:0:0:
458,255,49564,1,4,0:3:0:0:
456,271,49641,1,4,0:3:0:0:
454,287,49718,6,0,B|319:272|389:353|221:327,1,203.999993774414,6|0,1:2|1:2,0:0:0:0:
238,167,50182,2,0,P|285:218|290:260,1,101.999996887207,8|2,0:0|0:0,0:0:0:0:
182,370,50492,1,2,1:2:0:0:
26,273,50646,1,2,1:2:0:0:
26,273,50724,1,0,1:0:0:0:
26,273,50801,1,8,0:0:0:0:
137,23,50956,6,0,L|162:225,1,203.999993774414,2|2,1:2|1:2,0:0:0:0:
182,370,51419,1,8,0:0:0:0:
26,273,51574,1,2,1:2:0:0:
26,273,51652,1,0,1:0:0:0:
26,273,51729,1,0,1:2:0:0:
83,362,51883,1,2,1:2:0:0:
204,153,52038,1,8,0:0:0:0:
310,320,52193,6,0,L|512:295,1,203.999993774414,6|0,1:2|1:2,0:0:0:0:
415,253,52657,2,0,L|402:360,1,101.999996887207,8|2,0:0|0:0,0:0:0:0:
341,192,52966,1,2,1:2:0:0:
487,121,53120,1,2,1:2:0:0:
487,121,53198,1,0,1:0:0:0:
487,121,53275,1,8,0:0:0:0:
272,5,53430,6,0,B|157:1|188:78|76:66,1,203.999993774414,2|2,1:2|1:2,0:0:0:0:
9,22,53894,1,8,0:0:0:0:
257,89,54048,2,0,P|282:133|279:183,1,101.999996887207,2|0,0:0|1:2,0:0:0:0:
67,294,54358,1,2,1:2:0:0:
10,234,54512,2,0,P|10:183|35:139,1,101.999996887207,8|0,0:0|0:0,0:0:0:0:
215,259,54821,5,6,1:2:0:0:
271,191,54976,1,2,1:2:0:0:
271,191,55053,1,0,1:0:0:0:
271,191,55131,2,0,L|403:174,1,101.999996887207,8|2,0:0|0:0,0:0:0:0:
498,287,55440,1,0,1:2:0:0:
410,337,55595,1,2,1:2:0:0:
445,117,55749,1,8,0:0:0:0:
445,117,55904,1,2,0:0:0:0:
267,25,56059,6,0,L|152:39,1,101.999996887207,0|2,1:2|0:0,0:0:0:0:
16,125,56368,1,8,0:0:0:0:
88,184,56523,1,2,1:2:0:0:
88,184,56600,1,0,1:0:0:0:
88,184,56677,2,0,L|204:198,1,101.999996887207,0|2,1:2|1:2,0:0:0:0:
326,285,56986,1,8,0:0:0:0:
241,325,57141,1,2,0:0:0:0:
229,115,57296,6,0,B|339:90|304:173|426:144,1,203.999993774414,6|8,1:2|0:0,0:0:0:0:
378,65,57760,1,2,0:0:0:0:
267,192,57914,1,0,1:2:0:0:
267,192,58069,1,0,1:2:0:0:
384,338,58224,2,0,L|488:350,1,101.999996887207,8|0,0:0|1:2,0:0:0:0:
257,203,58533,5,8,0:0:0:0:
171,273,58687,1,0,1:2:0:0:
74,217,58842,1,0,1:2:0:0:
249,215,58997,5,0,1:2:0:0:
296,315,59151,1,8,0:3:0:0:
408,307,59306,1,12,0:3:0:0:
311,94,59461,5,14,0:0:0:0:
301,92,59538,1,0,1:0:0:0:
291,90,59615,1,0,1:0:0:0:
281,88,59693,1,0,1:0:0:0:
247,112,59770,2,0,L|454:85,1,203.999993774414,4|8,1:2|0:0,0:0:0:0:
450,86,60234,1,2,0:0:0:0:
496,166,60389,1,2,1:2:0:0:
442,239,60543,1,2,1:2:0:0:
495,314,60698,1,10,0:0:0:0:
316,367,60852,5,2,1:2:0:0:
316,367,60930,1,0,1:0:0:0:
316,367,61007,2,0,L|154:347,2,152.999995330811,2|2|2,1:2|0:0|0:0,0:0:0:0:
398,323,61626,1,0,1:2:0:0:
398,323,61780,1,0,1:2:0:0:
248,199,61935,5,14,0:0:0:0:
246,209,62012,1,0,1:0:0:0:
244,219,62090,1,0,1:0:0:0:
242,229,62167,1,0,1:0:0:0:
250,269,62244,2,0,B|261:177|171:188|192:82,1,203.999993774414,6|8,1:2|0:0,0:0:0:0:
192,82,62708,1,2,0:0:0:0:
264,25,62863,1,2,1:2:0:0:
343,71,63017,1,2,1:2:0:0:
426,30,63172,1,10,0:0:0:0:
479,208,63327,5,0,1:2:0:0:
479,208,63404,1,0,1:0:0:0:
479,208,63481,2,0,P|437:282|436:366,2,152.999995330811,2|2|2,1:2|0:0|0:0,0:0:0:0:
430,136,64100,1,0,1:2:0:0:
430,136,64254,1,0,1:2:0:0:
295,235,64409,5,14,0:0:0:0:
305,237,64486,1,0,1:0:0:0:
315,239,64563,1,0,1:0:0:0:
325,241,64641,1,0,1:0:0:0:
355,221,64718,2,0,L|148:248,1,203.999993774414,6|8,1:2|0:0,0:0:0:0:
153,247,65182,1,2,0:0:0:0:
88,182,65337,1,2,1:2:0:0:
142,106,65492,1,2,1:2:0:0:
77,42,65646,5,10,0:0:0:0:
149,115,65801,1,2,1:2:0:0:
50,286,65956,1,14,0:0:0:0:
41,298,67193,6,0,B|124:335|141:256|257:302,1,203.999993774414,12|8,0:0|0:0,0:0:0:0:
300,356,67579,1,0,1:0:0:0:
300,356,67657,1,2,1:2:0:0:
499,273,67811,1,8,0:0:0:0:
426,220,67966,1,0,1:2:0:0:
380,384,68120,1,10,0:0:0:0:
290,139,68275,5,0,1:2:0:0:
290,139,68352,1,0,1:0:0:0:
290,139,68430,2,0,L|56:167,1,203.999993774414,8|8,0:0|0:0,0:0:0:0:
133,82,68894,1,0,1:2:0:0:
133,82,68971,1,0,1:2:0:0:
133,82,69048,1,10,0:0:0:0:
224,226,69203,1,0,1:2:0:0:
302,43,69358,1,10,0:0:0:0:
302,43,69512,1,2,1:2:0:0:
494,138,69667,6,0,B|483:229|483:229|489:250|489:250|477:345,1,203.999993774414,10|8,0:0|0:0,0:0:0:0:
405,384,70053,1,0,1:0:0:0:
405,384,70130,1,2,1:2:0:0:
251,281,70285,1,8,0:0:0:0:
331,243,70440,1,0,1:2:0:0:
405,384,70595,1,10,0:0:0:0:
166,313,70749,5,0,1:2:0:0:
166,313,70827,1,0,1:0:0:0:
166,313,70904,1,8,1:2:0:0:
202,113,71059,1,8,1:2:0:0:
188,102,71522,5,8,1:2:0:0:
239,366,71677,1,8,1:2:0:0:
172,89,72141,5,6,1:2:0:0:
351,78,74615,5,8,0:0:0:0:
155,133,74770,1,8,0:0:0:0:
365,67,75852,5,8,0:0:0:0:
169,122,76007,1,8,0:0:0:0:
183,112,76471,5,10,0:3:0:0:
249,197,76626,1,8,0:3:0:0:
162,315,76780,2,0,P|123:269|130:200,1,114.749996498108,14|0,0:0|0:0,0:0:0:0:
140,201,77090,6,0,P|122:245|0:266,1,170,6|10,0:0|0:0,0:0:0:0:
12,272,77553,1,2,0:0:0:0:
54,190,77708,1,0,1:2:0:0:
54,190,77863,1,2,1:2:0:0:
151,210,78017,2,0,L|246:198,1,85,8|2,0:0|0:0,0:0:0:0:
367,357,78327,5,0,1:2:0:0:
301,303,78482,1,2,1:2:0:0:
349,234,78637,2,0,P|359:151|343:68,1,170,8|2,0:0|1:2,0:0:0:0:
466,5,79100,1,0,1:2:0:0:
466,5,79254,2,0,P|443:68|446:117,1,85,10|0,0:0|0:0,0:0:0:0:
254,184,79564,6,0,B|151:172|204:234|77:214,1,170,2|10,1:2|0:0,0:0:0:0:
92,216,80028,1,2,0:0:0:0:
30,172,80182,1,0,1:2:0:0:
77,111,80337,1,2,1:2:0:0:
228,265,80492,2,0,L|214:376,1,85,8|2,0:0|0:0,0:0:0:0:
111,364,80801,5,0,1:2:0:0:
242,270,80956,1,0,1:2:0:0:
385,333,81110,1,8,0:0:0:0:
401,344,81419,5,2,1:2:0:0:
451,169,81574,1,12,0:0:0:0:
451,169,81729,1,14,0:0:0:0:
512,233,81883,1,0,1:0:0:0:
294,356,82038,6,0,P|249:316|250:202,1,170,6|8,1:2|0:0,0:0:0:0:
244,211,82502,1,2,0:0:0:0:
325,165,82656,1,0,1:2:0:0:
280,82,82811,1,0,1:2:0:0:
179,160,82966,2,0,L|95:149,1,85,10|0,0:0|0:0,0:0:0:0:
0,24,83275,5,2,1:2:0:0:
0,24,83430,1,0,1:2:0:0:
68,76,83584,2,0,L|88:245,1,170,10|0,0:0|1:2,0:0:0:0:
88,244,84048,1,0,1:2:0:0:
160,303,84203,1,10,0:0:0:0:
111,383,84358,1,2,0:0:0:0:
265,264,84512,5,2,1:2:0:0:
265,264,84666,1,0,1:2:0:0:
336,325,84821,2,0,L|423:314,1,85,8|2,0:0|0:0,0:0:0:0:
503,199,85130,1,0,1:2:0:0:
425,155,85285,1,0,1:2:0:0:
404,327,85440,2,0,L|319:338,1,85,10|0,0:0|0:0,0:0:0:0:
85,255,85749,5,2,1:2:0:0:
159,187,85904,1,0,1:2:0:0:
296,353,86059,1,10,0:0:0:0:
274,371,86368,5,8,0:3:0:0:
180,296,86523,1,0,1:2:0:0:
180,296,86600,1,0,1:2:0:0:
180,296,86677,1,12,0:0:0:0:
304,221,86832,1,0,0:0:0:0:
180,63,86986,6,0,P|97:59|37:116,1,170,6|10,1:2|0:0,0:0:0:0:
37,116,87450,1,2,0:0:0:0:
93,192,87605,1,0,1:2:0:0:
39,268,87760,1,2,1:2:0:0:
88,348,87914,2,0,L|179:359,1,85,8|2,0:0|0:0,0:0:0:0:
396,275,88224,5,0,1:2:0:0:
396,275,88378,1,2,1:2:0:0:
336,337,88533,2,0,L|251:326,1,85,8|0,0:0|0:0,0:0:0:0:
112,177,88842,5,2,1:2:0:0:
112,177,88996,1,0,1:2:0:0:
172,239,89151,2,0,L|256:228,1,85,10|0,0:0|0:0,0:0:0:0:
398,39,89461,6,0,L|386:134,1,85,2|0,1:2|1:2,0:0:0:0:
470,150,89770,2,0,B|375:124|392:184|305:159,1,170,10|0,0:0|1:2,0:0:0:0:
149,83,90234,1,2,1:2:0:0:
216,39,90389,2,0,P|235:100|231:146,1,85,8|2,0:0|0:0,0:0:0:0:
138,334,90698,5,0,1:2:0:0:
60,281,90852,1,0,1:2:0:0:
230,200,91007,1,8,0:0:0:0:
241,215,91316,5,2,1:2:0:0:
38,127,91471,1,12,0:0:0:0:
38,127,91626,1,14,0:0:0:0:
120,81,91780,1,0,0:0:0:0:
209,303,91935,6,0,L|407:278,1,170,6|8,1:2|0:0,0:0:0:0:
377,281,92399,1,2,0:0:0:0:
512,170,92553,1,0,1:2:0:0:
433,130,92708,1,0,1:2:0:0:
394,295,92863,2,0,L|310:305,1,85,10|0,0:0|0:0,0:0:0:0:
46,334,93172,5,2,1:2:0:0:
46,334,93327,1,0,1:2:0:0:
52,226,93481,2,0,P|127:259|155:337,1,170,8|0,0:0|1:2,0:0:0:0:
155,337,93945,1,0,1:2:0:0:
315,340,94100,2,0,P|273:340|238:363,1,85,10|0,0:0|0:0,0:0:0:0:
253,177,94409,5,2,1:2:0:0:
253,177,94564,1,0,1:2:0:0:
327,232,94718,2,0,B|422:258|405:198|492:223,1,170,8|0,0:0|1:2,0:0:0:0:
461,302,95182,1,0,1:2:0:0:
367,156,95337,2,0,L|378:64,1,85,8|0,0:0|0:0,0:0:0:0:
163,16,95646,5,0,1:2:0:0:
91,99,95801,1,0,1:2:0:0:
179,238,95956,1,12,0:0:0:0:
194,228,96265,5,10,0:3:0:0:
81,298,96419,1,0,1:2:0:0:
17,104,96574,2,0,L|124:117,1,85,14|0,0:0|0:0,0:0:0:0:
384,183,96883,5,6,1:2:0:0:
384,183,97038,1,2,1:2:0:0:
303,252,97193,2,0,L|280:65,2,170,0|8|0,1:2|0:0|0:0,0:0:0:0:
251,160,97966,2,0,L|342:172,1,85,10|0,0:0|0:0,0:0:0:0:
477,261,98275,1,2,1:2:0:0:
477,261,98430,2,0,L|392:272,1,85,0|0,1:2|0:0,0:0:0:0:
167,365,98739,6,0,P|200:292|145:199,1,170,10|2,0:0|0:0,0:0:0:0:
167,365,99358,1,6,1:2:0:0:
243,308,99512,1,2,1:2:0:0:
68,264,99667,2,0,L|89:85,2,170,0|8|0,1:2|0:0|0:0,0:0:0:0:
39,181,100440,2,0,L|146:167,1,85,10|0,0:0|0:0,0:0:0:0:
251,105,100749,2,0,L|143:91,1,85,2|0,1:2|1:2,0:0:0:0:
355,10,101059,5,2,0:0:0:0:
423,65,101213,2,0,P|438:126|433:189,1,127.5,10|0,0:0|0:0,0:0:0:0:
378,247,101523,1,10,0:3:0:0:
379,261,101600,1,8,0:3:0:0:
381,276,101677,1,4,0:3:0:0:
383,291,101754,1,4,0:3:0:0:
385,306,101832,5,6,1:2:0:0:
476,283,102141,1,0,1:2:0:0:
276,247,102450,1,2,1:2:0:0:
128,347,102760,1,0,1:2:0:0:
36,51,103069,5,10,0:0:0:0:
107,110,103224,2,0,L|202:98,1,85,2|0,0:0|1:2,0:0:0:0:
45,59,103533,1,10,0:0:0:0:
4,143,103687,2,0,P|-9:219|33:311,1,170,0|10,1:2|0:0,0:0:0:0:
256,236,104151,5,8,0:3:0:0:
256,236,104229,1,4,0:3:0:0:
256,236,104306,1,6,1:2:0:0:
256,236,104615,1,0,1:2:0:0:
172,210,104770,1,8,0:0:0:0:
333,258,104925,1,8,1:2:0:0:
131,281,105079,1,8,0:0:0:0:
366,185,105234,1,8,1:2:0:0:
120,1,105543,5,4,1:2:0:0:
485,87,106626,6,0,B|377:53|394:130|282:99,1,203.999993774414,6|0,1:2|1:2,0:0:0:0:
383,43,107090,2,0,L|395:146,1,101.999996887207,8|2,0:0|0:0,0:0:0:0:
431,356,107399,1,2,1:2:0:0:
512,283,107553,1,2,1:2:0:0:
512,283,107631,1,0,1:0:0:0:
512,283,107708,1,8,0:0:0:0:
292,372,107863,6,0,L|89:347,1,203.999993774414,2|2,1:2|1:2,0:0:0:0:
304,268,108327,2,0,L|419:253,1,101.999996887207,8|2,0:0|0:0,0:0:0:0:
243,158,108636,1,0,1:2:0:0:
179,230,108791,1,2,1:2:0:0:
58,159,108945,1,8,0:0:0:0:
353,0,109100,6,0,B|361:71|361:71|390:108|390:108|401:195,1,203.999993774414,6|0,1:2|1:2,0:0:0:0:
431,106,109564,2,0,L|307:90,1,101.999996887207,8|2,0:0|0:0,0:0:0:0:
58,71,109873,1,2,1:2:0:0:
149,0,110028,1,2,1:2:0:0:
149,0,110105,1,0,1:0:0:0:
149,0,110182,1,8,0:0:0:0:
247,152,110337,6,0,P|253:212|228:275,1,101.999996887207,2|0,1:2|0:0,0:0:0:0:
314,368,110646,2,0,P|316:311|348:254,1,101.999996887207,2|8,1:2|0:0,0:0:0:0:
74,217,110956,2,0,P|135:225|173:204,1,101.999996887207,2|0,0:0|1:2,0:0:0:0:
490,327,111265,2,0,P|429:319|391:340,1,101.999996887207,2|8,1:2|0:0,0:0:0:0:
124,348,111574,5,0,1:0:0:0:
124,348,111651,1,0,1:0:0:0:
124,348,111729,1,6,1:2:0:0:
52,285,111883,2,0,B|36:236|36:236|71:199,1,101.999996887207,2|8,0:0|0:0,0:0:0:0:
221,316,112193,2,0,L|439:289,1,203.999993774414,2|2,0:0|1:2,0:0:0:0:
470,228,112579,1,0,1:0:0:0:
470,228,112657,1,8,0:0:0:0:
386,112,112811,1,2,0:0:0:0:
269,219,112966,6,0,L|161:205,1,101.999996887207,0|0,1:2|1:2,0:0:0:0:
90,53,113275,1,8,0:0:0:0:
17,122,113430,1,2,1:2:0:0:
17,122,113507,1,0,1:0:0:0:
17,122,113584,1,2,1:2:0:0:
154,215,113739,1,0,1:2:0:0:
281,39,113894,2,0,P|330:115|333:150,1,101.999996887207,10|0,0:0|0:0,0:0:0:0:
442,375,114203,6,0,P|404:337|443:176,1,203.999993774414,6|8,1:2|0:0,0:0:0:0:
508,273,114667,1,0,0:0:0:0:
329,368,114821,1,2,1:2:0:0:
186,255,114976,1,0,1:0:0:0:
186,255,115053,1,0,1:0:0:0:
186,255,115131,1,8,0:0:0:0:
348,355,115285,5,2,0:0:0:0:
425,274,115440,2,0,L|411:162,1,101.999996887207,6|2,1:2|1:2,0:0:0:0:
363,340,115749,1,8,0:0:0:0:
239,363,115904,2,0,L|188:356,1,50.9999984436036,6|0,1:2|0:0,0:0:0:0:
60,314,116059,1,8,0:3:0:0:
98,326,116136,1,8,0:3:0:0:
98,367,116213,1,2,1:2:0:0:
60,380,116291,1,0,1:2:0:0:
36,347,116368,1,4,0:3:0:0:
0,157,116523,6,0,L|222:129,1,203.999993774414,6|0,1:2|1:2,0:0:0:0:
108,93,116986,2,0,L|94:204,1,101.999996887207,8|2,0:0|0:0,0:0:0:0:
306,286,117296,1,2,1:2:0:0:
223,356,117450,1,2,1:2:0:0:
223,356,117528,1,0,1:0:0:0:
223,356,117605,1,8,0:0:0:0:
106,207,117760,6,0,L|225:192,1,101.999996887207,2|0,1:2|0:0,0:0:0:0:
42,262,118069,1,2,1:2:0:0:
42,262,118224,1,8,0:0:0:0:
268,142,118378,1,2,0:0:0:0:
108,93,118533,1,2,1:2:0:0:
108,93,118610,1,0,1:0:0:0:
108,93,118687,1,2,1:2:0:0:
138,319,118842,1,8,0:0:0:0:
285,157,118997,6,0,B|396:145|371:225|474:209,1,203.999993774414,6|0,1:2|1:2,0:0:0:0:
313,243,119461,2,0,P|284:284|279:334,1,101.999996887207,8|2,0:0|0:0,0:0:0:0:
445,122,119770,1,2,1:2:0:0:
445,122,119925,1,2,1:2:0:0:
289,24,120079,1,10,0:0:0:0:
76,192,120234,5,2,1:2:0:0:
76,192,120311,1,0,1:0:0:0:
76,192,120389,1,0,1:0:0:0:
147,251,120543,2,0,L|263:236,1,101.999996887207,2|8,1:2|0:0,0:0:0:0:
474,208,120852,1,2,0:0:0:0:
365,138,121007,2,0,P|352:188|348:239,1,101.999996887207,0|2,1:2|1:2,0:0:0:0:
402,308,121239,1,0,1:0:0:0:
402,308,121316,1,8,0:0:0:0:
302,359,121471,1,0,0:0:0:0:
163,195,121626,6,0,P|133:99|168:5,1,203.999993774414,6|8,1:2|0:0,0:0:0:0:
54,167,122090,2,0,P|70:216|98:258,1,101.999996887207,2|0,0:0|1:2,0:0:0:0:
230,133,122399,1,2,1:2:0:0:
230,133,122553,1,8,0:0:0:0:
53,40,122708,5,2,1:2:0:0:
53,40,122785,1,0,1:0:0:0:
53,40,122863,2,0,B|141:-4|181:76|257:36,1,203.999993774414,0|8,1:2|0:0,0:0:0:0:
373,109,123327,2,0,P|343:68|341:17,1,101.999996887207,2|0,0:0|1:2,0:0:0:0:
452,38,123636,1,2,1:2:0:0:
297,172,123791,1,8,0:0:0:0:
482,312,123945,5,2,1:2:0:0:
482,312,124023,1,0,1:0:0:0:
482,312,124100,2,0,B|398:322|398:322|364:342|364:342|277:353,1,203.999993774414,2|8,1:2|0:0,0:0:0:0:
395,283,124564,2,0,L|382:386,1,101.999996887207,2|0,0:0|1:2,0:0:0:0:
189,218,124873,1,0,1:2:0:0:
189,218,125028,2,0,L|201:321,1,101.999996887207,8|0,0:0|1:2,0:0:0:0:
426,97,125337,5,8,0:0:0:0:
350,177,125491,1,0,1:2:0:0:
247,134,125646,1,0,1:2:0:0:
445,116,125801,5,0,1:2:0:0:
479,234,125955,1,8,0:3:0:0:
379,310,126110,1,12,0:3:0:0:
333,78,126265,5,14,0:0:0:0:
334,62,126342,1,0,1:0:0:0:
336,46,126419,1,0,1:0:0:0:
338,30,126497,1,0,1:0:0:0:
374,25,126574,2,0,B|280:-4|253:80|171:52,1,203.999993774414,4|8,1:2|0:0,0:0:0:0:
177,54,127038,1,2,0:0:0:0:
83,11,127193,1,2,1:2:0:0:
13,85,127347,1,2,1:2:0:0:
163,154,127502,1,10,0:0:0:0:
63,175,127657,1,2,0:0:0:0:
267,210,127811,6,0,P|217:268|195:341,2,152.999995330811,2|2|2,1:2|0:0|0:0,0:0:0:0:
348,188,128352,1,0,1:0:0:0:
348,188,128430,1,0,1:2:0:0:
494,275,128584,1,0,1:2:0:0:
380,352,128739,5,14,0:0:0:0:
381,336,128816,1,0,1:0:0:0:
383,320,128894,1,0,1:0:0:0:
385,304,128971,1,0,1:0:0:0:
416,276,129048,2,0,L|389:69,1,203.999993774414,6|8,1:2|0:0,0:0:0:0:
389,73,129512,1,2,0:0:0:0:
483,116,129667,1,2,1:2:0:0:
371,199,129821,1,2,1:2:0:0:
268,110,129976,1,10,0:0:0:0:
185,224,130131,1,2,0:0:0:0:
43,43,130285,6,0,P|114:66|165:122,2,152.999995330811,2|2|2,1:2|0:0|0:0,0:0:0:0:
5,113,130827,1,0,1:0:0:0:
5,113,130904,1,0,1:2:0:0:
188,17,131059,1,0,1:2:0:0:
337,149,131213,5,14,0:0:0:0:
335,164,131291,1,0,1:0:0:0:
333,180,131368,1,0,1:0:0:0:
331,196,131445,1,0,1:0:0:0:
301,232,131523,2,0,B|290:140|380:151|359:45,1,203.999993774414,6|8,1:2|0:0,0:0:0:0:
359,45,131986,1,2,0:0:0:0:
275,79,132141,1,2,1:2:0:0:
388,293,132296,5,2,1:2:0:0:
388,293,132373,1,0,1:0:0:0:
388,293,132450,1,10,0:0:0:0:
447,179,132605,1,2,1:2:0:0:
255,317,132760,1,14,0:0:0:0:
233,329,133997,6,0,L|208:126,1,203.999993774414,12|8,0:0|0:0,0:0:0:0:
208,126,134461,1,2,0:0:0:0:
130,211,134615,1,8,0:0:0:0:
309,258,134770,1,0,1:2:0:0:
229,117,134925,1,10,0:0:0:0:
141,321,135079,1,0,1:2:0:0:
48,78,135234,6,0,L|274:105,1,203.999993774414,8|8,0:0|0:0,0:0:0:0:
250,102,135698,1,0,1:2:0:0:
441,52,135852,1,10,0:0:0:0:
331,2,136007,1,0,1:2:0:0:
301,206,136162,1,10,0:0:0:0:
494,137,136316,1,2,1:2:0:0:
366,344,136471,6,0,L|159:318,1,203.999993774414,10|8,0:0|0:0,0:0:0:0:
163,319,136935,1,2,0:0:0:0:
84,223,137090,1,8,0:0:0:0:
13,327,137244,1,0,1:2:0:0:
214,197,137399,1,10,0:0:0:0:
31,131,137553,1,0,1:2:0:0:
105,380,137708,5,8,1:2:0:0:
168,101,137863,1,8,1:2:0:0:
157,83,138327,5,8,1:2:0:0:
259,384,138481,1,8,1:2:0:0:
278,367,138945,6,0,L|289:275,1,85,2|0,0:0|0:0,0:0:0:0:
288,282,139873,1,8,0:0:0:0:
484,144,140028,6,0,B|394:132|394:132|358:97|358:97|244:110,1,237.999992736817,6|0,1:2|1:2,0:0:0:0:
175,188,140492,1,8,0:0:0:0:
86,4,140646,5,0,1:0:0:0:
86,4,140724,1,0,1:0:0:0:
86,4,140801,1,2,1:2:0:0:
13,60,140956,2,0,B|-17:107|-17:107|8:174,1,118.999996368408,2|8,1:2|0:0,0:0:0:0:
218,343,141265,6,0,B|308:355|308:355|348:372|348:372|446:341,1,237.999992736817,2|0,1:2|1:2,0:0:0:0:
237,323,141729,1,8,0:0:0:0:
359,276,141883,1,2,0:0:0:0:
175,232,142038,5,2,1:2:0:0:
86,200,142193,1,2,1:2:0:0:
410,127,142347,1,10,0:0:0:0:
475,86,142502,2,0,B|377:68|377:68|360:47|360:47|239:23,1,237.999992736817,6|2,1:2|1:2,0:0:0:0:
189,76,142889,1,0,1:0:0:0:
189,76,142966,1,8,0:0:0:0:
60,288,143120,5,2,0:0:0:0:
132,347,143275,1,2,1:2:0:0:
368,342,143430,5,2,1:2:0:0:
440,293,143584,1,10,0:0:0:0:
267,24,143739,6,0,B|185:101|284:170|182:248,1,237.999992736817,2|2,1:2|1:2,0:0:0:0:
192,240,144203,1,10,0:0:0:0:
369,0,144358,2,0,B|321:77|412:110|349:192,1,178.499994552612,2|0,0:0|0:0,0:0:0:0:
307,226,144667,1,2,1:2:0:0:
483,14,144821,2,0,P|500:61|472:173,1,152.999995330811,10|0,0:0|0:0,0:0:0:0:
436,221,145131,6,0,P|453:253|497:300,2,67.9999979248048,6|2|2,1:2|0:0|0:0,0:0:0:0:
332,348,145440,2,0,P|351:319|366:288,2,67.9999979248048,10|2|2,0:0|0:0|0:0,0:0:0:0:
231,206,145749,2,0,P|278:251|308:259,2,67.9999979248048,2|2|2,1:2|0:0|0:0,0:0:0:0:
117,322,146059,2,0,P|189:302|216:276,2,67.9999979248048,10|2|2,0:0|0:0|0:0,0:0:0:0:
18,191,146368,5,2,1:2:0:0:
29,179,146471,2,0,L|41:264,1,67.9999979248048,2|2,0:0|0:0,0:0:0:0:
131,338,146677,1,10,0:0:0:0:
150,357,146780,2,0,L|162:272,1,67.9999979248048,2|2,0:0|0:0,0:0:0:0:
221,128,146986,1,2,1:2:0:0:
246,103,147089,2,0,L|258:188,1,67.9999979248048,2|2,0:0|0:0,0:0:0:0:
330,309,147296,1,10,0:0:0:0:
364,343,147399,2,0,L|376:258,1,67.9999979248048,2|2,0:0|0:0,0:0:0:0:
494,53,147605,5,14,0:0:0:0:
495,69,147708,1,2,0:0:0:0:
496,84,147811,1,2,0:0:0:0:
408,48,147914,5,14,0:0:0:0:
411,71,148017,1,2,0:0:0:0:
414,93,148120,1,2,0:0:0:0:
323,46,148224,5,14,0:0:0:0:
326,77,148327,1,2,0:0:0:0:
330,107,148430,1,2,0:0:0:0:
231,36,148533,5,14,0:0:0:0:
235,80,148636,1,2,0:0:0:0:
240,124,148739,1,2,0:0:0:0:
124,1,148842,6,0,L|149:208,1,191.250007295609,14|0,0:0|0:0,0:0:0:0:
111,20,149461,2,0,L|133:210,1,191.250007295609,6|0,1:2|0:0,0:0:0:0:
156,378,150079,1,6,1:2:0:0:
139,362,151007,5,8,0:0:0:0:
337,282,151162,1,6,1:2:0:0:
357,294,152553,5,6,1:2:0:0:
378,307,153481,5,10,0:0:0:0:
110,195,153636,1,6,1:2:0:0:
400,317,154409,5,10,0:3:0:0:
484,217,154564,1,0,1:2:0:0:
282,163,154718,1,14,0:3:0:0:
296,179,155028,5,6,1:2:0:0:
219,255,155337,1,0,1:2:0:0:
85,213,155646,1,2,1:2:0:0:
15,382,155956,1,0,1:2:0:0:
321,291,156265,5,14,1:2:0:0:
387,348,156419,2,0,L|498:334,1,85,2|0,0:0|1:2,0:0:0:0:
307,305,156729,1,10,1:2:0:0:
218,374,156883,2,0,P|177:302|186:218,1,170,0|10,1:2|1:2,0:0:0:0:
337,31,157347,5,0,1:2:0:0:
337,31,157425,1,0,1:2:0:0:
337,31,157502,1,6,1:2:0:0:
337,31,157811,1,0,1:2:0:0:
418,60,157966,1,8,0:0:0:0:
269,114,158120,1,8,0:0:0:0:
166,22,158275,1,8,0:0:0:0:
44,169,158430,1,8,0:0:0:0:
490,320,158739,5,4,1:2:0:0:
503,308,159203,1,2,1:2:0:0:
413,257,159358,2,0,L|317:268,1,85,10|0,0:0|1:2,0:0:0:0:
490,320,159667,1,2,0:0:0:0:
121,384,159976,5,4,1:2:0:0:
146,381,160440,1,0,1:2:0:0:
146,381,160517,1,0,1:2:0:0:
146,381,160595,1,10,0:0:0:0:
213,316,160749,1,0,1:2:0:0:
56,223,160904,2,0,L|155:204,1,85,8|0,0:0|0:0,0:0:0:0:
496,120,161213,6,0,P|418:88|376:16,1,170,6|0,1:2|0:0,0:0:0:0:
413,226,161677,2,0,P|336:261|289:334,1,170,6|2,1:2|0:0,0:0:0:0:
312,146,162141,2,0,P|274:127|247:94,1,85,4|0,1:2|0:0,0:0:0:0:
185,264,162450,5,6,1:2:0:0:
164,267,162528,1,0,1:0:0:0:
145,270,162605,1,0,1:0:0:0:
125,272,162682,1,0,1:0:0:0:
94,249,162760,1,8,0:3:0:0:
120,245,162837,1,8,0:3:0:0:
145,242,162914,1,8,0:3:0:0:
172,237,162992,1,8,0:3:0:0:
204,268,163069,5,4,0:3:0:0:
163,275,163147,1,4,0:3:0:0:
124,281,163224,1,4,0:3:0:0:
83,288,163301,1,4,0:3:0:0:
44,248,163378,1,0,1:2:0:0:
92,240,163455,1,0,1:2:0:0:
138,233,163532,1,0,1:2:0:0:
188,226,163610,1,0,1:2:0:0:
229,263,163687,5,4,1:2:0:0:
441,24,164770,6,0,B|431:103|431:103|452:158|452:158|439:265,1,237.999992736817,6|0,1:2|1:2,0:0:0:0:
382,139,165234,2,0,L|509:123,1,118.999996368408,8|2,0:0|0:0,0:0:0:0:
289,70,165543,1,2,1:2:0:0:
202,277,165698,1,2,1:2:0:0:
202,277,165775,1,0,1:0:0:0:
202,277,165852,1,8,0:0:0:0:
25,72,166007,6,0,P|72:36|134:40,1,118.999996368408,2|0,1:2|0:0,0:0:0:0:
260,195,166316,2,0,P|205:172|178:117,1,118.999996368408,2|8,1:2|0:0,0:0:0:0:
228,41,166548,1,0,1:0:0:0:
228,41,166626,1,2,1:2:0:0:
110,189,166780,1,0,1:2:0:0:
274,356,166935,1,2,1:2:0:0:
274,356,167012,1,0,1:0:0:0:
274,356,167090,1,8,0:0:0:0:
502,154,167244,6,0,B|352:137|423:223|257:216,1,237.999992736817,6|0,1:2|1:2,0:0:0:0:
381,131,167708,2,0,L|396:258,1,118.999996368408,8|2,0:0|0:0,0:0:0:0:
414,375,168017,1,2,1:2:0:0:
510,161,168172,1,2,1:2:0:0:
510,161,168249,1,0,1:0:0:0:
510,161,168327,1,8,0:0:0:0:
286,70,168481,6,0,P|220:102|130:203,1,178.499994552612,2|0,1:2|0:0,0:0:0:0:
133,258,168791,2,0,P|192:305|227:285,1,118.999996368408,2|8,1:2|0:0,0:0:0:0:
149,35,169100,2,0,P|97:6|39:13,1,118.999996368408,2|0,0:0|1:2,0:0:0:0:
298,185,169409,2,0,P|360:158|393:90,1,118.999996368408,2|8,1:2|0:0,0:0:0:0:
386,40,169641,1,0,1:0:0:0:
386,40,169718,1,0,1:0:0:0:
497,255,169873,5,6,1:2:0:0:
446,333,170028,2,0,B|383:343|383:343|324:296,1,118.999996368408,2|8,0:0|0:0,0:0:0:0:
224,123,170337,2,0,P|166:110|112:133,1,118.999996368408,2|0,0:0|1:2,0:0:0:0:
63,200,170569,1,0,1:0:0:0:
63,200,170646,1,2,1:2:0:0:
176,316,170801,1,8,0:0:0:0:
435,255,170956,6,0,B|445:176|445:176|424:121|424:121|437:14,1,237.999992736817,2|0,1:2|1:2,0:0:0:0:
512,0,171342,1,0,1:0:0:0:
511,0,171419,1,8,0:0:0:0:
347,75,171574,1,2,0:0:0:0:
457,222,171729,2,0,L|442:341,1,118.999996368408,2|0,1:2|1:2,0:0:0:0:
313,379,172038,2,0,L|327:260,1,118.999996368408,10|0,0:0|0:0,0:0:0:0:
243,119,172347,5,6,1:2:0:0:
234,147,172425,1,0,1:0:0:0:
214,169,172502,1,0,1:0:0:0:
187,184,172579,1,0,1:0:0:0:
157,185,172657,2,0,P|173:212|209:234,3,59.4999981842042,8|0|0|0,0:0|1:0|1:0|1:0,0:0:0:0:
64,91,172966,5,10,0:0:0:0:
53,105,173043,1,0,1:0:0:0:
45,120,173120,1,0,1:0:0:0:
38,136,173198,1,0,1:0:0:0:
33,153,173275,1,8,0:0:0:0:
74,245,173430,1,2,1:2:0:0:
268,41,173584,5,6,1:2:0:0:
322,175,173739,1,2,1:2:0:0:
478,200,173894,1,8,0:0:0:0:
284,52,174048,5,6,1:2:0:0:
341,181,174203,1,8,0:3:0:0:
245,298,174358,1,2,1:2:0:0:
245,298,174435,1,0,1:2:0:0:
245,298,174512,1,4,0:3:0:0:
487,371,174667,6,0,P|508:254|470:142,1,237.999992736817,6|0,1:2|1:2,0:0:0:0:
446,6,175131,2,0,P|428:67|381:117,1,118.999996368408,8|2,0:0|0:0,0:0:0:0:
128,65,175440,1,2,1:2:0:0:
253,0,175595,1,2,1:2:0:0:
253,0,175672,1,0,1:0:0:0:
253,0,175749,1,8,0:0:0:0:
363,283,175904,6,0,L|239:298,1,118.999996368408,2|0,1:2|0:0,0:0:0:0:
24,325,176213,1,2,1:2:0:0:
24,325,176291,1,0,1:0:0:0:
24,325,176368,2,0,L|142:310,1,118.999996368408,8|2,0:0|0:0,0:0:0:0:
363,283,176677,1,0,1:2:0:0:
291,376,176832,1,2,1:2:0:0:
137,232,176986,1,8,0:0:0:0:
294,16,177141,6,0,B|304:95|304:95|283:150|283:150|296:257,1,237.999992736817,6|0,1:2|1:2,0:0:0:0:
226,132,177605,2,0,L|345:146,1,118.999996368408,8|2,0:0|0:0,0:0:0:0:
165,204,177914,1,2,1:2:0:0:
398,77,178069,1,2,1:2:0:0:
100,0,178224,5,8,0:0:0:0:
100,0,178301,1,0,1:0:0:0:
100,0,178378,2,0,B|57:46|57:46|90:164,1,178.499994552612,2|0,1:2|0:0,0:0:0:0:
153,217,178687,2,0,B|171:272|171:272|136:323,1,118.999996368408,2|8,1:2|0:0,0:0:0:0:
280,188,178997,2,0,L|294:68,1,118.999996368408,2|0,0:0|1:2,0:0:0:0:
355,15,179229,1,0,1:0:0:0:
355,15,179306,1,2,1:2:0:0:
470,205,179461,2,0,B|495:261|495:261|467:348,1,118.999996368408,8|0,0:0|0:0,0:0:0:0:
212,384,179770,5,6,1:2:0:0:
129,312,179925,2,0,L|144:184,1,118.999996368408,2|8,0:0|0:0,0:0:0:0:
344,80,180234,2,0,L|358:198,1,118.999996368408,2|0,0:0|1:2,0:0:0:0:
317,267,180466,1,0,1:0:0:0:
317,267,180543,1,2,1:2:0:0:
433,134,180698,1,8,0:0:0:0:
237,9,180852,6,0,P|145:41|96:103,1,178.499994552612,2|0,0:0|0:0,0:0:0:0:
118,182,181162,2,0,P|89:237|31:198,1,118.999996368408,2|8,1:2|0:0,0:0:0:0:
265,136,181471,1,2,1:2:0:0:
265,136,181548,1,0,1:0:0:0:
265,136,181626,2,0,P|288:184|286:268,1,118.999996368408,0|2,1:2|1:2,0:0:0:0:
188,384,181935,1,8,0:0:0:0:
82,326,182090,1,2,0:0:0:0:
314,238,182244,5,6,1:2:0:0:
343,235,182321,1,0,1:0:0:0:
372,239,182399,1,0,1:0:0:0:
399,248,182476,1,0,1:0:0:0:
419,269,182553,2,0,P|429:237|436:185,3,59.4999981842042,8|0|2|0,0:0|1:0|1:2|1:0,0:0:0:0:
355,384,182863,5,8,0:2:0:0:
353,368,182940,1,0,1:0:0:0:
351,352,183017,1,0,1:2:0:0:
349,336,183095,1,0,1:0:0:0:
347,320,183172,1,8,0:0:0:0:
325,145,183327,1,0,1:2:0:0:
453,196,183481,5,8,0:0:0:0:
275,272,183636,1,0,1:2:0:0:
124,165,183791,1,0,1:2:0:0:
6,316,183945,5,0,1:2:0:0:
161,316,184100,1,8,0:3:0:0:
239,189,184255,1,12,0:3:0:0:
70,23,184409,5,14,0:0:0:0:
69,39,184486,1,0,1:0:0:0:
67,55,184563,1,0,1:0:0:0:
65,71,184641,1,0,1:0:0:0:
43,91,184718,2,0,B|137:120|164:36|246:64,1,203.999993774414,4|8,1:2|0:0,0:0:0:0:
239,61,185182,1,2,0:0:0:0:
318,127,185337,1,2,1:2:0:0:
396,57,185492,1,2,1:2:0:0:
498,195,185646,1,10,0:0:0:0:
498,195,185801,1,2,0:0:0:0:
267,265,185956,6,0,P|366:336|382:374,2,152.999995330811,2|2|2,1:2|0:0|0:0,0:0:0:0:
385,234,186574,1,0,1:2:0:0:
385,234,186729,1,0,1:2:0:0:
225,365,186883,5,14,0:0:0:0:
209,364,186960,1,0,1:0:0:0:
193,362,187037,1,0,1:0:0:0:
177,360,187115,1,0,1:0:0:0:
137,384,187193,2,0,B|126:300|126:300|106:266|106:266|95:179,1,203.999993774414,6|8,1:2|0:0,0:0:0:0:
96,186,187657,1,2,0:0:0:0:
47,340,187811,1,2,1:2:0:0:
188,221,187966,1,2,1:2:0:0:
57,49,188120,2,0,B|13:87|13:87|15:144,1,101.999996887207,10|0,0:0|0:0,0:0:0:0:
279,37,188430,6,0,L|453:58,2,152.999995330811,2|2|2,1:2|0:0|0:0,0:0:0:0:
498,2,189048,1,0,1:2:0:0:
498,2,189203,1,0,1:2:0:0:
351,132,189358,5,14,0:0:0:0:
352,148,189435,1,0,1:0:0:0:
354,164,189512,1,0,1:0:0:0:
356,180,189590,1,0,1:0:0:0:
401,210,189667,2,0,B|307:181|280:265|198:237,1,203.999993774414,6|8,1:2|0:0,0:0:0:0:
204,239,190131,1,2,0:0:0:0:
16,185,190285,1,2,1:2:0:0:
109,122,190440,1,2,1:2:0:0:
184,343,190595,1,10,0:0:0:0:
184,343,190749,1,2,1:2:0:0:
460,268,190904,5,14,0:0:0:0:
423,37,192141,6,0,L|233:64,1,165.749992412568,12|0,0:0|0:0,0:0:0:0:
183,20,192450,1,8,0:0:0:0:
126,182,192605,1,2,0:0:0:0:
62,79,192760,1,8,0:0:0:0:
252,156,192914,1,0,1:2:0:0:
46,259,193069,1,10,0:0:0:0:
283,374,193224,5,0,1:2:0:0:
283,374,193301,1,0,1:0:0:0:
283,374,193378,2,0,P|324:292|291:191,1,165.749992412568,8|0,0:0|0:0,0:0:0:0:
252,156,193687,1,8,0:0:0:0:
442,94,193842,1,0,1:2:0:0:
316,44,193997,1,10,0:0:0:0:
241,250,194151,1,0,1:2:0:0:
80,123,194306,1,10,0:0:0:0:
35,359,194461,5,2,1:2:0:0:
35,359,194538,1,0,1:0:0:0:
35,359,194615,2,0,L|219:383,1,165.749992412568,10|0,0:0|0:0,0:0:0:0:
271,336,194925,1,8,0:0:0:0:
189,165,195079,1,2,0:0:0:0:
123,279,195234,1,8,0:0:0:0:
278,348,195389,1,0,1:2:0:0:
413,258,195543,1,10,0:0:0:0:
272,27,195698,5,0,1:2:0:0:
272,27,195775,1,0,1:0:0:0:
272,27,195852,1,8,1:2:0:0:
224,249,196007,1,8,1:2:0:0:
287,46,196471,5,8,1:2:0:0:
239,268,196626,1,8,1:2:0:0:
306,64,197090,6,0,P|347:140|348:249,1,165.749992412568,12|0,0:0|0:0,0:0:0:0:
314,290,197399,1,8,0:0:0:0:
447,207,197553,1,2,0:0:0:0:
231,162,197708,1,8,0:0:0:0:
182,362,197863,1,0,1:2:0:0:
328,297,198017,1,10,0:0:0:0:
84,262,198172,5,0,1:2:0:0:
84,262,198249,1,0,1:0:0:0:
84,262,198327,2,0,L|57:72,1,165.749992412568,8|0,0:0|0:0,0:0:0:0:
115,39,198636,1,8,0:0:0:0:
346,89,198791,1,0,1:2:0:0:
209,264,198945,1,10,0:0:0:0:
203,130,199100,1,0,1:2:0:0:
362,81,199254,1,10,0:0:0:0:
512,190,199409,5,2,1:2:0:0:
512,190,199486,1,0,1:0:0:0:
512,190,199564,2,0,L|490:364,1,165.749992412568,10|0,0:0|0:0,0:0:0:0:
415,384,199873,1,8,0:0:0:0:
220,275,200028,1,2,0:0:0:0:
303,231,200182,1,8,0:0:0:0:
401,375,200337,1,0,1:2:0:0:
512,190,200492,1,10,0:0:0:0:
288,80,200646,5,0,1:2:0:0:
288,80,200724,1,0,1:0:0:0:
288,80,200801,1,8,1:2:0:0:
470,17,200956,1,8,1:2:0:0:
129,57,201419,5,8,1:2:0:0:
396,147,201574,1,8,1:2:0:0:
34,240,202038,5,6,1:2:0:0:
256,192,202115,12,4,204512,1:2:0:0:
256,192,204590,12,4,206986,1:2:0:0:
256,192,207064,12,4,209461,1:2:0:0:
256,192,209538,12,4,210698,1:2:0:0:
