osu file format v14

[General]
AudioFilename: audio.mp3
AudioLeadIn: 0
PreviewTime:163630
Countdown: 0
SampleSet: Soft
StackLeniency: 0.7
Mode: 0
LetterboxInBreaks: 0
WidescreenStoryboard: 1

[Editor]
Bookmarks: 10305,20202,30099,35048,39841,59790,67213,72161,74635,77110,87006,96903,101852,106646,140048,150099,155048,159996,164790,184738,192161,202058
DistanceSpacing: 0.6
BeatDivisor: 4
GridSize: 4
TimelineZoom: 1.800001

[Metadata]
Title:I'M A BELIEVER
TitleUnicode:アイム・ア・ビリーバー
Artist:SPYAIR
ArtistUnicode:SPYAIR
Creator:Nevo
Version:Suou's Expert
Source:ハイキュー!! セカンドシーズン
Tags:2nd second season japanese anime opening rock jrock vocal haikyu!! haikyuu!! volleyball show amb1d3x Hishiro Chizuru Shirahane Suou torriru xandit armin a_r_m_i_n im full ver version
BeatmapID:2953274
BeatmapSetID:1433638

[Difficulty]
HPDrainRate:5.5
CircleSize:4
OverallDifficulty:8.6
ApproachRate:9.1
SliderMultiplier:1.7
SliderTickRate:1

[Events]
//Background and Video events
0,0,"haikyu-art-scale-6_00x.jpg",0,0
//Break Periods
//Storyboard Layer 0 (Background)
//Storyboard Layer 1 (Fail)
//Storyboard Layer 2 (Pass)
//Storyboard Layer 3 (Foreground)
//Storyboard Layer 4 (Overlay)
//Storyboard Sound Samples

[TimingPoints]
389,309.278350515464,4,2,1,70,1,0
389,-166.666666666667,4,2,1,70,0,0
9048,-100,4,2,1,70,0,0
9667,-250,4,2,1,70,0,0
10285,-142.857142857143,4,2,1,60,0,0
18945,-111.111111111111,4,2,1,60,0,0
19254,-111.111111111111,4,2,1,70,0,0
30079,-125,4,2,1,70,0,0
35028,-100,4,2,1,70,0,0
38739,-166.666666666667,4,2,1,70,0,0
39821,-90.9090909090909,4,2,1,80,0,1
59770,-111.111111111111,4,2,1,80,0,0
61935,-83.3333333333333,4,2,1,80,0,0
62244,-111.111111111111,4,2,1,80,0,0
64409,-83.3333333333333,4,2,1,80,0,0
64718,-111.111111111111,4,2,1,80,0,0
65956,-111.111111111111,4,2,1,70,0,0
67193,-90.9090909090908,4,2,1,80,0,1
72141,-111.111111111111,4,2,1,60,0,0
76780,-111.111111111111,4,2,1,70,0,0
77090,-125,4,2,1,65,0,0
86986,-100,4,2,1,70,0,0
96883,-125,4,2,1,70,0,0
101832,-100,4,2,1,70,0,0
105543,-166.666666666667,4,2,1,70,0,0
106626,-90.9090909090909,4,2,1,80,0,1
126574,-111.111111111111,4,2,1,80,0,0
128739,-83.3333333333333,4,2,1,80,0,0
129048,-111.111111111111,4,2,1,80,0,0
131213,-83.3333333333333,4,2,1,80,0,0
131523,-111.111111111111,4,2,1,80,0,0
132760,-111.111111111111,4,2,1,70,0,0
133997,-90.9090909090909,4,2,1,80,0,1
138945,-90.9090909090909,4,2,1,70,0,0
140028,-100,4,2,1,80,0,1
148842,-166.666666666667,4,2,1,80,0,1
150079,-250,4,2,1,70,0,0
154409,-125,4,2,1,70,0,0
154718,-250,4,2,1,70,0,0
155028,-100,4,2,1,70,0,0
158739,-166.666666666667,4,2,1,70,0,0
159976,-125,4,2,1,70,0,0
163687,-100,4,2,1,70,0,0
164770,-90.9090909090909,4,2,1,80,0,1
184718,-111.111111111111,4,2,1,80,0,0
186883,-83.3333333333333,4,2,1,80,0,0
187193,-111.111111111111,4,2,1,80,0,0
189358,-83.3333333333333,4,2,1,80,0,0
189667,-111.111111111111,4,2,1,80,0,0
190904,-111.111111111111,4,2,1,70,0,0
192141,-90.9090909090909,4,2,1,80,0,1
196007,-90.9090909090909,4,2,1,70,0,1
196471,-90.9090909090909,4,2,1,80,0,1
196626,-90.9090909090909,4,2,1,70,0,1
197090,-90.9090909090909,4,2,1,80,0,1
200956,-90.9090909090909,4,2,1,70,0,1
202038,-166.666666666667,4,2,1,60,0,0
210698,-100,4,2,1,50,0,0
210852,-166.666666666667,4,2,1,50,0,0
211548,-166.666666666667,4,2,1,5,0,0

[Colours]
Combo1 : 253,207,102
Combo2 : 255,128,0
Combo3 : 192,192,192

[HitObjects]
77,240,389,6,0,P|101:214|170:214,1,101.999996887207,6|2,1:2|0:0,0:0:0:0:
230,138,852,2,0,P|256:162|256:231,1,101.999996887207,2|2,3:2|3:2,0:0:0:0:
200,300,1316,1,0,0:0:0:0:
200,300,1626,2,0,L|310:317,1,101.999996887207,2|2,0:0|0:0,0:0:0:0:
368,246,2090,2,0,B|401:284|401:284|388:354,2,101.999996887207,2|2|2,3:2|3:2|0:0,0:0:0:0:
455,161,2863,6,0,P|425:140|360:163,1,101.999996887207,4|2,1:2|0:0,0:0:0:0:
292,107,3327,2,0,P|271:136|294:201,1,101.999996887207,2|2,3:2|3:2,0:0:0:0:
368,246,3791,1,0,0:0:0:0:
368,246,4100,2,0,L|356:362,1,101.999996887207,2|2,0:0|0:0,0:0:0:0:
270,384,4564,2,0,B|223:363|223:363|171:386,2,101.999996887207,2|2|2,3:2|3:2|0:0,0:0:0:0:
154,291,5337,6,0,L|143:189,1,101.999996887207,4|2,1:2|0:0,0:0:0:0:
238,180,5801,2,0,L|249:78,1,101.999996887207,2|2,3:2|3:2,0:0:0:0:
182,14,6265,1,0,0:0:0:0:
182,14,6574,2,0,P|149:47|87:42,1,101.999996887207,2|2,0:0|0:0,0:0:0:0:
29,108,7038,2,0,B|-4:70|-4:70|10:15,2,101.999996887207,2|2|2,3:2|3:2|0:0,0:0:0:0:
171,161,7811,6,0,P|121:165|89:204,1,101.999996887207,4|2,1:2|0:0,0:0:0:0:
10,251,8275,2,0,P|41:289|91:294,1,101.999996887207,2|2,3:2|3:2,0:0:0:0:
168,251,8739,2,0,L|181:313,1,50.9999984436036,0|2,0:0|0:0,0:0:0:0:
360,367,9048,6,0,L|373:305,1,42.5,4|0,1:2|0:0,0:0:0:0:
367,375,9667,6,0,L|382:299,1,68,2|2,0:0|0:0,0:0:0:0:
455,246,10285,6,0,P|419:209|339:219,1,118.999996368408,6|2,1:2|0:0,0:0:0:0:
275,284,10749,2,0,P|244:275|212:269,1,59.4999981842042,2|0,0:0|0:0,0:0:0:0:
156,203,11059,2,0,P|124:208|93:217,1,59.4999981842042,2|0,0:0|0:0,0:0:0:0:
6,264,11368,1,2,0:0:0:0:
6,264,11677,2,0,P|16:201|26:138,1,118.999996368408,2|0,0:0|0:0,0:0:0:0:
104,99,12141,2,0,P|71:61|-8:65,1,118.999996368408,2|2,0:0|0:0,0:0:0:0:
156,203,12760,6,0,P|218:189|281:179,1,118.999996368408,2|2,0:0|0:0,0:0:0:0:
344,126,13224,2,0,P|362:159|360:193,1,59.4999981842042,2|0,0:0|0:0,0:0:0:0:
455,164,13533,2,0,P|454:201|435:230,1,59.4999981842042,2|0,0:0|0:0,0:0:0:0:
484,307,13842,2,0,B|381:341|414:259|305:294,1,178.499994552612,2|0,0:0|0:0,0:0:0:0:
233,344,14461,1,2,0:0:0:0:
233,344,14615,2,0,P|228:312|221:281,1,59.4999981842042,2|0,0:0|0:0,0:0:0:0:
148,224,14925,2,0,P|152:192|159:161,1,59.4999981842042,2|0,0:0|0:0,0:0:0:0:
224,98,15234,6,0,P|273:84|338:138,1,118.999996368408,2|0,0:0|0:0,0:0:0:0:
424,127,15698,2,0,P|411:176|333:205,1,118.999996368408,2|0,0:0|0:0,0:0:0:0:
267,179,16162,1,2,0:0:0:0:
267,179,16471,6,0,L|254:258,1,59.4999981842042,2|0,0:0|0:0,0:0:0:0:
193,316,16780,2,0,P|153:335|54:243,1,178.499994552612,2|0,0:0|0:0,0:0:0:0:
0,195,17399,1,2,0:0:0:0:
0,195,17553,1,2,0:0:0:0:
56,118,17708,6,0,P|112:93|168:120,1,118.999996368408,2|0,0:0|0:0,0:0:0:0:
235,56,18172,2,0,P|259:112|232:168,1,118.999996368408,2|0,0:0|0:0,0:0:0:0:
263,257,18636,2,0,P|234:266|203:258,1,59.4999981842042,2|0,0:0|0:0,0:0:0:0:
351,182,18945,6,0,P|401:158|464:188,1,114.749996498108,2|0,0:0|0:0,0:0:0:0:
483,184,19254,2,0,L|472:279,1,76.4999976654053,14|0,0:0|0:0,0:0:0:0:
335,380,19564,1,10,0:3:0:0:
350,355,19641,1,8,0:3:0:0:
374,340,19718,1,4,0:3:0:0:
402,338,19795,1,4,0:3:0:0:
428,349,19873,2,0,L|503:357,1,76.4999976654053,14|0,0:0|0:0,0:0:0:0:
285,255,20182,6,0,L|103:276,1,152.999995330811,6|10,1:2|0:0,0:0:0:0:
12,188,20646,2,0,P|47:178|87:196,1,76.4999976654053,2|0,0:0|1:2,0:0:0:0:
71,339,20956,2,0,P|44:313|40:268,1,76.4999976654053,2|8,1:2|0:0,0:0:0:0:
180,144,21265,6,0,L|331:161,1,152.999995330811,2|2,0:0|1:2,0:0:0:0:
471,61,21729,2,0,P|432:48|382:68,1,76.4999976654053,8|0,0:0|0:0,0:0:0:0:
417,216,22038,2,0,L|431:126,1,76.4999976654053,2|0,1:2|1:2,0:0:0:0:
314,257,22347,2,0,L|331:369,1,114.749996498108,10|0,0:0|0:0,0:0:0:0:
331,370,22657,6,0,B|430:345|430:345|482:392,1,152.999995330811,2|10,1:2|0:0,0:0:0:0:
488,220,23120,2,0,P|451:230|407:204,1,76.4999976654053,2|0,0:0|1:2,0:0:0:0:
305,106,23430,2,0,P|332:133|331:184,1,76.4999976654053,2|8,1:2|0:0,0:0:0:0:
231,303,23739,6,0,L|72:283,1,152.999995330811,2|0,0:0|1:2,0:0:0:0:
0,195,24203,2,0,L|79:185,1,76.4999976654053,8|2,0:0|0:0,0:0:0:0:
190,129,24512,1,2,1:2:0:0:
79,283,24667,1,12,0:0:0:0:
23,91,24821,1,14,0:0:0:0:
23,91,25131,6,0,P|63:29|145:38,1,152.999995330811,6|8,1:2|0:0,0:0:0:0:
306,65,25595,2,0,L|281:228,1,152.999995330811,2|0,0:0|1:2,0:0:0:0:
170,317,26059,2,0,L|157:235,1,76.4999976654053,10|0,0:0|0:0,0:0:0:0:
293,355,26368,6,0,P|347:305|419:320,1,152.999995330811,2|8,1:2|0:0,0:0:0:0:
512,183,26832,2,0,B|472:229|472:229|378:202,1,152.999995330811,2|0,0:0|1:2,0:0:0:0:
427,48,27296,2,0,L|439:128,1,76.4999976654053,10|0,0:0|0:0,0:0:0:0:
277,233,27605,6,0,L|288:157,1,76.4999976654053,2|0,1:2|1:2,0:0:0:0:
208,0,27914,1,8,0:0:0:0:
326,65,28069,2,0,L|159:89,1,152.999995330811,2|0,0:0|1:2,0:0:0:0:
24,113,28533,2,0,P|68:114|99:143,1,76.4999976654053,8|0,0:0|0:0,0:0:0:0:
46,276,28842,6,0,L|26:192,1,76.4999976654053,0|0,1:2|1:2,0:0:0:0:
101,352,29151,2,0,B|70:374|70:374|26:369,1,76.4999976654053,12|0,0:0|0:0,0:0:0:0:
145,256,29461,2,0,B|183:252|183:252|214:274,1,76.4999976654053,2|0,1:2|1:2,0:0:0:0:
340,384,29770,2,0,P|305:351|329:266,1,114.749996498108,14|0,0:0|0:0,0:0:0:0:
307,288,30079,5,6,1:2:0:0:
414,215,30234,1,2,1:2:0:0:
304,161,30389,2,0,L|221:184,1,68,0|2,1:2|0:0,0:0:0:0:
394,72,30698,1,8,0:0:0:0:
130,5,31162,6,0,B|167:42|167:42|142:135,1,136,10|2,0:0|1:2,0:0:0:0:
0,97,31626,2,0,L|65:78,1,68,0|0,1:2|0:0,0:0:0:0:
260,17,31935,1,10,0:0:0:0:
260,17,32244,2,0,B|283:43|283:43|275:98,1,68,2|0,0:0|0:0,0:0:0:0:
242,186,32553,5,2,1:2:0:0:
354,164,32708,1,2,1:2:0:0:
318,272,32863,2,0,L|334:354,1,68,0|2,1:2|0:0,0:0:0:0:
466,142,33172,1,8,0:0:0:0:
197,319,33636,6,0,L|53:300,1,136,10|2,0:0|1:2,0:0:0:0:
137,159,34100,2,0,B|160:187|160:187|154:237,1,68,0|2,1:2|0:0,0:0:0:0:
21,90,34409,1,10,0:0:0:0:
21,90,34718,2,0,L|34:6,1,68,10|4,0:3|0:3,0:0:0:0:
185,68,35028,5,6,1:2:0:0:
206,51,35337,1,0,1:2:0:0:
232,53,35646,1,2,1:2:0:0:
249,74,35956,1,0,1:2:0:0:
233,236,36265,6,0,L|211:132,1,85,10|2,0:0|0:0,0:0:0:0:
334,273,36574,1,0,1:2:0:0:
155,355,36729,2,0,P|211:330|301:394,1,170,10|0,0:0|0:0,0:0:0:0:
444,290,37193,2,0,L|428:377,1,85,10|0,0:0|0:0,0:0:0:0:
397,192,37502,6,0,L|431:7,1,170,6|0,1:2|1:2,0:0:0:0:
494,152,37966,1,8,0:0:0:0:
329,92,38120,2,0,L|240:110,1,85,8|8,1:2|0:0,0:0:0:0:
152,221,38430,2,0,L|241:239,1,85,8|0,1:2|0:0,0:0:0:0:
118,95,38739,6,0,B|42:79|42:79|0:142,1,152.999995330811,4|0,1:2|0:0,0:0:0:0:
233,344,39821,6,0,B|338:315|305:396|427:346,1,187.000005706787,6|0,1:2|1:2,0:0:0:0:
377,163,40285,2,0,L|361:288,1,93.5000028533936,8|2,0:0|0:0,0:0:0:0:
280,122,40595,1,2,1:2:0:0:
418,77,40749,1,2,1:2:0:0:
274,228,40904,1,8,0:0:0:0:
146,4,41059,6,0,B|196:57|196:57|162:175,1,187.000005706787,2|2,1:2|1:2,0:0:0:0:
217,376,41523,1,8,0:0:0:0:
16,260,41677,2,0,B|84:254|84:254|124:279|124:279|206:273,1,187.000005706787,2|2,0:0|1:2,0:0:0:0:
293,97,42141,1,8,0:0:0:0:
478,257,42296,6,0,B|432:262|394:297|394:297|370:249|310:225,1,187.000005706787,6|0,1:2|1:2,0:0:0:0:
412,33,42760,2,0,P|435:81|402:139,1,93.5000028533936,8|2,0:0|0:0,0:0:0:0:
230,185,43069,1,2,1:2:0:0:
322,0,43224,1,2,1:2:0:0:
329,233,43378,1,8,0:0:0:0:
168,58,43533,6,0,B|56:41|56:41|18:70|40:116,1,187.000005706787,2|2,1:2|1:2,0:0:0:0:
230,185,43997,1,8,0:0:0:0:
78,352,44151,2,0,L|122:164,1,187.000005706787,2|2,0:0|1:2,0:0:0:0:
275,315,44615,2,0,L|164:293,1,93.5000028533936,8|0,0:0|0:0,0:0:0:0:
301,103,44925,5,6,1:2:0:0:
424,205,45079,2,0,L|313:227,1,93.5000028533936,2|8,0:0|0:0,0:0:0:0:
212,42,45389,2,0,P|252:-2|380:28,1,187.000005706787,2|2,0:0|1:2,0:0:0:0:
196,136,45852,2,0,L|85:114,1,93.5000028533936,8|2,0:0|0:0,0:0:0:0:
231,335,46162,6,0,B|298:319|298:319|341:337|341:337|439:319,1,187.000005706787,0|8,1:2|0:0,0:0:0:0:
245,229,46626,1,2,0:0:0:0:
384,144,46780,2,0,L|364:259,1,93.5000028533936,2|0,1:2|1:2,0:0:0:0:
332,48,47090,2,0,P|372:26|417:35,1,93.5000028533936,10|0,0:0|0:0,0:0:0:0:
281,130,47399,6,0,L|142:105,1,140.25000428009,6|0,1:2|0:0,0:0:0:0:
123,75,47708,2,0,L|31:92,1,93.5000028533936,12|0,0:0|0:0,0:0:0:0:
0,277,48017,2,0,B|35:246|35:246|95:265,1,93.5000028533936,2|0,1:2|0:0,0:0:0:0:
235,315,48327,1,8,0:0:0:0:
99,173,48481,1,2,0:0:0:0:
154,384,48636,5,6,1:2:0:0:
211,206,48791,1,2,1:2:0:0:
50,351,48945,1,8,0:0:0:0:
261,309,49100,2,0,L|356:327,1,93.5000028533936,6|8,1:2|0:3,0:0:0:0:
223,104,49409,1,2,1:2:0:0:
200,98,49486,1,0,1:2:0:0:
177,101,49563,1,4,0:3:0:0:
155,110,49640,1,4,0:3:0:0:
138,126,49718,6,0,B|99:173|99:173|143:314,1,187.000005706787,6|0,1:2|1:2,0:0:0:0:
302,173,50182,2,0,L|333:70,1,93.5000028533936,8|2,0:0|0:0,0:0:0:0:
373,253,50492,1,2,1:2:0:0:
211,206,50646,1,2,1:2:0:0:
394,257,50801,1,8,0:0:0:0:
171,384,50956,6,0,B|58:369|58:369|30:331|63:292,1,187.000005706787,2|2,1:2|1:2,0:0:0:0:
211,206,51419,1,8,0:0:0:0:
92,45,51574,2,0,B|139:91|139:91|102:213,1,187.000005706787,2|2,0:0|1:2,0:0:0:0:
3,73,52038,1,8,0:0:0:0:
192,5,52193,6,0,L|397:28,1,187.000005706787,6|0,1:2|1:2,0:0:0:0:
502,141,52657,2,0,P|450:136|409:170,1,93.5000028533936,8|2,0:0|0:0,0:0:0:0:
358,328,52966,1,2,1:2:0:0:
314,172,53120,1,2,1:2:0:0:
466,259,53275,1,8,0:0:0:0:
256,360,53430,6,0,L|58:334,1,187.000005706787,2|2,1:2|1:2,0:0:0:0:
229,237,53894,1,8,0:0:0:0:
107,147,54048,2,0,L|126:256,1,93.5000028533936,2|0,0:0|1:2,0:0:0:0:
223,108,54358,1,2,1:2:0:0:
26,80,54512,2,0,B|-4:120|-4:120|16:179,1,93.5000028533936,8|0,0:0|0:0,0:0:0:0:
182,339,54821,6,0,L|281:326,1,93.5000028533936,6|2,1:2|0:0,0:0:0:0:
323,128,55131,1,8,0:0:0:0:
469,256,55285,2,0,L|376:243,1,93.5000028533936,2|0,0:0|1:2,0:0:0:0:
404,47,55595,2,0,P|437:94|425:147,1,93.5000028533936,2|8,1:2|0:0,0:0:0:0:
242,229,55904,6,0,B|136:195|169:277|60:242,1,187.000005706787,2|2,0:0|0:0,0:0:0:0:
234,126,56368,1,8,0:0:0:0:
88,56,56523,2,0,L|101:148,1,93.5000028533936,2|0,0:0|1:2,0:0:0:0:
203,317,56832,2,0,P|154:346|98:338,1,93.5000028533936,2|8,1:2|0:0,0:0:0:0:
242,229,57141,1,2,0:0:0:0:
346,384,57296,6,0,B|299:339|299:339|346:208,1,187.000005706787,6|8,1:2|0:0,0:0:0:0:
512,295,57760,2,0,L|411:316,1,93.5000028533936,2|0,0:0|1:2,0:0:0:0:
366,128,58069,1,0,1:2:0:0:
512,192,58224,2,0,L|411:213,1,93.5000028533936,8|0,0:0|1:2,0:0:0:0:
261,122,58533,5,8,0:0:0:0:
428,36,58687,2,0,B|469:63|469:63|467:126,1,93.5000028533936,0|0,1:2|1:2,0:0:0:0:
305,216,58997,1,0,1:2:0:0:
324,28,59151,1,8,0:3:0:0:
421,211,59306,1,12,0:3:0:0:
244,105,59461,6,0,P|176:97|129:146,1,140.25000428009,14|0,0:0|0:0,0:0:0:0:
128,192,59770,6,0,L|213:180,1,76.4999976654053,4|0,1:2|0:0,0:0:0:0:
251,310,60079,2,0,L|175:320,1,76.4999976654053,8|2,0:0|0:0,0:0:0:0:
39,232,60389,1,2,1:2:0:0:
39,232,60543,1,2,1:2:0:0:
71,384,60698,2,0,B|92:352|92:352|79:305,1,76.4999976654053,10|2,0:0|0:0,0:0:0:0:
0,118,61007,6,0,B|32:139|32:139|79:126,1,76.4999976654053,2|0,1:2|1:2,0:0:0:0:
85,107,61239,2,0,L|70:36,1,38.2499988327027,2|8,0:0|0:0,0:0:0:0:
183,159,61471,2,0,P|238:109|310:123,1,152.999995330811,2|0,0:0|1:2,0:0:0:0:
304,320,61935,6,0,P|237:309|260:229,1,152.999995330811,14|0,0:0|0:0,0:0:0:0:
265,211,62244,6,0,L|350:226,1,76.4999976654053,6|0,1:2|0:0,0:0:0:0:
407,325,62553,2,0,L|492:310,1,76.4999976654053,8|2,0:0|0:0,0:0:0:0:
434,222,62863,1,2,1:2:0:0:
434,222,63017,1,2,1:2:0:0:
506,101,63172,2,0,B|476:126|476:126|427:115,1,76.4999976654053,10|0,0:0|0:0,0:0:0:0:
318,27,63481,6,0,B|343:57|343:57|332:106,1,76.4999976654053,2|0,1:2|1:2,0:0:0:0:
323,115,63713,2,0,L|284:119,1,38.2499988327027,2|8,0:0|0:0,0:0:0:0:
178,28,63945,2,0,B|194:83|194:83|181:115|181:115|211:200,1,152.999995330811,2|0,0:0|1:2,0:0:0:0:
371,236,64409,6,0,P|313:222|243:300,1,152.999995330811,14|0,0:0|0:0,0:0:0:0:
230,295,64718,6,0,L|125:281,1,76.4999976654053,6|0,1:2|0:0,0:0:0:0:
35,219,65028,2,0,L|110:208,1,76.4999976654053,8|2,0:0|0:0,0:0:0:0:
153,92,65337,1,2,1:2:0:0:
153,92,65492,1,2,1:2:0:0:
0,93,65646,2,0,B|28:123|28:123|68:119,1,76.4999976654053,10|2,0:0|1:2,0:0:0:0:
234,175,65956,5,14,0:0:0:0:
63,21,66110,1,2,0:0:0:0:
234,175,67193,6,0,L|256:58,1,93.5000028533936,12|0,0:0|0:0,0:0:0:0:
397,261,67502,2,0,L|375:144,1,93.5000028533936,8|2,0:0|0:0,0:0:0:0:
347,364,67811,5,8,0:0:0:0:
508,274,67966,1,0,1:2:0:0:
293,260,68120,1,10,0:0:0:0:
461,366,68275,1,0,1:2:0:0:
275,253,68430,6,0,L|180:274,1,93.5000028533936,8|2,0:0|0:0,0:0:0:0:
0,363,68739,2,0,L|91:383,1,93.5000028533936,8|0,0:0|1:2,0:0:0:0:
194,178,69048,5,10,0:0:0:0:
43,278,69203,1,0,1:2:0:0:
201,367,69358,1,10,0:0:0:0:
29,265,69512,1,2,1:2:0:0:
213,159,69667,6,0,L|339:182,1,93.5000028533936,10|0,0:0|0:0,0:0:0:0:
500,293,69976,2,0,L|374:316,1,93.5000028533936,8|2,0:0|0:0,0:0:0:0:
347,87,70285,5,8,0:0:0:0:
512,162,70440,1,0,1:2:0:0:
403,0,70595,1,10,0:0:0:0:
406,200,70749,1,0,1:2:0:0:
244,55,70904,5,8,1:2:0:0:
177,308,71059,1,8,1:2:0:0:
177,308,71523,5,8,1:2:0:0:
28,106,71677,1,8,1:2:0:0:
256,192,72141,5,6,1:2:0:0:
256,192,72296,12,0,74306,0:0:0:0:
256,192,74615,5,8,0:0:0:0:
100,332,74770,1,8,0:0:0:0:
100,332,75852,5,8,0:0:0:0:
45,130,76007,1,8,0:0:0:0:
45,130,76471,5,10,0:3:0:0:
181,237,76626,1,8,0:3:0:0:
174,51,76780,2,0,B|136:96|136:96|148:179,1,114.749996498108,14|0,0:0|0:0,0:0:0:0:
143,151,77090,6,0,L|301:127,1,136,6|10,0:0|0:0,0:0:0:0:
385,19,77553,2,0,P|355:17|320:31,1,68,2|0,0:0|1:2,0:0:0:0:
359,179,77863,2,0,L|369:104,1,68,2|8,1:2|0:0,0:0:0:0:
484,0,78172,6,0,L|464:148,1,136,2|2,0:0|1:2,0:0:0:0:
445,266,78636,1,8,0:0:0:0:
445,266,78945,2,0,L|527:277,1,68,2|0,1:2|1:2,0:0:0:0:
411,361,79254,2,0,L|343:351,1,68,10|0,0:0|0:0,0:0:0:0:
186,255,79564,6,0,P|229:221|321:248,1,136,2|10,1:2|0:0,0:0:0:0:
264,384,80028,2,0,L|254:316,1,68,2|0,0:0|1:2,0:0:0:0:
104,349,80337,2,0,L|171:358,1,68,2|8,1:2|0:0,0:0:0:0:
155,163,80646,6,0,B|101:204|101:204|22:185,1,136,2|0,0:0|1:2,0:0:0:0:
0,89,81110,2,0,L|82:103,1,68,8|2,0:0|0:0,0:0:0:0:
148,45,81419,1,2,1:2:0:0:
35,188,81574,1,12,0:0:0:0:
230,106,81729,1,14,0:0:0:0:
230,106,82038,6,0,P|281:90|355:143,1,136,6|8,1:2|0:0,0:0:0:0:
316,297,82502,2,0,P|276:260|285:170,1,136,2|0,0:0|1:2,0:0:0:0:
422,204,82966,2,0,L|344:222,1,68,10|0,0:0|0:0,0:0:0:0:
318,384,83275,6,0,L|384:368,1,68,2|0,1:2|1:2,0:0:0:0:
237,340,83584,2,0,P|193:330|126:401,1,136,10|0,0:0|1:2,0:0:0:0:
57,234,84048,1,0,1:2:0:0:
0,307,84203,2,0,B|25:329|25:329|74:325,1,68,10|2,0:0|0:0,0:0:0:0:
159,237,84512,6,0,L|133:79,1,136,2|8,1:2|0:0,0:0:0:0:
248,158,84976,2,0,L|274:0,1,136,2|0,0:0|1:2,0:0:0:0:
412,101,85440,2,0,L|326:119,1,68,10|0,0:0|0:0,0:0:0:0:
235,253,85749,5,2,1:2:0:0:
393,200,85904,1,0,1:2:0:0:
348,352,86059,2,0,L|330:268,1,68,10|0,0:0|0:0,0:0:0:0:
248,158,86368,1,8,0:3:0:0:
223,152,86445,1,0,0:0:0:0:
198,156,86522,1,0,1:2:0:0:
176,169,86599,1,0,1:2:0:0:
162,190,86677,2,0,L|147:256,1,68,12|0,0:0|0:0,0:0:0:0:
0,130,86986,6,0,L|38:311,1,170,6|10,1:2|0:0,0:0:0:0:
151,376,87450,2,0,L|248:355,1,85,2|0,0:0|1:2,0:0:0:0:
310,212,87760,2,0,B|339:242|339:242|332:302,1,85,2|8,1:2|0:0,0:0:0:0:
162,190,88069,6,0,L|187:14,1,170,2|2,0:0|1:2,0:0:0:0:
348,92,88533,2,0,L|251:113,1,85,8|0,0:0|0:0,0:0:0:0:
321,0,88842,1,2,1:2:0:0:
321,0,88997,1,0,1:2:0:0:
447,118,89151,2,0,B|461:78|461:78|433:27,1,85,10|0,0:0|0:0,0:0:0:0:
372,190,89461,6,0,L|407:368,1,170,2|10,1:2|0:0,0:0:0:0:
282,240,89925,2,0,L|264:329,1,85,2|0,0:0|1:2,0:0:0:0:
167,384,90234,2,0,L|149:295,1,85,2|8,1:2|0:0,0:0:0:0:
17,210,90543,6,0,P|79:222|155:122,1,170,2|0,0:0|1:2,0:0:0:0:
30,47,91007,2,0,P|29:88|54:122,1,85,8|2,0:0|0:0,0:0:0:0:
130,54,91316,1,2,1:2:0:0:
17,210,91471,1,12,0:0:0:0:
226,93,91626,2,0,L|250:240,1,127.5,14|0,0:0|0:0,0:0:0:0:
246,218,91935,6,0,P|196:223|149:330,1,170,6|8,1:2|0:0,0:0:0:0:
304,344,92399,2,0,B|398:320|369:402|479:361,1,170,2|0,0:0|1:2,0:0:0:0:
447,191,92863,2,0,L|433:283,1,85,10|0,0:0|0:0,0:0:0:0:
343,137,93172,6,0,B|362:14|362:14|399:72,1,170,2|8,1:2|0:0,0:0:0:0:
260,175,93636,2,0,L|88:156,1,170,2|0,0:0|1:2,0:0:0:0:
0,51,94100,2,0,L|84:60,1,85,10|0,0:0|0:0,0:0:0:0:
27,221,94409,6,0,B|-5:191|-5:191|2:122,1,85,2|0,1:2|1:2,0:0:0:0:
138,235,94718,1,8,0:0:0:0:
0,372,94873,2,0,P|53:320|143:343,1,170,2|0,0:0|1:2,0:0:0:0:
303,285,95337,2,0,P|258:298|212:262,1,85,8|0,0:0|0:0,0:0:0:0:
254,110,95646,6,0,L|272:202,1,85,0|0,1:2|1:2,0:0:0:0:
411,258,95956,2,0,B|379:220|379:220|415:132,1,127.5,12|0,0:0|0:0,0:0:0:0:
408,147,96265,1,10,0:3:0:0:
510,248,96419,1,0,1:2:0:0:
391,354,96574,2,0,L|244:375,1,127.5,14|0,0:0|0:0,0:0:0:0:
264,372,96883,5,6,1:2:0:0:
305,243,97038,1,2,1:2:0:0:
145,273,97193,2,0,L|224:293,1,68,0|2,1:2|0:0,0:0:0:0:
74,119,97502,1,8,0:0:0:0:
460,9,97966,6,0,B|417:64|417:64|336:46,1,136,10|2,0:0|1:2,0:0:0:0:
237,124,98430,2,0,L|326:145,1,68,0|0,1:2|0:0,0:0:0:0:
512,192,98739,1,10,0:0:0:0:
512,192,99048,2,0,L|501:274,1,68,2|0,0:0|0:0,0:0:0:0:
331,333,99358,5,6,1:2:0:0:
397,239,99512,1,2,1:2:0:0:
446,343,99667,2,0,L|536:360,1,68,0|2,1:2|0:0,0:0:0:0:
282,228,99976,1,8,0:0:0:0:
38,383,100440,6,0,B|71:344|71:344|43:244,1,136,10|2,0:0|1:2,0:0:0:0:
9,150,100904,2,0,L|91:164,1,68,0|2,1:2|0:0,0:0:0:0:
225,0,101213,1,10,0:0:0:0:
225,0,101523,1,10,0:3:0:0:
222,16,101600,1,8,0:3:0:0:
219,33,101677,1,4,0:3:0:0:
217,50,101754,1,4,0:3:0:0:
214,67,101832,5,6,1:2:0:0:
236,84,102141,1,0,1:2:0:0:
262,80,102450,1,2,1:2:0:0:
277,58,102760,1,0,1:2:0:0:
126,13,103069,6,0,L|11:36,1,85,10|2,0:0|0:0,0:0:0:0:
177,123,103378,1,0,1:2:0:0:
21,214,103533,2,0,P|102:207|148:274,1,170,10|0,0:0|0:0,0:0:0:0:
40,384,103997,2,0,L|60:294,1,85,10|8,0:0|0:3,0:0:0:0:
137,367,104229,1,4,0:3:0:0:
137,367,104306,6,0,B|200:353|200:353|236:370|236:370|320:354,1,170,6|0,1:2|1:2,0:0:0:0:
348,159,104770,1,8,0:0:0:0:
254,270,104925,1,8,1:2:0:0:
352,143,105079,1,8,0:0:0:0:
441,282,105234,2,0,B|397:288|397:288|364:263,1,85,8|0,1:2|0:0,0:0:0:0:
367,17,105543,6,0,B|426:34|426:34|437:62|437:62|501:80,1,152.999995330811,4|0,1:2|0:0,0:0:0:0:
180,205,106626,6,0,B|75:176|108:257|-14:207,1,187.000005706787,6|0,1:2|1:2,0:0:0:0:
130,384,107090,2,0,L|143:291,1,93.5000028533936,8|2,0:0|0:0,0:0:0:0:
37,127,107399,1,2,1:2:0:0:
180,205,107553,1,2,1:2:0:0:
17,308,107708,1,8,0:0:0:0:
133,107,107863,6,0,P|222:101|279:171,1,187.000005706787,2|2,1:2|1:2,0:0:0:0:
491,239,108327,1,8,0:0:0:0:
365,369,108481,2,0,L|395:172,1,187.000005706787,2|2,0:0|1:2,0:0:0:0:
281,24,108945,1,8,0:0:0:0:
512,49,109100,6,0,B|400:66|400:66|362:37|384:-9,1,187.000005706787,6|0,1:2|1:2,0:0:0:0:
505,146,109564,2,0,L|488:261,1,93.5000028533936,8|2,0:0|0:0,0:0:0:0:
365,369,109873,1,2,1:2:0:0:
315,220,110028,1,2,1:2:0:0:
466,327,110182,1,8,0:0:0:0:
265,316,110337,6,0,B|157:296|197:374|63:339,1,187.000005706787,2|2,1:2|1:2,0:0:0:0:
0,214,110801,1,8,0:0:0:0:
142,93,110956,2,0,B|93:135|93:135|124:264,1,187.000005706787,2|2,0:0|1:2,0:0:0:0:
243,116,111419,2,0,B|261:74|261:74|227:14,1,93.5000028533936,8|0,0:0|0:0,0:0:0:0:
23,90,111729,5,6,1:2:0:0:
211,210,111883,2,0,B|253:228|253:228|313:194,1,93.5000028533936,2|8,0:0|0:0,0:0:0:0:
407,54,112193,2,0,B|366:104|366:104|410:234,1,187.000005706787,2|2,0:0|1:2,0:0:0:0:
512,354,112657,2,0,L|405:335,1,93.5000028533936,8|2,0:0|0:0,0:0:0:0:
197,355,112966,6,0,P|253:370|341:280,1,187.000005706787,0|8,1:2|0:0,0:0:0:0:
282,97,113430,1,2,0:0:0:0:
156,261,113584,2,0,L|259:276,1,93.5000028533936,2|0,1:2|1:2,0:0:0:0:
413,169,113894,2,0,B|366:159|366:159|330:188,1,93.5000028533936,10|0,0:0|0:0,0:0:0:0:
200,17,114203,6,0,P|162:74|175:141,1,140.25000428009,6|0,1:2|0:0,0:0:0:0:
152,164,114512,2,0,L|270:187,1,93.5000028533936,8|0,0:0|0:0,0:0:0:0:
374,79,114821,2,0,L|282:96,1,93.5000028533936,2|0,1:2|0:0,0:0:0:0:
424,171,115131,1,8,0:0:0:0:
442,5,115285,1,2,0:0:0:0:
331,179,115440,5,6,1:2:0:0:
502,269,115595,1,2,1:2:0:0:
477,90,115749,1,8,0:0:0:0:
374,286,115904,2,0,L|394:401,1,93.5000028533936,6|8,1:2|0:3,0:0:0:0:
223,287,116213,1,2,1:2:0:0:
202,275,116290,1,0,1:2:0:0:
187,258,116367,1,4,0:3:0:0:
179,236,116444,1,4,0:3:0:0:
180,214,116523,6,0,L|215:9,1,187.000005706787,6|0,1:2|1:2,0:0:0:0:
376,133,116986,2,0,L|269:155,1,93.5000028533936,8|2,0:0|0:0,0:0:0:0:
433,46,117296,1,2,1:2:0:0:
405,222,117450,1,2,1:2:0:0:
309,52,117605,1,8,0:0:0:0:
507,146,117760,6,0,L|484:344,1,187.000005706787,2|2,1:2|1:2,0:0:0:0:
405,222,118224,1,8,0:0:0:0:
339,373,118378,1,2,0:0:0:0:
339,373,118533,1,2,1:2:0:0:
208,253,118687,2,0,L|323:275,1,93.5000028533936,2|8,1:2|0:0,0:0:0:0:
129,337,118997,6,0,B|87:291|87:291|123:159,1,187.000005706787,6|0,1:2|1:2,0:0:0:0:
219,30,119461,2,0,L|244:124,1,93.5000028533936,8|2,0:0|0:0,0:0:0:0:
300,270,119770,1,2,1:2:0:0:
353,103,119925,1,2,1:2:0:0:
208,253,120079,1,10,0:0:0:0:
403,366,120234,6,0,B|462:339|517:325|517:325|483:315|457:298,1,187.000005706787,2|2,1:2|1:2,0:0:0:0:
313,179,120698,1,8,0:0:0:0:
455,12,120852,2,0,L|418:211,1,187.000005706787,2|2,0:0|1:2,0:0:0:0:
293,375,121316,2,0,B|262:341|262:341|284:266,1,93.5000028533936,8|0,0:0|0:0,0:0:0:0:
457,298,121626,6,0,L|354:322,1,93.5000028533936,6|2,1:2|0:0,0:0:0:0:
300,146,121935,1,8,0:0:0:0:
512,175,122090,2,0,L|409:199,1,93.5000028533936,2|0,0:0|1:2,0:0:0:0:
278,46,122399,2,0,B|323:32|323:32|357:63,1,93.5000028533936,2|8,1:2|0:0,0:0:0:0:
218,215,122708,6,0,B|150:209|150:209|110:234|110:234|28:228,1,187.000005706787,2|2,0:0|0:0,0:0:0:0:
194,112,123172,1,8,0:0:0:0:
56,40,123327,2,0,L|86:144,1,93.5000028533936,2|0,0:0|1:2,0:0:0:0:
179,295,123636,2,0,L|149:399,1,93.5000028533936,2|8,1:2|0:0,0:0:0:0:
39,229,123945,1,2,0:0:0:0:
242,200,124100,6,0,B|350:180|310:258|444:223,1,187.000005706787,2|8,1:2|0:0,0:0:0:0:
293,384,124564,2,0,L|272:282,1,93.5000028533936,2|0,0:0|1:2,0:0:0:0:
386,129,124873,1,0,1:2:0:0:
475,311,125028,2,0,B|437:338|437:338|368:317,1,93.5000028533936,8|0,0:0|1:2,0:0:0:0:
242,200,125337,5,8,0:0:0:0:
371,37,125492,2,0,L|389:145,1,93.5000028533936,0|0,1:2|1:2,0:0:0:0:
274,292,125801,1,0,1:2:0:0:
291,116,125956,1,8,0:3:0:0:
421,228,126110,1,12,0:3:0:0:
216,194,126265,6,0,P|162:186|103:272,1,140.25000428009,14|0,0:0|0:0,0:0:0:0:
93,256,126574,6,0,L|109:353,1,76.4999976654053,4|0,1:2|0:0,0:0:0:0:
221,384,126883,2,0,L|237:287,1,76.4999976654053,8|2,0:0|0:0,0:0:0:0:
320,205,127193,1,2,1:2:0:0:
320,205,127347,1,2,1:2:0:0:
415,318,127502,2,0,L|339:305,1,76.4999976654053,10|2,0:0|0:0,0:0:0:0:
216,194,127811,6,0,L|228:118,1,76.4999976654053,2|0,1:2|1:2,0:0:0:0:
248,82,128043,2,0,L|241:44,1,38.2499988327027,2|8,0:0|0:0,0:0:0:0:
368,116,128275,2,0,L|525:80,1,152.999995330811,2|0,0:0|1:2,0:0:0:0:
512,265,128739,6,0,P|463:282|401:194,1,152.999995330811,14|0,0:0|0:0,0:0:0:0:
417,196,129048,6,0,L|506:175,1,76.4999976654053,6|0,1:2|0:0,0:0:0:0:
323,290,129358,2,0,L|233:269,1,76.4999976654053,8|2,0:0|0:0,0:0:0:0:
138,190,129667,1,2,1:2:0:0:
138,190,129821,1,2,1:2:0:0:
227,100,129976,2,0,B|254:127|254:127|246:190,1,76.4999976654053,10|2,0:0|0:0,0:0:0:0:
145,299,130285,6,0,L|55:278,1,76.4999976654053,2|0,1:2|1:2,0:0:0:0:
46,259,130517,2,0,L|1:269,1,38.2499988327027,2|8,0:0|0:0,0:0:0:0:
138,190,130749,2,0,L|105:22,1,152.999995330811,2|0,0:0|1:2,0:0:0:0:
249,165,131213,6,0,P|284:121|385:122,1,152.999995330811,14|0,0:0|0:0,0:0:0:0:
405,111,131523,6,0,L|430:212,1,76.4999976654053,6|0,1:2|0:0,0:0:0:0:
316,274,131832,2,0,L|341:173,1,76.4999976654053,8|2,0:0|0:0,0:0:0:0:
421,297,132141,1,2,1:2:0:0:
421,297,132296,1,2,1:2:0:0:
293,368,132450,2,0,L|210:353,1,76.4999976654053,10|2,0:0|1:2,0:0:0:0:
71,316,132760,5,14,0:0:0:0:
223,149,132914,1,2,0:0:0:0:
223,149,133997,6,0,L|123:129,1,93.5000028533936,12|0,0:0|0:0,0:0:0:0:
303,0,134306,2,0,L|203:20,1,93.5000028533936,8|2,0:0|0:0,0:0:0:0:
360,141,134615,5,8,0:0:0:0:
468,0,134770,1,0,1:2:0:0:
459,218,134925,1,10,0:0:0:0:
389,53,135079,1,0,1:2:0:0:
305,239,135234,6,0,L|330:348,1,93.5000028533936,8|2,0:0|0:0,0:0:0:0:
196,182,135543,2,0,L|171:291,1,93.5000028533936,8|0,0:0|1:2,0:0:0:0:
9,373,135852,5,10,0:0:0:0:
84,207,136007,1,0,1:2:0:0:
133,378,136162,1,10,0:0:0:0:
13,274,136316,1,2,1:2:0:0:
196,182,136471,6,0,L|298:196,1,93.5000028533936,10|0,0:0|0:0,0:0:0:0:
453,345,136780,2,0,L|360:357,1,93.5000028533936,8|2,0:0|0:0,0:0:0:0:
399,162,137090,5,8,0:0:0:0:
274,290,137244,1,0,1:2:0:0:
303,102,137399,1,10,0:0:0:0:
388,259,137553,1,0,1:2:0:0:
415,66,137708,5,8,1:2:0:0:
196,182,137863,1,8,1:2:0:0:
196,182,138327,5,8,1:2:0:0:
367,359,138481,1,8,1:2:0:0:
116,384,138945,5,2,0:0:0:0:
116,384,139873,2,0,L|107:318,1,46.7500014266968,8|0,0:0|0:0,0:0:0:0:
33,188,140028,6,0,B|95:175|95:175|133:194|133:194|219:177,1,170,6|0,1:2|1:2,0:0:0:0:
169,21,140492,2,0,B|140:54|140:54|156:102,1,85,8|0,0:0|0:0,0:0:0:0:
279,234,140801,1,2,1:2:0:0:
331,62,140956,2,0,L|236:85,1,85,2|8,1:2|0:0,0:0:0:0:
197,290,141265,6,0,P|249:340|346:317,1,170,2|0,1:2|1:2,0:0:0:0:
424,187,141729,2,0,L|444:291,1,85,8|2,0:0|0:0,0:0:0:0:
326,156,142038,1,2,1:2:0:0:
489,94,142193,1,2,1:2:0:0:
440,270,142347,1,10,0:0:0:0:
366,56,142502,6,0,B|326:39|326:39|257:62,1,85,6|0,1:2|0:0,0:0:0:0:
117,186,142811,2,0,B|157:203|157:203|226:180,1,85,2|8,1:2|0:0,0:0:0:0:
61,108,143120,1,2,0:0:0:0:
80,282,143275,1,2,1:2:0:0:
165,102,143430,1,2,1:2:0:0:
0,205,143584,1,10,0:0:0:0:
186,306,143739,6,0,B|283:332|252:257|369:292,1,170,2|2,1:2|1:2,0:0:0:0:
411,114,144203,1,10,0:0:0:0:
512,231,144358,2,0,L|415:214,1,85,2|0,0:0|1:2,0:0:0:0:
317,61,144667,1,2,1:2:0:0:
216,192,144821,2,0,L|313:175,1,85,10|0,0:0|0:0,0:0:0:0:
133,75,145131,6,0,L|60:94,2,56.6666666666667,6|2|2,1:2|0:0|0:0,0:0:0:0:
82,198,145440,2,0,L|9:217,2,56.6666666666667,10|2|2,0:0|0:0|0:0,0:0:0:0:
300,177,145749,6,0,L|373:196,2,56.6666666666667,2|2|2,1:2|0:0|0:0,0:0:0:0:
351,300,146058,2,0,L|424:319,2,56.6666666666667,10|2|2,0:0|0:0|0:0,0:0:0:0:
188,384,146368,5,2,1:2:0:0:
188,384,146471,2,0,L|204:312,1,56.6666666666667,2|2,0:0|0:0,0:0:0:0:
79,278,146677,1,10,0:0:0:0:
79,278,146780,2,0,L|95:350,1,56.6666666666667,2|2,0:0|0:0,0:0:0:0:
188,193,146986,5,2,1:2:0:0:
188,193,147090,2,0,L|204:121,1,56.6666666666667,2|2,0:0|0:0,0:0:0:0:
79,87,147295,1,10,0:0:0:0:
79,87,147398,2,0,L|95:159,1,56.6666666666667,2|2,0:0|0:0,0:0:0:0:
173,43,147605,5,14,0:0:0:0:
214,32,147708,1,2,0:0:0:0:
247,50,147811,1,2,0:0:0:0:
291,124,147914,5,14,0:0:0:0:
332,135,148017,1,2,0:0:0:0:
365,117,148120,1,2,0:0:0:0:
450,72,148224,5,14,0:0:0:0:
468,105,148327,1,2,0:0:0:0:
457,146,148430,1,2,0:0:0:0:
489,233,148533,5,14,0:0:0:0:
449,243,148636,1,2,0:0:0:0:
411,224,148739,1,2,0:0:0:0:
327,217,148842,6,0,B|267:230|267:230|254:258|254:258|189:272,1,152.999995330811,14|0,0:0|0:0,0:0:0:0:
154,94,149461,6,0,B|201:70|201:70|179:185,1,152.999995330811,6|0,1:2|0:0,0:0:0:0:
82,172,150079,6,0,L|53:344,1,170,6|2,1:2|0:0,0:0:0:0:
123,384,151007,1,8,0:0:0:0:
219,264,151162,6,0,B|325:232|283:321|387:276|387:276|397:216|340:194,1,272,6|0,1:2|0:0,0:0:0:0:
380,106,152553,6,0,B|342:68|289:88|289:88|293:128|256:163,1,170,6|2,1:2|0:0,0:0:0:0:
194,93,153481,1,10,0:0:0:0:
92,241,153636,6,0,B|126:195|126:195|97:111,1,136,6|2,1:2|0:0,0:0:0:0:
0,261,154409,6,0,L|24:370,1,102,10|0,0:3|0:0,0:0:0:0:
46,376,154718,6,0,L|35:326,1,51,14|0,0:3|0:0,0:0:0:0:
130,340,155028,5,6,1:2:0:0:
152,331,155337,1,0,1:2:0:0:
174,322,155646,1,2,1:2:0:0:
196,313,155956,1,0,1:2:0:0:
381,171,156265,6,0,L|263:150,1,85,14|2,1:2|0:0,0:0:0:0:
231,0,156574,1,0,1:2:0:0:
164,187,156729,2,0,B|202:132|202:132|143:21,1,170,10|0,1:2|0:0,0:0:0:0:
0,115,157193,2,0,L|83:129,1,85,10|0,1:2|1:2,0:0:0:0:
196,313,157502,6,0,L|381:280,1,170,6|0,1:2|1:2,0:0:0:0:
491,160,157966,1,8,0:0:0:0:
332,120,158120,1,8,0:0:0:0:
463,271,158275,1,8,0:0:0:0:
512,45,158430,2,0,L|415:67,1,85,8|0,0:0|0:0,0:0:0:0:
294,206,158739,6,0,L|129:168,1,152.999995330811,4|2,1:2|1:2,0:0:0:0:
122,150,159280,1,0,1:2:0:0:
122,150,159358,1,10,0:0:0:0:
64,224,159512,1,0,1:2:0:0:
21,138,159667,2,0,L|33:69,1,50.9999984436036,2|0,0:0|0:0,0:0:0:0:
134,12,159976,6,0,P|187:49|250:30,1,136,4|0,1:2|0:0,0:0:0:0:
306,189,160440,1,0,1:2:0:0:
401,79,160595,2,0,L|326:97,1,68,10|0,0:0|1:2,0:0:0:0:
203,204,160904,2,0,L|221:129,1,68,8|0,0:0|0:0,0:0:0:0:
418,173,161213,6,0,L|386:305,1,136,6|0,1:2|0:0,0:0:0:0:
210,360,161677,2,0,B|259:338|259:338|339:393,1,136,6|2,1:2|0:0,0:0:0:0:
507,384,162141,2,0,L|485:309,1,68,4|0,1:2|0:0,0:0:0:0:
309,157,162450,6,0,L|289:222,1,68,6|0,1:2|0:0,0:0:0:0:
210,360,162760,2,0,L|196:320,3,34,8|8|8|8,0:3|0:3|0:3|0:3,0:0:0:0:
133,275,163069,1,4,0:3:0:0:
135,258,163146,1,4,0:3:0:0:
138,241,163223,1,4,0:3:0:0:
141,224,163300,1,4,0:3:0:0:
143,207,163378,1,0,1:2:0:0:
146,191,163455,1,0,1:2:0:0:
149,174,163532,1,0,1:2:0:0:
151,157,163610,1,0,1:2:0:0:
155,141,163687,6,0,L|163:86,1,42.5,4|0,1:2|0:0,0:0:0:0:
440,256,164770,6,0,B|390:218|340:240|340:240|341:298|274:335,1,187.000005706787,6|0,1:2|1:2,0:0:0:0:
135,258,165234,2,0,L|248:237,1,93.5000028533936,8|2,0:0|0:0,0:0:0:0:
395,134,165543,1,2,1:2:0:0:
398,333,165698,1,2,1:2:0:0:
283,159,165852,1,8,0:0:0:0:
456,32,166007,6,0,B|377:25|377:25|346:45|346:45|245:35,1,187.000005706787,2|2,1:2|1:2,0:0:0:0:
71,44,166471,1,8,0:0:0:0:
135,258,166626,2,0,L|168:45,1,187.000005706787,2|2,0:0|1:2,0:0:0:0:
26,233,167090,1,8,0:0:0:0:
211,348,167244,6,0,B|319:328|279:406|413:371,1,187.000005706787,6|0,1:2|1:2,0:0:0:0:
365,187,167708,2,0,L|351:296,1,93.5000028533936,8|2,0:0|0:0,0:0:0:0:
469,150,168017,1,2,1:2:0:0:
304,111,168172,1,2,1:2:0:0:
449,261,168327,1,8,0:0:0:0:
383,37,168481,6,0,P|300:0|221:42,1,187.000005706787,2|2,1:2|1:2,0:0:0:0:
74,196,168945,1,8,0:0:0:0:
221,310,169100,2,0,B|172:268|172:268|208:134,1,187.000005706787,2|2,0:0|1:2,0:0:0:0:
381,215,169564,2,0,L|280:239,1,93.5000028533936,8|0,0:0|0:0,0:0:0:0:
188,45,169873,5,6,1:2:0:0:
398,99,170028,2,0,L|297:123,1,93.5000028533936,2|8,0:0|0:0,0:0:0:0:
125,110,170337,2,0,B|174:152|174:152|138:286,1,187.000005706787,2|2,0:0|1:2,0:0:0:0:
18,142,170801,2,0,B|2:98|2:98|39:38,1,93.5000028533936,8|2,0:0|0:0,0:0:0:0:
277,6,171110,6,0,L|476:27,1,187.000005706787,0|8,1:2|0:0,0:0:0:0:
307,120,171574,1,2,0:0:0:0:
446,234,171729,2,0,L|421:127,1,93.5000028533936,2|0,1:2|1:2,0:0:0:0:
381,330,172038,2,0,P|416:360|478:348,1,93.5000028533936,10|0,0:0|0:0,0:0:0:0:
301,237,172347,6,0,B|250:252|250:252|236:280|236:280|164:303,1,140.25000428009,6|0,1:2|0:0,0:0:0:0:
154,289,172657,2,0,B|127:251|127:251|156:198,1,93.5000028533936,8|0,0:0|0:0,0:0:0:0:
307,120,172966,2,0,B|269:147|269:147|216:118,1,93.5000028533936,2|0,1:2|0:0,0:0:0:0:
69,61,173275,1,8,0:0:0:0:
150,210,173430,1,2,0:0:0:0:
177,18,173584,5,6,1:2:0:0:
40,182,173739,1,2,1:2:0:0:
228,124,173894,1,8,0:0:0:0:
112,308,174048,2,0,L|9:289,1,93.5000028533936,6|8,1:2|0:3,0:0:0:0:
249,231,174358,1,2,1:2:0:0:
271,235,174435,1,0,1:2:0:0:
294,239,174512,1,4,0:3:0:0:
317,243,174589,1,4,0:3:0:0:
340,247,174667,6,0,B|378:194|378:194|334:68,1,187.000005706787,6|0,1:2|1:2,0:0:0:0:
157,0,175131,2,0,L|135:110,1,93.5000028533936,8|2,0:0|0:0,0:0:0:0:
108,276,175440,1,2,1:2:0:0:
12,159,175595,1,2,1:2:0:0:
0,344,175749,1,8,0:0:0:0:
184,196,175904,6,0,P|246:178|332:264,1,187.000005706787,2|2,1:2|1:2,0:0:0:0:
509,182,176368,1,8,0:0:0:0:
449,384,176523,2,0,L|413:175,1,187.000005706787,2|2,0:0|1:2,0:0:0:0:
304,38,176986,1,8,0:0:0:0:
504,71,177141,6,0,B|460:38|405:57|405:57|398:113|320:137,1,187.000005706787,6|0,1:2|1:2,0:0:0:0:
174,5,177605,2,0,B|206:40|206:40|194:94,1,93.5000028533936,8|2,0:0|0:0,0:0:0:0:
85,242,177914,1,2,1:2:0:0:
260,172,178069,1,2,1:2:0:0:
92,123,178224,1,8,0:0:0:0:
231,293,178378,6,0,B|343:310|343:310|381:281|359:235,1,187.000005706787,2|2,1:2|1:2,0:0:0:0:
167,194,178842,1,8,0:0:0:0:
261,2,178997,2,0,B|224:60|224:60|263:180,1,187.000005706787,2|2,0:0|1:2,0:0:0:0:
428,96,179461,2,0,L|326:81,1,93.5000028533936,8|0,0:0|0:0,0:0:0:0:
123,3,179770,6,0,L|138:105,1,93.5000028533936,6|2,1:2|0:0,0:0:0:0:
173,287,180079,1,8,0:0:0:0:
9,227,180234,2,0,B|43:196|43:196|110:210,1,93.5000028533936,2|0,0:0|1:2,0:0:0:0:
198,372,180543,2,0,B|151:381|151:381|117:350,1,93.5000028533936,2|8,1:2|0:0,0:0:0:0:
259,197,180852,6,0,B|367:177|327:255|461:220,1,187.000005706787,2|2,0:0|0:0,0:0:0:0:
292,290,181316,1,8,0:0:0:0:
404,132,181471,2,0,B|446:117|446:117|496:144,1,93.5000028533936,2|0,0:0|1:2,0:0:0:0:
455,317,181780,2,0,L|433:199,1,93.5000028533936,2|8,1:2|0:0,0:0:0:0:
399,39,182090,1,2,0:0:0:0:
259,197,182244,6,0,B|186:185|186:185|152:209|152:209|65:194,1,187.000005706787,6|8,1:2|0:0,0:0:0:0:
244,83,182708,1,2,0:0:0:0:
97,8,182863,2,0,L|123:107,1,93.5000028533936,0|0,1:2|1:2,0:0:0:0:
120,317,183172,2,0,L|210:293,1,93.5000028533936,8|0,0:0|1:2,0:0:0:0:
340,125,183481,5,8,0:0:0:0:
452,282,183636,2,0,L|361:258,1,93.5000028533936,0|0,1:2|1:2,0:0:0:0:
244,83,183945,1,0,1:2:0:0:
431,175,184100,1,8,0:3:0:0:
358,28,184254,1,12,0:3:0:0:
244,217,184409,6,0,L|266:374,1,140.25000428009,14|0,0:0|0:0,0:0:0:0:
263,355,184718,6,0,L|177:335,1,76.4999976654053,4|0,1:2|0:0,0:0:0:0:
64,270,185028,2,0,L|150:250,1,76.4999976654053,8|2,0:0|0:0,0:0:0:0:
175,132,185337,1,2,1:2:0:0:
175,132,185492,1,2,1:2:0:0:
71,80,185646,2,0,B|51:114|51:114|66:159,1,76.4999976654053,10|2,0:0|0:0,0:0:0:0:
244,217,185956,6,0,L|332:203,1,76.4999976654053,2|0,1:2|1:2,0:0:0:0:
344,182,186187,2,0,L|390:195,1,38.2499988327027,2|8,0:0|0:0,0:0:0:0:
299,89,186419,2,0,P|246:74|173:136,1,152.999995330811,2|0,0:0|1:2,0:0:0:0:
0,235,186883,6,0,P|43:280|137:254,1,152.999995330811,14|0,0:0|0:0,0:0:0:0:
154,256,187193,6,0,L|171:347,1,76.4999976654053,6|0,1:2|0:0,0:0:0:0:
272,384,187502,2,0,L|289:293,1,76.4999976654053,8|2,0:0|0:0,0:0:0:0:
359,204,187811,1,2,1:2:0:0:
359,204,187966,1,2,1:2:0:0:
460,285,188120,2,0,L|365:305,1,76.4999976654053,10|0,0:0|0:0,0:0:0:0:
241,202,188430,6,0,L|261:107,1,76.4999976654053,2|0,1:2|1:2,0:0:0:0:
273,101,188662,2,0,L|259:49,1,38.2499988327027,2|8,0:0|0:0,0:0:0:0:
420,62,188894,2,0,P|458:95|445:199,1,152.999995330811,2|0,0:0|1:2,0:0:0:0:
336,371,189358,6,0,P|301:330|338:233,1,152.999995330811,14|0,0:0|0:0,0:0:0:0:
357,230,189667,6,0,L|393:319,1,76.4999976654053,6|0,1:2|0:0,0:0:0:0:
235,384,189976,2,0,L|139:370,1,76.4999976654053,8|2,0:0|0:0,0:0:0:0:
93,223,190285,1,2,1:2:0:0:
93,223,190440,1,2,1:2:0:0:
0,327,190595,2,0,L|95:313,1,76.4999976654053,10|2,0:0|1:2,0:0:0:0:
207,229,190904,5,14,0:0:0:0:
5,162,191059,1,2,0:0:0:0:
5,162,192141,6,0,L|26:66,1,93.5000028533936,12|0,0:0|0:0,0:0:0:0:
207,229,192450,2,0,L|186:133,1,93.5000028533936,8|2,0:0|0:0,0:0:0:0:
135,329,192760,5,8,0:0:0:0:
309,269,192914,1,0,1:2:0:0:
103,226,193069,1,10,0:0:0:0:
246,353,193224,1,0,1:2:0:0:
363,178,193378,6,0,B|323:154|323:154|250:175,1,93.5000028533936,8|2,0:0|0:0,0:0:0:0:
131,0,193687,2,0,B|107:40|107:40|128:113,1,93.5000028533936,8|0,0:0|1:2,0:0:0:0:
207,229,193997,5,10,0:0:0:0:
222,54,194151,1,0,1:2:0:0:
112,193,194306,1,10,0:0:0:0:
234,35,194461,1,2,1:2:0:0:
363,178,194615,6,0,L|461:156,1,93.5000028533936,10|0,0:0|0:0,0:0:0:0:
309,319,194925,2,0,L|407:341,1,93.5000028533936,8|2,0:0|0:0,0:0:0:0:
236,219,195234,5,8,0:0:0:0:
137,384,195389,1,0,1:2:0:0:
66,219,195543,1,10,0:0:0:0:
213,323,195698,1,0,1:2:0:0:
148,152,195852,5,8,1:2:0:0:
31,339,196007,1,8,1:2:0:0:
31,339,196471,5,8,1:2:0:0:
0,129,196626,1,8,1:2:0:0:
0,129,197090,6,0,B|34:98|34:98|95:108,1,93.5000028533936,12|0,0:0|0:0,0:0:0:0:
172,269,197399,2,0,B|125:276|125:276|91:245,1,93.5000028533936,8|2,0:0|0:0,0:0:0:0:
265,192,197708,5,8,0:0:0:0:
194,362,197863,1,0,1:2:0:0:
155,172,198017,1,10,0:0:0:0:
298,303,198172,1,0,1:2:0:0:
338,91,198327,6,0,B|304:60|304:60|257:67,1,93.5000028533936,8|2,0:0|0:0,0:0:0:0:
371,215,198636,2,0,L|477:197,1,93.5000028533936,8|0,0:0|1:2,0:0:0:0:
361,365,198945,5,10,0:0:0:0:
265,192,199100,1,0,1:2:0:0:
194,362,199254,1,10,0:0:0:0:
271,168,199409,1,2,1:2:0:0:
32,227,199564,6,0,L|156:249,1,93.5000028533936,10|0,0:0|0:0,0:0:0:0:
253,61,199873,2,0,L|160:77,1,93.5000028533936,8|2,0:0|0:0,0:0:0:0:
233,276,200182,5,8,0:0:0:0:
381,137,200337,1,0,1:2:0:0:
365,356,200492,1,10,0:0:0:0:
267,168,200646,1,0,1:2:0:0:
457,261,200801,5,8,1:2:0:0:
384,23,200956,1,8,1:2:0:0:
384,23,201419,5,8,1:2:0:0:
277,267,201574,1,8,1:2:0:0:
103,34,202038,6,0,P|71:27|12:66,1,101.999996887207,6|2,1:2|0:0,0:0:0:0:
0,155,202502,2,0,P|9:186|73:217,1,101.999996887207,2|2,3:2|3:2,0:0:0:0:
156,183,202966,1,0,0:0:0:0:
156,183,203275,2,0,L|172:289,1,101.999996887207,2|2,0:0|0:0,0:0:0:0:
241,349,203739,2,0,B|205:386|205:386|133:378,2,101.999996887207,2|2|2,3:2|3:2|0:0,0:0:0:0:
347,242,204512,6,0,B|320:286|320:286|346:353,1,101.999996887207,4|2,1:2|0:0,0:0:0:0:
424,298,204976,2,0,L|441:196,1,101.999996887207,2|2,3:2|3:2,0:0:0:0:
454,108,205440,1,0,0:0:0:0:
454,108,205749,2,0,P|418:98|363:137,1,101.999996887207,2|2,0:0|0:0,0:0:0:0:
275,108,206213,2,0,B|261:156|261:156|304:198,2,101.999996887207,2|2|2,3:2|3:2|0:0,0:0:0:0:
143,13,206986,6,0,L|162:125,1,101.999996887207,4|2,1:2|0:0,0:0:0:0:
88,168,207450,2,0,L|69:280,1,101.999996887207,2|2,3:2|3:2,0:0:0:0:
133,337,207914,1,0,0:0:0:0:
133,337,208224,2,0,P|155:312|239:318,1,101.999996887207,2|2,0:0|0:0,0:0:0:0:
297,224,208687,2,0,P|247:225|209:192,2,101.999996887207,2|2|2,3:2|3:2|0:0,0:0:0:0:
410,136,209461,6,0,L|427:252,1,101.999996887207,4|2,1:2|0:0,0:0:0:0:
435,329,209925,2,0,P|409:330|386:321,1,50.9999984436036,2|0,3:2|0:0,0:0:0:0:
314,380,210234,2,0,P|299:358|295:333,1,50.9999984436036,2|0,3:2|0:0,0:0:0:0:
195,196,210698,6,0,L|203:238,1,42.5,4|0,1:2|0:0,0:0:0:0:
156,355,210852,6,0,L|145:306,1,50.9999984436036,2|2,0:0|0:0,0:0:0:0:
146,351,211162,2,0,L|135:302,1,50.9999984436036,2|0,0:0|0:0,0:0:0:0:
137,348,211471,2,0,L|103:184,1,152.999995330811,2|0,0:0|0:0,0:0:0:0:
