osu file format v14

[General]
AudioFilename: audio.mp3
AudioLeadIn: 0
PreviewTime: 163630
Countdown: 0
SampleSet: Soft
StackLeniency: 0.7
Mode: 0
LetterboxInBreaks: 0
WidescreenStoryboard: 0

[Editor]
DistanceSpacing: 0.7
BeatDivisor: 1
GridSize: 4
TimelineZoom: 2.1

[Metadata]
Title:I'M A BELIEVER
TitleUnicode:アイム・ア・ビリーバー
Artist:SPYAIR
ArtistUnicode:SPYAIR
Creator:Nevo
Version:Spike
Source:ハイキュー!! セカンドシーズン
Tags:2nd second season japanese anime opening rock jrock vocal haikyu!! haikyuu!! volleyball show amb1d3x Hishiro Chizuru Shirahane Suou torriru xandit armin a_r_m_i_n im full ver version
BeatmapID:2950367
BeatmapSetID:1433638

[Difficulty]
HPDrainRate:6
CircleSize:4
OverallDifficulty:8
ApproachRate:9.3
SliderMultiplier:1.7
SliderTickRate:1

[Events]
//Background and Video events
0,0,"haikyu-art-scale-6_00x.jpg",0,0
//Break Periods
//Storyboard Layer 0 (Background)
//Storyboard Layer 1 (Fail)
//Storyboard Layer 2 (Pass)
//Storyboard Layer 3 (Foreground)
//Storyboard Layer 4 (Overlay)
//Storyboard Sound Samples

[TimingPoints]
389,309.278350515464,4,2,1,70,1,0
389,-111.111111111111,4,2,1,70,0,0
10285,-142.857142857143,4,2,1,60,0,0
19254,-100,4,2,1,70,0,0
39821,-83.3333333333333,4,2,1,80,0,1
44925,-100,4,2,1,80,0,1
49718,-83.3333333333333,4,2,1,80,0,1
55285,-100,4,2,1,80,0,1
59770,-83.3333333333333,4,2,1,80,0,1
61935,-100,4,2,1,80,0,1
62244,-83.3333333333333,4,2,1,80,0,1
64409,-100,4,2,1,80,0,1
64718,-83.3333333333333,4,2,1,80,0,1
65956,-83.3333333333333,4,2,1,70,0,0
67193,-83.3333333333333,4,2,1,80,0,1
72141,-100,4,2,1,60,0,0
74615,-142.857142857143,4,2,1,60,0,0
76780,-111.111111111111,4,2,1,70,0,0
77090,-100,4,2,1,65,0,0
86986,-100,4,2,1,70,0,0
106626,-83.3333333333333,4,2,1,80,0,1
116523,-76.9230769230769,4,2,1,80,0,1
120852,-83.3333333333333,4,2,1,80,0,1
126265,-100,4,2,1,80,0,1
126574,-83.3333333333333,4,2,1,80,0,1
128739,-100,4,2,1,80,0,1
129048,-83.3333333333333,4,2,1,80,0,1
131213,-100,4,2,1,80,0,1
131522,-83.3333333333333,4,2,1,80,0,1
132760,-83.3333333333333,4,2,1,70,0,0
133997,-83.3333333333333,4,2,1,80,0,1
138945,-200,4,2,1,70,0,0
139254,-200,4,2,1,5,0,0
139409,-200,4,2,1,70,0,0
140028,-71.4285714285714,4,2,1,80,0,1
140492,-83.3333333333333,4,2,1,80,0,1
144821,-83.3333333333333,4,2,1,80,0,0
145131,-83.3333333333333,4,2,1,80,0,1
150079,-83.3333333333333,4,2,1,70,0,0
151084,-83.3333333333333,4,2,1,70,0,0
151471,-100,4,2,1,70,0,0
152553,-125,4,2,1,70,0,0
153636,-83.3333333333333,4,2,1,70,0,0
153945,-100,4,2,1,70,0,0
155028,-100,4,2,1,70,0,0
164770,-71.4285714285714,4,2,1,80,0,1
171729,-83.3333333333333,4,2,1,80,0,1
174048,-71.4285714285714,4,2,1,80,0,1
178378,-83.3333333333333,4,2,1,80,0,1
184409,-83.3333333333333,4,2,1,80,0,1
184718,-71.4285714285714,4,2,1,80,0,1
184873,-83.3333333333333,4,2,1,80,0,1
186883,-83.3333333333333,4,2,1,80,0,1
187192,-71.4285714285714,4,2,1,80,0,1
187347,-83.3333333333333,4,2,1,80,0,1
189358,-83.3333333333333,4,2,1,80,0,1
189667,-71.4285714285714,4,2,1,80,0,1
189822,-83.3333333333333,4,2,1,80,0,1
190904,-83.3333333333333,4,2,1,70,0,0
192141,-66.6666666666667,4,2,1,80,0,1
196007,-66.6666666666667,4,2,1,70,0,0
196471,-66.6666666666667,4,2,1,80,0,1
196626,-66.6666666666667,4,2,1,70,0,0
197090,-66.6666666666667,4,2,1,80,0,1
200956,-66.6666666666667,4,2,1,70,0,0
201419,-66.6666666666667,4,2,1,70,0,1
201574,-66.6666666666667,4,2,1,70,0,0
202038,-100,4,2,1,60,0,0
210698,-100,4,2,1,50,0,0
211471,-166.666666666667,4,2,1,50,0,0
211548,-166.666666666667,4,2,1,5,0,0

[Colours]
Combo1 : 253,207,102
Combo2 : 255,128,0
Combo3 : 192,192,192

[HitObjects]
69,293,389,6,0,L|248:265,1,152.999995330811,6|2,1:2|0:0,0:0:0:0:
311,125,852,2,0,P|276:149|253:182,1,76.4999976654053,2|0,3:2|0:0,0:0:0:0:
267,367,1162,2,0,P|319:315|327:288,2,76.4999976654053,2|0|2,3:2|0:0|0:0,0:0:0:0:
349,227,1626,5,2,0:0:0:0:
421,305,1780,1,0,0:0:0:0:
421,305,1935,1,2,0:0:0:0:
450,56,2090,2,0,L|463:228,2,152.999995330811,2|2|2,3:2|3:2|0:0,0:0:0:0:
255,176,2863,6,0,P|213:193|102:153,1,152.999995330811,4|2,1:2|0:0,0:0:0:0:
0,62,3327,2,0,L|12:139,1,76.4999976654053,2|0,3:2|0:0,0:0:0:0:
40,290,3636,1,2,3:2:0:0:
40,290,3791,2,0,L|51:200,1,76.4999976654053,0|2,0:0|0:0,0:0:0:0:
168,59,4100,6,0,P|111:84|78:84,2,76.4999976654053,2|0|2,0:0|0:0|0:0,0:0:0:0:
295,8,4564,1,2,3:2:0:0:
445,191,4873,2,0,P|391:203|323:176,1,114.749996498108,2|0,3:2|0:0,0:0:0:0:
313,164,5182,1,2,0:0:0:0:
141,340,5337,6,0,P|209:347|271:259,1,152.999995330811,4|2,1:2|0:0,0:0:0:0:
171,187,5801,2,0,L|187:297,1,76.4999976654053,2|0,3:2|0:0,0:0:0:0:
231,108,6110,1,2,3:2:0:0:
231,108,6265,2,0,L|119:89,1,76.4999976654053,0|2,0:0|0:0,0:0:0:0:
331,0,6574,6,0,P|319:48|326:104,2,76.4999976654053,2|0|2,0:0|0:0|0:0,0:0:0:0:
487,67,7038,2,0,B|428:51|428:51|385:59,1,76.4999976654053,2|0,3:2|0:0,0:0:0:0:
378,210,7347,2,0,B|319:226|319:226|276:218,1,76.4999976654053,2|0,3:2|0:0,0:0:0:0:
429,138,7657,1,2,0:0:0:0:
476,331,7811,6,0,L|317:315,1,152.999995330811,4|2,1:2|0:0,0:0:0:0:
120,216,8275,2,0,L|10:230,1,76.4999976654053,2|0,3:2|0:0,0:0:0:0:
209,284,8584,1,2,3:2:0:0:
209,284,8739,1,0,0:0:0:0:
150,124,8894,1,2,0:0:0:0:
58,352,9048,5,4,1:2:0:0:
58,352,9667,2,0,L|149:343,1,76.4999976654053,2|0,0:0|0:0,0:0:0:0:
207,384,9976,2,0,L|298:375,1,76.4999976654053,2|0,0:0|0:0,0:0:0:0:
237,176,10285,6,0,L|209:313,1,118.999996368408,6|2,1:2|0:0,0:0:0:0:
367,286,10749,2,0,P|312:273|283:275,1,59.4999981842042,2|0,0:0|0:0,0:0:0:0:
413,209,11059,2,0,P|468:196|497:198,1,59.4999981842042,2|0,0:0|0:0,0:0:0:0:
417,48,11368,6,0,L|400:132,1,59.4999981842042,2|0,0:0|0:0,0:0:0:0:
301,87,11677,2,0,L|333:228,1,118.999996368408,2|0,0:0|0:0,0:0:0:0:
178,170,12141,2,0,P|210:170|259:183,1,59.4999981842042,2|0,0:0|0:0,0:0:0:0:
163,52,12450,2,0,P|132:60|88:85,1,59.4999981842042,2|0,0:0|0:0,0:0:0:0:
22,207,12760,6,0,B|28:301|28:301|51:335,1,118.999996368408,2|2,0:0|0:0,0:0:0:0:
176,272,13224,2,0,L|117:261,1,59.4999981842042,2|0,0:0|0:0,0:0:0:0:
169,383,13533,2,0,L|228:372,1,59.4999981842042,2|0,0:0|0:0,0:0:0:0:
465,292,13842,6,0,P|411:300|359:255,1,118.999996368408,2|0,0:0|0:0,0:0:0:0:
278,292,14306,2,0,L|270:207,1,59.4999981842042,0|2,0:0|0:0,0:0:0:0:
400,153,14615,2,0,P|364:174|336:178,1,59.4999981842042,2|0,0:0|0:0,0:0:0:0:
228,93,14925,2,0,P|254:125|262:152,1,59.4999981842042,2|0,0:0|0:0,0:0:0:0:
179,285,15234,6,0,L|166:159,1,118.999996368408,2|0,0:0|0:0,0:0:0:0:
68,336,15698,2,0,L|74:212,1,118.999996368408,2|0,0:0|0:0,0:0:0:0:
280,256,16162,2,0,L|258:180,1,59.4999981842042,2|0,0:0|0:0,0:0:0:0:
166,166,16471,2,0,L|172:83,1,59.4999981842042,2|0,0:0|0:0,0:0:0:0:
371,106,16780,2,0,P|303:125|244:90,1,118.999996368408,2|0,0:0|0:0,0:0:0:0:
470,33,17399,1,2,0:0:0:0:
470,33,17553,1,2,0:0:0:0:
450,149,17708,6,0,L|467:274,1,118.999996368408,2|0,0:0|0:0,0:0:0:0:
459,362,18172,2,0,P|426:340|343:339,1,118.999996368408,2|0,0:0|0:0,0:0:0:0:
213,384,18636,2,0,P|254:380|280:364,1,59.4999981842042,2|0,0:0|0:0,0:0:0:0:
236,191,18945,2,0,L|222:284,1,89.2499972763062,2|0,0:0|0:0,0:0:0:0:
218,301,19254,6,0,L|199:211,1,85,14|0,0:0|0:0,0:0:0:0:
325,306,19564,1,10,0:3:0:0:
325,306,19641,1,8,0:3:0:0:
325,306,19718,1,4,0:3:0:0:
139,350,19873,2,0,L|44:340,1,85,14|0,0:0|0:0,0:0:0:0:
86,135,20182,6,0,P|130:168|126:248,1,127.5,6|0,1:2|0:0,0:0:0:0:
59,144,20492,1,10,0:0:0:0:
124,55,20646,2,0,L|237:66,1,85,2|0,0:0|1:2,0:0:0:0:
267,216,20956,2,0,L|380:205,1,85,2|8,1:2|0:0,0:0:0:0:
488,88,21265,6,0,P|419:108|388:143,1,85,2|0,0:0|1:2,0:0:0:0:
435,268,21574,2,0,P|445:227|470:192,1,85,2|8,1:2|0:0,0:0:0:0:
459,367,21883,1,0,0:0:0:0:
459,367,22038,2,0,L|362:354,1,85,2|0,1:2|1:2,0:0:0:0:
215,309,22347,2,0,L|312:296,1,85,10|0,0:0|0:0,0:0:0:0:
123,169,22657,6,0,P|111:216|110:257,1,85,2|0,1:2|1:2,0:0:0:0:
279,139,22966,1,10,0:0:0:0:
279,139,23120,2,0,P|244:105|209:83,1,85,2|0,0:0|1:2,0:0:0:0:
34,87,23430,2,0,L|137:76,1,85,2|8,1:2|0:0,0:0:0:0:
313,16,23739,6,0,B|445:27|445:27|473:52,1,170,2|0,0:0|1:2,0:0:0:0:
411,196,24203,2,0,P|394:134|403:97,1,85,8|2,0:0|0:0,0:0:0:0:
499,163,24512,1,2,1:2:0:0:
322,253,24667,1,12,0:0:0:0:
512,181,24821,2,0,L|495:314,1,127.5,14|0,0:0|0:0,0:0:0:0:
434,384,25131,6,0,P|405:341|404:299,1,85,6|0,1:2|0:0,0:0:0:0:
456,112,25440,1,8,0:0:0:0:
365,176,25595,2,0,B|319:207|319:207|170:185,1,170,2|0,0:0|1:2,0:0:0:0:
67,59,26059,2,0,P|118:87|140:127,1,85,10|0,0:0|0:0,0:0:0:0:
66,242,26368,6,0,B|29:279|29:279|44:141,1,170,2|8,1:2|0:0,0:0:0:0:
189,251,26832,1,2,0:0:0:0:
110,327,26986,1,0,1:2:0:0:
110,327,27141,1,0,1:2:0:0:
243,367,27296,2,0,L|337:356,1,85,10|0,0:0|0:0,0:0:0:0:
444,305,27605,5,2,1:2:0:0:
444,305,27760,1,0,1:2:0:0:
339,267,27914,1,8,0:0:0:0:
507,197,28069,2,0,B|532:316|532:316|501:386,1,170,2|0,0:0|1:2,0:0:0:0:
413,211,28533,2,0,P|419:142|426:100,1,85,8|0,0:0|0:0,0:0:0:0:
486,14,28842,5,0,1:2:0:0:
486,14,28997,1,0,1:2:0:0:
333,33,29151,2,0,L|226:49,1,85,12|0,0:0|0:0,0:0:0:0:
98,97,29461,1,2,1:2:0:0:
292,165,29615,1,0,1:2:0:0:
57,219,29770,1,14,0:0:0:0:
314,183,29925,1,0,0:0:0:0:
105,74,30079,5,6,1:2:0:0:
159,286,30234,1,2,1:2:0:0:
207,160,30389,1,0,1:2:0:0:
207,160,30543,2,0,L|304:165,1,85,2|8,0:0|0:0,0:0:0:0:
360,111,30852,2,0,L|307:192,1,85,2|0,0:0|0:0,0:0:0:0:
246,334,31162,6,0,P|290:315|356:307,1,85,10|0,0:0|0:0,0:0:0:0:
428,353,31471,2,0,P|373:339|422:264,1,170,2|0,1:2|0:0,0:0:0:0:
512,252,31935,2,0,L|408:242,1,85,10|0,0:0|0:0,0:0:0:0:
313,182,32244,2,0,L|209:192,1,85,2|0,0:0|0:0,0:0:0:0:
21,279,32553,5,2,1:2:0:0:
78,55,32708,1,2,1:2:0:0:
145,138,32863,1,0,1:2:0:0:
145,138,33017,2,0,P|149:171|137:233,1,85,2|8,0:0|0:0,0:0:0:0:
117,335,33327,2,0,P|121:302|149:245,1,85,2|0,0:0|0:0,0:0:0:0:
301,101,33636,6,0,L|392:108,1,85,10|0,0:0|0:0,0:0:0:0:
426,200,33945,1,2,1:2:0:0:
426,200,34100,2,0,L|335:207,1,85,0|2,1:2|0:0,0:0:0:0:
490,134,34409,2,0,P|514:187|510:221,1,85,10|0,0:0|0:0,0:0:0:0:
437,349,34718,1,10,0:3:0:0:
437,349,34796,1,8,0:3:0:0:
437,349,34873,1,4,0:3:0:0:
437,349,34950,1,4,0:3:0:0:
437,349,35028,6,0,L|338:356,1,85,6|0,1:2|0:0,0:0:0:0:
267,321,35337,2,0,L|168:328,1,85,0|2,1:2|1:2,0:0:0:0:
112,270,35646,2,0,P|91:230|94:181,1,85,2|0,1:2|0:0,0:0:0:0:
0,188,35956,2,0,P|17:139|48:109,1,85,0|0,1:2|0:0,0:0:0:0:
271,34,36265,5,10,0:0:0:0:
192,214,36419,1,2,0:0:0:0:
111,44,36574,1,0,1:2:0:0:
298,185,36729,2,0,L|285:382,1,170,10|0,0:0|0:0,0:0:0:0:
200,129,37193,2,0,L|189:242,1,85,10|0,0:0|0:0,0:0:0:0:
484,112,37502,6,0,B|470:83|470:83|422:47|355:61,1,127.5,6|0,1:2|0:0,0:0:0:0:
292,92,37811,1,0,1:2:0:0:
468,226,37966,1,8,0:0:0:0:
436,20,38120,1,8,1:2:0:0:
324,305,38275,1,8,0:0:0:0:
484,112,38430,1,8,1:2:0:0:
254,213,38584,1,8,0:0:0:0:
490,341,38739,5,4,1:2:0:0:
490,341,39821,6,0,B|443:318|443:318|290:347,1,203.999993774414,6|0,1:2|1:2,0:0:0:0:
99,380,40285,2,0,P|96:329|121:286,1,101.999996887207,8|2,0:0|0:0,0:0:0:0:
325,214,40595,1,2,1:2:0:0:
151,186,40749,1,2,1:2:0:0:
417,202,40904,1,8,0:0:0:0:
251,322,41059,6,0,L|231:197,1,101.999996887207,2|0,1:2|0:0,0:0:0:0:
489,249,41368,2,0,L|509:124,1,101.999996887207,2|8,1:2|0:0,0:0:0:0:
311,82,41677,2,0,P|378:108|413:107,1,101.999996887207,2|0,0:0|1:2,0:0:0:0:
202,8,41986,2,0,P|151:11|105:33,1,101.999996887207,2|8,1:2|0:0,0:0:0:0:
168,299,42296,6,0,B|201:245|201:245|174:82,1,203.999993774414,6|0,1:2|1:2,0:0:0:0:
289,252,42760,2,0,P|350:249|396:220,1,101.999996887207,8|2,0:0|0:0,0:0:0:0:
263,73,43069,1,2,1:2:0:0:
105,223,43224,1,2,1:2:0:0:
316,165,43378,1,8,0:0:0:0:
105,40,43533,6,0,B|92:74|92:74|104:152,1,101.999996887207,2|0,1:2|0:0,0:0:0:0:
289,252,43842,2,0,B|302:286|302:286|290:364,1,101.999996887207,2|8,1:2|0:0,0:0:0:0:
81,347,44151,2,0,P|137:305|186:299,1,101.999996887207,2|0,0:0|1:2,0:0:0:0:
405,365,44461,2,0,L|382:153,1,203.999993774414,2|0,1:2|0:0,0:0:0:0:
225,137,44925,5,6,1:2:0:0:
436,243,45079,1,2,0:0:0:0:
187,237,45234,1,8,0:0:0:0:
382,75,45389,2,0,L|492:85,1,85,2|0,0:0|1:2,0:0:0:0:
351,299,45698,2,0,L|241:309,1,85,2|8,1:2|0:0,0:0:0:0:
42,155,46007,1,2,0:0:0:0:
42,155,46162,2,0,L|152:165,1,85,0|0,1:2|1:2,0:0:0:0:
75,266,46471,1,8,0:0:0:0:
272,210,46626,5,2,0:0:0:0:
272,210,46780,2,0,P|275:250|259:295,1,85,2|0,1:2|1:2,0:0:0:0:
314,122,47090,2,0,P|364:101|411:103,1,85,10|0,0:0|0:0,0:0:0:0:
506,215,47399,2,0,L|363:191,1,127.5,6|0,1:2|0:0,0:0:0:0:
380,193,47708,2,0,L|391:293,1,85,12|0,0:0|0:0,0:0:0:0:
447,106,48017,1,2,1:2:0:0:
272,210,48172,1,0,0:0:0:0:
400,359,48327,1,8,0:0:0:0:
400,359,48481,1,2,0:0:0:0:
126,263,48636,5,6,1:2:0:0:
366,187,48791,1,2,1:2:0:0:
47,121,48946,1,8,0:0:0:0:
262,294,49100,2,0,L|272:210,1,85,6|8,1:2|0:3,0:0:0:0:
138,65,49409,1,2,1:2:0:0:
140,86,49486,1,0,1:2:0:0:
142,107,49563,1,4,0:3:0:0:
145,128,49640,1,4,0:3:0:0:
148,152,49718,6,0,L|172:360,1,203.999993774414,6|0,1:2|1:2,0:0:0:0:
463,316,50182,2,0,P|404:283|363:273,1,101.999996887207,8|2,0:0|0:0,0:0:0:0:
82,357,50492,1,2,1:2:0:0:
270,224,50646,1,2,1:2:0:0:
63,197,50801,1,8,0:0:0:0:
330,149,50956,6,0,L|445:175,1,101.999996887207,2|0,1:2|0:0,0:0:0:0:
170,54,51265,2,0,L|269:31,1,101.999996887207,2|8,1:2|0:0,0:0:0:0:
63,197,51574,2,0,L|162:219,1,101.999996887207,2|0,0:0|1:2,0:0:0:0:
324,339,51883,2,0,L|224:361,1,101.999996887207,2|8,1:2|0:0,0:0:0:0:
492,111,52193,6,0,P|517:211|423:257,1,203.999993774414,6|0,1:2|1:2,0:0:0:0:
124,295,52657,2,0,P|78:224|83:174,1,101.999996887207,8|2,0:0|0:0,0:0:0:0:
257,136,52966,1,2,1:2:0:0:
221,339,53120,1,2,1:2:0:0:
90,190,53275,1,8,0:0:0:0:
294,224,53430,6,0,L|417:206,1,101.999996887207,2|0,1:2|0:0,0:0:0:0:
163,70,53739,2,0,L|62:84,1,101.999996887207,2|8,1:2|0:0,0:0:0:0:
257,136,54048,2,0,P|276:84|274:31,1,101.999996887207,2|0,0:0|1:2,0:0:0:0:
133,168,54358,2,0,L|172:382,1,203.999993774414,2|0,1:2|0:0,0:0:0:0:
263,305,54821,5,6,1:2:0:0:
56,267,54976,1,2,0:0:0:0:
240,200,55131,1,8,0:0:0:0:
161,73,55285,2,0,P|102:75|57:101,1,85,2|0,0:0|1:2,0:0:0:0:
254,104,55595,2,0,L|260:2,1,85,2|8,1:2|0:0,0:0:0:0:
51,189,55904,6,0,L|164:170,1,85,2|0,0:0|1:2,0:0:0:0:
283,224,56213,1,2,0:0:0:0:
166,266,56368,1,8,0:0:0:0:
328,329,56523,2,0,L|411:343,1,85,2|0,0:0|1:2,0:0:0:0:
512,234,56832,2,0,L|428:248,1,85,2|8,1:2|0:0,0:0:0:0:
417,71,57141,1,2,0:0:0:0:
417,71,57296,6,0,P|446:128|446:164,1,85,6|0,1:2|0:0,0:0:0:0:
332,237,57605,2,0,L|342:148,1,85,8|2,0:0|0:0,0:0:0:0:
176,46,57914,1,0,1:2:0:0:
176,46,58069,1,0,1:2:0:0:
250,189,58224,2,0,L|240:100,1,85,8|0,0:0|1:2,0:0:0:0:
32,236,58533,5,8,0:0:0:0:
160,161,58687,1,0,1:2:0:0:
46,116,58842,1,0,1:2:0:0:
109,296,58997,5,0,1:2:0:0:
178,131,59151,1,8,0:3:0:0:
5,223,59306,1,12,0:3:0:0:
175,345,59461,6,0,L|317:327,1,127.5,14|0,0:0|0:0,0:0:0:0:
321,341,59770,6,0,P|351:294|342:229,1,101.999996887207,4|0,1:2|0:0,0:0:0:0:
265,141,60079,1,8,0:0:0:0:
234,241,60234,1,2,0:0:0:0:
404,139,60389,1,2,1:2:0:0:
322,49,60543,1,2,1:2:0:0:
163,153,60698,2,0,L|283:138,1,101.999996887207,10|2,0:0|0:0,0:0:0:0:
440,48,61007,6,0,P|492:108|484:165,1,101.999996887207,2|0,1:2|1:2,0:0:0:0:
492,212,61239,2,0,L|385:195,1,101.999996887207,2|0,0:0|0:0,0:0:0:0:
268,257,61471,2,0,L|481:235,1,203.999993774414,2|0,0:0|1:2,0:0:0:0:
249,359,61935,2,0,L|104:341,1,127.5,14|0,0:0|0:0,0:0:0:0:
48,377,62244,6,0,B|101:329|80:254|80:254|120:236|135:182,1,203.999993774414,6|8,1:2|0:0,0:0:0:0:
25,74,62708,1,2,0:0:0:0:
25,74,62863,2,0,L|39:185,1,101.999996887207,2|2,1:2|1:2,0:0:0:0:
233,30,63172,1,10,0:0:0:0:
115,13,63327,1,0,0:0:0:0:
126,205,63481,6,0,L|235:192,1,101.999996887207,2|0,1:2|1:2,0:0:0:0:
250,172,63713,2,0,L|364:186,1,101.999996887207,2|0,0:0|0:0,0:0:0:0:
410,349,63945,2,0,P|367:274|437:152,1,203.999993774414,2|0,0:0|1:2,0:0:0:0:
512,45,64409,2,0,L|490:180,1,127.5,14|0,0:0|0:0,0:0:0:0:
475,254,64718,6,0,L|348:266,1,101.999996887207,6|0,1:2|0:0,0:0:0:0:
230,352,65028,1,8,0:0:0:0:
168,200,65182,1,2,0:0:0:0:
93,296,65337,1,2,1:2:0:0:
93,296,65492,1,2,1:2:0:0:
257,203,65646,1,10,0:0:0:0:
59,173,65801,1,2,1:2:0:0:
305,291,65956,5,14,0:0:0:0:
135,25,67193,6,0,B|108:78|108:78|131:198,1,152.999995330811,12|0,0:0|0:0,0:0:0:0:
114,254,67502,2,0,P|170:244|202:210,1,101.999996887207,8|2,0:0|0:0,0:0:0:0:
22,210,67811,1,8,0:0:0:0:
0,343,67966,1,0,1:2:0:0:
135,170,68120,1,10,0:0:0:0:
183,342,68275,1,0,1:2:0:0:
245,105,68430,5,8,0:0:0:0:
310,262,68584,1,2,0:0:0:0:
366,55,68739,1,8,0:0:0:0:
234,196,68894,1,0,1:2:0:0:
234,196,68971,1,0,1:2:0:0:
234,196,69048,1,10,0:0:0:0:
436,270,69203,1,0,1:2:0:0:
340,145,69358,1,10,0:0:0:0:
266,334,69512,1,2,1:2:0:0:
454,184,69667,6,0,L|461:73,1,101.999996887207,10|0,0:0|0:0,0:0:0:0:
334,251,69976,1,8,0:0:0:0:
238,88,70131,1,2,0:0:0:0:
124,318,70285,1,8,0:0:0:0:
161,175,70440,1,0,1:2:0:0:
266,334,70595,1,10,0:0:0:0:
53,135,70749,1,0,1:2:0:0:
8,367,70904,5,8,1:2:0:0:
315,240,71059,1,8,1:2:0:0:
334,251,71523,5,8,1:2:0:0:
2,184,71677,1,8,1:2:0:0:
375,63,72141,5,6,1:2:0:0:
256,192,72218,12,0,74461,0:0:0:0:
86,343,74615,5,8,0:0:0:0:
86,343,74770,1,8,0:0:0:0:
180,300,75852,5,8,0:0:0:0:
180,300,76007,1,8,0:0:0:0:
244,362,76162,2,0,P|270:315|265:259,1,89.2499972763062
219,204,76471,2,0,L|291:190,1,59.4999981842042,10|8,0:3|0:3,0:0:0:0:
418,125,76780,2,0,B|329:111|329:111|360:97,1,114.749996498108,14|0,0:0|0:0,0:0:0:0:
475,63,77090,6,0,P|502:104|499:145,1,85,6|0,0:0|0:0,0:0:0:0:
465,221,77399,1,10,0:0:0:0:
465,221,77553,2,0,P|427:217|356:242,1,85,2|0,0:0|1:2,0:0:0:0:
343,349,77863,2,0,P|305:353|234:328,1,85,2|8,1:2|0:0,0:0:0:0:
59,277,78172,6,0,L|40:177,1,85,2|0,0:0|1:2,0:0:0:0:
178,212,78481,2,0,L|158:390,1,170,2|0,1:2|0:0,0:0:0:0:
309,266,78945,2,0,L|292:152,1,85,2|0,1:2|1:2,0:0:0:0:
156,80,79254,2,0,P|194:116|227:125,1,85,10|0,0:0|0:0,0:0:0:0:
412,29,79564,6,0,P|350:23|230:35,1,170,2|10,1:2|0:0,0:0:0:0:
400,142,80028,2,0,P|471:130|493:121,1,85,2|0,0:0|1:2,0:0:0:0:
308,97,80337,2,0,L|291:213,1,85,2|8,1:2|0:0,0:0:0:0:
334,261,80646,1,2,0:0:0:0:
191,325,80801,5,0,1:2:0:0:
191,325,80956,1,0,1:2:0:0:
272,363,81110,2,0,P|318:350|360:350,1,85,8|2,0:0|0:0,0:0:0:0:
455,367,81419,1,2,1:2:0:0:
408,203,81574,1,12,0:0:0:0:
470,378,81729,2,0,L|484:287,1,85,14|0,0:0|0:0,0:0:0:0:
325,98,82038,6,0,B|304:153|304:153|339:282,1,170,6|8,1:2|0:0,0:0:0:0:
217,135,82502,2,0,P|169:121|124:134,1,85,2|0,0:0|1:2,0:0:0:0:
56,193,82811,1,0,1:2:0:0:
161,295,82966,2,0,L|171:203,1,85,10|0,0:0|0:0,0:0:0:0:
61,93,83275,6,0,P|96:120|160:123,1,85,2|0,1:2|1:2,0:0:0:0:
267,55,83584,2,0,L|359:66,1,85,10|0,0:0|0:0,0:0:0:0:
469,40,83894,1,0,1:2:0:0:
469,40,84048,1,0,1:2:0:0:
378,164,84203,1,10,0:0:0:0:
462,242,84358,1,2,0:0:0:0:
357,332,84512,6,0,L|379:150,1,170,2|8,1:2|0:0,0:0:0:0:
274,285,84976,2,0,L|263:179,1,85,2|0,0:0|1:2,0:0:0:0:
176,122,85285,1,0,1:2:0:0:
188,315,85440,2,0,L|142:233,1,85,10|0,0:0|0:0,0:0:0:0:
0,349,85749,5,2,1:2:0:0:
152,220,85904,1,0,1:2:0:0:
46,165,86059,2,0,P|27:220|37:258,1,85,10|0,0:0|0:0,0:0:0:0:
262,224,86368,1,8,0:3:0:0:
202,98,86523,1,0,1:2:0:0:
202,98,86600,1,0,1:2:0:0:
202,98,86677,2,0,B|112:110|112:110|74:91,1,127.5,12|0,0:0|0:0,0:0:0:0:
239,6,86986,6,0,P|282:37|293:101,1,85,6|0,1:2|0:0,0:0:0:0:
152,220,87296,1,10,0:0:0:0:
239,321,87450,2,0,L|339:303,1,85,2|0,0:0|1:2,0:0:0:0:
436,219,87760,2,0,L|336:201,1,85,2|8,1:2|0:0,0:0:0:0:
380,23,88069,6,0,P|390:71|372:127,1,85,2|0,0:0|1:2,0:0:0:0:
211,77,88378,1,2,1:2:0:0:
211,77,88533,2,0,B|256:62|256:62|319:66,1,85,8|0,0:0|0:0,0:0:0:0:
227,175,88842,2,0,L|132:159,1,85,2|0,1:2|1:2,0:0:0:0:
49,280,89151,2,0,L|190:254,1,127.5,10|0,0:0|0:0,0:0:0:0:
174,256,89461,6,0,P|176:302|154:359,1,85,2|0,1:2|1:2,0:0:0:0:
52,189,89770,1,10,0:0:0:0:
52,189,89925,2,0,L|39:96,1,85,2|0,0:0|1:2,0:0:0:0:
226,137,90234,2,0,L|239:44,1,85,2|8,1:2|0:0,0:0:0:0:
479,164,90543,6,0,P|427:183|327:132,1,170,2|0,0:0|1:2,0:0:0:0:
390,0,91007,2,0,B|412:29|412:29|416:83,1,85,8|2,0:0|0:0,0:0:0:0:
279,212,91316,1,2,1:2:0:0:
417,100,91471,1,12,0:0:0:0:
267,232,91626,2,0,L|274:325,1,85,14|0,0:0|0:0,0:0:0:0:
16,316,91935,6,0,B|47:274|47:274|95:250|179:280,1,170,6|8,1:2|0:0,0:0:0:0:
341,358,92399,2,0,P|389:365|430:350,1,85,2|0,0:0|1:2,0:0:0:0:
448,237,92708,1,0,1:2:0:0:
448,237,92863,2,0,L|357:266,1,85,10|0,0:0|0:0,0:0:0:0:
245,366,93172,6,0,L|260:184,1,170,2|8,1:2|0:0,0:0:0:0:
127,119,93636,2,0,L|154:237,1,85,2|0,0:0|1:2,0:0:0:0:
174,26,93945,1,0,1:2:0:0:
174,26,94100,2,0,P|123:13|76:25,1,85,10|0,0:0|0:0,0:0:0:0:
239,99,94409,6,0,L|375:68,1,127.5,2|0,1:2|0:0,0:0:0:0:
363,70,94718,1,8,0:0:0:0:
258,196,94873,2,0,L|147:175,1,85,2|0,0:0|1:2,0:0:0:0:
35,252,95182,1,0,1:2:0:0:
187,277,95337,1,8,0:0:0:0:
61,163,95492,1,0,0:0:0:0:
30,343,95646,5,0,1:2:0:0:
30,343,95801,1,0,1:2:0:0:
247,331,95956,2,0,L|95:307,1,127.5,12|0,0:0|0:0,0:0:0:0:
121,311,96265,5,10,0:3:0:0:
255,220,96419,1,0,1:2:0:0:
61,163,96574,1,14,0:0:0:0:
48,179,96883,5,6,1:2:0:0:
290,118,97038,1,2,1:2:0:0:
188,57,97193,1,0,1:2:0:0:
188,57,97347,2,0,P|173:103|183:159,1,85,2|8,0:0|0:0,0:0:0:0:
398,74,97657,2,0,P|408:121|394:176,1,85,2|0,0:0|0:0,0:0:0:0:
191,238,97966,6,0,L|99:208,1,85,10|0,0:0|0:0,0:0:0:0:
374,256,98275,1,2,1:2:0:0:
374,256,98430,2,0,L|468:234,1,85,0|0,1:2|0:0,0:0:0:0:
301,210,98739,2,0,P|286:259|300:302,1,85,10|0,0:0|0:0,0:0:0:0:
384,166,99048,2,0,P|349:128|304:119,1,85,2|0,0:0|0:0,0:0:0:0:
435,331,99358,5,6,1:2:0:0:
461,86,99512,1,2,1:2:0:0:
512,175,99667,1,0,1:2:0:0:
512,175,99821,2,0,L|492:270,1,85,2|8,0:0|0:0,0:0:0:0:
366,82,100131,2,0,L|386:177,1,85,2|0,0:0|0:0,0:0:0:0:
279,332,100440,6,0,B|226:338|226:338|181:319,1,85,10|0,0:0|0:0,0:0:0:0:
172,171,100749,1,2,1:2:0:0:
172,171,100904,2,0,B|225:165|225:165|270:184,1,85,0|2,1:2|0:0,0:0:0:0:
106,246,101213,2,0,P|76:202|78:161,1,85,10|0,0:0|0:0,0:0:0:0:
140,46,101523,1,10,0:3:0:0:
140,46,101600,1,8,0:3:0:0:
140,46,101677,1,4,0:3:0:0:
140,46,101754,1,4,0:3:0:0:
140,46,101832,6,0,L|251:59,1,85,6|0,1:2|0:0,0:0:0:0:
281,114,102141,2,0,L|381:104,1,85,0|2,1:2|1:2,0:0:0:0:
435,51,102450,2,0,P|454:103|449:137,1,85,2|0,1:2|0:0,0:0:0:0:
351,208,102760,2,0,P|332:260|337:294,1,85,0|0,1:2|0:0,0:0:0:0:
439,356,103069,5,10,0:0:0:0:
439,356,103224,1,2,0:0:0:0:
240,313,103378,1,0,1:2:0:0:
429,265,103533,2,0,L|514:248,1,85,10|0,0:0|1:2,0:0:0:0:
393,71,103842,1,0,0:0:0:0:
351,208,103997,1,10,0:0:0:0:
238,68,104151,1,8,0:3:0:0:
238,68,104229,1,4,0:3:0:0:
238,68,104306,6,0,P|160:48|101:66,1,127.5,6|0,1:2|0:0,0:0:0:0:
44,122,104615,5,0,1:2:0:0:
16,251,104770,1,8,0:0:0:0:
171,130,104925,1,8,1:2:0:0:
166,282,105079,1,8,0:0:0:0:
288,124,105234,1,8,1:2:0:0:
325,277,105389,1,8,0:0:0:0:
394,58,105543,5,4,1:2:0:0:
38,349,106626,6,0,P|112:368|202:324,1,152.999995330811,6|0,1:2|0:0,0:0:0:0:
261,276,106935,1,0,1:2:0:0:
85,169,107090,2,0,L|107:281,1,101.999996887207,8|2,0:0|0:0,0:0:0:0:
370,165,107399,1,2,1:2:0:0:
196,113,107553,1,2,1:2:0:0:
385,59,107708,1,8,0:0:0:0:
472,168,107863,6,0,P|450:239|426:259,1,101.999996887207,2|0,1:2|0:0,0:0:0:0:
339,372,108172,2,0,P|275:348|245:317,1,101.999996887207,2|8,1:2|0:0,0:0:0:0:
53,245,108481,2,0,P|79:180|104:134,1,101.999996887207,2|0,0:0|1:2,0:0:0:0:
234,0,108791,1,2,1:2:0:0:
24,77,108945,1,8,0:0:0:0:
171,243,109100,6,0,B|259:226|259:226|301:243|301:243|396:227,1,203.999993774414,6|0,1:2|1:2,0:0:0:0:
342,43,109564,2,0,P|331:81|321:149,1,101.999996887207,8|2,0:0|0:0,0:0:0:0:
512,340,109873,1,2,1:2:0:0:
447,164,110027,1,2,1:2:0:0:
281,334,110182,1,8,0:0:0:0:
453,266,110337,6,0,L|328:258,1,101.999996887207,2|0,1:2|0:0,0:0:0:0:
190,373,110646,2,0,L|65:365,1,101.999996887207,2|8,1:2|0:0,0:0:0:0:
220,153,110956,2,0,P|238:202|231:254,1,101.999996887207,2|0,0:0|1:2,0:0:0:0:
71,113,111265,2,0,L|56:-3,1,101.999996887207,2|8,1:2|0:0,0:0:0:0:
170,52,111574,1,0,0:0:0:0:
96,221,111729,5,6,1:2:0:0:
328,133,111883,1,2,0:0:0:0:
162,76,112038,1,8,0:0:0:0:
310,245,112193,2,0,P|373:238|418:208,1,101.999996887207,2|0,0:0|1:2,0:0:0:0:
220,153,112502,2,0,P|185:212|177:278,1,101.999996887207,2|8,1:2|0:0,0:0:0:0:
328,133,112811,6,0,L|338:29,1,101.999996887207,2|0,0:0|1:2,0:0:0:0:
310,245,113120,1,0,1:2:0:0:
434,89,113275,1,8,0:0:0:0:
220,153,113429,1,2,0:0:0:0:
405,219,113584,2,0,P|405:271|368:316,1,101.999996887207,2|0,1:2|1:2,0:0:0:0:
199,361,113894,2,0,P|250:333|322:333,1,101.999996887207,10|0,0:0|0:0,0:0:0:0:
504,376,114203,6,0,L|489:265,1,101.999996887207,6|0,1:2|0:0,0:0:0:0:
323,143,114512,2,0,L|308:254,1,101.999996887207,8|0,0:0|0:0,0:0:0:0:
391,48,114821,2,0,P|329:31|223:111,1,203.999993774414,2|8,1:2|0:0,0:0:0:0:
206,257,115285,1,2,0:0:0:0:
38,136,115440,5,6,1:2:0:0:
323,143,115595,1,2,1:2:0:0:
131,44,115749,1,8,0:0:0:0:
106,304,115904,1,6,1:2:0:0:
244,61,116059,1,8,0:3:0:0:
290,41,116136,1,8,0:3:0:0:
340,40,116213,1,2,1:2:0:0:
387,60,116290,1,0,1:2:0:0:
422,96,116368,1,4,0:3:0:0:
438,143,116445,1,4,0:3:0:0:
442,191,116523,6,0,L|428:309,1,110.499994941712,6|0,1:2|0:0,0:0:0:0:
323,143,116832,1,0,1:2:0:0:
237,306,116986,2,0,B|168:335|108:304|108:304|63:301|28:342,1,220.999989883423,8|2,0:0|1:2,0:0:0:0:
327,370,117450,1,2,1:2:0:0:
172,210,117605,1,8,0:0:0:0:
436,145,117760,6,0,P|400:224|363:246,1,110.499994941712,2|0,1:2|0:0,0:0:0:0:
222,24,118069,2,0,P|276:-1|351:11,1,110.499994941712,2|8,1:2|0:0,0:0:0:0:
196,315,118378,1,2,0:0:0:0:
141,101,118533,1,2,1:2:0:0:
331,225,118687,1,2,1:2:0:0:
39,200,118842,1,8,0:0:0:0:
222,24,118997,6,0,B|250:169|250:169|222:250,1,220.999989883423,6|0,1:2|1:2,0:0:0:0:
89,332,119461,2,0,P|156:311|208:318,1,110.499994941712,8|2,0:0|0:0,0:0:0:0:
369,381,119770,1,2,1:2:0:0:
362,176,119925,1,2,1:2:0:0:
296,304,120079,1,10,0:0:0:0:
461,213,120234,6,0,P|461:131|432:92,1,110.499994941712,2|0,1:2|0:0,0:0:0:0:
256,182,120543,2,0,B|315:194|315:194|367:173,1,110.499994941712,2|8,1:2|0:0,0:0:0:0:
200,21,120852,2,0,P|127:15|86:40,1,101.999996887207,2|0,0:0|1:2,0:0:0:0:
109,217,121162,2,0,B|146:257|146:257|156:103,1,203.999993774414,2|0,1:2|0:0,0:0:0:0:
0,350,121626,6,0,P|99:295|201:286,1,203.999993774414,6|8,1:2|0:0,0:0:0:0:
400,362,122090,2,0,P|415:339|420:256,1,101.999996887207,2|0,0:0|1:2,0:0:0:0:
280,142,122399,2,0,L|301:280,1,101.999996887207,2|8,1:2|0:0,0:0:0:0:
497,161,122708,6,0,L|512:60,1,101.999996887207,2|0,0:0|1:2,0:0:0:0:
293,51,123017,1,2,0:0:0:0:
409,127,123172,1,8,0:0:0:0:
205,209,123327,2,0,P|126:205|90:186,1,101.999996887207,2|0,0:0|1:2,0:0:0:0:
143,9,123636,2,0,L|165:121,1,101.999996887207,2|8,1:2|0:0,0:0:0:0:
54,282,123945,1,2,0:0:0:0:
280,142,124100,6,0,P|344:111|481:118,1,203.999993774414,2|8,1:2|0:0,0:0:0:0:
442,298,124564,1,2,0:0:0:0:
442,298,124718,2,0,P|402:260|393:205,1,101.999996887207,0|0,1:2|1:2,0:0:0:0:
401,26,125028,1,8,0:0:0:0:
504,214,125182,1,0,1:2:0:0:
280,142,125337,5,8,0:0:0:0:
485,69,125492,1,0,1:2:0:0:
359,199,125646,1,0,1:2:0:0:
512,236,125802,1,0,1:2:0:0:
389,109,125956,1,8,0:3:0:0:
297,316,126111,1,12,0:3:0:0:
399,291,126265,2,0,L|233:281,1,127.5,14|0,0:0|0:0,0:0:0:0:
221,209,126574,6,0,P|182:283|200:328,1,101.999996887207,4|0,1:2|0:0,0:0:0:0:
314,184,126883,1,8,0:0:0:0:
146,117,127038,1,2,0:0:0:0:
290,73,127193,1,2,1:2:0:0:
123,144,127347,1,2,1:2:0:0:
311,166,127502,1,10,0:0:0:0:
202,38,127657,1,2,0:0:0:0:
28,141,127811,6,0,L|45:254,1,101.999996887207,2|0,1:2|1:2,0:0:0:0:
82,206,128043,2,0,L|66:306,1,101.999996887207,2|0,0:0|0:0,0:0:0:0:
16,381,128275,2,0,P|89:345|152:345,1,101.999996887207,2|0,0:0|1:2,0:0:0:0:
214,371,128584,1,0,1:2:0:0:
336,318,128739,2,0,B|358:280|358:280|328:162,1,127.5,14|0,0:0|0:0,0:0:0:0:
297,125,129048,6,0,L|286:253,1,101.999996887207,6|0,1:2|0:0,0:0:0:0:
430,199,129358,1,8,0:0:0:0:
204,135,129512,1,2,0:0:0:0:
385,73,129667,1,2,1:2:0:0:
184,108,129821,1,2,1:2:0:0:
398,102,129976,1,10,0:0:0:0:
269,5,130131,1,2,0:0:0:0:
229,227,130285,6,0,P|162:220|128:192,1,101.999996887207,2|0,1:2|1:2,0:0:0:0:
58,235,130517,2,0,P|54:171|88:126,1,101.999996887207,2|0,0:0|0:0,0:0:0:0:
0,67,130749,2,0,L|113:50,1,101.999996887207,2|0,0:0|1:2,0:0:0:0:
185,1,131059,1,0,1:2:0:0:
276,153,131213,2,0,L|421:131,1,127.5,14|0,0:0|0:0,0:0:0:0:
493,80,131523,6,0,L|484:197,1,101.999996887207,6|0,1:2|0:0,0:0:0:0:
461,311,131832,1,8,0:0:0:0:
359,212,131986,1,2,0:0:0:0:
280,321,132141,1,2,1:2:0:0:
356,195,132296,1,2,1:2:0:0:
374,354,132450,1,10,0:0:0:0:
245,237,132605,1,2,1:2:0:0:
114,375,132760,5,14,0:0:0:0:
36,83,133997,6,0,P|102:57|213:52,1,152.999995330811,12|0,0:0|0:0,0:0:0:0:
318,94,134306,1,8,0:0:0:0:
133,145,134461,1,2,0:0:0:0:
369,209,134615,1,8,0:0:0:0:
156,238,134770,1,0,1:2:0:0:
363,332,134925,1,10,0:0:0:0:
134,333,135079,1,0,1:2:0:0:
365,187,135234,5,8,0:0:0:0:
241,312,135389,1,2,0:0:0:0:
133,145,135543,1,8,0:0:0:0:
293,238,135698,1,0,1:2:0:0:
259,42,135852,1,10,0:0:0:0:
359,188,136007,1,0,1:2:0:0:
405,2,136162,1,10,0:0:0:0:
445,176,136316,1,2,1:2:0:0:
234,154,136471,6,0,L|113:143,1,101.999996887207,10|0,0:0|0:0,0:0:0:0:
28,297,136780,1,8,0:0:0:0:
235,249,136935,1,2,0:0:0:0:
53,203,137089,1,8,0:0:0:0:
196,353,137244,1,0,1:2:0:0:
169,147,137399,1,10,0:0:0:0:
104,359,137553,1,0,1:2:0:0:
41,109,137708,5,8,1:2:0:0:
278,326,137863,1,8,1:2:0:0:
275,349,138327,5,8,1:2:0:0:
323,41,138481,1,8,1:2:0:0:
335,61,138945,6,0,L|328:184,1,106.25,2|0,0:0|0:0,0:0:0:0:
328,167,139409,2,0,P|270:153|231:157,1,85,2|0,0:0|0:0,0:0:0:0:
123,215,139873,1,8,0:0:0:0:
300,341,140028,6,0,B|331:360|331:360|407:365|459:292,1,178.499994552612,6|0,1:2|0:0,0:0:0:0:
463,171,140337,1,0,1:2:0:0:
222,236,140492,2,0,L|89:207,1,101.999996887207,8|0,0:0|0:0,0:0:0:0:
332,115,140801,1,2,1:2:0:0:
350,267,140956,1,2,1:2:0:0:
231,118,141110,1,8,0:0:0:0:
413,45,141265,6,0,P|433:83|405:207,1,152.999995330811,2|0,1:2|0:0,0:0:0:0:
350,267,141574,1,0,1:2:0:0:
510,364,141729,2,0,L|491:234,1,101.999996887207,8|2,0:0|0:0,0:0:0:0:
332,115,142038,1,2,1:2:0:0:
259,321,142193,1,2,1:2:0:0:
419,188,142347,1,10,0:0:0:0:
182,96,142502,6,0,P|111:86|75:99,1,101.999996887207,6|0,1:2|0:0,0:0:0:0:
263,170,142811,1,2,1:2:0:0:
32,35,142966,2,0,L|49:161,1,101.999996887207,8|2,0:0|0:0,0:0:0:0:
160,0,143275,1,2,1:2:0:0:
133,183,143430,1,2,1:2:0:0:
266,35,143584,1,10,0:0:0:0:
324,258,143739,6,0,B|364:274|364:274|443:254,1,101.999996887207,2|0,1:2|0:0,0:0:0:0:
210,134,144048,1,2,1:2:0:0:
358,85,144203,1,10,0:0:0:0:
177,295,144358,2,0,B|137:311|137:311|62:289,1,101.999996887207,2|0,0:0|1:2,0:0:0:0:
300,148,144667,1,2,1:2:0:0:
349,371,144821,1,10,0:0:0:0:
349,371,145131,6,0,L|330:283,1,67.9999979248048,6|2,1:2|0:0,0:0:0:0:
253,272,145337,1,2,0:0:0:0:
246,300,145440,2,0,L|227:212,1,67.9999979248048,10|2,0:0|0:0,0:0:0:0:
150,201,145646,1,2,0:0:0:0:
143,229,145749,2,0,L|124:141,1,67.9999979248048,2|2,1:2|0:0,0:0:0:0:
47,130,145956,1,2,0:0:0:0:
40,158,146059,2,0,L|21:70,1,67.9999979248048,10|2,0:0|0:0,0:0:0:0:
120,13,146265,1,2,0:0:0:0:
144,0,146368,6,0,P|184:2|226:19,1,67.9999979248048,2|2,1:2|0:0,0:0:0:0:
307,10,146574,1,2,0:0:0:0:
333,17,146677,2,0,P|359:46|377:88,1,67.9999979248048,10|2,0:0|0:0,0:0:0:0:
445,129,146883,1,2,0:0:0:0:
458,152,146986,2,0,P|456:192|439:234,1,67.9999979248048,2|2,1:2|0:0,0:0:0:0:
464,316,147193,1,2,0:0:0:0:
457,342,147296,2,0,P|427:368|385:386,1,67.9999979248048,10|2,0:0|0:0,0:0:0:0:
301,349,147502,1,2,0:0:0:0:
277,320,147605,5,14,0:0:0:0:
272,268,147708,1,2,0:0:0:0:
267,217,147811,1,2,0:0:0:0:
215,219,147914,5,14,0:0:0:0:
220,167,148017,1,2,0:0:0:0:
225,116,148120,1,2,0:0:0:0:
265,84,148224,5,14,0:0:0:0:
265,84,148327,2,0,L|355:101,1,67.9999979248048,2|2,0:0|0:0,0:0:0:0:
213,22,148533,5,14,0:0:0:0:
213,22,148636,2,0,L|123:39,1,67.9999979248048,2|2,0:0|0:0,0:0:0:0:
6,72,148842,5,14,0:0:0:0:
444,191,149461,1,6,1:2:0:0:
114,323,150079,1,6,1:2:0:0:
217,188,151007,5,8,0:0:0:0:
216,306,151162,2,0,L|196:176,1,101.999996887207,6|0,1:2|0:0,0:0:0:0:
113,126,151471,2,0,P|172:161|268:103,1,170,2|0,0:0|0:0,0:0:0:0:
365,34,151935,2,0,P|346:82|346:121,1,85,2|0,0:0|0:0,0:0:0:0:
463,194,152244,2,0,L|443:86,1,85,2|0,0:0|0:0,0:0:0:0:
313,325,152553,1,6,1:2:0:0:
118,177,153481,5,10,0:0:0:0:
49,236,153636,2,0,L|172:216,1,101.999996887207,6|0,1:2|0:0,0:0:0:0:
302,349,153945,2,0,L|124:320,1,170,2|2,0:0|0:0,0:0:0:0:
268,243,154409,1,10,0:3:0:0:
268,243,154564,1,0,1:2:0:0:
118,177,154718,2,0,B|103:154|103:154|122:70,1,85,14|0,0:3|0:0,0:0:0:0:
282,116,155028,6,0,P|233:142|182:136,1,85,6|0,1:2|0:0,0:0:0:0:
379,45,155337,2,0,L|368:157,1,85,0|2,1:2|0:0,0:0:0:0:
471,287,155646,1,2,1:2:0:0:
471,287,155801,1,0,0:0:0:0:
309,235,155956,1,0,1:2:0:0:
447,178,156110,1,0,0:0:0:0:
451,378,156265,5,14,1:2:0:0:
454,156,156419,1,2,0:0:0:0:
354,311,156574,1,0,1:2:0:0:
140,255,156729,2,0,L|317:233,1,170,10|0,1:2|0:0,0:0:0:0:
149,357,157193,2,0,L|55:341,1,85,10|0,1:2|1:2,0:0:0:0:
117,105,157502,6,0,B|152:134|152:134|172:175|136:263,1,170,6|0,1:2|1:2,0:0:0:0:
39,58,157966,1,8,0:0:0:0:
242,100,158121,1,8,0:0:0:0:
28,206,158275,1,8,0:0:0:0:
303,161,158430,1,8,0:0:0:0:
138,14,158585,1,0,0:0:0:0:
106,271,158739,5,4,1:2:0:0:
370,69,159203,1,2,1:2:0:0:
370,69,159280,1,0,1:2:0:0:
370,69,159358,1,10,0:0:0:0:
391,249,159512,1,0,1:2:0:0:
295,170,159667,2,0,P|229:149|196:154,1,85,2|0,0:0|0:0,0:0:0:0:
62,270,159976,6,0,L|242:242,1,170,4|0,1:2|0:0,0:0:0:0:
411,329,160440,1,0,1:2:0:0:
411,329,160517,1,0,1:2:0:0:
411,329,160595,1,10,0:0:0:0:
424,194,160749,1,0,1:2:0:0:
333,266,160904,2,0,P|311:225|318:171,1,85,8|0,0:0|0:0,0:0:0:0:
415,32,161213,5,6,1:2:0:0:
371,114,161368,2,0,L|249:92,1,85,2|0,0:0|0:0,0:0:0:0:
122,25,161677,2,0,P|184:50|186:166,1,170,6|2,1:2|0:0,0:0:0:0:
34,129,162141,2,0,B|76:108|76:108|120:114,1,85,4|0,1:2|0:0,0:0:0:0:
283,279,162450,5,6,1:2:0:0:
94,208,162605,1,0,0:0:0:0:
254,135,162760,1,8,0:3:0:0:
280,125,162837,1,8,0:3:0:0:
310,122,162914,1,8,0:3:0:0:
339,127,162991,1,8,0:3:0:0:
366,137,163069,1,4,0:3:0:0:
406,159,163146,1,4,0:3:0:0:
452,155,163223,1,4,0:3:0:0:
488,127,163300,1,4,0:3:0:0:
504,84,163378,1,0,1:2:0:0:
493,39,163455,1,0,1:2:0:0:
459,7,163532,1,0,1:2:0:0:
414,0,163610,1,0,1:2:0:0:
371,17,163687,5,4,1:2:0:0:
87,354,164770,6,0,P|79:223|62:155,1,178.499994552612,6|0,1:2|0:0,0:0:0:0:
0,59,165079,1,0,1:2:0:0:
178,160,165234,2,0,B|212:180|212:180|299:161,1,118.999996368408,8|2,0:0|0:0,0:0:0:0:
425,91,165543,1,2,1:2:0:0:
259,280,165698,1,2,1:2:0:0:
282,62,165852,1,8,0:0:0:0:
497,293,166007,6,0,P|414:290|379:257,1,118.999996368408,2|0,1:2|0:0,0:0:0:0:
150,299,166316,2,0,P|182:224|230:187,1,118.999996368408,2|8,1:2|0:0,0:0:0:0:
53,42,166626,2,0,P|110:28|185:26,1,118.999996368408,2|0,0:0|1:2,0:0:0:0:
318,148,166935,1,2,1:2:0:0:
125,123,167090,1,8,0:0:0:0:
391,44,167244,6,0,B|426:108|426:108|395:285,1,237.999992736817,6|0,1:2|1:2,0:0:0:0:
155,341,167708,2,0,L|139:221,1,118.999996368408,8|2,0:0|0:0,0:0:0:0:
265,368,168017,1,2,1:2:0:0:
52,288,168172,1,2,1:2:0:0:
238,143,168327,1,8,0:0:0:0:
0,176,168481,6,0,P|62:195|144:166,1,118.999996368408,2|0,1:2|0:0,0:0:0:0:
315,313,168791,2,0,P|336:237|332:186,1,118.999996368408,2|8,1:2|0:0,0:0:0:0:
505,68,169100,2,0,P|441:32|372:31,1,118.999996368408,2|0,0:0|1:2,0:0:0:0:
152,72,169409,1,2,1:2:0:0:
238,143,169564,2,0,L|253:25,1,118.999996368408,8|0,0:0|0:0,0:0:0:0:
60,98,169873,5,6,1:2:0:0:
318,184,170028,1,2,0:0:0:0:
68,245,170182,1,8,0:0:0:0:
272,313,170337,2,0,P|330:317|385:295,1,118.999996368408,2|0,0:0|1:2,0:0:0:0:
196,237,170646,2,0,P|169:290|175:377,1,118.999996368408,2|8,1:2|0:0,0:0:0:0:
463,371,170956,6,0,B|509:282|452:207|452:207|503:211|538:164,1,237.999992736817,2|0,0:0|1:2,0:0:0:0:
351,130,171419,1,8,0:0:0:0:
351,130,171574,1,2,0:0:0:0:
475,7,171729,2,0,L|454:126,1,101.999996887207,2|0,1:2|1:2,0:0:0:0:
258,215,172038,2,0,L|240:114,1,101.999996887207,10|0,0:0|0:0,0:0:0:0:
4,71,172347,6,0,P|40:106|152:104,1,152.999995330811,6|0,1:2|0:0,0:0:0:0:
197,32,172657,2,0,P|241:21|301:46,1,101.999996887207,8|0,0:0|0:0,0:0:0:0:
96,27,172966,1,2,1:2:0:0:
240,114,173120,1,0,0:0:0:0:
89,224,173275,1,8,0:0:0:0:
134,129,173430,1,2,0:0:0:0:
275,308,173584,5,6,1:2:0:0:
24,280,173739,1,2,1:2:0:0:
342,201,173894,1,8,0:0:0:0:
191,375,174048,2,0,P|170:315|190:251,1,118.999996368408,6|8,1:2|0:3,0:0:0:0:
442,252,174358,1,2,1:2:0:0:
412,290,174435,1,0,1:2:0:0:
370,315,174512,1,4,0:3:0:0:
322,321,174589,1,4,0:3:0:0:
275,308,174667,6,0,L|250:109,1,178.499994552612,6|0,1:2|0:0,0:0:0:0:
186,20,174976,1,0,1:2:0:0:
376,161,175131,2,0,P|426:159|506:105,1,118.999996368408,8|2,0:0|0:0,0:0:0:0:
259,71,175440,1,2,1:2:0:0:
174,236,175595,1,2,1:2:0:0:
359,62,175749,1,8,0:0:0:0:
159,136,175904,6,0,P|90:142|41:127,1,118.999996368408,2|0,1:2|0:0,0:0:0:0:
288,222,176213,2,0,P|327:278|339:328,1,118.999996368408,2|8,1:2|0:0,0:0:0:0:
119,342,176523,2,0,L|190:206,1,118.999996368408,2|0,0:0|1:2,0:0:0:0:
112,35,176832,1,2,1:2:0:0:
65,228,176986,1,8,0:0:0:0:
280,97,177141,6,0,B|346:76|346:76|401:109|401:109|452:67|513:92,1,237.999992736817,6|0,1:2|1:2,0:0:0:0:
483,286,177605,2,0,B|455:250|455:250|475:158,1,118.999996368408,8|2,0:0|0:0,0:0:0:0:
415,345,177914,2,0,L|255:328,1,118.999996368408,2|2,1:2|1:2,0:0:0:0:
141,369,178224,1,8,0:0:0:0:
51,265,178378,6,0,P|24:199|31:150,1,101.999996887207,2|0,1:2|0:0,0:0:0:0:
139,88,178687,2,0,L|127:213,1,101.999996887207,2|8,1:2|0:0,0:0:0:0:
255,256,178997,2,0,L|245:154,1,101.999996887207,2|0,0:0|1:2,0:0:0:0:
364,239,179306,2,0,P|362:289|231:366,1,203.999993774414,2|0,1:2|0:0,0:0:0:0:
333,148,179770,6,0,L|458:122,1,101.999996887207,6|2,1:2|0:0,0:0:0:0:
295,8,180079,1,8,0:0:0:0:
245,154,180234,1,2,0:0:0:0:
107,118,180389,1,0,1:2:0:0:
333,148,180543,1,2,1:2:0:0:
146,239,180698,1,8,0:0:0:0:
54,38,180852,6,0,P|128:25|181:58,1,101.999996887207,2|0,0:0|1:2,0:0:0:0:
54,256,181162,2,0,L|20:141,1,101.999996887207,2|8,0:0|0:0,0:0:0:0:
242,249,181471,2,0,L|214:366,1,101.999996887207,2|0,0:0|1:2,0:0:0:0:
143,188,181780,2,0,P|214:141|345:165,1,203.999993774414,2|2,1:2|0:0,0:0:0:0:
445,335,182244,6,0,L|449:211,1,101.999996887207,6|0,1:2|0:0,0:0:0:0:
475,67,182553,1,8,0:0:0:0:
475,67,182708,1,2,0:0:0:0:
315,109,182863,1,0,1:2:0:0:
483,160,183017,1,0,1:2:0:0:
233,141,183172,1,8,0:0:0:0:
367,37,183327,1,0,1:2:0:0:
394,225,183481,5,8,0:0:0:0:
244,53,183636,1,0,1:2:0:0:
182,252,183791,1,0,1:2:0:0:
333,121,183945,5,0,1:2:0:0:
263,291,184100,1,8,0:3:0:0:
147,90,184254,1,12,0:3:0:0:
37,238,184409,6,0,B|142:225|142:225|182:252,1,152.999995330811,14|0,0:0|0:0,0:0:0:0:
85,312,184718,6,0,L|264:290,1,178.499994552612,4|0,1:2|0:0,0:0:0:0:
327,355,185028,1,8,0:0:0:0:
429,189,185182,1,2,0:0:0:0:
335,221,185337,1,2,1:2:0:0:
497,305,185492,1,2,1:2:0:0:
444,155,185646,1,10,0:0:0:0:
394,287,185801,1,2,0:0:0:0:
246,213,185956,6,0,P|221:150|257:85,1,101.999996887207,2|0,1:2|1:2,0:0:0:0:
190,25,186187,2,0,L|301:43,1,101.999996887207,2|0,0:0|0:0,0:0:0:0:
333,112,186419,2,0,L|433:95,1,101.999996887207,2|0,0:0|1:2,0:0:0:0:
362,10,186729,1,0,1:2:0:0:
496,158,186883,6,0,P|507:217|437:281,1,152.999995330811,14|0,0:0|0:0,0:0:0:0:
424,197,187193,6,0,L|240:224,1,178.499994552612,6|0,1:2|0:0,0:0:0:0:
191,288,187502,1,8,0:0:0:0:
131,172,187657,1,2,0:0:0:0:
45,330,187811,1,2,1:2:0:0:
146,156,187966,1,2,1:2:0:0:
296,292,188120,2,0,P|282:343|241:376,1,101.999996887207,10|0,0:0|0:0,0:0:0:0:
67,298,188430,6,0,L|47:179,1,101.999996887207,2|0,1:2|1:2,0:0:0:0:
93,218,188662,2,0,L|113:99,1,101.999996887207,2|0,0:0|0:0,0:0:0:0:
146,156,188894,2,0,L|126:37,1,101.999996887207,2|0,0:0|1:2,0:0:0:0:
239,89,189203,1,0,1:2:0:0:
191,239,189358,2,0,P|271:198|360:211,1,152.999995330811,14|0,0:0|0:0,0:0:0:0:
393,278,189667,6,0,L|363:101,1,178.499994552612,6|0,1:2|0:0,0:0:0:0:
329,20,189976,1,8,0:0:0:0:
258,177,190131,1,2,0:0:0:0:
475,137,190285,1,2,1:2:0:0:
475,137,190440,1,2,1:2:0:0:
338,114,190595,1,10,0:0:0:0:
463,241,190749,1,2,1:2:0:0:
506,21,190904,5,14,0:0:0:0:
226,309,192141,6,0,P|154:326|56:250,1,191.250007295609,12|0,0:0|0:0,0:0:0:0:
65,100,192450,5,8,0:0:0:0:
160,236,192605,1,2,0:0:0:0:
219,30,192760,1,8,0:0:0:0:
270,220,192914,1,0,1:2:0:0:
372,25,193069,1,10,0:0:0:0:
377,241,193224,1,0,1:2:0:0:
489,14,193378,5,8,0:0:0:0:
291,122,193533,1,2,0:0:0:0:
502,190,193687,1,8,0:0:0:0:
372,25,193842,1,0,1:2:0:0:
270,220,193997,1,10,0:0:0:0:
442,120,194151,1,0,1:2:0:0:
201,91,194306,1,10,0:0:0:0:
386,218,194461,1,2,1:2:0:0:
276,31,194615,5,10,0:0:0:0:
187,248,194770,1,0,0:0:0:0:
108,86,194925,1,8,0:0:0:0:
275,289,195079,1,2,0:0:0:0:
343,118,195234,1,8,0:0:0:0:
196,340,195389,1,0,1:2:0:0:
82,187,195543,1,10,0:0:0:0:
303,378,195698,1,0,1:2:0:0:
452,149,195852,5,8,1:2:0:0:
165,254,196007,1,8,1:2:0:0:
151,275,196471,5,8,1:2:0:0:
471,326,196626,1,8,1:2:0:0:
471,326,197090,6,0,B|502:278|502:278|439:241|350:279,1,191.250007295609,12|0,0:0|0:0,0:0:0:0:
250,330,197399,5,8,0:0:0:0:
437,223,197553,1,2,0:0:0:0:
234,169,197708,1,8,0:0:0:0:
341,355,197863,1,0,1:2:0:0:
376,139,198017,1,10,0:0:0:0:
216,255,198172,1,0,1:2:0:0:
170,58,198327,5,8,0:0:0:0:
318,223,198481,1,2,0:0:0:0:
360,29,198636,1,8,0:0:0:0:
159,162,198791,1,0,1:2:0:0:
159,162,198868,1,0,1:2:0:0:
159,162,198945,1,10,0:0:0:0:
393,161,199100,1,0,1:2:0:0:
253,42,199254,1,10,0:0:0:0:
166,252,199409,1,2,1:2:0:0:
304,113,199564,5,10,0:0:0:0:
407,309,199718,1,0,0:0:0:0:
468,79,199873,1,8,0:0:0:0:
295,237,200028,1,2,0:0:0:0:
474,182,200182,1,8,0:0:0:0:
204,111,200337,1,0,1:2:0:0:
384,205,200492,1,10,0:0:0:0:
148,276,200646,1,0,1:2:0:0:
395,93,200801,5,8,1:2:0:0:
338,351,200956,1,8,1:2:0:0:
327,373,201419,5,8,1:2:0:0:
212,87,201574,1,8,1:2:0:0:
90,355,202038,6,0,P|77:276|150:212,1,170,6|2,1:2|0:0,0:0:0:0:
252,290,202502,2,0,L|160:303,1,85,2|0,3:2|0:0,0:0:0:0:
351,252,202811,2,0,P|353:301|333:350,2,85,2|0|2,3:2|0:0|0:0,0:0:0:0:
269,164,203275,5,2,0:0:0:0:
381,119,203430,1,0,0:0:0:0:
381,119,203584,1,2,0:0:0:0:
258,59,203739,2,0,L|100:39,1,127.5,2|0,3:2|0:0,0:0:0:0:
49,16,204048,2,0,P|45:63|64:101,1,85,2|0,3:2|0:0,0:0:0:0:
163,178,204358,1,2,0:0:0:0:
74,265,204512,6,0,L|59:83,1,170,4|2,1:2|0:0,0:0:0:0:
159,297,204976,2,0,L|181:180,1,85,2|0,3:2|0:0,0:0:0:0:
244,345,205285,1,2,3:2:0:0:
244,345,205440,2,0,L|288:241,1,85,0|2,0:0|0:0,0:0:0:0:
395,227,205749,5,2,0:0:0:0:
462,335,205904,1,0,0:0:0:0:
462,335,206059,1,2,0:0:0:0:
501,238,206213,2,0,P|508:165|504:123,1,85,2|0,3:2|0:0,0:0:0:0:
421,26,206523,2,0,L|405:125,1,85,2|0,3:2|0:0,0:0:0:0:
387,205,206832,1,2,0:0:0:0:
320,96,206986,6,0,P|241:68|157:96,1,170,4|2,1:2|0:0,0:0:0:0:
218,249,207450,2,0,P|239:192|228:141,1,85,2|0,3:2|0:0,0:0:0:0:
51,187,207760,1,2,3:2:0:0:
51,187,207914,2,0,L|148:196,1,85,0|2,0:0|0:0,0:0:0:0:
99,367,208224,6,0,B|79:334|79:334|89:259,2,85,2|0|2,0:0|0:0|0:0,0:0:0:0:
264,333,208687,2,0,L|163:318,1,85,2|0,3:2|0:0,0:0:0:0:
338,297,208997,2,0,L|237:312,1,85,2|0,3:2|0:0,0:0:0:0:
410,362,209306,1,2,0:0:0:0:
483,274,209461,6,0,P|506:220|434:111,1,170,4|2,1:2|0:0,0:0:0:0:
325,201,209925,2,0,L|424:208,1,85,2|0,3:2|0:0,0:0:0:0:
296,122,210234,1,2,3:2:0:0:
248,245,210389,2,0,L|161:259,1,85,0|2,0:0|0:0,0:0:0:0:
67,156,210698,5,4,1:2:0:0:
67,156,210852,1,2,0:0:0:0:
42,276,211007,1,2,0:0:0:0:
199,177,211162,2,0,P|210:127|200:76,1,85,2|0,0:0|0:0,0:0:0:0:
103,15,211471,2,0,P|178:64|247:50,1,152.999995330811,2|0,0:0|0:0,0:0:0:0:
