osu file format v14

[General]
AudioFilename: audio.mp3
AudioLeadIn: 0
PreviewTime: 111091
Countdown: 0
SampleSet: Soft
StackLeniency: 0.7
Mode: 0
LetterboxInBreaks: 0
WidescreenStoryboard: 0

[Editor]
Bookmarks: 24493,49699,69648,86349,96246,111555,153772,178359,199545
DistanceSpacing: 1.2
BeatDivisor: 4
GridSize: 4
TimelineZoom: 2.2

[Metadata]
Title:Genjou Destruction
TitleUnicode:現状ディストラクション
Artist:SPYAIR
ArtistUnicode:SPYAIR
Creator:Herbayse
Version:Extra
Source:劇場版 銀魂 完結篇 万事屋よ永遠なれ
Tags:ending full version movie 劇場版銀魂完結篇 万事屋よ永遠なれ
BeatmapID:1491740
BeatmapSetID:705280

[Difficulty]
HPDrainRate:6.2
CircleSize:4.2
OverallDifficulty:9.3
ApproachRate:9.3
SliderMultiplier:1.9
SliderTickRate:1

[Events]
//Background and Video events
0,0,"56436053_p0.jpg",0,0
//Break Periods
2,20363,23939
2,82219,85795
2,92116,95537
//Storyboard Layer 0 (Background)
//Storyboard Layer 1 (Fail)
//Storyboard Layer 2 (Pass)
//Storyboard Layer 3 (Foreground)
//Storyboard Sound Samples

[TimingPoints]
370,309.278350515464,4,1,0,100,1,0
370,-100,4,1,0,50,0,0
833,-100,4,2,0,30,0,0
1761,-200,4,2,0,30,0,0
2844,-100,4,1,0,50,0,0
3308,-200,4,2,0,30,0,0
5318,-100,4,1,0,50,0,0
5782,-133.333333333333,4,2,0,40,0,0
7792,-100,4,1,0,50,0,0
8256,-133.333333333333,4,2,0,40,0,0
10266,-100,4,1,0,60,0,0
30370,-200,4,1,0,40,0,0
34390,-100,4,1,0,60,0,0
40266,-133.333333333333,4,1,0,60,0,0
47380,-200,4,2,0,40,0,0
49699,-90.9090909090909,4,1,0,70,0,1
69648,-166.666666666667,4,2,0,60,0,0
71813,-133.333333333333,4,2,0,60,0,0
72122,-100,4,1,0,60,0,0
96400,-200,4,2,0,40,0,0
96710,-100,4,1,0,60,0,0
102122,-133.333333333333,4,1,0,60,0,0
109235,-200,4,2,0,40,0,0
111555,-90.9090909090909,4,1,0,70,0,1
131504,-200,4,2,0,50,0,0
132122,-166.666666666667,4,2,0,50,0,0
132741,-142.857142857143,4,2,0,50,0,0
133978,-100,4,2,0,50,0,0
150988,-133.333333333333,4,2,0,50,0,0
151297,-100,4,2,0,50,0,0
155937,-133.333333333333,4,2,0,50,0,0
158720,-100,4,2,0,50,0,0
178359,-90.9090909090909,4,1,0,70,0,1
185318,-90.9090909090909,4,1,0,70,0,0
185782,-83.3333333333333,4,1,0,70,0,1
195833,-111.111111111111,4,2,0,60,0,0
196452,-125,4,2,0,60,0,0
197071,-142.857142857143,4,2,0,40,0,0
197534,-166.666666666667,4,2,0,30,0,0
197998,-200,4,2,0,20,0,0
198617,-200,4,2,0,5,0,0
199545,-100,4,1,0,50,0,0

[HitObjects]
92,244,370,6,0,B|200:224|160:296|276:276,1,190,0|0,0:0|0:0,0:0:0:0:
420,244,833,1,0,0:0:0:0:
420,264,1143,1,0,0:0:0:0:
420,288,1452,1,0,0:0:0:0:
432,140,1761,6,0,L|368:144,1,47.5,0|0,0:0|0:0,0:0:0:0:
280,120,2071,1,0,0:0:0:0:
264,184,2225,2,0,L|268:128,1,47.5,0|0,0:0|0:0,0:0:0:0:
160,260,2534,2,0,L|156:200,1,47.5,0|0,0:0|0:0,0:0:0:0:
360,344,2844,6,0,B|364:268|364:268|384:232|384:232|392:152,1,190,0|0,0:0|0:0,0:0:0:0:
316,68,3308,1,0,0:0:0:0:
292,68,3617,1,0,0:0:0:0:
264,68,3926,1,0,0:0:0:0:
148,276,4235,6,0,L|140:228,1,47.5,0|0,0:0|0:0,0:0:0:0:
164,136,4545,1,0,0:0:0:0:
264,232,4699,2,0,L|284:232,4,11.875
380,304,5009,2,0,L|368:304,6,11.875
400,312,5318,6,0,B|428:264|428:264|412:120,1,190,0|0,0:0|0:0,0:0:0:0:
296,56,5782,1,0,0:0:0:0:
264,56,6091,1,0,0:0:0:0:
224,56,6400,2,0,P|204:120|232:196,1,142.500005435944,0|0,0:0|0:0,0:0:0:0:
368,248,6864,2,0,P|380:204|372:160,1,71.2500027179719,0|0,0:0|0:0,0:0:0:0:
308,104,7174,1,0,0:0:0:0:
280,280,7328,2,0,P|308:324|348:332,1,71.2500027179719,0|0,0:0|0:0,0:0:0:0:
428,316,7638,1,0,0:0:0:0:
120,152,7792,6,0,L|136:360,1,190,0|0,0:0|0:0,0:0:0:0:
280,280,8256,2,0,P|288:240|280:200,1,71.2500027179719,0|0,0:0|0:0,0:0:0:0:
240,124,8565,1,0,0:0:0:0:
140,316,8720,1,0,0:0:0:0:
140,316,8875,2,0,L|228:344,1,71.2500027179719,0|0,0:0|0:0,0:0:0:0:
433,250,9184,5,0,0:0:0:0:
287,197,9339,1,0,0:0:0:0:
436,236,9493,1,0,0:0:0:0:
283,210,9648,1,0,0:0:0:0:
184,128,10266,6,0,P|164:192|196:312,1,190,0|0,0:0|0:0,0:0:0:0:
376,212,10730,1,0,0:0:0:0:
264,240,10885,1,0,0:0:0:0:
432,288,11040,2,0,L|468:196,1,95,0|0,0:0|0:0,0:0:0:0:
304,52,11349,2,0,L|312:148,1,95,0|0,0:0|0:0,0:0:0:0:
320,304,11658,5,0,0:0:0:0:
164,224,11813,1,0,0:0:0:0:
316,156,11967,1,0,0:0:0:0:
288,312,12122,1,0,0:0:0:0:
336,160,12277,1,0,0:0:0:0:
184,208,12431,1,0,0:0:0:0:
264,328,12586,1,0,0:0:0:0:
428,288,12741,6,0,B|424:224|424:224|448:176|448:176|444:100,1,190,0|0,0:0|0:0,0:0:0:0:
308,40,13205,2,0,L|316:136,1,95,0|0,0:0|0:0,0:0:0:0:
216,256,13514,2,0,L|204:152,1,95,0|0,0:0|0:0,0:0:0:0:
192,64,13823,1,0,0:0:0:0:
348,296,13978,2,0,L|444:284,1,95,0|0,0:0|0:0,0:0:0:0:
472,164,14287,2,0,L|376:152,1,95,0|0,0:0|0:0,0:0:0:0:
236,88,14596,5,0,0:0:0:0:
76,152,14751,1,0,0:0:0:0:
284,212,14906,1,0,0:0:0:0:
60,260,15060,1,0,0:0:0:0:
428,96,15215,6,0,B|424:164|424:164|448:200|448:200|444:280,1,190,0|0,0:0|0:0,0:0:0:0:
308,344,15679,2,0,L|324:248,1,95,0|0,0:0|0:0,0:0:0:0:
220,192,15988,2,0,L|204:96,1,95,0|0,0:0|0:0,0:0:0:0:
360,44,16297,2,0,L|344:137,1,95,0|0,0:0|0:0,0:0:0:0:
264,348,16607,5,0,0:0:0:0:
112,204,16762,1,0,0:0:0:0:
284,256,16917,5,0,0:0:0:0:
88,308,17071,1,0,0:0:0:0:
284,256,17225,5,0,0:0:0:0:
132,112,17380,1,0,0:0:0:0:
288,76,17534,1,0,0:0:0:0:
428,168,17689,6,0,B|372:264|460:248|416:348,1,190,0|0,0:0|0:0,0:0:0:0:
320,252,18153,2,0,L|316:144,1,95,0|0,0:0|0:0,0:0:0:0:
192,256,18462,1,0,0:0:0:0:
220,116,18617,1,0,0:0:0:0:
84,212,18772,5,0,0:0:0:0:
136,76,18926,1,0,0:0:0:0:
200,260,19081,5,0,0:0:0:0:
212,108,19235,1,0,0:0:0:0:
308,256,19390,5,0,0:0:0:0:
300,88,19545,1,0,0:0:0:0:
272,344,19699,1,0,0:0:0:0:
316,352,19777,1,0,0:0:0:0:
356,340,19854,1,0,0:0:0:0:
380,308,19931,1,0,0:0:0:0:
392,268,20009,2,0,P|396:156|396:156,1,95,0|0,0:0|0:0,0:0:0:0:
396,164,24493,6,0,B|332:156,1,47.5,0|0,0:0|0:0,0:0:0:0:
192,136,24648,1,0,0:0:0:0:
196,124,24802,1,0,0:0:0:0:
408,168,24957,2,0,B|400:296|400:296|360:344,1,190,0|0,0:0|0:0,0:0:0:0:
228,360,25421,1,0,0:0:0:0:
124,248,25576,2,0,L|220:236,1,95,0|0,0:0|0:0,0:0:0:0:
396,164,25885,2,0,L|300:152,1,95,0|0,0:0|0:0,0:0:0:0:
136,104,26194,1,0,0:0:0:0:
136,104,26272,1,0,0:0:0:0:
136,104,26349,1,0,0:0:0:0:
288,72,26504,5,0,0:0:0:0:
320,228,26658,1,0,0:0:0:0:
420,132,26813,5,0,0:0:0:0:
412,288,26967,1,0,0:0:0:0:
256,160,27122,5,0,0:0:0:0:
296,320,27277,1,0,0:0:0:0:
280,132,27431,2,0,B|212:136|160:120|160:120|124:144|92:152,1,190,0|0,0:0|0:0,0:0:0:0:
56,280,27895,1,0,0:0:0:0:
212,328,28050,2,0,L|204:232,1,95,0|0,0:0|0:0,0:0:0:0:
328,144,28359,2,0,L|320:238,1,95,0|0,0:0|0:0,0:0:0:0:
316,344,28668,1,0,0:0:0:0:
456,136,28823,6,0,L|352:128,1,95,0|0,0:0|0:0,0:0:0:0:
176,124,29132,1,0,0:0:0:0:
320,248,29287,1,0,0:0:0:0:
320,248,29364,1,0,0:0:0:0:
320,248,29442,1,0,0:0:0:0:
308,56,29596,1,0,0:0:0:0:
176,256,29751,1,0,0:0:0:0:
432,176,29906,1,0,0:0:0:0:
184,48,30060,1,0,0:0:0:0:
176,256,30370,6,0,L|236:256,1,47.5,0|0,0:0|0:0,0:0:0:0:
336,208,30679,2,0,L|276:208,1,47.5,0|0,0:0|0:0,0:0:0:0:
176,148,30988,2,0,L|236:148,1,47.5,0|0,0:0|0:0,0:0:0:0:
336,100,31297,2,0,L|276:100,1,47.5,0|0,0:0|0:0,0:0:0:0:
176,148,31607,6,0,L|236:148,1,47.5,0|0,0:0|0:0,0:0:0:0:
336,208,31916,2,0,L|276:208,1,47.5,0|0,0:0|0:0,0:0:0:0:
176,256,32225,2,0,L|236:256,1,47.5,0|0,0:0|0:0,0:0:0:0:
223,256,32457,1,0,0:0:0:0:
223,256,32534,1,0,0:0:0:0:
108,96,32844,6,0,L|108:148,1,47.5,0|0,0:0|0:0,0:0:0:0:
108,240,33153,1,0,0:0:0:0:
108,240,33308,1,0,0:0:0:0:
308,116,33462,6,0,L|262:90,1,47.5,0|0,0:0|0:0,0:0:0:0:
183,44,33771,1,0,0:0:0:0:
183,44,33926,1,0,0:0:0:0:
196,284,34081,6,0,L|241:258,1,47.5,0|0,0:0|0:0,0:0:0:0:
392,292,34390,6,0,L|388:240,1,47.5,0|0,0:0|0:0,0:0:0:0:
372,68,34545,2,0,L|376:132,1,47.5,0|0,0:0|0:0,0:0:0:0:
404,308,34854,6,0,B|332:340|272:324|272:324|244:292|276:240,1,190,0|0,0:0|0:0,0:0:0:0:
312,144,35318,1,0,0:0:0:0:
396,228,35473,1,0,0:0:0:0:
184,192,35627,2,0,L|180:88,1,95,0|0,0:0|0:0,0:0:0:0:
268,320,35937,2,0,L|272:216,1,95,0|0,0:0|0:0,0:0:0:0:
164,320,36246,1,0,0:0:0:0:
416,256,36400,6,0,B|412:188|412:188|436:144|436:144|432:72,1,190,0|0,0:0|0:0,0:0:0:0:
296,176,36864,1,0,0:0:0:0:
276,20,37019,1,0,0:0:0:0:
416,72,37174,1,0,0:0:0:0:
264,36,37328,1,0,0:0:0:0:
184,260,37483,2,0,B|227:161|143:169|191:77,1,190,0|0,0:0|0:0,0:0:0:0:
380,304,38101,6,0,L|280:312,1,95,0|0,0:0|0:0,0:0:0:0:
456,192,38411,2,0,L|340:180,1,95,0|0,0:0|0:0,0:0:0:0:
192,128,38720,2,0,L|312:92,1,95,0|0,0:0|0:0,0:0:0:0:
384,72,39029,1,0,0:0:0:0:
260,296,39184,5,0,0:0:0:0:
260,296,39261,1,0,0:0:0:0:
260,296,39338,1,0,0:0:0:0:
176,192,39493,1,0,0:0:0:0:
328,164,39647,1,0,0:0:0:0:
140,312,39802,1,0,0:0:0:0:
108,104,39957,1,0,0:0:0:0:
344,344,40266,2,0,L|364:196,1,142.500005435944
382,61,40730,6,0,L|359:218,1,142.500005435944,0|0,0:0|0:0,0:0:0:0:
352,272,41194,2,0,L|368:172,1,71.2500027179719,0|0,0:0|0:0,0:0:0:0:
248,96,41504,2,0,L|248:168,1,71.2500027179719,0|0,0:0|0:0,0:0:0:0:
248,268,41813,1,0,0:0:0:0:
144,204,41967,1,0,0:0:0:0:
336,168,42122,1,0,0:0:0:0:
316,332,42277,1,0,0:0:0:0:
316,332,42354,1,0,0:0:0:0:
316,332,42431,1,0,0:0:0:0:
64,176,42741,6,0,B|168:144|112:196|220:180,1,142.500005435944,0|0,0:0|0:0,0:0:0:0:
339,176,43205,2,0,B|235:144|291:196|183:180,1,142.500005435944
196,114,43668,2,0,P|208:154|192:194,1,71.2500027179719,0|0,0:0|0:0,0:0:0:0:
124,340,43978,2,0,P|112:300|128:260,1,71.2500027179719,0|0,0:0|0:0,0:0:0:0:
201,182,44287,1,0,0:0:0:0:
276,316,44442,1,0,0:0:0:0:
368,160,44596,1,0,0:0:0:0:
304,100,44751,1,0,0:0:0:0:
368,172,44906,1,0,0:0:0:0:
116,244,45215,6,0,P|172:300|212:264,1,142.500005435944,0|0,0:0|0:0,0:0:0:0:
303,296,45679,2,0,P|247:240|207:276,1,142.500005435944,0|0,0:0|0:0,0:0:0:0:
384,292,46143,2,0,P|376:244|352:208,1,71.2500027179719,0|0,0:0|0:0,0:0:0:0:
292,144,46452,1,0,0:0:0:0:
244,244,46607,1,0,0:0:0:0:
416,148,46761,1,0,0:0:0:0:
416,148,46839,1,0,0:0:0:0:
416,148,46916,1,0,0:0:0:0:
428,252,47071,1,0,0:0:0:0:
492,104,47225,1,0,0:0:0:0:
188,88,47380,6,0,B|212:136|192:204|192:204|188:256|248:280|248:280|260:196,1,285,0|0,0:0|0:0,0:0:0:0:
364,84,48617,2,0,B|328:188|400:152|368:276,1,190
56,168,49699,6,0,L|172:148,1,104.500003189087,0|0,0:0|0:0,0:0:0:0:
368,276,50009,2,0,L|252:256,1,104.500003189087,0|0,0:0|0:0,0:0:0:0:
148,244,50318,1,0,0:0:0:0:
148,244,50395,1,0,0:0:0:0:
148,244,50473,5,0,0:0:0:0:
320,148,50627,2,0,L|424:140,1,104.500003189087,0|0,0:0|0:0,0:0:0:0:
180,56,50937,1,0,0:0:0:0:
256,208,51091,1,0,0:0:0:0:
304,44,51246,1,0,0:0:0:0:
132,192,51400,1,0,0:0:0:0:
224,316,51555,2,0,L|328:304,1,104.500003189087,0|0,0:0|0:0,0:0:0:0:
468,208,51864,2,0,L|364:196,1,104.500003189087,0|0,0:0|0:0,0:0:0:0:
184,52,52174,6,0,B|136:172|216:132|176:264,1,209.000006378174,0|0,0:0|0:0,0:0:0:0:
360,96,52638,2,0,L|256:112,1,104.500003189087,0|0,0:0|0:0,0:0:0:0:
96,208,52947,1,0,0:0:0:0:
272,316,53101,1,0,0:0:0:0:
364,100,53256,1,0,0:0:0:0:
92,103,53411,1,0,0:0:0:0:
92,103,53488,1,0,0:0:0:0:
92,103,53565,6,0,L|96:231,1,104.500003189087
248,317,53875,2,0,L|252:189,1,104.500003189087
364,100,54184,1,0,0:0:0:0:
396,292,54339,1,0,0:0:0:0:
188,192,54493,1,0,0:0:0:0:
444,192,54648,2,0,L|428:300,1,104.500003189087,0|0,0:0|0:0,0:0:0:0:
328,112,54957,2,0,L|344:4,1,104.500003189087,0|0,0:0|0:0,0:0:0:0:
300,268,55266,1,0,0:0:0:0:
300,268,55344,1,0,0:0:0:0:
300,268,55421,5,0,0:0:0:0:
184,140,55576,1,0,0:0:0:0:
364,176,55730,1,0,0:0:0:0:
192,284,55885,2,0,L|180:176,1,104.500003189087,0|0,0:0|0:0,0:0:0:0:
368,180,56194,2,0,L|356:283,1,104.500003189087,0|0,0:0|0:0,0:0:0:0:
84,112,56504,2,0,L|192:92,1,104.500003189087,0|0,0:0|0:0,0:0:0:0:
428,112,56813,2,0,L|320:92,1,104.500003189087,0|0,0:0|0:0,0:0:0:0:
256,344,57122,6,0,B|296:224|216:260|256:132,1,209.000006378174
180,292,57586,2,0,L|76:308,1,104.500003189087,0|0,0:0|0:0,0:0:0:0:
328,192,57895,1,0,0:0:0:0:
160,92,58050,1,0,0:0:0:0:
160,92,58127,1,0,0:0:0:0:
160,92,58205,1,0,0:0:0:0:
156,224,58359,1,0,0:0:0:0:
344,80,58514,5,0,0:0:0:0:
76,152,58668,1,0,0:0:0:0:
392,176,58823,5,0,0:0:0:0:
156,224,58978,1,0,0:0:0:0:
428,288,59132,5,0,0:0:0:0:
184,304,59287,1,0,0:0:0:0:
356,352,59442,1,0,0:0:0:0:
392,176,59596,6,0,B|316:168|316:168|268:200|268:200|192:192,1,209.000006378174,0|0,0:0|0:0,0:0:0:0:
112,40,60060,2,0,L|68:140,1,104.500003189087,0|0,0:0|0:0,0:0:0:0:
151,287,60370,2,0,L|195:187,1,104.500003189087,0|0,0:0|0:0,0:0:0:0:
52,280,60679,1,0,0:0:0:0:
272,264,60833,2,0,L|316:164,1,104.500003189087,0|0,0:0|0:0,0:0:0:0:
192,40,61143,2,0,L|224:144,1,104.500003189087
272,264,61452,1,0,0:0:0:0:
272,264,61529,1,0,0:0:0:0:
272,264,61607,1,0,0:0:0:0:
336,112,61761,1,0,0:0:0:0:
140,196,61916,1,0,0:0:0:0:
348,348,62071,6,0,L|376:136,1,209.000006378174,0|0,0:0|0:0,0:0:0:0:
192,40,62534,2,0,L|216:168,1,104.500003189087,0|0,0:0|0:0,0:0:0:0:
248,264,62844,1,0,0:0:0:0:
108,168,62998,1,0,0:0:0:0:
336,112,63153,1,0,0:0:0:0:
396,308,63308,2,0,B|276:292|328:364|196:340,1,209.000006378174,0|0,0:0|0:0,0:0:0:0:
176,96,63772,6,0,P|200:152|196:208,1,104.500003189087,0|0,0:0|0:0,0:0:0:0:
199,194,64004,1,0,0:0:0:0:
199,194,64081,1,0,0:0:0:0:
108,168,64235,1,0,0:0:0:0:
300,156,64390,1,0,0:0:0:0:
396,300,64545,6,0,L|416:188,1,104.500003189087,0|0,0:0|0:0,0:0:0:0:
432,104,64854,1,0,0:0:0:0:
300,156,65009,1,0,0:0:0:0:
414,197,65163,1,0,0:0:0:0:
196,84,65318,6,0,L|204:192,1,104.500003189087,0|0,0:0|0:0,0:0:0:0:
212,296,65627,1,0,0:0:0:0:
84,148,65782,2,0,L|76:256,1,104.500003189087,0|0,0:0|0:0,0:0:0:0:
68,360,66091,1,0,0:0:0:0:
320,104,66246,6,0,L|328:212,1,104.500003189087,0|0,0:0|0:0,0:0:0:0:
336,316,66555,1,0,0:0:0:0:
336,316,66632,1,0,0:0:0:0:
336,316,66710,1,0,0:0:0:0:
440,220,66864,1,0,0:0:0:0:
212,144,67019,2,0,B|76:120|160:200|8:168,1,209.000006378174,0|0,0:0|0:0,0:0:0:0:
60,96,67483,5,0,0:0:0:0:
172,220,67638,2,0,P|188:280|168:340,1,104.500003189087,0|0,0:0|0:0,0:0:0:0:
204,43,67947,2,0,P|196:94|212:144,1,104.500003189087,0|0,0:0|0:0,0:0:0:0:
268,240,68256,1,0,0:0:0:0:
268,240,68333,1,0,0:0:0:0:
268,240,68411,5,0,0:0:0:0:
408,164,68565,1,0,0:0:0:0:
300,128,68720,1,0,0:0:0:0:
380,336,68875,1,0,0:0:0:0:
444,240,69029,1,0,0:0:0:0:
148,156,69184,1,0,0:0:0:0:
204,284,69339,1,0,0:0:0:0:
408,164,69493,1,0,0:0:0:0:
277,33,69648,6,0,B|237:105|273:173|273:173|301:125,1,199.499993911743,0|0,0:0|0:0,0:0:0:0:
176,144,70266,2,0,B|224:268|140:220|196:344,1,199.499993911743,0|0,0:0|0:0,0:0:0:0:
116,208,70885,2,0,P|96:272|116:348,1,142.499995651245,0|0,0:0|0:0,0:0:0:0:
256,276,71349,2,0,P|276:212|256:136,1,142.499995651245,0|0,0:0|0:0,0:0:0:0:
68,88,71813,6,0,L|184:80,1,106.875004076958,0|0,0:0|0:0,0:0:0:0:
428,56,72122,6,0,B|432:128|432:128|460:164|460:164|464:236,1,190,0|0,0:0|0:0,0:0:0:0:
296,352,72586,2,0,L|288:256,1,95,0|0,0:0|0:0,0:0:0:0:
128,232,72895,2,0,L|135:137,1,95
428,56,73205,6,0,B|312:28|368:108|224:68,1,190,0|0,0:0|0:0,0:0:0:0:
136,168,73668,1,0,0:0:0:0:
260,288,73823,1,0,0:0:0:0:
356,148,73978,1,0,0:0:0:0:
140,252,74132,1,0,0:0:0:0:
216,360,74287,1,0,0:0:0:0:
280,172,74442,1,0,0:0:0:0:
64,144,74596,6,0,L|48:352,1,190,0|0,0:0|0:0,0:0:0:0:
400,300,75060,2,0,L|376:192,1,95,0|0,0:0|0:0,0:0:0:0:
200,72,75370,2,0,L|179:164,1,95,0|0,0:0|0:0,0:0:0:0:
384,312,75679,6,0,B|316:304|316:304|264:324|264:324|180:316,1,190,0|0,0:0|0:0,0:0:0:0:
198,317,76065,1,0,0:0:0:0:
198,317,76143,1,0,0:0:0:0:
128,192,76297,1,0,0:0:0:0:
128,192,76452,1,0,0:0:0:0:
244,92,76607,1,0,0:0:0:0:
260,260,76761,1,0,0:0:0:0:
56,140,76916,1,0,0:0:0:0:
408,104,77071,6,0,B|368:208|452:184|404:304,1,190,0|0,0:0|0:0,0:0:0:0:
144,348,77534,2,0,P|132:296|144:248,1,95,0|0,0:0|0:0,0:0:0:0:
316,48,77844,2,0,P|328:100|316:148,1,95,0|0,0:0|0:0,0:0:0:0:
32,256,78153,6,0,L|248:248,1,190,0|0,0:0|0:0,0:0:0:0:
368,224,78617,1,0,0:0:0:0:
168,80,78772,1,0,0:0:0:0:
192,208,78926,1,0,0:0:0:0:
328,76,79081,1,0,0:0:0:0:
100,20,79235,1,0,0:0:0:0:
124,240,79390,1,0,0:0:0:0:
388,336,79545,6,0,B|392:264|392:264|364:224|364:224|368:144,1,190,0|0,0:0|0:0,0:0:0:0:
168,80,80009,2,0,L|176:184,1,95,0|0,0:0|0:0,0:0:0:0:
24,352,80318,2,0,L|31:257,1,95,0|0,0:0|0:0,0:0:0:0:
48,120,80627,1,0,0:0:0:0:
48,120,80705,1,0,0:0:0:0:
48,120,80782,5,0,0:0:0:0:
252,336,80937,1,0,0:0:0:0:
192,136,81091,1,0,0:0:0:0:
108,344,81246,1,0,0:0:0:0:
400,172,81400,1,0,0:0:0:0:
192,136,81555,5,0,0:0:0:0:
352,332,81710,1,0,0:0:0:0:
468,48,81864,1,0,0:0:0:0:
236,56,82019,5,0,0:0:0:0:
236,56,86349,6,0,L|282:63,1,47.5,0|0,0:0|0:0,0:0:0:0:
457,93,86504,2,0,L|411:86,1,47.5,0|0,0:0|0:0,0:0:0:0:
228,64,86813,6,0,B|222:132|222:132|246:175|246:175|241:249,1,190
120,345,87277,1,0,0:0:0:0:
48,192,87431,2,0,L|162:183,1,95,0|0,0:0|0:0,0:0:0:0:
357,268,87741,2,0,L|243:259,1,95,0|0,0:0|0:0,0:0:0:0:
421,351,88050,1,0,0:0:0:0:
421,351,88127,1,0,0:0:0:0:
421,351,88205,5,0,0:0:0:0:
333,164,88359,2,0,L|238:156,1,95,0|0,0:0|0:0,0:0:0:0:
36,284,88668,2,0,L|130:276,1,95,0|0,0:0|0:0,0:0:0:0:
275,266,88978,1,0,0:0:0:0:
138,368,89132,1,0,0:0:0:0:
54,136,89287,6,0,B|176:107|120:186|274:149,1,190,0|0,0:0|0:0,0:0:0:0:
417,69,89751,2,0,P|369:62|303:69,1,95,0|0,0:0|0:0,0:0:0:0:
205,85,90060,1,0,0:0:0:0:
434,288,90215,1,0,0:0:0:0:
463,150,90370,1,0,0:0:0:0:
267,267,90524,1,0,0:0:0:0:
267,267,90601,1,0,0:0:0:0:
267,267,90679,1,0,0:0:0:0:
424,283,90833,5,0,0:0:0:0:
318,70,90988,1,0,0:0:0:0:
305,334,91143,5,0,0:0:0:0:
256,108,91297,1,0,0:0:0:0:
186,342,91452,5,0,0:0:0:0:
178,89,91607,1,0,0:0:0:0:
66,340,91761,5,0,0:0:0:0:
104,116,91916,1,0,0:0:0:0:
95,66,96091,5,0,0:0:0:0:
95,66,96168,1,0,0:0:0:0:
95,66,96246,2,0,L|142:63,1,47.5,0|0,0:0|0:0,0:0:0:0:
324,170,96400,6,0,L|277:167,1,47.5,0|0,0:0|0:0,0:0:0:0:
423,122,96710,6,0,B|466:244|387:204|423:312,1,190,0|0,0:0|0:0,0:0:0:0:
276,378,97174,1,0,0:0:0:0:
182,171,97328,2,0,P|237:162|287:169,1,95,0|0,0:0|0:0,0:0:0:0:
512,116,97638,2,0,P|457:125|407:118,1,95,0|0,0:0|0:0,0:0:0:0:
285,88,97947,1,0,0:0:0:0:
285,88,98024,1,0,0:0:0:0:
285,88,98101,1,0,0:0:0:0:
72,328,98256,6,0,L|56:220,1,95,0|0,0:0|0:0,0:0:0:0:
216,36,98565,2,0,L|202:129,1,95,0|0,0:0|0:0,0:0:0:0:
176,248,98875,1,0,0:0:0:0:
104,140,99029,1,0,0:0:0:0:
380,68,99184,6,0,B|336:184|424:144|372:276,1,190,0|0,0:0|0:0,0:0:0:0:
240,340,99648,1,0,0:0:0:0:
92,108,99802,2,0,L|212:96,1,95,0|0,0:0|0:0,0:0:0:0:
380,251,100112,2,0,L|260:239,1,95,0|0,0:0|0:0,0:0:0:0:
168,224,100421,1,0,0:0:0:0:
416,160,100576,1,0,0:0:0:0:
416,160,100653,1,0,0:0:0:0:
416,160,100730,1,0,0:0:0:0:
200,356,100885,2,0,L|176:240,1,95,0|0,0:0|0:0,0:0:0:0:
152,84,101194,5,0,0:0:0:0:
380,251,101349,1,0,0:0:0:0:
84,232,101504,1,0,0:0:0:0:
308,80,101658,1,0,0:0:0:0:
228,348,101813,1,0,0:0:0:0:
168,40,102122,6,0,L|148:188,1,142.500005435944,0|0,0:0|0:0,0:0:0:0:
130,323,102586,2,0,L|152:168,1,142.500005435944
160,108,103050,2,0,L|145:211,1,71.2500027179719
264,288,103360,2,0,L|264:216,1,71.2500027179719,0|0,0:0|0:0,0:0:0:0:
264,116,103669,1,0,0:0:0:0:
368,180,103823,1,0,0:0:0:0:
176,216,103978,1,0,0:0:0:0:
196,52,104133,1,0,0:0:0:0:
196,52,104210,1,0,0:0:0:0:
196,52,104287,1,0,0:0:0:0:
448,208,104597,6,0,B|344:240|400:188|292:204,1,142.500005435944,0|0,0:0|0:0,0:0:0:0:
173,208,105061,2,0,B|277:240|221:188|329:204,1,142.500005435944
316,270,105524,2,0,P|304:230|320:190,1,71.2500027179719,0|0,0:0|0:0,0:0:0:0:
388,44,105834,2,0,P|400:84|384:124,1,71.2500027179719,0|0,0:0|0:0,0:0:0:0:
311,202,106143,1,0,0:0:0:0:
236,68,106298,1,0,0:0:0:0:
144,224,106452,1,0,0:0:0:0:
208,284,106607,1,0,0:0:0:0:
152,228,106762,1,0,0:0:0:0:
396,140,107071,6,0,P|340:84|300:120,1,142.500005435944,0|0,0:0|0:0,0:0:0:0:
209,88,107535,2,0,P|265:144|305:108,1,142.500005435944
128,92,107999,2,0,P|136:140|160:176,1,71.2500027179719,0|0,0:0|0:0,0:0:0:0:
220,240,108308,1,0,0:0:0:0:
268,140,108463,1,0,0:0:0:0:
96,236,108617,1,0,0:0:0:0:
96,236,108695,1,0,0:0:0:0:
96,236,108772,1,0,0:0:0:0:
84,132,108927,1,0,0:0:0:0:
20,280,109081,1,0,0:0:0:0:
224,260,109235,6,0,B|280:224|340:256|340:256|364:312|436:308,1,237.5,0|0,0:0|0:0,0:0:0:0:
180,172,110318,2,0,P|124:264|200:356,1,237.5,0|0,0:0|0:0,0:0:0:0:
404,344,111555,6,0,B|456:208|368:260|408:136,1,209.000006378174,0|0,0:0|0:0,0:0:0:0:
264,40,112019,1,0,0:0:0:0:
140,192,112174,1,0,0:0:0:0:
140,192,112251,1,0,0:0:0:0:
140,192,112328,1,0,0:0:0:0:
224,296,112483,2,0,L|340:284,1,104.500003189087,0|0,0:0|0:0,0:0:0:0:
405,142,112792,2,0,L|289:130,1,104.500003189087,0|0,0:0|0:0,0:0:0:0:
160,112,113101,1,0,0:0:0:0:
160,112,113179,1,0,0:0:0:0:
160,112,113256,5,0,0:0:0:0:
224,296,113411,1,0,0:0:0:0:
405,142,113565,1,0,0:0:0:0:
232,112,113720,1,0,0:0:0:0:
232,112,113797,1,0,0:0:0:0:
232,112,113875,1,0,0:0:0:0:
68,288,114029,6,0,B|196:352|160:248|308:320,1,209.000006378174,0|0,0:0|0:0,0:0:0:0:
428,348,114493,2,0,L|472:228,1,104.500003189087,0|0,0:0|0:0,0:0:0:0:
376,52,114802,1,0,0:0:0:0:
208,192,114957,1,0,0:0:0:0:
392,212,115112,1,0,0:0:0:0:
100,64,115266,6,0,B|88:144|88:144|112:192|112:192|104:268,1,209.000006378174,0|0,0:0|0:0,0:0:0:0:
104,266,115653,1,0,0:0:0:0:
104,266,115730,1,0,0:0:0:0:
328,308,115885,1,0,0:0:0:0:
416,136,116040,2,0,L|304:120,1,104.500003189087,0|0,0:0|0:0,0:0:0:0:
152,100,116349,1,0,0:0:0:0:
84,320,116504,6,0,L|200:308,1,104.500003189087,0|0,0:0|0:0,0:0:0:0:
416,136,116813,2,0,L|304:120,1,104.500003189087,0|0,0:0|0:0,0:0:0:0:
152,100,117122,1,0,0:0:0:0:
152,100,117199,1,0,0:0:0:0:
152,100,117277,1,0,0:0:0:0:
332,332,117431,2,0,L|344:224,1,104.500003189087,0|0,0:0|0:0,0:0:0:0:
252,108,117741,1,0,0:0:0:0:
120,236,117895,1,0,0:0:0:0:
120,236,118050,5,0,0:0:0:0:
256,328,118205,1,0,0:0:0:0:
252,108,118360,1,0,0:0:0:0:
64,156,118514,1,0,0:0:0:0:
356,240,118668,1,0,0:0:0:0:
356,240,118746,1,0,0:0:0:0:
356,240,118823,1,0,0:0:0:0:
133,27,118978,6,0,L|117:267,1,209.000006378174,0|0,0:0|0:0,0:0:0:0:
400,336,119442,2,0,L|392:224,1,104.500003189087,0|0,0:0|0:0,0:0:0:0:
356,56,119751,1,0,0:0:0:0:
176,180,119906,1,0,0:0:0:0:
400,336,120060,1,0,0:0:0:0:
448,176,120215,1,0,0:0:0:0:
448,176,120292,1,0,0:0:0:0:
448,176,120370,1,0,0:0:0:0:
188,348,120524,5,0,0:0:0:0:
192,40,120679,1,0,0:0:0:0:
408,280,120833,1,0,0:0:0:0:
64,196,120988,2,0,L|132:176,1,52.2500015945435,0|0,0:0|0:0,0:0:0:0:
384,100,121143,1,0,0:0:0:0:
188,348,121297,1,0,0:0:0:0:
68,208,121452,6,0,B|204:180|132:260|288:220,1,209.000006378174,0|0,0:0|0:0,0:0:0:0:
440,104,121916,1,0,0:0:0:0:
176,32,122071,2,0,L|160:136,1,104.500003189087,0|0,0:0|0:0,0:0:0:0:
128,316,122380,1,0,0:0:0:0:
128,316,122457,1,0,0:0:0:0:
128,316,122534,1,0,0:0:0:0:
372,244,122689,1,0,0:0:0:0:
372,244,122844,5,0,0:0:0:0:
232,148,122998,1,0,0:0:0:0:
232,148,123076,1,0,0:0:0:0:
232,148,123153,1,0,0:0:0:0:
268,356,123308,1,0,0:0:0:0:
416,112,123463,1,0,0:0:0:0:
128,316,123617,1,0,0:0:0:0:
396,336,123772,1,0,0:0:0:0:
316,88,123926,6,0,B|236:80|236:80|192:104|192:104|104:100,1,209.000006378174,0|0,0:0|0:0,0:0:0:0:
128,316,124390,2,0,L|264:316,1,104.500003189087
464,252,124699,1,0,0:0:0:0:
260,156,124854,1,0,0:0:0:0:
300,368,125009,1,0,0:0:0:0:
428,172,125163,1,0,0:0:0:0:
428,172,125241,1,0,0:0:0:0:
428,172,125318,5,0,0:0:0:0:
180,48,125473,1,0,0:0:0:0:
224,324,125627,1,0,0:0:0:0:
356,44,125782,1,0,0:0:0:0:
96,204,125937,1,0,0:0:0:0:
380,248,126091,1,0,0:0:0:0:
180,48,126246,2,0,L|188:120,1,52.2500015945435,0|0,0:0|0:0,0:0:0:0:
216,324,126400,6,0,L|336:312,1,104.500003189087
480,156,126710,1,0,0:0:0:0:
260,156,126864,1,0,0:0:0:0:
380,248,127019,1,0,0:0:0:0:
448,48,127174,6,0,L|332:40,1,104.500003189087,0|0,0:0|0:0,0:0:0:0:
196,32,127483,1,0,0:0:0:0:
40,184,127638,2,0,L|168:180,1,104.500003189087,0|0,0:0|0:0,0:0:0:0:
224,324,127947,2,0,L|328:327,1,104.500003189087
512,304,128256,1,0,0:0:0:0:
336,344,128411,1,0,0:0:0:0:
408,144,128565,1,0,0:0:0:0:
408,144,128643,1,0,0:0:0:0:
408,144,128720,1,0,0:0:0:0:
228,112,128875,6,0,B|188:236|268:192|220:332,1,209.000006378174,0|0,0:0|0:0,0:0:0:0:
60,260,129339,1,0,0:0:0:0:
412,184,129493,2,0,L|276:164,1,104.500003189087,0|0,0:0|0:0,0:0:0:0:
60,80,129802,2,0,L|196:60,1,104.500003189087,0|0,0:0|0:0,0:0:0:0:
300,40,130112,1,0,0:0:0:0:
300,40,130189,1,0,0:0:0:0:
300,40,130266,5,0,0:0:0:0:
312,280,130421,1,0,0:0:0:0:
432,132,130576,1,0,0:0:0:0:
148,176,130730,1,0,0:0:0:0:
208,336,130885,1,0,0:0:0:0:
304,160,131040,1,0,0:0:0:0:
96,260,131194,1,0,0:0:0:0:
312,280,131349,1,0,0:0:0:0:
312,56,131504,6,0,P|256:60|196:160,1,166.25,0|0,0:0|0:0,0:0:0:0:
91,104,132122,6,0,P|183:129|213:221,1,199.499993911743
150,208,132741,6,0,P|190:224|226:216,1,66.4999979705811,0|0,0:0|0:0,0:0:0:0:
384,144,133050,1,0,0:0:0:0:
424,112,133127,1,0,0:0:0:0:
436,64,133205,1,0,0:0:0:0:
404,24,133282,1,0,0:0:0:0:
380,68,133359,1,0,0:0:0:0:
400,116,133437,1,0,0:0:0:0:
436,152,133514,5,0,0:0:0:0:
448,200,133591,1,0,0:0:0:0:
428,244,133668,1,0,0:0:0:0:
388,276,133746,1,0,0:0:0:0:
340,272,133823,1,0,0:0:0:0:
304,240,133900,1,0,0:0:0:0:
288,188,133978,6,0,P|248:168|180:172,1,95
84,352,134287,2,0,P|131:351|173:330,1,95,0|0,0:0|0:0,0:0:0:0:
288,188,134596,1,0,0:0:0:0:
96,212,134751,1,0,0:0:0:0:
236,264,134906,1,0,0:0:0:0:
204,68,135060,6,0,P|152:64|104:80,1,95,0|0,0:0|0:0,0:0:0:0:
288,188,135370,2,0,P|333:200|380:196,1,95
176,176,135679,1,0,0:0:0:0:
176,176,135756,1,0,0:0:0:0:
176,176,135833,1,0,0:0:0:0:
244,352,135988,1,0,0:0:0:0:
288,188,136143,1,0,0:0:0:0:
88,288,136297,6,0,P|144:292|196:276,1,95
404,200,136607,2,0,P|356:204|310:194,1,95
156,176,136916,1,0,0:0:0:0:
156,176,137071,2,0,B|148:128|148:128|156:80,1,95
326,216,137380,2,0,B|334:264|334:264|326:312,1,95
288,112,137689,6,0,B|356:116|356:116|392:148|392:148|476:152,1,190
336,308,138153,1,0,0:0:0:0:
336,308,138230,1,0,0:0:0:0:
336,308,138308,2,0,P|320:256|328:212,1,95,0|0,0:0|0:0,0:0:0:0:
188,100,138617,2,0,P|204:152|196:196,1,95,0|0,0:0|0:0,0:0:0:0:
68,308,138926,6,0,B|196:284|124:360|280:328,1,190,0|0,0:0|0:0,0:0:0:0:
408,252,139390,1,0,0:0:0:0:
232,152,139545,2,0,P|216:204|228:248,1,95,0|0,0:0|0:0,0:0:0:0:
68,308,139854,2,0,P|84:256|72:212,1,95,0|0,0:0|0:0,0:0:0:0:
66,104,140163,6,0,B|112:80|162:100|162:100|178:144|234:152,2,190,0|0|0,0:0|0:0|0:0,0:0:0:0:
104,224,140937,1,0,0:0:0:0:
248,72,141091,2,0,P|296:64|352:76,1,95,0|0,0:0|0:0,0:0:0:0:
456,224,141400,2,0,P|408:232|352:220,1,95,0|0,0:0|0:0,0:0:0:0:
230,151,141710,1,0,0:0:0:0:
440,263,141864,2,0,P|391:262|338:241,1,95,0|0,0:0|0:0,0:0:0:0:
230,151,142174,1,0,0:0:0:0:
330,266,142328,2,0,P|371:289|418:298,1,95,0|0,0:0|0:0,0:0:0:0:
476,104,142638,2,0,P|429:112|388:135,1,95,0|0,0:0|0:0,0:0:0:0:
332,268,142947,5,0,0:0:0:0:
304,304,143024,1,0,0:0:0:0:
264,328,143101,1,0,0:0:0:0:
216,320,143179,1,0,0:0:0:0:
184,284,143256,1,0,0:0:0:0:
180,236,143333,1,0,0:0:0:0:
212,188,143411,1,0,0:0:0:0:
228,132,143488,1,0,0:0:0:0:
212,76,143565,1,0,0:0:0:0:
200,20,143643,5,0,0:0:0:0:
256,36,143720,1,0,0:0:0:0:
312,36,143797,1,0,0:0:0:0:
368,24,143875,2,0,P|392:68|388:124,1,95
260,216,144184,2,0,P|260:168|283:128,1,95,0|0,0:0|0:0,0:0:0:0:
368,292,144493,1,0,0:0:0:0:
244,336,144648,2,0,P|192:340|136:320,1,95,0|0,0:0|0:0,0:0:0:0:
72,252,144957,1,0,0:0:0:0:
72,252,145034,1,0,0:0:0:0:
72,252,145112,6,0,B|120:132|36:184|80:56,2,190,0|0|0,0:0|0:0|0:0,0:0:0:0:
248,120,145885,2,0,P|192:108|144:120,1,95,0|0,0:0|0:0,0:0:0:0:
240,268,146194,2,0,P|296:280|344:268,1,95,0|0,0:0|0:0,0:0:0:0:
480,188,146504,1,0,0:0:0:0:
436,332,146658,1,0,0:0:0:0:
340,125,146813,2,0,P|284:113|232:125,1,95,0|0,0:0|0:0,0:0:0:0:
147,262,147122,2,0,P|203:274|255:262,1,95,0|0,0:0|0:0,0:0:0:0:
60,116,147431,1,0,0:0:0:0:
60,116,147509,1,0,0:0:0:0:
60,116,147586,6,0,L|44:348,1,190,0|0,0:0|0:0,0:0:0:0:
176,384,148050,1,0,0:0:0:0:
356,304,148205,2,0,P|304:292|236:296,1,95
456,180,148514,2,0,P|404:180|361:170,1,95
180,48,148823,6,0,B|156:96|164:152,1,95
176,272,149132,1,0,0:0:0:0:
346,77,149287,2,0,B|368:120|362:181,1,95
350,301,149596,1,0,0:0:0:0:
456,180,149751,1,0,0:0:0:0:
260,208,149906,2,0,P|252:264|268:320,1,95
456,180,150215,2,0,P|464:124|448:68,1,95
260,108,150524,2,0,P|252:164|268:220,2,95
408,320,150988,6,0,B|424:288|404:240|404:240|392:276,1,106.875004076958
400,336,151297,2,0,B|276:316|344:376|208:360,1,190,0|0,0:0|0:0,0:0:0:0:
72,268,151761,1,0,0:0:0:0:
220,140,151916,2,0,P|288:200|248:284,1,190,0|0,0:0|0:0,0:0:0:0:
256,68,152380,2,0,P|308:92|340:132,1,95,0|0,0:0|0:0,0:0:0:0:
476,144,152689,2,0,P|424:168|392:208,1,95,0|0,0:0|0:0,0:0:0:0:
399,195,152921,1,0,0:0:0:0:
399,195,152998,1,0,0:0:0:0:
254,280,153153,5,0,0:0:0:0:
256,68,153308,1,0,0:0:0:0:
408,204,153462,1,0,0:0:0:0:
140,160,153772,5,0,0:0:0:0:
140,160,153926,2,0,L|120:280,2,95,0|0|0,0:0|0:0|0:0,0:0:0:0:
269,373,154390,2,0,L|253:279,2,95,0|0|0,0:0|0:0|0:0,0:0:0:0:
460,184,154854,1,0,0:0:0:0:
260,192,155009,1,0,0:0:0:0:
368,264,155163,5,0,0:0:0:0:
156,124,155318,1,0,0:0:0:0:
144,320,155473,1,0,0:0:0:0:
208,256,155627,1,0,0:0:0:0:
260,192,155782,1,0,0:0:0:0:
64,148,155937,6,0,P|72:196|60:252,1,106.875004076958,0|0,0:0|0:0,0:0:0:0:
52,276,156246,1,0,0:0:0:0:
144,320,156400,2,0,B|240:308|192:360|308:336,1,142.500005435944,0|0,0:0|0:0,0:0:0:0:
296,196,156864,2,0,P|240:220|292:260,1,142.500005435944,0|0,0:0|0:0,0:0:0:0:
416,252,157328,6,0,L|432:80,1,142.500005435944,0|0,0:0|0:0,0:0:0:0:
296,72,157792,2,0,P|236:60|172:72,1,106.875004076958,0|0,0:0|0:0,0:0:0:0:
170,79,158101,1,0,0:0:0:0:
282,262,158256,2,0,L|292:144,1,106.875004076958,0|0,0:0|0:0,0:0:0:0:
212,152,158565,2,0,P|256:144|288:152,1,71.2500027179719
280,260,158875,5,0,0:0:0:0:
408,156,159029,1,0,0:0:0:0:
396,272,159184,5,0,0:0:0:0:
292,144,159339,1,0,0:0:0:0:
252,296,159493,1,0,0:0:0:0:
276,147,159648,1,0,0:0:0:0:
240,303,159802,1,0,0:0:0:0:
108,168,159957,5,0,0:0:0:0:
136,212,160060,5,0,0:0:0:0:
132,264,160163,5,0,0:0:0:0:
96,300,160266,6,0,L|224:308,2,95,0|0|0,0:0|0:0|0:0,0:0:0:0:
384,208,160730,2,0,L|256:216,2,95,0|0|0,0:0|0:0|0:0,0:0:0:0:
248,100,161194,5,0,0:0:0:0:
176,192,161349,1,0,0:0:0:0:
289,213,161504,1,0,0:0:0:0:
151,98,161658,5,0,0:0:0:0:
126,270,161813,1,0,0:0:0:0:
289,213,161968,1,0,0:0:0:0:
151,98,162122,5,0,0:0:0:0:
244,331,162277,1,0,0:0:0:0:
407,142,162432,1,0,0:0:0:0:
126,270,162586,1,0,0:0:0:0:
504,208,162741,5,0,0:0:0:0:
452,197,162818,1,0,0:0:0:0:
400,196,162895,1,0,0:0:0:0:
351,212,162973,1,0,0:0:0:0:
302,231,163050,1,0,0:0:0:0:
250,232,163127,1,0,0:0:0:0:
204,220,163205,2,0,P|176:212|152:188,1,47.5,0|0,0:0|0:0,0:0:0:0:
48,144,163359,2,0,P|65:160|75:181,1,47.5
88,336,163514,5,0,0:0:0:0:
88,336,163591,1,0,0:0:0:0:
88,336,163668,2,0,B|200:304|156:384|284:340,2,190,0|0|0,0:0|0:0|0:0,0:0:0:0:
244,228,164442,1,0,0:0:0:0:
372,280,164596,2,0,P|384:332|368:380,1,95,0|0,0:0|0:0,0:0:0:0:
242,136,164906,6,0,P|231:181|243:227,1,95,0|0,0:0|0:0,0:0:0:0:
501,119,165215,1,0,0:0:0:0:
284,48,165370,1,0,0:0:0:0:
424,228,165524,1,0,0:0:0:0:
432,23,165679,1,0,0:0:0:0:
252,232,165833,1,0,0:0:0:0:
58,140,165988,1,0,0:0:0:0:
58,140,166143,6,0,B|170:180|138:88|274:148,2,190,0|0|0,0:0|0:0|0:0,0:0:0:0:
108,52,166916,1,0,0:0:0:0:
196,220,167071,2,0,P|204:276|196:312,1,95,0|0,0:0|0:0,0:0:0:0:
352,124,167380,2,0,P|344:180|352:216,1,95,0|0,0:0|0:0,0:0:0:0:
408,348,167689,1,0,0:0:0:0:
456,256,167844,1,0,0:0:0:0:
456,256,167921,1,0,0:0:0:0:
456,256,167998,5,0,0:0:0:0:
277,281,168153,1,0,0:0:0:0:
416,352,168308,1,0,0:0:0:0:
268,300,168462,1,0,0:0:0:0:
400,66,168617,6,0,P|334:125|373:234,1,190,0|0,0:0|0:0,0:0:0:0:
318,62,169081,2,0,P|290:146|378:221,1,190,0|0,0:0|0:0,0:0:0:0:
464,236,169545,1,0,0:0:0:0:
464,236,169699,1,0,0:0:0:0:
392,308,169854,6,0,B|268:276|328:348|196:316,1,190,0|0,0:0|0:0,0:0:0:0:
24,308,170318,2,0,B|148:276|88:348|220:316,1,190,0|0,0:0|0:0,0:0:0:0:
216,216,170782,1,0,0:0:0:0:
216,216,170937,1,0,0:0:0:0:
320,32,171091,6,0,B|292:80|296:124|296:124|332:160|332:212,1,190,0|0,0:0|0:0,0:0:0:0:
344,384,171555,2,0,B|372:336|368:292|368:292|332:256|332:204,1,190,0|0,0:0|0:0,0:0:0:0:
423,188,172019,2,0,P|367:208|311:204,1,95,0|0,0:0|0:0,0:0:0:0:
108,100,172328,6,0,P|100:204|172:228,1,190
225,357,172792,2,0,P|233:253|161:229,1,190,0|0,0:0|0:0,0:0:0:0:
112,312,173256,1,0,0:0:0:0:
224,132,173411,5,0,0:0:0:0:
224,132,173488,1,0,0:0:0:0:
224,132,173565,1,0,0:0:0:0:
380,192,173720,1,0,0:0:0:0:
240,264,173875,1,0,0:0:0:0:
396,208,174029,1,0,0:0:0:0:
372,348,174184,5,0,0:0:0:0:
332,100,174339,1,0,0:0:0:0:
476,280,174493,1,0,0:0:0:0:
320,116,174648,1,0,0:0:0:0:
320,116,174725,1,0,0:0:0:0:
320,116,174802,2,0,B|312:168|312:168|320:220,1,95,0|0,0:0|0:0,0:0:0:0:
384,328,175112,5,0,0:0:0:0:
164,92,175266,1,0,0:0:0:0:
431,173,175421,5,0,0:0:0:0:
116,246,175575,1,0,0:0:0:0:
321,55,175730,5,0,0:0:0:0:
226,364,175884,1,0,0:0:0:0:
128,80,177895,6,0,L|192:88,1,47.5,0|0,0:0|0:0,0:0:0:0:
400,116,178050,2,0,L|336:108,1,47.5,0|0,0:0|0:0,0:0:0:0:
116,88,178359,6,0,B|120:232|120:232|172:284,1,209.000006378174,0|0,0:0|0:0,0:0:0:0:
312,356,178823,1,0,0:0:0:0:
456,200,178978,1,0,0:0:0:0:
456,200,179055,1,0,0:0:0:0:
456,200,179132,6,0,L|336:184,1,104.500003189087
165,277,179442,2,0,L|285:261,1,104.500003189087,0|0,0:0|0:0,0:0:0:0:
204,56,179751,1,0,0:0:0:0:
276,264,179906,1,0,0:0:0:0:
400,80,180060,1,0,0:0:0:0:
216,176,180215,1,0,0:0:0:0:
216,176,180292,1,0,0:0:0:0:
216,176,180370,6,0,L|88:164,1,104.500003189087,0|0,0:0|0:0,0:0:0:0:
316,84,180679,1,0,0:0:0:0:
332,328,180833,2,0,L|460:316,1,104.500003189087,0|0,0:0|0:0,0:0:0:0:
168,268,181143,1,0,0:0:0:0:
168,268,181220,1,0,0:0:0:0:
168,268,181297,1,0,0:0:0:0:
336,332,181452,1,0,0:0:0:0:
472,160,181607,2,0,L|352:148,1,104.500003189087,0|0,0:0|0:0,0:0:0:0:
200,56,181916,5,0,0:0:0:0:
312,228,182071,1,0,0:0:0:0:
368,52,182225,1,0,0:0:0:0:
368,52,182302,1,0,0:0:0:0:
368,52,182380,1,0,0:0:0:0:
164,220,182534,1,0,0:0:0:0:
164,220,182689,5,0,0:0:0:0:
464,236,182844,1,0,0:0:0:0:
200,56,182998,1,0,0:0:0:0:
64,292,183153,1,0,0:0:0:0:
64,292,183308,6,0,B|204:272|132:352|276:320,1,209.000006378174,0|0,0:0|0:0,0:0:0:0:
416,208,183772,1,0,0:0:0:0:
236,108,183926,1,0,0:0:0:0:
236,108,184004,1,0,0:0:0:0:
236,108,184081,1,0,0:0:0:0:
380,320,184235,1,0,0:0:0:0:
380,320,184390,1,0,0:0:0:0:
456,76,184545,1,0,0:0:0:0:
112,192,184699,5,0,0:0:0:0:
380,320,184854,1,0,0:0:0:0:
184,67,185009,5,0,0:0:0:0:
207,363,185164,1,0,0:0:0:0:
357,24,185318,6,0,L|312:56,1,52.2500015945435,0|0,0:0|0:0,0:0:0:0:
112,192,185473,1,0,0:0:0:0:
172,172,185550,1,0,0:0:0:0:
232,180,185627,1,0,0:0:0:0:
280,220,185705,1,0,0:0:0:0:
348,236,185782,6,0,B|368:176|368:176|360:124,1,113.999996520996,0|0,0:0|0:0,0:0:0:0:
184,67,186091,1,0,0:0:0:0:
207,363,186246,1,0,0:0:0:0:
464,204,186400,1,0,0:0:0:0:
464,204,186478,1,0,0:0:0:0:
464,204,186555,1,0,0:0:0:0:
92,208,186710,2,0,L|204:184,1,113.999996520996,0|0,0:0|0:0,0:0:0:0:
448,332,187019,2,0,L|336:308,1,113.999996520996,0|0,0:0|0:0,0:0:0:0:
400,76,187328,5,0,0:0:0:0:
400,76,187406,1,0,0:0:0:0:
400,76,187483,1,0,0:0:0:0:
336,300,187638,1,0,0:0:0:0:
336,300,187792,1,0,0:0:0:0:
204,61,187947,1,0,0:0:0:0:
383,201,188101,1,0,0:0:0:0:
104,322,188256,2,0,B|92:234|92:234|116:174|116:174|108:94,1,227.999993041992
336,300,188720,6,0,L|216:284,1,113.999996520996,0|0,0:0|0:0,0:0:0:0:
476,136,189029,1,0,0:0:0:0:
400,368,189184,1,0,0:0:0:0:
240,188,189339,1,0,0:0:0:0:
240,188,189416,1,0,0:0:0:0:
240,188,189493,1,0,0:0:0:0:
472,232,189648,5,0,0:0:0:0:
112,304,189802,1,0,0:0:0:0:
335,22,189957,5,0,0:0:0:0:
217,370,190111,1,0,0:0:0:0:
148,32,190266,5,0,0:0:0:0:
423,272,190420,1,0,0:0:0:0:
217,370,190576,1,0,0:0:0:0:
112,304,190730,2,0,L|128:180,1,113.999996520996,0|0,0:0|0:0,0:0:0:0:
148,32,191040,1,0,0:0:0:0:
404,340,191194,2,0,L|388:216,1,113.999996520996,0|0,0:0|0:0,0:0:0:0:
368,68,191504,1,0,0:0:0:0:
272,232,191658,1,0,0:0:0:0:
488,152,191813,1,0,0:0:0:0:
116,92,191967,6,0,L|128:224,1,113.999996520996,0|0,0:0|0:0,0:0:0:0:
140,352,192277,1,0,0:0:0:0:
368,68,192431,2,0,L|356:200,1,113.999996520996,0|0,0:0|0:0,0:0:0:0:
344,328,192741,1,0,0:0:0:0:
240,144,192895,1,0,0:0:0:0:
240,144,192973,1,0,0:0:0:0:
240,144,193050,1,0,0:0:0:0:
432,244,193205,1,0,0:0:0:0:
280,380,193359,1,0,0:0:0:0:
280,380,193514,5,0,0:0:0:0:
392,136,193668,1,0,0:0:0:0:
476,348,193823,2,0,L|356:340,1,113.999996520996
40,252,194132,2,0,L|160:244,1,113.999996520996,0|0,0:0|0:0,0:0:0:0:
376,220,194442,1,0,0:0:0:0:
376,220,194519,1,0,0:0:0:0:
376,220,194596,1,0,0:0:0:0:
176,64,194751,5,0,0:0:0:0:
340,324,194906,1,0,0:0:0:0:
329,57,195060,5,0,0:0:0:0:
186,330,195215,1,0,0:0:0:0:
411,187,195370,5,0,0:0:0:0:
104,200,195525,1,0,0:0:0:0:
340,324,195679,1,0,0:0:0:0:
448,92,195833,6,0,B|300:64|360:152|200:116,1,256.499992172241,0|0,0:0|0:0,0:0:0:0:
104,292,196452,2,0,P|184:240|200:116,1,228,0|0,0:0|0:0,0:0:0:0:
265,276,197071,2,0,B|173:264|209:320|89:288,1,166.249994926453,0|0,0:0|0:0,0:0:0:0:
107,159,197534,6,0,P|86:256|110:300,1,142.499995651245,0|0,0:0|0:0,0:0:0:0:
308,152,197998,6,0,B|264:136|232:160|232:160|196:148|196:148|152:176|99:157,2,213.75,0|0|0,0:0|0:0|0:0,0:0:0:0:
428,328,199545,6,0,B|436:264|436:264|416:220|416:220|424:140,1,190,0|0,0:0|0:0,0:0:0:0:
300,36,200009,1,0,0:0:0:0:
192,160,200163,1,0,0:0:0:0:
340,240,200318,1,0,0:0:0:0:
176,156,200473,1,0,0:0:0:0:
308,44,200627,1,0,0:0:0:0:
336,316,200782,6,0,B|216:288|284:356|152:336,1,190,0|0,0:0|0:0,0:0:0:0:
88,184,201246,1,0,0:0:0:0:
144,344,201400,1,0,0:0:0:0:
228,136,201555,1,0,0:0:0:0:
76,204,201710,1,0,0:0:0:0:
356,248,201864,5,0,0:0:0:0:
356,248,201942,1,0,0:0:0:0:
356,248,202019,2,0,L|380:60,1,190,0|0,0:0|0:0,0:0:0:0:
192,28,202483,1,0,0:0:0:0:
268,192,202638,1,0,0:0:0:0:
268,192,202792,1,0,0:0:0:0:
380,59,202947,2,0,L|328:60,1,47.5,0|0,0:0|0:0,0:0:0:0:
104,68,203101,6,0,B|88:112|104:144|104:144|88:176|88:176|112:212|96:260,1,190,0|0,0:0|0:0,0:0:0:0:
320,332,203565,1,0,0:0:0:0:
232,196,203720,1,0,0:0:0:0:
176,352,203875,1,0,0:0:0:0:
176,352,204029,1,0,0:0:0:0:
384,224,204184,2,0,L|328:228,1,47.5,0|0,0:0|0:0,0:0:0:0:
144,76,204339,6,0,B|264:52|200:120|360:92,1,190,0|0,0:0|0:0,0:0:0:0:
384,224,204802,2,0,L|264:232,1,95,0|0,0:0|0:0,0:0:0:0:
72,248,205112,2,0,L|192:240,1,95,0|0,0:0|0:0,0:0:0:0:
288,88,205421,1,0,0:0:0:0:
65,58,205576,6,0,B|73:282|73:278,1,190,0|0,0:0|0:0,0:0:0:0:
384,296,206040,2,0,L|276:280,1,95,0|0,0:0|0:0,0:0:0:0:
71,247,206349,2,0,L|175:263,1,95,0|0,0:0|0:0,0:0:0:0:
256,180,206658,1,0,0:0:0:0:
384,296,206813,6,0,B|424:248|424:248|432:120,1,190,0|0,0:0|0:0,0:0:0:0:
136,52,207277,2,0,B|184:44|184:44|240:56,1,95,0|0,0:0|0:0,0:0:0:0:
431,120,207586,2,0,B|383:128|383:128|327:116,1,95,0|0,0:0|0:0,0:0:0:0:
380,36,207895,1,0,0:0:0:0:
300,208,208050,1,0,0:0:0:0:
300,208,208127,1,0,0:0:0:0:
300,208,208205,2,0,B|254:218|254:218|206:210,1,95,0|0,0:0|0:0,0:0:0:0:
48,104,208514,2,0,B|96:96|96:96|148:108,1,95,0|0,0:0|0:0,0:0:0:0:
392,196,208823,5,0,0:0:0:0:
136,336,208978,1,0,0:0:0:0:
256,76,209132,1,0,0:0:0:0:
356,344,209287,1,0,0:0:0:0:
