osu file format v14

[General]
AudioFilename: audio.mp3
AudioLeadIn: 0
PreviewTime: 49183
Countdown: 0
SampleSet: Soft
StackLeniency: 0.7
Mode: 0
LetterboxInBreaks: 0
WidescreenStoryboard: 0

[Editor]
DistanceSpacing: 1.1
BeatDivisor: 4
GridSize: 4
TimelineZoom: 1

[Metadata]
Title:Genjou Destruction
TitleUnicode:現状ディストラクション
Artist:SPYAIR
ArtistUnicode:SPYAIR
Creator:A r M i N
Version:Annihilation
Source:Gekijouban Gintama Kanketsu-hen Yorozuya yo Eien Nare
Tags:Armin A_r_M_i_N browiec Elinor [_Eli_] Xenon- Xehn Xen Akitoshi -Laura- movie 劇場版銀魂完結篇 万事屋よ永遠なれ ending ed japanese rock j-rock the final chapter: be forever yorozuya anime
BeatmapID:2451721
BeatmapSetID:1175471

[Difficulty]
HPDrainRate:5.8
CircleSize:3.8
OverallDifficulty:9
ApproachRate:9.3
SliderMultiplier:1.8
SliderTickRate:1

[Events]
//Background and Video events
0,0,"BG.jpg",0,0
//Break Periods
//Storyboard Layer 0 (Background)
//Storyboard Layer 1 (Fail)
//Storyboard Layer 2 (Pass)
//Storyboard Layer 3 (Foreground)
//Storyboard Layer 4 (Overlay)
//Storyboard Sound Samples

[TimingPoints]
395,309.278350515464,4,2,1,50,1,0
5343,-142.857142857143,4,2,2,60,0,0
10291,-100,4,2,1,70,0,0
20188,-125,4,2,1,60,0,0
24982,-100,4,2,1,70,0,0
30085,-125,4,2,1,60,0,0
34879,-100,4,2,1,70,0,0
39982,-111.111111111111,4,2,1,70,0,0
47405,-125,4,2,1,60,0,0
49724,-90.9090909090909,4,2,1,80,0,1
59157,-90.9090909090909,4,2,1,80,0,0
59621,-90.9090909090909,4,2,1,80,0,1
69673,-166.666666666667,4,2,1,70,0,0
73384,-100,4,2,1,70,0,0

[Colours]
Combo1 : 172,124,98
Combo2 : 245,137,65
Combo3 : 182,182,182

[HitObjects]
100,335,395,5,6,1:2:0:0:
476,114,2869,5,6,1:2:0:0:
243,179,5343,6,0,L|264:303,1,125.999996154785,6|0,1:2|0:0,0:0:0:0:
354,352,5807,2,0,L|364:289,1,62.9999980773926,2|8,0:2|0:0,0:0:0:0:
454,242,6116,2,0,L|464:304,1,62.9999980773926,2|0,0:2|0:0,0:0:0:0:
369,189,6425,2,0,P|416:148|477:144,1,125.999996154785,2|2,1:2|0:2,0:0:0:0:
364,290,6889,2,0,P|331:283|302:265,1,62.9999980773926,2|0,1:2|0:0,0:0:0:0:
235,80,7199,1,10,0:2:0:0:
207,251,7353,1,0,0:0:0:0:
369,189,7508,2,0,L|359:127,1,62.9999980773926,2|2,1:2|0:0,0:0:0:0:
170,2,7817,6,0,P|136:59|143:120,1,125.999996154785,6|0,1:2|0:0,0:0:0:0:
290,108,8281,2,0,P|264:89|235:80,1,62.9999980773926,2|8,0:2|0:0,0:0:0:0:
166,213,8590,2,0,P|195:200|219:179,1,62.9999980773926,2|0,0:2|0:0,0:0:0:0:
68,187,8900,6,0,P|73:253|110:297,1,125.999996154785,2|2,1:2|0:2,0:0:0:0:
141,116,9364,2,0,P|115:97|86:86,1,62.9999980773926,2|2,1:2|0:0,0:0:0:0:
166,213,9673,1,8,0:0:0:0:
406,34,10291,6,0,L|389:128,1,90,6|0,1:2|0:0,0:0:0:0:
218,225,10601,1,8,0:0:0:0:
304,62,10755,1,2,0:0:0:0:
402,248,10910,1,0,1:0:0:0:
224,124,11065,1,2,0:0:0:0:
449,34,11219,1,8,0:0:0:0:
272,246,11374,6,0,B|180:222|194:300|101:276,1,180,2|2,0:0|0:2,0:0:0:0:
224,124,11838,1,10,0:2:0:0:
294,345,11992,1,2,0:2:0:0:
134,169,12147,1,2,1:2:0:0:
82,376,12302,1,2,0:2:0:0:
289,224,12456,1,10,0:2:0:0:
41,130,12611,1,2,0:2:0:0:
176,340,12766,6,0,L|191:251,1,90,2|0,1:2|0:0,0:0:0:0:
323,46,13075,1,8,0:0:0:0:
134,169,13230,1,2,0:0:0:0:
346,31,13384,1,0,1:0:0:0:
292,259,13539,1,2,0:0:0:0:
178,28,13693,1,8,0:0:0:0:
366,187,13848,6,0,B|407:250|407:250|364:344,1,180,2|2,0:0|0:2,0:0:0:0:
182,207,14312,1,10,0:2:0:0:
409,96,14467,1,2,0:2:0:0:
292,259,14621,1,2,1:2:0:0:
312,15,14776,5,14,0:2:0:0:
415,287,14931,1,2,1:2:0:0:
205,82,15085,1,14,0:2:0:0:
133,344,15240,6,0,L|222:329,1,90,2|0,1:2|0:0,0:0:0:0:
350,127,15549,1,8,0:0:0:0:
161,236,15704,1,2,0:0:0:0:
351,362,15858,1,0,1:0:0:0:
237,149,16013,1,2,0:0:0:0:
133,344,16168,1,8,0:0:0:0:
376,217,16322,6,0,P|360:128|345:39,1,180,2|2,0:0|0:2,0:0:0:0:
269,246,16786,1,10,0:2:0:0:
458,127,16941,1,2,0:2:0:0:
245,28,17096,1,2,1:2:0:0:
483,138,17250,1,2,0:2:0:0:
265,274,17405,1,10,0:2:0:0:
345,39,17559,1,2,0:2:0:0:
511,247,17714,6,0,L|422:232,1,90,2|0,1:2|0:0,0:0:0:0:
174,345,18023,1,8,0:0:0:0:
339,174,18178,1,2,0:0:0:0:
402,383,18333,1,0,1:0:0:0:
256,116,18487,1,14,0:0:0:0:
174,345,18642,1,0,1:2:0:0:
422,232,18797,6,0,B|454:156|454:156|423:113,1,135,14|0,0:0|0:0,0:0:0:0:
359,41,19106,1,8,1:2:0:0:
227,213,19260,2,0,L|316:198,1,90,8|0,1:2|0:0,0:0:0:0:
192,2,19570,2,0,P|167:39|164:83,1,90,4|8,0:3|0:0,0:0:0:0:
256,116,19802,1,8,0:0:0:0:
256,116,19879,2,0,L|263:71,1,45,8|8,0:2|0:0,0:0:0:0:
113,171,20034,2,0,L|120:215,1,45,8|8,0:0|0:0,0:0:0:0:
165,84,20188,6,0,L|94:72,1,72,6|0,1:2|0:0,0:0:0:0:
0,202,20498,2,0,P|66:221|112:171,1,144,2|0,0:0|0:0,0:0:0:0:
11,21,20962,1,2,0:0:0:0:
11,21,21116,2,0,L|-1:92,1,72,2|2,0:0|0:0,0:0:0:0:
169,88,21425,5,2,0:0:0:0:
169,88,21580,2,0,P|203:81|245:72,1,72,2|0,0:0|0:0,0:0:0:0:
368,4,21889,2,0,B|345:19|329:45|329:45|361:136,2,144,2|2|2,0:0|0:0|0:0,0:0:0:0:
512,83,22663,6,0,P|477:76|442:69,1,72,2|0,0:2|0:0,0:0:0:0:
328,223,22972,2,0,P|399:219|449:170,1,144,2|0,0:0|0:0,0:0:0:0:
343,56,23436,1,2,0:0:0:0:
343,56,23590,2,0,P|350:91|357:126,1,72,2|2,0:0|0:0,0:0:0:0:
229,238,23900,6,0,P|236:202|243:167,1,72,2|2,0:0|0:0,0:0:0:0:
108,65,24209,1,2,0:0:0:0:
144,185,24364,1,2,0:0:0:0:
195,15,24518,5,8,0:0:0:0:
74,258,24673,1,8,0:2:0:0:
496,208,24982,6,0,B|403:184|416:262|325:238,1,180,6|2,1:2|1:2,0:0:0:0:
202,71,25446,1,8,0:0:0:0:
121,226,25601,2,0,L|210:205,1,90,2|0,0:0|1:2,0:0:0:0:
125,6,25910,2,0,P|104:45|103:90,1,90,2|8,1:2|0:0,0:0:0:0:
306,178,26219,6,0,P|284:94|202:71,1,180,2|2,1:2|1:2,0:0:0:0:
121,226,26683,2,0,L|210:205,1,90,8|0,0:0|0:0,0:0:0:0:
103,90,26992,1,0,1:2:0:0:
61,308,27147,1,0,1:2:0:0:
203,104,27302,1,10,0:0:0:0:
269,325,27456,6,0,P|224:324|185:304,1,90,2|0,1:2|0:0,0:0:0:0:
103,90,27766,1,2,1:2:0:0:
250,227,27920,1,8,0:0:0:0:
78,325,28075,2,0,L|98:237,1,90,2|0,0:0|1:2,0:0:0:0:
286,132,28384,1,2,1:2:0:0:
184,304,28539,1,8,0:0:0:0:
103,90,28693,6,0,B|147:55|147:55|176:175,1,180,2|2,1:2|1:2,0:0:0:0:
370,285,29157,1,8,0:0:0:0:
251,38,29312,1,0,1:0:0:0:
184,304,29467,1,8,0:0:0:0:
344,100,29621,1,0,1:0:0:0:
406,379,29776,2,0,P|339:381|287:341,1,135,12|0,0:0|0:0,0:0:0:0:
280,305,30085,6,0,L|292:234,1,72,2|0,1:2|0:0,0:0:0:0:
182,86,30395,2,0,B|154:153|154:153|200:206,1,144,2|0,1:2|1:2,0:0:0:0:
345,145,30858,2,0,L|274:133,1,72,2|0,0:0|1:2,0:0:0:0:
389,233,31168,1,2,0:0:0:0:
446,150,31322,6,0,L|434:79,1,72,2|2,1:2|0:0,0:0:0:0:
278,137,31632,1,2,1:2:0:0:
278,137,31786,2,0,L|266:208,1,72,2|0,0:0|1:2,0:0:0:0:
112,268,32096,2,0,L|100:197,1,72,2|0,0:0|1:2,0:0:0:0:
210,292,32405,1,2,0:0:0:0:
133,368,32559,6,0,L|62:356,1,72,2|0,1:2|0:0,0:0:0:0:
210,292,32869,2,0,B|284:277|274:331|348:316,1,144,2|0,1:2|1:2,0:0:0:0:
493,236,33333,1,2,0:0:0:0:
493,236,33487,2,0,L|505:307,1,72,2|2,1:2|0:0,0:0:0:0:
334,217,33797,6,0,L|346:146,1,72,2|2,1:2|0:0,0:0:0:0:
266,1,34106,1,2,1:2:0:0:
394,57,34260,1,2,0:0:0:0:
214,196,34415,5,8,0:2:0:0:
494,71,34570,1,8,0:2:0:0:
57,91,34879,6,0,B|10:148|10:148|57:244,1,180,6|2,1:2|1:2,0:0:0:0:
248,154,35343,1,8,0:0:0:0:
135,26,35498,2,0,L|155:114,1,90,2|0,0:0|1:2,0:0:0:0:
327,219,35807,2,0,L|347:131,1,90,2|8,1:2|0:0,0:0:0:0:
196,268,36116,6,0,P|254:332|341:324,1,180,2|2,1:2|1:2,0:0:0:0:
221,169,36580,2,0,L|133:189,1,90,10|0,0:2|0:0,0:0:0:0:
291,237,36889,1,0,1:2:0:0:
187,73,37044,1,0,1:2:0:0:
132,290,37199,1,10,0:0:0:0:
317,139,37353,1,0,1:2:0:0:
88,51,37508,6,0,P|88:95|108:135,1,90,2|0,0:0|1:2,0:0:0:0:
268,267,37817,2,0,B|307:227|307:227|184:204,1,180,8|0,0:0|1:2,0:0:0:0:
13,296,38281,1,0,1:2:0:0:
152,378,38436,2,0,L|132:290,1,90,10|0,0:0|1:2,0:0:0:0:
259,36,38745,5,6,1:2:0:0:
97,184,38900,2,0,L|185:204,1,90,8|0,0:0|0:0,0:0:0:0:
41,60,39209,1,10,0:0:0:0:
132,290,39364,1,8,0:0:0:0:
291,20,39518,1,10,0:0:0:0:
0,153,39673,1,8,0:0:0:0:
295,306,39827,1,8,0:0:0:0:
154,91,39982,6,0,L|137:170,1,80.9999975280763,6|0,1:2|0:0,0:0:0:0:
4,344,40291,2,0,P|53:284|131:289,1,161.999995056153,2|8,1:2|1:2,0:0:0:0:
275,375,40755,2,0,L|258:297,1,80.9999975280763,2|0,1:2|1:2,0:0:0:0:
352,104,41065,1,0,1:2:0:0:
200,215,41219,5,2,1:2:0:0:
361,306,41374,1,2,0:0:0:0:
253,126,41529,1,2,0:0:0:0:
157,308,41683,1,2,1:2:0:0:
377,205,41838,1,10,0:0:0:0:
152,125,41992,1,0,1:2:0:0:
258,297,42147,2,0,L|275:218,1,80.9999975280763,10|0,0:0|1:2,0:0:0:0:
45,77,42456,6,0,L|62:156,1,80.9999975280763,2|0,1:2|0:0,0:0:0:0:
214,24,42766,2,0,P|292:16|350:70,1,161.999995056153,2|8,1:2|0:0,0:0:0:0:
161,177,43230,2,0,L|144:98,1,80.9999975280763,2|0,1:2|1:2,0:0:0:0:
275,217,43539,1,0,1:2:0:0:
62,156,43693,5,2,1:2:0:0:
254,87,43848,1,2,0:0:0:0:
192,273,44003,1,2,0:0:0:0:
94,38,44157,1,2,1:2:0:0:
36,326,44312,5,8,0:0:0:0:
156,119,44467,1,2,1:2:0:0:
253,348,44621,2,0,L|135:323,1,121.499996292114,12|0,0:0|0:0,0:0:0:0:
83,241,44931,6,0,P|123:226|163:230,1,80.9999975280763,2|0,1:2|0:0,0:0:0:0:
347,301,45240,2,0,B|316:284|298:260|298:260|325:163,1,161.999995056153,2|8,1:2|0:0,0:0:0:0:
483,54,45704,1,2,1:2:0:0:
409,221,45858,1,0,1:2:0:0:
297,29,46013,1,0,1:2:0:0:
505,164,46168,5,2,1:2:0:0:
288,230,46322,1,2,0:0:0:0:
385,79,46477,1,2,0:0:0:0:
460,283,46632,1,2,1:2:0:0:
377,52,46786,1,10,0:0:0:0:
295,258,46941,1,0,1:2:0:0:
494,193,47096,2,0,L|415:176,1,80.9999975280763,2|0,1:2|1:2,0:0:0:0:
198,28,47405,6,0,B|221:64|260:80|260:80|208:209,1,216,6|2,1:2|0:0,0:0:0:0:
115,257,48023,1,2,0:0:0:0:
115,257,48178,2,0,L|102:186,1,72,2|0,0:0|0:0,0:0:0:0:
203,305,48487,1,2,0:0:0:0:
297,110,48642,6,0,B|382:101|444:173|444:173|439:104|474:58,1,288,6|2,1:2|0:0,0:0:0:0:
17,40,49724,6,0,L|37:136,1,99.0000030212403,6|0,1:2|0:0,0:0:0:0:
243,243,50034,2,0,L|263:146,1,99.0000030212403,2|8,1:2|0:0,0:0:0:0:
139,293,50343,1,2,0:0:0:0:
355,217,50498,1,0,1:2:0:0:
141,77,50652,1,2,1:2:0:0:
276,339,50807,1,8,0:0:0:0:
382,103,50962,6,0,L|285:123,1,99.0000030212403,2|0,1:2|0:0,0:0:0:0:
94,259,51271,2,0,L|190:279,1,99.0000030212403,2|8,1:2|0:0,0:0:0:0:
98,81,51580,1,2,0:0:0:0:
7,311,51735,1,0,1:2:0:0:
186,131,51889,1,2,1:2:0:0:
234,372,52044,1,8,0:0:0:0:
31,195,52199,6,0,B|132:164|115:258|217:227,1,198.000006042481,2|0,1:2|1:2,0:0:0:0:
339,37,52663,2,0,P|311:77|306:126,1,99.0000030212403,10|0,0:0|0:0,0:0:0:0:
471,303,52972,1,2,1:2:0:0:
405,112,53126,1,0,1:2:0:0:
302,343,53281,1,8,0:0:0:0:
195,100,53436,6,0,P|124:163|137:257,1,198.000006042481,2|0,1:2|1:2,0:0:0:0:
306,126,53900,2,0,L|285:29,1,99.0000030212403,8|0,0:0|0:0,0:0:0:0:
220,199,54210,1,2,1:2:0:0:
405,112,54364,1,0,1:2:0:0:
169,2,54518,1,10,0:0:0:0:
377,219,54673,6,0,L|474:198,1,99.0000030212403,6|0,1:2|0:0,0:0:0:0:
240,102,54982,2,0,L|219:199,1,99.0000030212403,2|8,1:2|0:0,0:0:0:0:
401,340,55291,1,2,0:0:0:0:
339,124,55446,1,0,1:2:0:0:
225,310,55601,1,2,1:2:0:0:
473,198,55755,1,8,0:0:0:0:
240,102,55910,6,0,L|261:199,1,99.0000030212403,2|0,1:2|0:0,0:0:0:0:
82,348,56219,2,0,L|103:251,1,99.0000030212403,2|8,1:2|0:0,0:0:0:0:
26,45,56529,1,2,0:0:0:0:
166,170,56683,1,0,1:2:0:0:
0,279,56838,1,2,1:2:0:0:
129,70,56992,1,8,0:0:0:0:
222,328,57147,6,0,B|323:297|306:391|408:360,1,198.000006042481,2|0,1:2|1:2,0:0:0:0:
321,132,57611,2,0,L|300:229,1,99.0000030212403,14|0,0:0|0:0,0:0:0:0:
441,75,57920,1,2,1:2:0:0:
213,159,58075,1,0,1:2:0:0:
472,273,58230,1,8,0:0:0:0:
330,42,58384,6,0,B|262:58|262:58|214:26|214:26|146:42,1,198.000006042481,6|0,1:2|1:2,0:0:0:0:
37,275,58848,1,8,0:0:0:0:
194,135,59003,1,0,1:2:0:0:
10,13,59157,1,10,0:0:0:0:
18,52,59235,1,8,0:0:0:0:
27,92,59312,1,8,0:3:0:0:
35,131,59389,1,8,0:3:0:0:
44,171,59467,2,0,L|92:160,1,49.5000015106202,4|4,0:3|0:3,0:0:0:0:
290,105,59621,6,0,P|223:37|129:56,1,198.000006042481,6|2,1:2|1:2,0:0:0:0:
265,222,60085,2,0,L|362:201,1,99.0000030212403,8|2,0:0|0:0,0:0:0:0:
194,135,60395,1,0,1:2:0:0:
304,315,60549,1,2,1:2:0:0:
391,90,60704,1,8,0:0:0:0:
175,270,60858,6,0,L|78:249,1,99.0000030212403,2|0,1:2|0:0,0:0:0:0:
160,46,61168,2,0,P|188:86|193:134,1,99.0000030212403,2|8,1:2|0:0,0:0:0:0:
0,311,61477,1,2,0:0:0:0:
94,122,61632,1,0,1:2:0:0:
215,309,61786,1,2,1:2:0:0:
0,192,61941,1,8,0:0:0:0:
196,46,62096,6,0,B|213:80|245:100|245:100|195:213,1,198.000006042481,2|0,1:2|1:2,0:0:0:0:
362,319,62559,2,0,L|341:222,1,99.0000030212403,10|0,0:0|0:0,0:0:0:0:
126,123,62869,1,2,1:2:0:0:
255,296,63023,1,0,1:2:0:0:
324,43,63178,1,8,0:0:0:0:
160,233,63333,6,0,P|64:251|0:184,1,198.000006042481,2|0,1:2|1:2,0:0:0:0:
158,0,63797,2,0,L|179:97,1,99.0000030212403,8|0,0:0|0:0,0:0:0:0:
271,304,64106,1,2,1:2:0:0:
96,155,64260,1,0,1:2:0:0:
50,377,64415,1,8,0:0:0:0:
244,196,64570,6,0,L|341:217,1,99.0000030212403,6|0,1:2|0:0,0:0:0:0:
204,380,64879,2,0,P|176:340|171:292,1,99.0000030212403,2|8,1:2|0:0,0:0:0:0:
312,109,65188,1,0,0:0:0:0:
271,304,65343,1,2,1:2:0:0:
144,109,65498,1,0,1:2:0:0:
368,223,65652,1,10,0:0:0:0:
164,330,65807,6,0,L|185:233,1,99.0000030212403,6|0,1:2|0:0,0:0:0:0:
27,84,66116,2,0,L|48:181,1,99.0000030212403,2|8,1:2|0:0,0:0:0:0:
271,304,66425,1,0,0:0:0:0:
144,109,66580,1,2,1:2:0:0:
66,329,66735,1,2,1:2:0:0:
255,141,66889,1,10,0:0:0:0:
185,374,67044,6,0,L|164:277,1,99.0000030212403,6|0,1:2|0:0,0:0:0:0:
222,45,67353,1,2,1:2:0:0:
76,228,67508,1,8,0:0:0:0:
297,180,67663,2,0,L|200:159,1,99.0000030212403,6|0,0:0|1:2,0:0:0:0:
58,34,67972,1,2,1:2:0:0:
173,257,68126,1,8,0:0:0:0:
318,24,68281,2,0,L|221:45,1,99.0000030212403,6|0,1:2|0:0,0:0:0:0:
330,314,68590,5,2,1:2:0:0:
424,34,68745,1,12,0:0:0:0:
237,209,68900,1,2,1:2:0:0:
473,323,69054,1,8,0:3:0:0:
310,100,69209,1,8,0:3:0:0:
233,335,69364,2,0,L|330:314,1,99.0000030212403,6|0,0:3|0:0,0:0:0:0:
213,109,69673,6,0,P|121:146|142:243,1,215.999993408203,6|2,1:2|0:0,0:0:0:0:
426,361,70910,6,0,P|410:281|394:202,2,161.999995056153,6|2|2,1:2|0:0|0:0,0:0:0:0:
256,192,72147,12,0,73230,0:0:0:0:
76,87,73384,6,0,L|91:177,1,90,6|0,1:2|0:0,0:0:0:0:
258,275,73693,2,0,L|273:186,1,90,10|0,0:0|0:0,0:0:0:0:
366,38,74003,1,2,1:2:0:0:
183,114,74157,1,2,1:2:0:0:
396,216,74312,1,10,0:0:0:0:
235,27,74467,6,0,P|148:19|87:81,1,180,2|2,1:2|1:2,0:0:0:0:
127,294,74931,1,10,0:0:0:0:
183,114,75085,1,2,0:0:0:0:
118,321,75240,1,2,1:2:0:0:
15,153,75395,1,2,1:2:0:0:
220,256,75549,1,10,0:0:0:0:
18,329,75704,1,2,0:0:0:0:
121,103,75858,6,0,L|136:191,1,90,2|0,1:2|0:0,0:0:0:0:
312,318,76168,2,0,L|327:229,1,90,10|0,0:0|0:0,0:0:0:0:
489,129,76477,1,2,1:2:0:0:
418,291,76632,1,2,1:2:0:0:
316,91,76786,1,10,0:0:0:0:
220,256,76941,6,0,B|127:232|140:310|49:286,1,180,2|2,1:2|1:2,0:0:0:0:
131,135,77405,1,10,0:0:0:0:
194,352,77559,1,2,0:0:0:0:
44,186,77714,1,2,1:2:0:0:
251,114,77869,1,2,1:2:0:0:
18,195,78023,1,8,0:0:0:0:
296,205,78178,6,0,P|336:167|321:41,1,180,6|2,0:0|1:2,0:0:0:0:
195,199,78642,2,0,L|210:287,1,90,10|2,0:0|0:0,0:0:0:0:
251,114,78951,1,2,1:2:0:0:
99,230,79106,1,2,1:2:0:0:
308,313,79260,1,10,0:0:0:0:
120,130,79415,6,0,P|36:150|-1:228,1,180,6|2,0:0|1:2,0:0:0:0:
210,287,79879,2,0,L|195:199,1,90,10|2,0:0|0:0,0:0:0:0:
125,369,80188,1,2,1:2:0:0:
311,299,80343,1,2,1:2:0:0:
99,230,80498,1,10,0:0:0:0:
270,61,80652,6,0,B|295:88|331:94|331:94|296:198,1,180,6|2,0:0|1:2,0:0:0:0:
120,158,81116,2,0,L|208:143,1,90,14|2,0:0|0:0,0:0:0:0:
362,315,81425,1,2,1:2:0:0:
207,245,81580,1,2,1:2:0:0:
361,114,81735,1,10,0:0:0:0:
236,353,81889,6,0,L|148:338,1,90,6|0,0:0|0:0,0:0:0:0:
251,117,82199,1,2,1:2:0:0:
335,372,82353,1,14,0:0:0:0:
149,183,82508,1,2,0:0:0:0:
459,64,82663,5,10,1:2:0:0:
198,322,82817,1,10,1:2:0:0:
322,14,82972,1,10,1:2:0:0:
335,372,83126,1,14,1:2:0:0:
