osu file format v14

[General]
AudioFilename: audio.mp3
AudioLeadIn: 0
PreviewTime: 43714
Countdown: 0
SampleSet: Soft
StackLeniency: 0.7
Mode: 0
LetterboxInBreaks: 0
WidescreenStoryboard: 0

[Editor]
DistanceSpacing: 0.5
BeatDivisor: 4
GridSize: 32
TimelineZoom: 1.8

[Metadata]
Title:Drawing days (TV Size)
TitleUnicode:Drawing days (TV Size)
Artist:SPLAY
ArtistUnicode:SPLAY
Creator:Pepekcz
Version:Vongola Family
Source:家庭教師ヒットマンREBORN!
Tags:FlyzyStyle katekyo katekyou hitman reborn opening 1 first la neo vongola famiglia decimo 沢田綱吉 Sawada Tsunayoshi rock j-rock jrock japanese anime male vocalist
BeatmapID:3072399
BeatmapSetID:1499178

[Difficulty]
HPDrainRate:5
CircleSize:3.8
OverallDifficulty:8.2
ApproachRate:9
SliderMultiplier:1.7
SliderTickRate:1

[Events]
//Background and Video events
Video,-200,"video.mp4"
0,0,"BG.jpg",0,0
//Break Periods
//Storyboard Layer 0 (Background)
//Storyboard Layer 1 (Fail)
//Storyboard Layer 2 (Pass)
//Storyboard Layer 3 (Foreground)
//Storyboard Layer 4 (Overlay)
//Storyboard Sound Samples

[TimingPoints]
367,335.195530726257,4,2,1,70,1,0
367,-100,4,2,1,70,0,0
1372,342.857142857143,4,2,1,70,1,0
1714,336.134453781513,4,2,1,70,1,0
3058,343.839541547278,4,2,1,70,1,0
4433,341.880341880342,4,2,1,70,1,0
5800,329.67032967033,4,2,1,70,1,0
6294,360.902255639098,4,2,1,70,1,0
6835,337.078651685393,4,2,1,70,1,0
7172,333.333333333333,4,2,1,70,1,0
7838,344.827586206897,4,2,1,70,1,0
8527,331.491712707182,4,2,1,70,1,0
9024,358.208955223881,4,2,1,70,1,0
9561,329.67032967033,4,2,1,70,1,0
9890,338.983050847458,4,2,1,70,1,0
11245,352.941176470588,4,2,1,50,1,0
11245,-125,4,2,1,50,0,0
11950,324.324324324324,4,2,1,50,1,0
12274,340.909090909091,4,2,1,50,1,0
12274,-123.456790123457,4,2,1,50,0,0
12614,335.195530726257,4,2,1,50,1,0
12614,-125,4,2,1,50,0,0
13284,343.839541547278,4,2,1,50,1,0
13284,-125,4,2,1,50,0,0
13971,340.425531914894,4,2,1,50,1,0
13971,-125,4,2,1,50,0,0
16694,348.837209302326,4,2,1,50,1,0
16694,-125,4,2,1,50,0,0
17391,335.195530726257,4,2,1,50,1,0
17391,-125,4,2,1,50,0,0
18061,340.522133938706,4,2,1,50,1,0
18061,-125,4,2,1,50,0,0
19423,346.820809248555,4,2,1,50,1,0
19423,-125,4,2,1,50,0,0
20116,338.983050847458,4,2,1,50,1,0
20116,-125,4,2,1,50,0,0
20793,338.983050847458,4,2,1,50,1,0
20793,-125,4,2,1,50,0,0
21131,345.821325648415,4,2,1,50,1,0
21131,-125,4,2,1,50,0,0
22168,338.983050847458,4,2,1,50,1,0
22168,-125,4,2,1,50,0,0
23523,331.491712707182,4,2,1,50,1,0
23854,338.983050847458,4,2,1,50,1,0
23854,-125,4,2,1,50,0,0
24870,344.332855093257,4,2,1,50,1,0
24870,-125,4,2,1,50,0,0
25902,331.491712707182,4,2,1,50,1,0
25902,-126.582278481013,4,2,1,50,0,0
26233,341.880341880342,4,2,1,50,1,0
26233,-125,4,2,1,50,0,0
26916,344.332855093257,4,2,1,50,1,0
26916,-125,4,2,1,50,0,0
27604,344.827586206897,4,2,1,50,1,0
27604,-125,4,2,1,50,0,0
28293,333.333333333333,4,2,1,50,1,0
28293,-125,4,2,1,50,0,0
28959,340.909090909091,4,2,1,50,1,0
28959,-125,4,2,1,50,0,0
29640,342.857142857143,4,2,1,50,1,0
29640,-125,4,2,1,50,0,0
30325,342.857142857143,4,2,1,50,1,0
30325,-125,4,2,1,50,0,0
31696,340.909090909091,4,2,1,50,1,0
32036,346.820809248555,4,2,1,50,1,0
32382,324.324324324324,4,2,1,50,1,0
32706,358.208955223881,4,2,1,50,1,0
33064,329.67032967033,4,2,1,60,1,0
33064,-111.111111111111,4,2,1,60,0,0
33393,342.857142857143,4,2,1,60,1,0
33393,-111.111111111111,4,2,1,60,0,0
34421,339.943342776204,4,2,1,60,1,0
34421,-111.111111111111,4,2,1,60,0,0
35780,340.909090909091,4,2,1,60,1,0
35780,-111.111111111111,4,2,1,60,0,0
37143,339.943342776204,4,2,1,60,1,0
37143,-111.111111111111,4,2,1,60,0,0
38502,340.909090909091,4,2,1,60,1,0
38502,-111.111111111111,4,2,1,60,0,0
39865,338.028169014084,4,2,1,60,1,0
39865,-111.111111111111,4,2,1,60,0,0
40879,357.142857142857,4,2,1,60,1,0
40879,-111.111111111111,4,2,1,60,0,0
41236,346.820809248555,4,2,1,60,1,0
41236,-111.111111111111,4,2,1,60,0,0
41582,-111.111111111111,4,2,1,20,0,0
41756,-111.111111111111,4,2,1,30,0,0
41929,331.491712707182,4,2,1,40,1,0
41929,-111.111111111111,4,2,1,40,0,0
42094,-111.111111111111,4,2,1,50,0,0
42260,-111.111111111111,4,2,1,60,0,0
42426,319.148936170213,4,2,1,60,1,0
42585,349.854227405248,4,2,1,65,1,0
43109,345.821325648415,4,2,1,70,1,0
43109,-111.111111111111,4,2,1,70,0,0
43800,338.983050847458,4,2,1,80,1,1
43800,-90.9090909090909,4,2,1,80,0,1
43969,338.983050847458,4,2,1,80,1,1
43969,-90.9090909090909,4,2,1,80,0,1
46680,341.685649202733,4,2,1,80,1,1
46680,-90.9090909090909,4,2,1,80,0,1
49071,333.333333333333,4,2,1,80,1,1
49071,-90.9090909090909,4,2,1,80,0,1
49404,344.43168771527,4,2,1,80,1,1
49404,-90.9090909090909,4,2,1,80,0,1
50437,337.078651685393,4,2,1,80,1,1
50437,-90.9090909090909,4,2,1,80,0,1
50774,340.909090909091,4,2,1,80,1,1
50774,-90.9090909090909,4,2,1,80,0,1
52478,345.821325648415,4,2,1,80,1,1
52478,-90.9090909090909,4,2,1,80,0,1
53515,342.465753424658,4,2,1,80,1,1
53515,-90.9090909090909,4,2,1,80,0,1
54884,341.880341880342,4,2,1,80,1,1
54884,-90.9090909090909,4,2,1,80,0,1
56251,326.086956521739,4,2,1,80,1,1
56251,-90.9090909090909,4,2,1,80,0,1
56577,343.839541547278,4,2,1,80,1,1
56577,-90.9090909090909,4,2,1,80,0,1
57608,339.943342776204,4,2,1,80,1,1
57608,-90.9090909090909,4,2,1,80,0,1
59647,342.857142857143,4,2,1,80,1,1
59647,-90.9090909090909,4,2,1,80,0,1
60332,347.826086956522,4,2,1,80,1,1
60332,-90.9090909090909,4,2,1,80,0,1
61375,337.078651685393,4,2,1,80,1,1
61375,-90.9090909090909,4,2,1,80,0,1
61712,341.880341880342,4,2,1,80,1,1
61712,-90.9090909090909,4,2,1,80,0,1
64447,338.504936530324,4,2,1,80,1,1
64447,-90.9090909090909,4,2,1,80,0,1
65801,359.281437125748,4,2,1,80,1,0
65801,-90.9090909090909,4,2,1,80,0,0
66160,337.078651685393,4,2,1,80,1,0
66160,-90.9090909090909,4,2,1,80,0,0
67171,339.943342776204,4,2,1,80,1,0
67171,-90.9090909090909,4,2,1,80,0,0
68530,341.296928327645,4,2,1,80,1,0
68530,-90.9090909090909,4,2,1,80,0,0
70919,333.333333333333,4,2,1,80,1,0
70919,-90.9090909090909,4,2,1,80,0,0
71252,343.839541547278,4,2,1,80,1,0
71252,-90.9090909090909,4,2,1,80,0,0
72455,-89.8472596585804,4,2,1,80,0,0
72627,335.195530726257,4,2,1,80,1,0
72627,-90.9090909090909,4,2,1,80,0,0
73297,344.827586206897,4,2,1,80,1,0
73297,-90.9090909090909,4,2,1,80,0,0
73986,340.909090909091,4,2,1,80,1,0
73986,-90.9090909090909,4,2,1,80,0,0
76031,337.078651685393,4,2,1,80,1,0
76031,-90.9090909090909,4,2,1,80,0,0
76705,344.827586206897,4,2,1,80,1,0
76705,-90.9090909090909,4,2,1,80,0,0
77911,-90.0900900900901,4,2,1,80,0,0
78084,338.983050847458,4,2,1,80,1,0
78084,-90.9090909090909,4,2,1,80,0,0
79439,341.880341880342,4,2,1,80,1,0
79439,-90.9090909090909,4,2,1,80,0,0
80635,-90.0900900900901,4,2,1,80,0,0
80806,335.195530726257,4,2,1,80,1,0
80806,-90.9090909090909,4,2,1,80,0,0
81476,340.909090909091,4,2,1,80,1,0
81476,-90.9090909090909,4,2,1,80,0,0
82157,342.857142857143,4,2,1,80,1,0
82157,-90.9090909090909,4,2,1,80,0,0
83357,-90.3342366757001,4,2,1,80,0,0
83528,339.943342776204,4,2,1,80,1,0
83528,-90.9090909090909,4,2,1,80,0,0
84887,341.880341880342,4,2,1,80,1,0
84887,-90.9090909090909,4,2,1,80,0,0
86254,337.078651685393,4,2,1,80,1,0
86254,-90.9090909090909,4,2,1,80,0,0
86928,342.857142857143,4,2,1,80,1,0
86928,-90.9090909090909,4,2,1,80,0,0
87270,340.909090909091,4,2,1,80,1,0
87270,-90.9090909090909,4,2,1,80,0,0
87610,340.909090909091,4,2,1,70,1,0
87610,-625,4,2,1,70,0,0
92723,-500,4,2,1,5,0,0

[Colours]
Combo1 : 168,36,36
Combo2 : 255,106,34
Combo3 : 73,241,1
Combo4 : 255,255,79

[HitObjects]
24,219,367,6,0,B|64:192|112:232|72:256|124:308|176:272,1,170,6|0,1:2|1:2,0:0:0:0:
328,141,869,2,0,P|272:129|236:227,1,170,10|0,0:2|0:0,0:0:0:0:
414,363,1372,2,0,P|401:281|382:183,1,170,4|0,1:2|1:2,0:0:0:0:
303,61,1882,1,0,0:0:0:0:
442,134,2050,1,0,1:2:0:0:
303,250,2218,1,0,1:2:0:0:
380,86,2386,2,0,P|411:60|473:66,1,85,8|0,0:2|0:0,0:0:0:0:
300,256,2722,2,0,P|258:253|225:227,1,85,0|0,1:2|0:0,0:0:0:0:
124,80,3058,6,0,B|142:100|172:112|172:112|158:162|144:220,1,170,6|0,1:2|1:2,0:0:0:0:
26,370,3573,2,0,P|67:296|150:315,1,170,10|0,0:2|0:0,0:0:0:0:
296,375,4089,2,0,B|272:341|298:288|329:318|362:264|327:213,1,170,6|0,1:2|1:2,0:0:0:0:
171,120,4603,1,0,0:0:0:0:
257,240,4774,1,0,1:2:0:0:
334,78,4945,1,0,1:2:0:0:
164,220,5116,2,0,P|122:209|81:199,1,85,8|0,0:2|0:0,0:0:0:0:
299,118,5458,2,0,P|340:107|395:94,1,85,0|0,1:2|0:0,0:0:0:0:
184,11,5800,6,0,P|104:51|132:122,1,170,6|0,1:2|1:2,0:0:0:0:
308,254,6294,2,0,B|269:271|225:235|247:213|205:180|156:206,1,170,10|0,0:2|0:0,0:0:0:0:
39,355,6835,2,0,P|56:276|79:183,1,170,4|0,1:2|1:2,0:0:0:0:
252,85,7338,1,0,0:0:0:0:
160,203,7505,1,0,1:2:0:0:
59,56,7671,1,0,1:2:0:0:
248,185,7838,2,0,P|236:228|224:281,1,85,8|0,0:2|0:0,0:0:0:0:
401,194,8182,2,0,P|390:152|380:111,1,85,0|0,1:2|0:0,0:0:0:0:
392,321,8527,6,0,P|479:311|488:221,1,170,6|0,1:2|1:2,0:0:0:0:
302,126,9024,2,0,P|282:208|263:291,1,170,14|0,0:2|0:0,0:0:0:0:
95,383,9561,2,0,B|144:355|191:331|191:331|212:358|263:375,1,170,6|0,1:2|1:2,0:0:0:0:
374,196,10059,2,0,P|328:207|282:220,1,85,2|0,0:2|1:2,0:0:0:0:
156,112,10398,1,8,0:2:0:0:
262,291,10567,2,0,P|269:246|282:187,1,85,0|0,1:2|1:2,0:0:0:0:
317,63,10906,1,0,1:2:0:0:
244,128,11076,1,2,0:2:0:0:
386,222,11245,6,0,B|419:229|455:207|440:192|469:170|513:185,2,136,6|0|0,1:2|1:2|1:2,0:0:0:0:
248,48,12274,1,2,1:2:0:0:
248,48,12444,2,0,P|196:44|164:120,1,136,2|0,0:2|0:0,0:0:0:0:
200,228,12949,2,0,P|167:219|128:212,1,68,0|0,1:2|0:0,0:0:0:0:
268,300,13284,2,0,P|300:291|340:284,1,68,0|0,1:2|0:0,0:0:0:0:
180,368,13627,1,0,1:2:0:0:
180,368,13799,1,2,0:2:0:0:
48,284,13971,6,0,P|16:224|84:176,2,136,2|0|0,1:2|1:2|1:2,0:0:0:0:
216,172,14992,1,2,1:2:0:0:
216,172,15162,2,0,B|245:154|278:185|264:195|298:225|336:208,1,136,2|0,0:2|0:0,0:0:0:0:
404,104,15673,2,0,P|440:124|444:156,1,68,2|0,1:2|0:0,0:0:0:0:
344,236,16013,2,0,P|343:194|369:175,1,68,2|0,1:2|0:0,0:0:0:0:
480,220,16353,2,0,P|444:241|414:228,1,68,2|0,1:2|0:0,0:0:0:0:
296,96,16694,6,0,B|250:79|208:68|208:68|190:88|160:104,1,136,6|0,1:2|1:2,0:0:0:0:
115,184,17217,1,0,0:0:0:0:
115,184,17391,2,0,P|52:182|47:120,1,136,0|2,1:2|1:2,0:0:0:0:
156,28,17893,5,2,0:2:0:0:
156,28,18061,2,0,P|147:60|136:108,1,68,0|0,1:2|0:0,0:0:0:0:
256,184,18401,2,0,P|247:151|239:118,1,68,0|0,1:2|0:0,0:0:0:0:
271,261,18656,1,2,0:2:0:0:
271,261,18742,2,0,P|310:257|336:227,1,68,0|0,1:2|0:0,0:0:0:0:
392,144,19082,2,0,P|367:120|333:114,1,68,0|0,1:2|0:0,0:0:0:0:
468,240,19423,6,0,B|504:200|504:200|476:112,2,136,0|0|0,1:2|1:2|1:2,0:0:0:0:
296,344,20454,2,0,P|261:335|208:324,1,68,0|0,1:2|0:0,0:0:0:0:
160,240,20793,2,0,P|193:232|226:224,1,68,0|0,1:2|0:0,0:0:0:0:
60,296,21131,2,0,P|72:230|92:144,1,136,0|0,1:2|1:2,0:0:0:0:
240,88,21649,1,0,0:0:0:0:
240,88,21822,1,0,1:2:0:0:
160,208,21995,1,2,0:2:0:0:
36,92,22168,6,0,B|82:69|120:56|120:56|141:71|164:80,2,136,6|0|0,1:2|1:2|1:2,0:0:0:0:
0,252,23184,2,0,P|33:259|66:268,1,68,2|2,1:2|0:2,0:0:0:0:
160,216,23523,1,0,1:2:0:0:
160,216,23688,1,0,0:0:0:0:
160,336,23854,2,0,P|196:312|195:269,1,68,0|0,1:2|0:0,0:0:0:0:
279,295,24108,1,0,0:0:0:0:
279,295,24192,2,0,P|276:251|245:227,1,68,0|0,1:2|0:0,0:0:0:0:
315,158,24531,2,0,P|276:138|238:150,1,68,0|2,1:2|0:2,0:0:0:0:
160,216,24870,6,0,P|171:150|188:72,2,136,2|0|0,1:2|1:2|1:2,0:0:0:0:
268,368,25902,1,2,1:2:0:0:
268,368,26067,2,0,B|300:390|338:358|312:340|348:308|388:332,1,136,2|0,0:2|0:0,0:0:0:0:
476,379,26574,2,0,P|484:346|493:313,1,68,2|0,1:2|0:0,0:0:0:0:
408,296,26831,1,0,0:0:0:0:
408,296,26916,2,0,P|400:329|394:366,1,68,2|0,1:2|0:0,0:0:0:0:
484,199,27260,2,0,P|450:207|419:217,1,68,2|0,1:2|0:0,0:0:0:0:
288,340,27604,6,0,P|232:324|248:240,1,136,6|0,1:2|1:2,0:0:0:0:
312,176,28121,1,0,0:0:0:0:
312,176,28293,2,0,B|292:157|272:136|272:136|176:176,1,136,0|2,1:2|1:2,0:0:0:0:
84,248,28793,1,2,0:2:0:0:
84,248,28959,2,0,P|67:215|77:178,1,68,0|0,1:2|0:0,0:0:0:0:
195,102,29299,2,0,P|206:132|196:170,1,68,0|0,1:2|0:0,0:0:0:0:
141,51,29555,1,0,0:0:0:0:
141,51,29640,2,0,P|169:29|204:30,1,68,0|0,1:2|0:0,0:0:0:0:
283,158,29982,2,0,P|290:127|303:78,1,68,2|0,1:2|0:0,0:0:0:0:
416,0,30325,6,0,P|429:69|444:148,1,136,2|0,1:2|1:2,0:0:0:0:
279,298,31010,5,0,1:2:0:0:
416,211,31353,5,0,1:2:0:0:
261,96,31696,5,2,1:2:0:0:
385,288,32036,5,0,1:2:0:0:
433,40,32382,5,2,1:2:0:0:
240,248,32706,5,8,1:2:0:0:
116,132,32885,5,2,0:2:0:0:
116,132,32974,1,2,0:2:0:0:
116,132,33064,2,0,P|158:73|238:85,1,152.999995330811,4|10,1:2|0:2,0:0:0:0:
313,227,33564,2,0,P|275:236|239:248,1,76.4999976654053,2|0,0:2|1:2,0:0:0:0:
424,160,33907,2,0,P|461:169|497:181,1,76.4999976654053,2|8,1:2|0:2,0:0:0:0:
397,254,34250,1,2,0:2:0:0:
280,153,34421,6,0,B|236:139|205:172|222:183|178:209|141:196,1,152.999995330811,0|10,1:2|0:2,0:0:0:0:
18,114,34930,2,0,L|34:194,1,76.4999976654053,2|0,0:2|1:2,0:0:0:0:
167,41,35270,2,0,L|151:116,1,76.4999976654053,2|8,1:2|0:2,0:0:0:0:
77,57,35610,1,2,0:2:0:0:
139,206,35780,6,0,B|186:183|235:166|235:166|255:182|279:198,1,152.999995330811,0|10,1:2|0:2,0:0:0:0:
359,320,36291,2,0,P|397:318|428:293,1,76.4999976654053,2|0,0:2|1:2,0:0:0:0:
493,231,36632,2,0,P|463:208|425:206,1,76.4999976654053,2|8,1:2|0:2,0:0:0:0:
289,269,36973,2,0,P|282:232|272:187,1,76.4999976654053,2|0,0:2|1:2,0:0:0:0:
358,105,37312,5,2,1:2:0:0:
190,200,37482,2,0,P|197:163|207:118,1,76.4999976654053,8|0,0:2|0:0,0:0:0:0:
184,25,37822,1,0,1:2:0:0:
280,97,37992,1,0,1:2:0:0:
113,241,38162,2,0,P|106:204|96:159,1,76.4999976654053,8|0,0:2|0:0,0:0:0:0:
0,43,38502,6,0,B|37:33|74:62|62:76|92:101|141:88,1,152.999995330811,0|10,1:2|0:2,0:0:0:0:
264,20,39013,2,0,P|284:49|285:91,1,76.4999976654053,2|0,0:2|1:2,0:0:0:0:
219,215,39354,1,2,1:2:0:0:
138,96,39524,2,0,P|169:72|218:74,1,76.4999976654053,8|0,0:2|0:0,0:0:0:0:
41,264,39865,5,10,0:2:0:0:
148,177,40034,1,0,1:2:0:0:
52,107,40203,1,2,1:2:0:0:
155,265,40372,2,0,P|231:241|303:221,1,152.999995330811,6|2,1:2|1:2,0:0:0:0:
456,128,40879,2,0,P|446:168|436:216,1,76.4999976654053,8|0,0:2|1:2,0:0:0:0:
311,340,41236,6,0,P|359:291|449:305,1,152.999995330811,6|10,1:2|0:2,0:0:0:0:
500,354,41756,1,10,0:2:0:0:
372,254,41929,1,8,0:2:0:0:
456,128,42094,1,10,0:2:0:0:
366,341,42260,2,0,P|330:334|296:300,1,76.4999976654053,8|2,0:2|0:2,0:0:0:0:
202,141,42585,5,8,0:2:0:0:
294,299,42759,1,0,1:2:0:0:
346,180,42934,1,0,0:0:0:0:
196,302,43109,6,0,P|161:290|136:261,1,76.4999976654053,4|0,1:2|0:0,0:0:0:0:
15,197,43454,2,0,P|8:160|21:123,1,76.4999976654053,4|0,1:2|0:0,0:0:0:0:
324,88,43800,6,0,P|302:179|282:270,1,187.000005706787,6|0,1:2|1:2,0:0:0:0:
480,360,44307,2,0,P|470:313|459:268,1,93.5000028533936,10|0,0:2|0:0,0:0:0:0:
228,172,44646,1,2,1:2:0:0:
364,364,44816,1,0,1:2:0:0:
476,152,44985,2,0,P|437:123|393:124,1,93.5000028533936,10|0,0:2|0:0,0:0:0:0:
220,296,45324,6,0,P|230:248|240:204,1,93.5000028533936,2|0,1:2|1:2,0:0:0:0:
40,88,45663,2,0,P|50:133|60:179,1,93.5000028533936,10|0,0:2|0:0,0:0:0:0:
152,344,46002,1,2,1:2:0:0:
248,128,46172,1,0,1:2:0:0:
92,284,46341,2,0,P|49:274|-4:264,1,93.5000028533936,10|0,0:2|0:0,0:0:0:0:
184,73,46680,6,0,P|224:44|280:54,1,93.5000028533936,2|0,1:2|1:2,0:0:0:0:
336,280,47021,2,0,P|291:282|256:252,1,93.5000028533936,10|0,0:2|0:0,0:0:0:0:
464,64,47363,1,2,1:2:0:0:
280,172,47534,1,0,1:2:0:0:
484,292,47705,2,0,P|493:245|504:200,1,93.5000028533936,10|0,0:2|0:0,0:0:0:0:
364,28,48046,6,0,P|374:74|384:120,1,93.5000028533936,2|0,1:2|1:2,0:0:0:0:
184,276,48388,2,0,P|193:227|204:184,1,93.5000028533936,10|0,0:2|0:0,0:0:0:0:
0,64,48730,1,2,1:2:0:0:
104,248,48900,1,0,1:2:0:0:
180,48,49071,2,0,P|216:16|268:32,1,93.5000028533936,10|0,0:2|0:0,0:0:0:0:
452,188,49404,6,0,B|404:156|348:196|400:232|328:276|284:232,1,187.000005706787,6|8,1:2|0:2,0:0:0:0:
124,120,49920,1,0,0:0:0:0:
260,316,50092,1,0,1:2:0:0:
344,96,50265,1,0,1:2:0:0:
152,260,50437,2,0,P|162:306|172:352,1,93.5000028533936,10|0,0:2|0:0,0:0:0:0:
272,132,50774,6,0,P|240:100|188:108,1,93.5000028533936,2|0,1:2|1:2,0:0:0:0:
380,276,51114,2,0,P|425:279|457:247,1,93.5000028533936,10|0,0:2|0:0,0:0:0:0:
512,36,51455,1,2,1:2:0:0:
396,200,51626,1,0,1:2:0:0:
284,28,51796,2,0,P|326:18|380:8,1,93.5000028533936,10|0,0:2|0:0,0:0:0:0:
184,216,52137,6,0,P|96:196|132:104,1,187.000005706787,2|8,1:2|0:2,0:0:0:0:
316,116,52650,2,0,P|296:206|274:306,1,187.000005706787,2|0,0:2|1:2,0:0:0:0:
484,372,53169,2,0,P|474:326|464:280,1,93.5000028533936,8|0,0:2|0:0,0:0:0:0:
500,112,53515,5,0,1:2:0:0:
376,304,53686,1,0,1:2:0:0:
304,84,53857,2,0,P|266:58|219:64,1,93.5000028533936,8|0,0:2|0:0,0:0:0:0:
56,192,54199,2,0,P|66:146|76:100,1,93.5000028533936,2|0,1:2|1:2,0:0:0:0:
216,248,54542,1,10,0:2:0:0:
24,348,54713,5,8,0:2:0:0:
24,348,54799,1,8,0:2:0:0:
24,348,54884,2,0,P|14:302|4:256,1,93.5000028533936,6|0,1:2|0:0,0:0:0:0:
208,136,55225,2,0,P|198:182|188:228,1,93.5000028533936,10|0,0:2|0:0,0:0:0:0:
392,336,55567,1,2,1:2:0:0:
276,196,55738,1,0,1:2:0:0:
444,136,55909,2,0,P|496:136|508:184,1,93.5000028533936,10|0,0:2|0:0,0:0:0:0:
295,287,56251,6,0,P|285:241|275:195,1,93.5000028533936,2|0,1:2|1:2,0:0:0:0:
136,64,56577,2,0,P|126:110|116:156,1,93.5000028533936,10|0,0:2|0:0,0:0:0:0:
92,320,56920,1,2,1:2:0:0:
212,152,57092,1,0,1:2:0:0:
304,368,57264,2,0,P|262:358|208:348,1,93.5000028533936,10|0,0:2|0:0,0:0:0:0:
376,116,57608,6,0,P|401:150|396:202,1,93.5000028533936,2|0,1:2|1:2,0:0:0:0:
228,260,57947,2,0,P|203:227|210:172,1,93.5000028533936,10|0,0:2|0:0,0:0:0:0:
376,36,58287,1,2,1:2:0:0:
300,200,58457,1,0,1:2:0:0:
188,44,58627,2,0,P|225:17|279:30,1,93.5000028533936,10|0,0:2|0:0,0:0:0:0:
472,164,58967,6,0,P|482:118|492:72,1,93.5000028533936,2|0,1:2|1:2,0:0:0:0:
308,220,59307,2,0,P|318:266|328:312,1,93.5000028533936,8|0,0:2|0:0,0:0:0:0:
124,156,59647,1,2,1:2:0:0:
236,320,59818,1,0,1:2:0:0:
352,128,59989,2,0,P|317:96|262:102,1,93.5000028533936,10|0,0:2|0:0,0:0:0:0:
116,287,60332,6,0,B|147:260|172:243|172:243|152:192|128:123,1,187.000005706787,6|8,1:2|0:2,0:0:0:0:
240,16,60853,1,0,0:0:0:0:
48,160,61027,1,0,1:2:0:0:
256,240,61201,1,0,1:2:0:0:
151,43,61375,2,0,P|140:88|131:135,1,93.5000028533936,10|0,0:2|0:0,0:0:0:0:
172,312,61712,6,0,P|135:337|87:333,1,93.5000028533936,2|0,1:2|1:2,0:0:0:0:
240,152,62053,2,0,P|281:150|324:183,1,93.5000028533936,10|0,0:2|0:0,0:0:0:0:
440,336,62395,1,2,1:2:0:0:
512,140,62566,1,0,1:2:0:0:
344,360,62737,2,0,P|334:314|324:268,1,93.5000028533936,10|0,0:2|0:0,0:0:0:0:
212,72,63079,6,0,B|252:44|312:80|272:108|336:160|380:120,1,187.000005706787,2|8,1:2|0:2,0:0:0:0:
500,4,63592,2,0,P|476:98|452:200,1,187.000005706787,2|0,0:2|1:2,0:0:0:0:
292,324,64105,2,0,P|282:278|272:232,1,93.5000028533936,8|0,0:2|0:0,0:0:0:0:
120,64,64447,5,2,1:2:0:0:
316,164,64616,1,0,1:2:0:0:
124,292,64785,2,0,P|134:246|144:200,1,93.5000028533936,10|0,0:2|0:0,0:0:0:0:
264,56,65124,1,2,1:2:0:0:
48,140,65293,1,8,0:2:0:0:
48,140,65377,1,8,0:2:0:0:
48,140,65462,2,0,P|53:160|60:188,1,46.7500014266968,10|8,0:2|0:2,0:0:0:0:
200,304,65631,2,0,P|205:281|211:258,1,46.7500014266968,8|10,0:2|0:2,0:0:0:0:
344,104,65801,6,0,P|298:93|252:84,1,93.5000028533936,6|0,1:2|0:0,0:0:0:0:
360,260,66160,2,0,P|390:224|422:190,1,93.5000028533936,8|0,0:2|0:0,0:0:0:0:
184,204,66497,2,0,P|199:248|213:292,1,93.5000028533936,0|0,1:2|1:2,0:0:0:0:
376,384,66834,1,10,0:2:0:0:
489,192,67002,6,0,B|429:176|365:160|365:160|340:181|307:198,1,187.000005706787,2|0,0:2|1:2,0:0:0:0:
148,344,67510,2,0,P|103:349|76:312,1,93.5000028533936,8|0,0:2|0:0,0:0:0:0:
240,120,67850,1,0,1:2:0:0:
80,216,68020,1,0,1:2:0:0:
263,361,68190,2,0,P|253:315|243:269,1,93.5000028533936,8|2,0:2|0:2,0:0:0:0:
72,132,68530,5,2,1:2:0:0:
168,320,68700,1,0,1:2:0:0:
240,120,68871,2,0,B|287:100|335:134|308:157|358:196|408:170,1,187.000005706787,8|0,0:2|1:2,0:0:0:0:
255,194,69383,1,0,1:2:0:0:
392,56,69553,1,10,0:2:0:0:
475,308,69724,6,0,P|385:286|294:264,1,187.000005706787,2|0,0:2|1:2,0:0:0:0:
88,196,70236,2,0,P|98:242|108:288,1,93.5000028533936,10|0,0:2|0:0,0:0:0:0:
188,72,70577,1,2,1:2:0:0:
12,184,70748,1,0,1:2:0:0:
184,332,70919,2,0,P|194:286|204:240,1,93.5000028533936,10|0,0:2|0:0,0:0:0:0:
300,80,71252,6,0,P|331:48|376:53,1,93.5000028533936,6|0,1:2|0:0,0:0:0:0:
432,268,71595,2,0,P|387:273|355:241,1,93.5000028533936,8|0,0:2|0:0,0:0:0:0:
488,56,71939,2,0,P|478:102|468:148,1,93.5000028533936,0|0,1:2|1:2,0:0:0:0:
320,316,72283,1,10,0:2:0:0:
236,124,72455,6,0,P|164:104|140:216,1,187.000005706787,2|0,0:2|1:2,0:0:0:0:
212,360,72962,2,0,P|166:349|120:340,1,93.5000028533936,8|0,0:2|0:0,0:0:0:0:
0,184,73297,2,0,P|10:230|20:276,1,93.5000028533936,0|0,1:2|1:2,0:0:0:0:
216,128,73641,2,0,P|206:174|196:220,1,93.5000028533936,8|0,0:2|0:0,0:0:0:0:
8,60,73986,5,2,1:2:0:0:
123,191,74156,1,0,1:2:0:0:
204,36,74326,2,0,P|248:36|292:74,1,93.5000028533936,10|0,0:2|0:0,0:0:0:0:
400,240,74667,1,2,1:2:0:0:
488,78,74838,1,0,1:2:0:0:
304,269,75008,2,0,P|294:223|284:177,1,93.5000028533936,10|0,0:2|0:0,0:0:0:0:
380,60,75349,5,2,1:2:0:0:
184,192,75520,1,0,1:2:0:0:
380,331,75690,2,0,P|390:285|400:239,1,93.5000028533936,10|0,0:2|0:0,0:0:0:0:
184,88,76031,1,2,1:2:0:0:
306,288,76199,1,0,1:2:0:0:
392,46,76368,1,10,0:2:0:0:
220,320,76536,5,8,0:2:0:0:
220,320,76620,1,8,0:2:0:0:
220,320,76705,2,0,P|176:328|144:292,1,93.5000028533936,6|0,1:2|0:0,0:0:0:0:
208,100,77049,2,0,P|236:134|221:179,1,93.5000028533936,8|0,0:2|0:0,0:0:0:0:
28,200,77394,2,0,P|43:157|90:148,1,93.5000028533936,0|0,1:2|1:2,0:0:0:0:
8,300,77739,1,10,0:2:0:0:
74,72,77911,6,0,B|122:55|172:89|139:115|193:153|243:123,1,187.000005706787,2|0,0:2|1:2,0:0:0:0:
376,28,78422,2,0,P|366:74|356:120,1,93.5000028533936,8|0,0:2|0:0,0:0:0:0:
272,284,78761,1,0,1:2:0:0:
460,176,78931,1,0,1:2:0:0:
290,27,79100,2,0,P|241:26|209:55,1,93.5000028533936,8|2,0:2|0:2,0:0:0:0:
156,236,79439,5,2,1:2:0:0:
283,118,79609,1,0,1:2:0:0:
102,15,79780,2,0,P|92:61|82:107,1,93.5000028533936,8|0,0:2|0:0,0:0:0:0:
252,275,80122,2,0,P|242:229|232:183,1,93.5000028533936,0|0,1:2|0:0,0:0:0:0:
109,299,80464,1,10,0:2:0:0:
320,369,80635,6,0,P|341:277|363:187,1,187.000005706787,2|0,0:2|1:2,0:0:0:0:
488,52,81141,2,0,P|465:12|420:8,1,93.5000028533936,10|0,0:2|0:0,0:0:0:0:
244,176,81476,1,2,1:2:0:0:
332,8,81646,1,0,1:2:0:0:
444,220,81816,2,0,P|488:215|511:176,1,93.5000028533936,10|0,0:2|0:0,0:0:0:0:
296,80,82157,6,0,P|286:126|276:172,1,93.5000028533936,6|0,1:2|0:0,0:0:0:0:
108,256,82499,2,0,P|98:210|88:164,1,93.5000028533936,8|0,0:2|0:0,0:0:0:0:
288,264,82842,2,0,P|278:310|268:356,1,93.5000028533936,0|0,1:2|1:2,0:0:0:0:
204,160,83185,1,10,0:2:0:0:
100,340,83357,6,0,P|18:311|33:226,1,187.000005706787,2|0,0:2|1:2,0:0:0:0:
202,55,83867,2,0,P|192:101|182:147,1,93.5000028533936,8|0,0:2|0:0,0:0:0:0:
272,292,84207,1,0,1:2:0:0:
328,112,84377,2,0,P|366:87|415:93,1,93.5000028533936,2|8,1:2|0:2,0:0:0:0:
512,268,84717,6,0,P|428:251|324:232,1,187.000005706787,2|0,0:2|1:2,0:0:0:0:
164,96,85228,2,0,P|174:142|184:188,1,93.5000028533936,8|0,0:2|0:0,0:0:0:0:
0,280,85570,2,0,P|10:234|20:188,1,93.5000028533936,2|0,1:2|1:2,0:0:0:0:
96,360,85912,2,0,B|140:392|192:344|144:320|196:264|256:296,1,187.000005706787,12|0,0:2|1:2,0:0:0:0:
496,380,86422,5,10,0:2:0:0:
360,136,86591,2,0,P|341:225|323:319,1,187.000005706787,10|0,0:2|0:0,0:0:0:0:
76,184,87099,1,10,0:2:0:0:
256,40,87270,2,0,P|265:84|274:131,1,93.5000028533936,10|0,0:2|0:0,0:0:0:0:
152,316,87610,6,0,B|236:400|372:292|236:220|380:112|464:200,1,408,6|0,1:2|0:0,0:0:0:0:
