osu file format v14

[General]
AudioFilename: audio.mp3
AudioLeadIn: 0
PreviewTime: 26360
Countdown: 0
SampleSet: Normal
StackLeniency: 0.7
Mode: 0
LetterboxInBreaks: 0
WidescreenStoryboard: 0

[Editor]
Bookmarks: 12817,24735,39530,65831,78982,90488,103639
DistanceSpacing: 1.6
BeatDivisor: 4
GridSize: 4
TimelineZoom: 1

[Metadata]
Title:ROOFTOP [prod. meltycanon]
TitleUnicode:ROOFTOP [prod. meltycanon]
Artist:SPLASH DADDY
ArtistUnicode:SPLASH DADDY
Creator:Vanilla
Version:sin
Source:
Tags:420 UNLOVABLE RECORDS meltycanon
BeatmapID:1871570
BeatmapSetID:895709

[Difficulty]
HPDrainRate:5
CircleSize:3
OverallDifficulty:8
ApproachRate:8.5
SliderMultiplier:2
SliderTickRate:1

[Events]
//Background and Video events
0,0,"wp2337007.jpg",0,0
//Break Periods
//Storyboard Layer 0 (Background)
//Storyboard Layer 1 (Fail)
//Storyboard Layer 2 (Pass)
//Storyboard Layer 3 (Foreground)
//Storyboard Sound Samples

[TimingPoints]
78,410.958904109589,4,1,0,40,1,0
26379,-79.9999999999999,4,1,0,40,0,0
28845,-44.4444444444445,4,1,0,40,0,0
29153,-44.4444444444445,4,1,0,5,0,0
29256,-200,4,1,0,40,0,0
29461,-200,4,1,0,5,0,0
29667,-79.9999999999999,4,1,0,40,0,0
35420,-133.333333333333,4,1,0,40,0,0
36242,-79.9999999999999,4,1,0,40,0,0
37064,-44.4444444444445,4,1,0,40,0,0
37475,-80,4,1,0,40,0,0
43228,-79.9999999999999,4,1,0,40,0,0
49393,-44.4444444444445,4,1,0,40,0,0
49804,-79.9999999999999,4,1,0,40,0,0
50523,-79.9999999999999,4,1,0,5,0,0
50625,-79.9999999999999,4,1,0,40,0,0
52269,-133.333333333333,4,1,0,40,0,0
52577,-133.333333333333,4,1,0,5,0,0
52680,-66.6666666666667,4,1,0,40,0,0
53091,-79.9999999999999,4,1,0,40,0,0
55146,-44.4444444444444,4,1,0,40,0,0
55557,-79.9999999999999,4,1,0,40,0,0
62132,-133.333333333333,4,1,0,40,0,0
62441,-133.333333333333,4,1,0,5,0,0
62543,-44.4444444444444,4,1,0,40,0,0
62954,-79.9999999999999,4,1,0,40,0,0
64804,-79.9999999999999,4,1,0,60,0,0
65420,-44.4444444444444,4,1,0,60,0,0
65728,-33.3333333333333,4,1,0,5,0,0
65831,-79.9999999999999,4,1,0,40,0,0
68297,-44.4444444444445,4,1,0,40,0,0
68708,-133.333333333333,4,1,0,40,0,0
69119,-79.9999999999999,4,1,0,40,0,0
71482,-79.9999999999999,4,1,0,5,0,0
71584,-79.9999999999999,4,1,0,40,0,0
78571,-100,4,1,0,40,0,0
92132,-79.9999999999999,4,1,0,40,0,1
94598,-44.4444444444445,4,1,0,40,0,1
94906,-44.4444444444445,4,1,0,5,0,1
95009,-200,4,1,0,40,0,1
95214,-200,4,1,0,5,0,1
95420,-79.9999999999999,4,1,0,40,0,1
97474,-44.4444444444444,4,1,0,40,0,1
97885,-79.9999999999999,4,1,0,40,0,1
101173,-133.333333333333,4,1,0,40,0,1
101995,-79.9999999999999,4,1,0,40,0,1
102817,-44.4444444444445,4,1,0,40,0,1
103228,-80,4,1,0,40,0,0

[HitObjects]
444,113,78,6,0,L|484:80,2,33.3333333333333,0|0|0,0:0|0:0|0:0,0:0:0:0:
338,89,283,1,0,0:0:0:0:
68,113,1310,6,0,L|28:80,2,33.3333333333333,0|0|0,0:0|0:0|0:0,0:0:0:0:
174,89,1515,1,0,0:0:0:0:
52,280,3365,5,0,0:0:0:0:
52,280,3434,2,0,L|33:332,2,33.3333333333333,0|0|0,0:0|0:0|0:0,0:0:0:0:
460,280,4598,5,0,0:0:0:0:
460,280,4667,2,0,L|479:332,2,33.3333333333333,0|0|0,0:0|0:0|0:0,0:0:0:0:
219,259,6653,6,0,P|221:226|216:195,1,33.3333333333333,0|0,0:0|0:0,0:0:0:0:
293,125,6790,2,0,P|291:158|296:189,1,33.3333333333333,0|0,0:0|0:0,0:0:0:0:
189,155,7886,6,0,P|222:157|253:152,1,33.3333333333333,0|0,0:0|0:0,0:0:0:0:
323,229,8023,2,0,P|290:227|259:232,1,33.3333333333333,0|0,0:0|0:0,0:0:0:0:
195,76,9941,6,0,P|166:51|144:49,3,33.3333333333333,0|0|0|0,0:0|0:0|0:0|0:0,0:0:0:0:
317,308,11173,6,0,P|346:333|368:335,3,33.3333333333333,0|0|0|0,0:0|0:0|0:0|0:0,0:0:0:0:
147,291,12817,6,0,P|134:222|116:179,1,100,0|0,0:0|0:0,0:0:0:0:
61,78,13228,5,0,0:0:0:0:
230,181,13639,2,0,P|296:204|342:210,1,100,0|0,0:0|0:0,0:0:0:0:
436,220,14050,1,8,0:0:0:0:
386,113,14256,1,0,0:0:0:0:
297,331,14461,5,0,0:0:0:0:
389,304,14667,1,0,0:0:0:0:
222,257,14872,2,0,P|272:229|341:240,1,100,0|0,0:0|0:0,0:0:0:0:
389,304,15283,2,0,P|339:332|270:321,1,100,0|0,0:0|0:0,0:0:0:0:
411,198,15694,1,8,0:0:0:0:
451,78,16516,5,0,0:0:0:0:
372,137,16721,1,0,0:0:0:0:
282,181,16927,2,0,P|216:204|170:210,1,100,0|0,0:0|0:0,0:0:0:0:
76,220,17338,1,8,0:0:0:0:
131,315,17543,1,0,0:0:0:0:
120,112,17749,5,0,0:0:0:0:
25,322,17955,1,0,0:0:0:0:
233,335,18160,6,0,P|286:336|352:318,1,100,0|0,0:0|0:0,0:0:0:0:
317,138,18571,2,0,P|289:183|272:249,1,100,0|0,0:0|0:0,0:0:0:0:
387,228,18982,1,8,0:0:0:0:
487,70,19804,5,0,0:0:0:0:
402,26,20009,1,0,0:0:0:0:
309,42,20214,2,0,P|321:117|311:169,1,100,0|0,0:0|0:0,0:0:0:0:
204,101,20625,1,8,0:0:0:0:
90,341,21037,5,0,0:0:0:0:
182,314,21243,1,0,0:0:0:0:
107,240,21447,6,0,P|157:212|226:223,1,100,0|0,0:0|0:0,0:0:0:0:
358,348,21858,2,0,P|308:318|283:253,1,100,0|0,0:0|0:0,0:0:0:0:
307,154,22269,1,8,0:0:0:0:
223,88,23091,6,0,P|162:98|119:80,1,100,0|0,0:0|0:0,0:0:0:0:
287,7,23502,2,0,P|326:54|332:101,1,100,0|0,0:0|0:0,0:0:0:0:
207,214,23913,1,8,0:0:0:0:
506,292,24324,5,0,0:0:0:0:
422,188,24530,1,0,0:0:0:0:
354,303,24735,2,0,P|296:312|245:307,1,100,0|0,0:0|0:0,0:0:0:0:
68,247,25146,5,0,0:0:0:0:
298,188,25351,1,8,0:0:0:0:
61,61,25557,5,8,0:0:0:0:
163,282,25762,1,8,0:0:0:0:
240,97,25968,1,8,0:0:0:0:
275,85,26070,1,8,0:0:0:0:
312,86,26173,1,8,0:0:0:0:
348,98,26276,1,8,0:0:0:0:
378,120,26379,6,0,P|434:150|499:139,1,125,8|0,0:0|0:0,0:0:0:0:
298,189,26790,2,0,P|300:251|342:302,1,125,0|0,0:0|0:0,0:0:0:0:
512,242,27201,2,0,P|456:212|391:223,1,125,8|0,0:0|0:0,0:0:0:0:
266,374,27612,1,0,0:0:0:0:
441,301,27817,1,0,0:0:0:0:
278,89,28023,5,0,0:0:0:0:
3,182,28434,1,0,0:0:0:0:
180,255,28845,2,8,B|120:190|51:150|51:150|113:135|113:135|53:109|0:43,1,337.500012874604
122,0,29256,2,0,P|140:17|170:25,1,50,0|0,0:0|0:0,0:0:0:0:
306,42,29667,5,0,0:0:0:0:
433,0,29872,1,0,0:0:0:0:
404,127,30077,2,0,B|387:192|338:143|322:224,1,125
281,346,30488,5,8,0:0:0:0:
414,322,30694,1,0,0:0:0:0:
188,284,30899,2,0,P|111:286|30:327,1,125,0|0,0:0|0:0,0:0:0:0:
0,102,31310,6,0,P|30:156|76:197,1,125
120,85,31721,2,0,P|182:85|241:66,1,125
222,199,32132,1,0,0:0:0:0:
305,304,32338,5,0,0:0:0:0:
343,106,32543,1,0,0:0:0:0:
188,284,32749,1,0,0:0:0:0:
369,208,32954,6,0,P|431:198|498:220,1,125,0|0,0:0|0:0,0:0:0:0:
266,179,33365,2,0,P|222:134|164:112,1,125,0|0,0:0|0:0,0:0:0:0:
290,288,33776,1,8,0:0:0:0:
0,365,34187,5,0,0:0:0:0:
62,300,34393,1,0,0:0:0:0:
98,213,34598,6,0,P|119:154|164:111,1,125,0|0,0:0|0:0,0:0:0:0:
337,226,35009,2,0,P|277:208|216:218,1,125,0|0,0:0|0:0,0:0:0:0:
269,323,35420,2,0,P|319:338|371:329,3,75.0000028610231,8|0|0|0,0:0|0:0|0:0|0:0,0:0:0:0:
485,345,36242,6,0,P|438:293|424:213,1,125,0|0,0:0|0:0,0:0:0:0:
441,70,36653,1,0,0:0:0:0:
306,144,36858,1,0,0:0:0:0:
333,294,37064,6,0,P|344:364|294:294,1,225.000008583069,8|0,0:0|0:0,0:0:0:0:
173,341,37475,2,0,P|183:280|218:229,1,125,0|0,0:0|0:0,0:0:0:0:
401,232,37886,6,0,P|435:283|446:345,1,125,0|0,0:0|0:0,0:0:0:0:
314,331,38297,1,0,0:0:0:0:
301,154,38502,5,4,0:0:0:0:
155,356,38707,1,4,0:0:0:0:
153,107,38913,1,4,0:0:0:0:
302,307,39119,1,8,0:0:0:0:
65,233,39324,1,8,0:0:0:0:
301,154,39530,6,0,P|361:123|397:64,1,125,12|0,0:0|0:0,0:0:0:0:
472,193,39941,1,0,0:0:0:0:
292,52,40146,1,0,0:0:0:0:
191,196,40351,1,8,0:0:0:0:
384,167,40762,2,0,B|342:150|312:126|312:126|282:156|267:197,2,125,0|0|0,0:0|0:0|0:0,0:0:0:0:
512,224,41379,5,0,0:0:0:0:
403,64,41584,1,0,0:0:0:0:
221,231,41790,1,0,0:0:0:0:
274,38,41995,2,0,P|278:113|319:181,1,125
404,271,42406,1,0,0:0:0:0:
184,168,42612,1,0,0:0:0:0:
198,341,42817,6,0,P|264:328|309:284,1,125
494,337,43228,2,0,P|428:324|383:280,1,125
312,127,43639,1,8,0:0:0:0:
18,47,44050,2,0,P|84:60|129:104,1,125,0|0,0:0|0:0,0:0:0:0:
177,253,44461,5,0,0:0:0:0:
282,145,44667,1,0,0:0:0:0:
301,353,44872,1,0,0:0:0:0:
191,161,45078,1,0,0:0:0:0:
84,337,45283,2,0,P|145:326|213:290,1,125,8|0,0:0|0:0,0:0:0:0:
373,133,45694,5,4,0:0:0:0:
424,368,45899,1,4,0:0:0:0:
243,180,46105,6,0,P|193:139|108:140,1,125,12|0,0:0|0:0,0:0:0:0:
145,261,46516,1,0,0:0:0:0:
11,85,46721,1,0,0:0:0:0:
207,57,46927,2,0,P|267:64|314:104,1,125,8|0,0:0|0:0,0:0:0:0:
411,246,47338,1,0,0:0:0:0:
420,269,47954,5,0,0:0:0:0:
360,347,48160,2,0,P|375:270|374:201,1,125,0|0,0:0|0:0,0:0:0:0:
512,177,48571,2,0,B|447:159|496:111|415:95,1,125
266,131,48982,1,0,0:0:0:0:
280,269,49187,1,0,0:0:0:0:
157,354,49393,6,0,B|198:305|265:307|265:307|313:343|400:353,1,225.000008583069,0|0,0:0|0:0,0:0:0:0:
348,209,49804,2,0,P|334:146|340:72,1,125,0|0,0:0|0:0,0:0:0:0:
216,166,50214,2,0,P|110:195|42:264,1,187.5,8|0,0:0|0:0,0:0:0:0:
5,154,50625,5,0,0:0:0:0:
192,325,50831,1,0,0:0:0:0:
192,348,51242,5,0,0:0:0:0:
349,336,51447,2,0,P|284:298|252:233,1,125,0|4,0:0|0:0,0:0:0:0:
234,51,51858,1,4,0:0:0:0:
358,235,52064,1,4,0:0:0:0:
332,17,52269,2,0,P|286:14|233:51,1,112.500004291535,4|0,0:0|0:0,0:0:0:0:
308,104,52680,6,0,P|246:63|144:71,1,150.000005722046,4|0,0:0|0:0,0:0:0:0:
31,122,53091,1,0,0:0:0:0:
88,239,53297,1,0,0:0:0:0:
145,356,53502,1,8,0:0:0:0:
140,140,53913,5,0,0:0:0:0:
172,205,54119,1,0,0:0:0:0:
204,271,54324,1,0,0:0:0:0:
316,368,54530,6,0,P|308:290|336:223,1,125,0|0,0:0|0:0,0:0:0:0:
427,99,54941,1,0,0:0:0:0:
402,315,55146,2,0,P|263:280|205:185,1,225.000008583069,12|0,0:0|0:0,0:0:0:0:
25,281,55557,2,0,P|100:294|163:272,1,125,0|0,0:0|0:0,0:0:0:0:
328,186,55968,5,12,0:0:0:0:
374,348,56173,1,0,0:0:0:0:
491,227,56379,1,0,0:0:0:0:
266,296,56584,1,0,0:0:0:0:
152,128,56790,2,0,P|134:68|157:6,1,125,8|0,0:0|0:0,0:0:0:0:
268,136,57201,1,0,0:0:0:0:
153,10,57406,1,0,0:0:0:0:
74,86,57817,5,0,0:0:0:0:
49,185,58023,2,0,P|91:139|157:128,1,125,0|0,0:0|0:0,0:0:0:0:
327,156,58434,1,8,0:0:0:0:
144,227,58639,1,0,0:0:0:0:
239,34,58845,5,4,0:0:0:0:
254,292,59050,1,4,0:0:0:0:
343,45,59256,5,12,0:0:0:0:
223,143,59461,1,0,0:0:0:0:
358,293,59667,5,0,0:0:0:0:
144,227,59872,1,0,0:0:0:0:
25,358,60077,2,0,P|77:327|146:321,1,125,8|0,0:0|0:0,0:0:0:0:
327,350,60488,1,0,0:0:0:0:
140,320,60694,1,0,0:0:0:0:
349,251,60899,6,0,P|296:220|256:164,1,125,0|0,0:0|0:0,0:0:0:0:
219,0,61310,1,0,0:0:0:0:
141,203,61516,1,0,0:0:0:0:
169,76,61721,2,0,P|221:45|290:38,1,125,8|0,0:0|0:0,0:0:0:0:
360,178,62132,2,0,P|314:141|239:140,1,112.500004291535,0|0,0:0|0:0,0:0:0:0:
281,228,62543,6,0,B|351:295|428:239|428:239|451:297|510:333,1,225.000008583069
411,362,62954,2,0,P|429:263|420:198,1,125
287,270,63365,2,0,P|233:237|189:194,1,125,8|0,0:0|0:0,0:0:0:0:
100,286,63776,2,0,P|68:339|24:384,2,125
235,308,64393,6,0,P|204:252|188:193,1,125,0|0,0:0|0:0,0:0:0:0:
184,33,64804,5,4,0:0:0:0:
376,138,65009,5,4,0:0:0:0:
271,330,65214,5,4,0:0:0:0:
79,225,65420,6,0,B|56:202|56:202|89:214|89:214|66:184|66:184|96:202|96:202|75:174|75:174|104:194|104:194|90:163|90:163|115:188|115:188|105:154|105:154|128:180,1,337.500012874604,4|0,0:0|0:0,0:0:0:0:
235,227,65831,1,0,0:0:0:0:
324,154,66036,1,0,0:0:0:0:
355,279,66242,2,0,P|410:234|476:232,1,125,0|0,0:0|0:0,0:0:0:0:
449,338,66653,1,8,0:0:0:0:
365,109,67064,1,0,0:0:0:0:
512,68,67269,1,0,0:0:0:0:
281,14,67475,5,0,0:0:0:0:
354,278,67886,2,0,P|316:230|258:211,1,125,0|0,0:0|0:0,0:0:0:0:
56,332,68297,2,0,B|93:322|116:288|116:288|180:350|253:310,1,225.000008583069,8|0,0:0|0:0,0:0:0:0:
202,155,68708,2,0,L|197:231,1,75.0000028610231,0|0,0:0|0:0,0:0:0:0:
39,241,69119,6,0,P|53:171|101:107,1,125,0|0,0:0|0:0,0:0:0:0:
199,32,69530,2,0,P|198:85|229:123,1,62.5,0|0,0:0|0:0,0:0:0:0:
286,192,69735,1,0,0:0:0:0:
144,325,69941,2,0,P|219:289|287:296,1,125,8|0,0:0|0:0,0:0:0:0:
397,346,70351,1,0,0:0:0:0:
371,206,70557,1,0,0:0:0:0:
259,289,70762,5,0,0:0:0:0:
471,260,70968,1,0,0:0:0:0:
323,136,71173,2,0,P|268:149|339:182,1,187.5,0|0,0:0|0:0,0:0:0:0:
322,53,71584,2,0,P|254:61|194:116,1,125,8|0,0:0|0:0,0:0:0:0:
119,316,71995,1,4,0:0:0:0:
68,60,72201,1,4,0:0:0:0:
259,289,72406,6,0,P|330:333|420:331,1,125,12|0,0:0|0:0,0:0:0:0:
366,173,72817,2,0,P|326:99|247:56,1,125,0|0,0:0|0:0,0:0:0:0:
130,235,73228,2,0,P|200:191|291:192,1,125,8|0,0:0|0:0,0:0:0:0:
343,246,73639,1,0,0:0:0:0:
35,22,74050,6,0,P|101:58|182:52,1,125,0|0,0:0|0:0,0:0:0:0:
112,165,74461,2,0,P|187:163|254:117,1,125,0|0,0:0|0:0,0:0:0:0:
333,30,74872,1,0,0:0:0:0:
356,160,75078,1,0,0:0:0:0:
255,238,75283,2,0,P|219:303|225:385,1,125,0|0,0:0|0:0,0:0:0:0:
423,257,75694,6,0,P|376:310|293:316,1,125,0|0,0:0|0:0,0:0:0:0:
322,100,76105,2,0,P|344:167|308:242,1,125,0|0,0:0|0:0,0:0:0:0:
133,114,76516,2,0,P|202:128|249:197,1,125,0|0,0:0|0:0,0:0:0:0:
50,284,76927,2,0,P|97:231|180:225,1,125,0|0,0:0|0:0,0:0:0:0:
256,369,77338,6,0,P|186:354|139:285,1,125,0|0,0:0|0:0,0:0:0:0:
252,248,77749,1,0,0:0:0:0:
7,312,77954,5,0,0:0:0:0:
224,127,78160,1,0,0:0:0:0:
357,322,78365,5,0,0:0:0:0:
84,201,78571,2,0,B|38:168|38:168|31:115,1,100,0|0,0:0|0:0,0:0:0:0:
54,24,78982,5,0,0:0:0:0:
282,202,79393,2,0,P|216:179|170:173,1,100,0|0,0:0|0:0,0:0:0:0:
76,163,79804,1,8,0:0:0:0:
126,270,80010,1,0,0:0:0:0:
215,52,80215,5,0,0:0:0:0:
123,79,80421,1,0,0:0:0:0:
290,126,80626,2,0,P|240:154|171:143,1,100,0|0,0:0|0:0,0:0:0:0:
123,79,81037,2,0,P|173:51|242:62,1,100,0|0,0:0|0:0,0:0:0:0:
101,185,81448,1,8,0:0:0:0:
61,305,82270,5,0,0:0:0:0:
140,246,82475,1,0,0:0:0:0:
230,202,82681,2,0,P|296:179|342:173,1,100,0|0,0:0|0:0,0:0:0:0:
436,163,83092,1,8,0:0:0:0:
381,68,83297,1,0,0:0:0:0:
392,271,83503,5,0,0:0:0:0:
487,61,83709,1,0,0:0:0:0:
279,48,83914,6,0,P|226:47|160:65,1,100,0|0,0:0|0:0,0:0:0:0:
195,245,84325,2,0,P|223:200|240:134,1,100,0|0,0:0|0:0,0:0:0:0:
125,155,84736,1,8,0:0:0:0:
25,313,85558,5,0,0:0:0:0:
110,357,85763,1,0,0:0:0:0:
203,341,85968,2,0,P|191:266|201:214,1,100,0|0,0:0|0:0,0:0:0:0:
308,282,86379,1,8,0:0:0:0:
422,42,86791,5,0,0:0:0:0:
330,69,86995,1,0,0:0:0:0:
405,143,87201,6,0,P|355:171|286:160,1,100,0|0,0:0|0:0,0:0:0:0:
154,35,87612,2,0,P|204:65|229:130,1,100,0|0,0:0|0:0,0:0:0:0:
186,307,88023,1,8,0:0:0:0:
289,295,88845,6,0,P|350:285|393:303,1,100,0|0,0:0|0:0,0:0:0:0:
225,376,89256,2,0,P|186:329|180:282,1,100,0|0,0:0|0:0,0:0:0:0:
305,169,89667,1,8,0:0:0:0:
6,91,90078,5,0,0:0:0:0:
90,195,90284,1,0,0:0:0:0:
158,80,90489,2,0,P|216:71|267:76,1,100,0|0,0:0|0:0,0:0:0:0:
444,136,90900,5,0,0:0:0:0:
214,195,91105,1,8,0:0:0:0:
451,322,91311,5,8,0:0:0:0:
349,101,91516,1,8,0:0:0:0:
272,286,91722,1,8,0:0:0:0:
237,298,91824,1,8,0:0:0:0:
200,297,91927,1,8,0:0:0:0:
164,285,92030,1,8,0:0:0:0:
134,263,92133,6,0,P|78:233|13:244,1,125,8|0,0:0|0:0,0:0:0:0:
214,194,92544,2,0,P|212:132|170:81,1,125,0|0,0:0|0:0,0:0:0:0:
0,141,92955,2,0,P|56:171|121:160,1,125,8|0,0:0|0:0,0:0:0:0:
246,9,93366,1,0,0:0:0:0:
71,82,93571,1,0,0:0:0:0:
234,294,93777,5,0,0:0:0:0:
504,210,94188,1,0,0:0:0:0:
332,122,94598,2,0,B|391:186|460:226|460:226|398:241|398:241|458:267|511:333,1,337.500012874604,0|0,0:0|3:0,3:0:0:0:
390,383,95009,2,0,P|372:366|342:358,1,50
206,341,95420,5,0,0:0:0:0:
79,383,95625,1,0,0:0:0:0:
108,256,95830,2,0,B|125:191|174:240|190:159,1,125,0|0,0:0|0:0,0:0:0:0:
231,37,96241,5,8,0:0:0:0:
98,61,96447,1,0,0:0:0:0:
324,99,96652,2,0,P|401:97|482:56,1,125,0|0,0:0|0:0,0:0:0:0:
512,281,97063,6,0,P|482:227|436:186,1,125,0|0,0:0|0:0,0:0:0:0:
392,299,97475,2,0,P|330:299|271:318,1,125
298,192,97886,1,0,0:0:0:0:
207,79,98091,5,0,0:0:0:0:
167,276,98296,1,0,0:0:0:0:
324,99,98502,1,0,0:0:0:0:
143,175,98707,6,0,P|81:185|14:163,1,125,0|0,0:0|0:0,0:0:0:0:
246,204,99118,2,0,P|290:249|348:271,1,125,0|0,0:0|0:0,0:0:0:0:
222,95,99529,1,8,0:0:0:0:
512,18,99940,5,0,0:0:0:0:
450,83,100146,1,0,0:0:0:0:
414,170,100351,6,0,P|393:229|348:272,1,125,0|0,0:0|0:0,0:0:0:0:
175,157,100762,2,0,P|235:175|296:165,1,125,0|0,0:0|0:0,0:0:0:0:
243,61,101173,2,0,P|193:46|141:55,3,75.0000028610231,8|0|0|0,0:0|0:0|0:0|0:0,0:0:0:0:
27,38,101995,6,0,P|74:90|88:170,1,125,0|0,0:0|0:0,0:0:0:0:
71,313,102406,1,0,0:0:0:0:
206,239,102611,1,0,0:0:0:0:
259,297,102817,1,0,0:0:0:0:
339,42,103228,6,0,P|329:103|294:154,1,125,0|0,0:0|0:0,0:0:0:0:
87,192,103639,2,0,P|161:244|217:246,1,125
194,80,104050,2,0,P|127:67|101:68,2,83.3333333333333
423,166,104530,2,0,P|398:216|295:249,1,166.666666666667
117,211,105077,2,0,P|58:292|151:271,1,250,0|0,0:0|0:0,0:0:0:0:
