osu file format v14

[General]
AudioFilename: audio.mp3
AudioLeadIn: 0
PreviewTime: 7302
Countdown: 1
SampleSet: None
StackLeniency: 0.5
Mode: 0
LetterboxInBreaks: 0
WidescreenStoryboard: 1

[Editor]
DistanceSpacing: 0.8
BeatDivisor: 6
GridSize: 16
TimelineZoom: 2.7

[Metadata]
Title:ALL I WANT FOR CHRISTMAS
TitleUnicode:ALL I WANT FOR CHRISTMAS
Artist:SPIDERMAN SLAP
ArtistUnicode:SPIDERMAN SLAP
Creator:banter
Version:WEE WOO I@M COMNG FOR YOU
Source:
Tags:kill myself
BeatmapID:1489140
BeatmapSetID:650448

[Difficulty]
HPDrainRate:10
CircleSize:0.1111111
OverallDifficulty:6.969697E-05
ApproachRate:4.197284
SliderMultiplier:3.59999990463257
SliderTickRate:1

[Events]
//Background and Video events
Video,0,"SPIDERMAN SLAP - ALL I WANT FOR CHRISTMAS.avi"
0,0,"maxresdefault (1).jpg",0,0
//Break Periods
//Storyboard Layer 0 (Background)
//Storyboard Layer 1 (Fail)
//Storyboard Layer 2 (Pass)
//Storyboard Layer 3 (Foreground)
//Storyboard Sound Samples

[TimingPoints]
1026,400,4,1,0,100,1,0
1026,-200,4,1,0,100,0,0
6092,200,4,1,0,100,1,0
6092,-66.6666666666667,4,1,0,100,0,0
6158,-66.6666666666667,4,1,0,5,0,0
6225,-66.6666666666667,4,1,0,100,0,0
6558,-66.6666666666667,4,1,0,5,0,0
6625,-66.6666666666667,4,1,0,100,0,0
6892,-50,4,1,0,100,0,0
6958,-50,4,1,0,5,0,0
7025,-50,4,1,0,100,0,0
7426,400,4,1,0,100,1,0
8226,-66.6666666666667,4,1,0,100,0,0
8892,-100,4,1,0,100,0,0
10626,-50,4,1,0,100,0,0
11026,-200,4,1,0,100,0,0
11426,-100,4,1,0,100,0,0
11692,-100,4,1,0,100,0,0
12626,-66.6666666666667,4,1,0,100,0,0
13026,-50,4,1,0,100,0,0
13402,100,4,1,0,100,1,0
13402,-50,4,1,0,100,0,0
13802,400,4,1,0,100,1,0
13802,-200,4,1,0,100,0,0
14204,400,4,1,0,100,1,0
14204,-50,4,1,0,100,0,0
15004,-25,4,1,0,100,0,0
15404,-100,4,1,0,100,0,0
16204,-200,4,1,0,100,0,0
16450,200,4,1,0,100,1,0
16450,-25,4,1,0,100,0,0
16583,-200,4,1,0,100,0,0
16850,-25,4,1,0,100,0,0
16983,-100,4,1,0,100,0,0
17404,400,4,1,0,100,1,0
17804,-50,4,1,0,100,0,0
18337,-66.6666666666667,4,1,0,100,0,0

[HitObjects]
354,113,1026,6,0,L|445:119,2,59.9999984105428
216,59,1426,2,0,L|125:65,2,59.9999984105428
354,113,1826,2,0,L|445:119,2,59.9999984105428
216,59,2226,2,0,L|125:65,2,59.9999984105428
363,230,2626,6,0,L|370:309,1,59.9999984105428
243,265,2892,1,0,0:0:0:0:
243,265,3026,2,0,L|229:343,1,59.9999984105428
363,230,3292,1,0,0:0:0:0:
363,230,3426,6,0,L|370:309,1,59.9999984105428
243,265,3692,1,0,0:0:0:0:
243,265,3826,2,0,L|229:343,1,59.9999984105428
363,230,4092,1,0,0:0:0:0:
132,191,4226,5,0,0:0:0:0:
363,230,4359,1,0,0:0:0:0:
363,230,4626,1,0,0:0:0:0:
132,191,4892,1,0,0:0:0:0:
363,230,5026,1,0,0:0:0:0:
193,79,5159,1,0,0:0:0:0:
232,324,5292,1,0,0:0:0:0:
385,86,5426,5,0,0:0:0:0:
132,191,5559,5,0,0:0:0:0:
486,172,5692,5,0,0:0:0:0:
65,82,5826,5,0,0:0:0:0:
477,351,6092,6,0,L|486:163,1,180.000002098084
486,172,6225,1,0,0:0:0:0:
351,368,6492,6,0,L|360:180,1,180.000002098084
359,188,6625,1,0,0:0:0:0:
65,82,6892,6,0,L|79:336,1,239.999993642171
78,321,7025,1,0,0:0:0:0:
412,76,7225,1,0,0:0:0:0:
256,266,7426,6,0,P|171:303|-1:245,1,239.999993642171
256,266,7826,2,0,P|341:303|513:245,1,239.999993642171
256,0,8226,6,0,B|256:96|256:96|272:112|272:112|256:128|256:128|256:144|256:144|240:160|240:160|256:176|256:176|256:384,1,360.000004196167
256,333,8626,6,0,L|256:136,1,180.000002098084
90,79,8892,5,0,0:0:0:0:
90,79,9292,1,0,0:0:0:0:
373,172,9426,6,0,B|394:113|394:113|365:26,1,119.999996821086
375,58,9692,1,0,0:0:0:0:
92,192,9826,6,0,B|71:133|71:133|100:46,1,119.999996821086
312,304,10092,1,0,0:0:0:0:
192,304,10226,6,0,L|320:304,1,119.999996821086
312,304,10492,1,0,0:0:0:0:
203,26,10626,6,0,B|194:236|194:236|198:135|198:135|189:356,1,479.999987284343
203,26,11026,6,0,L|197:172,1,119.999996821086
203,26,11426,6,0,L|198:169,1,119.999996821086
188,384,11692,2,0,L|200:128,1,239.999993642171
188,384,12092,1,0,0:0:0:0:
512,273,12226,6,0,P|426:227|235:287,1,239.999993642171
142,448,12626,6,0,P|206:326|122:57,1,360.000004196167
0,73,13026,6,0,P|121:142|417:21,1,479.999987284343
502,0,13402,6,0,P|366:-64|-52:318,1,719.999980926514
41,458,13635,6,0,P|146:448|564:66,1,719.999980926514
0,73,13802,6,0,L|9:216,1,119.999996821086
61,189,14204,6,0,B|57:128|57:128|58:144|61:179|61:179|57:125|57:125|61:172|61:172|56:116|56:116|61:163|61:163|54:108|54:108|59:154|59:154|47:29,1,479.999987284343
301,229,14604,6,0,P|209:312|56:89,1,479.999987284343
53,92,15004,6,0,P|100:300|301:229,1,479.999987284343
512,230,15270,6,0,B|438:174|438:174|286:236,1,239.999993642171
308,110,15404,6,0,L|298:287,1,119.999996821086
301,229,15670,5,0,0:0:0:0:
512,364,15804,6,0,L|541:222,1,119.999996821086
301,229,16070,5,0,0:0:0:0:
308,110,16204,5,0,0:0:0:0:
308,110,16450,6,0,L|-184:135,1,479.999987284343
303,289,16583,6,0,L|308:89,1,179.999995231629
308,110,16850,6,0,L|-184:135,1,479.999987284343
414,312,16983,6,0,L|422:28,1,239.999993642171
162,117,17250,5,0,0:0:0:0:
194,115,17404,6,0,P|248:41|124:41,1,239.999993642171
128,0,17804,2,0,B|73:128|73:128|139:233|139:233|103:407,1,479.999987284343
194,115,18204,5,0,0:0:0:0:
454,222,18470,6,0,B|356:190|278:223|278:223|174:270|86:200,1,360.000004196167
398,384,18870,6,0,P|392:333|391:393,1,180.000002098084
194,115,19137,1,0,0:0:0:0:
398,384,19270,1,0,0:0:0:0:
194,115,19404,6,0,P|188:64|187:124,1,180.000002098084
428,208,19670,1,0,0:0:0:0:
185,294,19804,6,0,L|196:63,2,180.000002098084
