osu file format v14

[General]
AudioFilename: SpasmSound & Nami_Li & Nika Lenina (TV-version) - B Chiku Sentai SOX (Shimoseka .mp3
AudioLeadIn: 0
PreviewTime: -1
Countdown: 1
SampleSet: None
StackLeniency: 0.7
Mode: 0
LetterboxInBreaks: 1
WidescreenStoryboard: 0

[Editor]
DistanceSpacing: 2
BeatDivisor: 4
GridSize: 4
TimelineZoom: 1.6

[Metadata]
Title:B Chiku Sentai SOX
TitleUnicode:地区戦隊SOX
Artist:SOX
ArtistUnicode:SOX
Creator:mikvoin
Version:Insane
Source:下ネタという概念が存在しない退屈な世界
Tags:Nika Lenina, Spasmsound, nami_li, russian, sveta5razmer, tv size, opening
BeatmapID:1252814
BeatmapSetID:592080

[Difficulty]
HPDrainRate:7
CircleSize:4
OverallDifficulty:8
ApproachRate:9
SliderMultiplier:1.4
SliderTickRate:2

[Events]
//Background and Video events
0,0,"snapshot20150705062027.jpg",0,0
//Break Periods
2,50295,60224
//Storyboard Layer 0 (Background)
//Storyboard Layer 1 (Fail)
//Storyboard Layer 2 (Pass)
//Storyboard Layer 3 (Foreground)
//Storyboard Sound Samples

[TimingPoints]
440,397.350993377483,4,1,0,100,1,0
38561,789.473684210526,4,1,0,100,1,0
44930,397.350993377483,4,1,0,100,1,0

[HitObjects]
420,76,460,5,0,0:0:0:0:
360,76,559,1,0,0:0:0:0:
300,76,658,1,0,0:0:0:0:
240,76,758,1,0,0:0:0:0:
180,76,857,1,0,0:0:0:0:
80,308,1453,1,0,0:0:0:0:
348,80,1850,2,0,B|196:52|168:108|264:156|316:208|320:276|296:300|240:320|184:300|120:244,1,490
96,308,3638,5,0,0:0:0:0:
96,244,3738,1,0,0:0:0:0:
96,180,3837,1,0,0:0:0:0:
96,120,3936,1,0,0:0:0:0:
96,60,4036,1,0,0:0:0:0:
424,52,4632,1,0,0:0:0:0:
264,136,5029,2,0,P|276:248|252:136,1,350
392,128,6221,5,0,0:0:0:0:
256,88,6420,1,0,0:0:0:0:
128,268,6618,2,8,P|160:292|180:256,1,70
440,340,7016,1,0,0:0:0:0:
356,228,7214,1,0,0:0:0:0:
300,100,7413,2,8,P|248:84|216:104,1,70
220,256,7810,2,0,L|304:204,1,70
324,84,8208,2,8,L|384:152,1,70
72,164,8605,1,0,0:0:0:0:
212,164,8804,1,0,0:0:0:0:
348,196,9003,2,8,P|340:144|324:132,1,70
320,344,9400,2,2,P|388:308|432:264,1,140
460,196,9996,5,0,0:0:0:0:
396,196,10095,1,0,0:0:0:0:
256,52,10294,1,0,0:0:0:0:
256,112,10393,1,0,0:0:0:0:
84,196,10592,1,0,0:0:0:0:
148,196,10691,1,0,0:0:0:0:
260,344,10890,1,0,0:0:0:0:
260,288,10989,1,0,0:0:0:0:
256,196,11188,1,0,0:0:0:0:
124,40,11387,2,0,P|132:76|168:120,1,70
256,192,11983,12,0,12976,0:0:0:0:
120,80,13175,6,8,P|112:152|152:212,1,140
196,256,13771,1,0,0:0:0:0:
408,328,14169,1,0,0:0:0:0:
236,240,14367,1,0,0:0:0:0:
428,116,14566,1,0,0:0:0:0:
264,48,14765,1,0,0:0:0:0:
324,220,14963,1,0,0:0:0:0:
344,68,15161,1,8,0:0:0:0:
100,192,15360,1,8,0:0:0:0:
312,192,15559,1,0,0:0:0:0:
480,284,15758,6,0,P|480:248|436:224,1,70
392,104,16156,2,0,P|344:88|316:96,1,70
140,152,16751,1,8,0:0:0:0:
140,268,16949,1,8,0:0:0:0:
232,328,17347,6,0,P|276:344|312:328,1,70
416,264,17744,2,0,P|460:224|464:204,1,70
444,64,18141,1,0,0:0:0:0:
312,48,18340,2,8,P|272:40|220:64,1,70
108,140,18737,2,0,P|96:184|100:216,1,70
164,324,19135,1,0,0:0:0:0:
304,328,19333,1,0,0:0:0:0:
444,328,19532,1,0,0:0:0:0:
436,48,19929,5,8,0:0:0:0:
440,188,20128,1,8,0:0:0:0:
256,72,20526,1,0,0:0:0:0:
44,72,20725,1,0,0:0:0:0:
252,200,20924,1,0,0:0:0:0:
40,196,21122,1,0,0:0:0:0:
144,336,21321,1,0,0:0:0:0:
332,336,21520,1,8,0:0:0:0:
500,268,21718,1,8,0:0:0:0:
440,128,21916,6,0,P|380:100|304:92,1,140
168,100,22512,1,0,0:0:0:0:
84,228,22711,1,0,0:0:0:0:
476,348,23307,1,0,0:0:0:0:
360,268,23506,1,0,0:0:0:0:
88,40,24103,1,0,0:0:0:0:
196,128,24301,1,0,0:0:0:0:
260,356,24698,1,0,0:0:0:0:
260,240,24896,1,0,0:0:0:0:
464,52,25294,5,0,0:0:0:0:
460,324,25492,1,0,0:0:0:0:
460,184,25691,1,0,0:0:0:0:
212,100,25890,6,0,P|156:112|144:136,1,70
96,280,26287,1,0,0:0:0:0:
264,348,26486,1,0,0:0:0:0:
408,280,26884,6,0,P|448:236|452:216,1,70
420,92,27281,2,0,P|396:56|352:60,1,70
232,40,27679,1,0,0:0:0:0:
100,88,27877,1,0,0:0:0:0:
108,228,28076,2,0,P|148:280|176:284,1,70
288,312,28473,2,0,P|304:316|368:308,1,70
484,192,28871,1,0,0:0:0:0:
404,40,29069,1,0,0:0:0:0:
108,48,29466,5,0,0:0:0:0:
104,300,29664,1,0,0:0:0:0:
328,300,30062,1,0,0:0:0:0:
472,184,30261,1,0,0:0:0:0:
328,48,30459,1,0,0:0:0:0:
64,352,30857,5,0,0:0:0:0:
292,344,31055,1,0,0:0:0:0:
248,276,31254,2,0,B|284:248|296:220|288:192,1,70
496,152,31651,1,0,0:0:0:0:
320,16,31850,1,0,0:0:0:0:
168,80,32049,2,0,P|124:64|108:104,1,70
104,356,32645,5,0,0:0:0:0:
108,216,32843,1,0,0:0:0:0:
352,352,33241,1,0,0:0:0:0:
352,212,33440,1,0,0:0:0:0:
444,116,33638,1,0,0:0:0:0:
304,60,33837,1,0,0:0:0:0:
248,56,33936,1,0,0:0:0:0:
192,56,34035,1,0,0:0:0:0:
28,60,34234,1,0,0:0:0:0:
28,200,34433,1,0,0:0:0:0:
168,200,34632,5,0,0:0:0:0:
408,344,35029,1,0,0:0:0:0:
420,64,35426,1,0,0:0:0:0:
76,60,36022,1,0,0:0:0:0:
176,156,36221,1,0,0:0:0:0:
452,196,36618,6,0,P|440:252|428:268,1,70
300,308,37016,2,0,P|252:272|224:276,1,70
104,272,37413,2,0,P|60:268|48:232,1,70
128,132,37810,2,0,P|172:112|188:80,1,70
324,92,38208,2,0,B|360:76|400:88|412:100,1,70
308,232,38605,5,0,0:0:0:0:
484,220,38955,2,0,P|480:260|428:288,1,70
320,296,39547,2,0,P|232:288|228:288,1,70
220,224,40139,1,0,0:0:0:0:
428,72,40534,2,0,L|452:52|500:84,1,70
456,352,41126,2,0,P|404:344|380:320,1,70
340,288,41718,1,0,0:0:0:0:
36,16,42113,5,0,0:0:0:0:
40,156,42311,1,0,0:0:0:0:
236,220,42705,1,0,0:0:0:0:
272,60,42903,1,0,0:0:0:0:
432,92,43100,2,0,P|440:152|420:176,1,70
224,332,43692,1,0,0:0:0:0:
84,248,43889,1,0,0:0:0:0:
84,68,44087,5,0,0:0:0:0:
364,68,44482,1,0,0:0:0:0:
84,60,44930,6,0,P|88:112|84:140,1,70
208,64,45327,1,0,0:0:0:0:
264,212,45526,1,0,0:0:0:0:
132,340,45724,1,0,0:0:0:0:
384,344,45923,1,0,0:0:0:0:
452,204,46122,6,0,P|452:172|432:132,1,70
328,48,46519,2,0,P|288:52|228:72,1,70
128,140,46916,1,0,0:0:0:0:
176,344,47115,1,0,0:0:0:0:
52,272,47314,1,0,0:0:0:0:
380,312,47512,1,0,0:0:0:0:
472,204,47711,1,0,0:0:0:0:
104,84,48108,5,0,0:0:0:0:
416,80,48307,1,0,0:0:0:0:
104,232,48704,1,0,0:0:0:0:
416,232,48903,1,0,0:0:0:0:
256,344,49300,1,0,0:0:0:0:
256,44,49499,1,0,0:0:0:0:
412,56,49896,1,0,0:0:0:0:
416,344,50095,1,0,0:0:0:0:
224,340,60824,6,0,L|224:292,1,35
424,200,61122,2,0,L|372:200,1,35
256,84,61420,2,0,L|256:132,1,35
120,196,61718,2,0,L|180:196,1,35
172,308,62016,2,0,L|212:272,1,35
392,308,62314,2,0,L|352:264,1,35
256,192,62612,8,0,63506,0:0:0:0:
168,60,64002,6,0,P|144:92|136:124,1,70
148,260,64400,2,0,P|176:300|208:304,1,70
336,300,64797,2,0,P|352:260|388:248,1,70
488,128,65194,1,0,0:0:0:0:
212,324,65393,2,0,L|364:336,1,140
216,152,65989,2,0,P|164:140|84:184,1,140
320,336,66784,1,0,0:0:0:0:
436,60,67181,5,0,0:0:0:0:
400,208,67380,1,0,0:0:0:0:
264,64,67579,1,0,0:0:0:0:
92,60,67777,1,0,0:0:0:0:
116,156,67976,2,0,P|68:220|76:300,1,140
240,352,68572,1,0,0:0:0:0:
436,200,68969,1,0,0:0:0:0:
204,256,69168,5,8,0:0:0:0:
204,256,69267,1,8,0:0:0:0:
204,256,69367,2,0,P|256:228|268:204,1,70
360,120,69764,2,0,P|376:112|384:52,1,70
468,336,70360,1,0,0:0:0:0:
60,56,70757,1,0,0:0:0:0:
60,336,71155,1,0,0:0:0:0:
200,332,71353,1,8,0:0:0:0:
200,332,71453,1,8,0:0:0:0:
200,332,71552,1,8,0:0:0:0:
340,316,71751,6,0,P|328:252|280:184,1,140
236,80,72347,1,0,0:0:0:0:
432,280,72744,1,8,0:0:0:0:
444,140,72943,1,8,0:0:0:0:
328,60,73141,1,8,0:0:0:0:
196,336,73539,2,0,P|212:344|276:340,1,70
400,316,73936,2,0,P|424:288|420:236,1,70
380,124,74333,2,0,P|356:80|264:72,1,140
136,104,74929,2,0,P|108:128|104:232,1,140
360,324,75724,5,0,0:0:0:0:
364,44,76122,1,0,0:0:0:0:
224,44,76320,1,0,0:0:0:0:
256,360,77115,5,0,0:0:0:0:
256,44,77314,1,0,0:0:0:0:
132,192,77512,1,0,0:0:0:0:
388,192,77711,1,0,0:0:0:0:
256,192,77910,1,0,0:0:0:0:
256,44,78307,5,0,0:0:0:0:
432,56,78704,5,0,0:0:0:0:
432,312,78903,1,0,0:0:0:0:
200,312,79101,1,0,0:0:0:0:
200,56,79300,1,0,0:0:0:0:
440,188,79499,1,0,0:0:0:0:
228,356,79896,2,0,P|172:348|156:272,1,140
292,300,80492,5,0,0:0:0:0:
104,56,80691,1,0,0:0:0:0:
420,60,80890,1,0,0:0:0:0:
292,300,81088,1,0,0:0:0:0:
104,56,81287,1,0,0:0:0:0:
148,180,81486,6,0,P|108:256|164:304,1,140
236,340,82082,2,0,P|336:356|380:324,1,140
420,212,82678,2,0,P|428:168|372:72,1,140
112,36,83473,2,0,P|68:72|64:100,1,70
72,224,83870,2,0,P|52:256|64:300,1,70
188,332,84267,2,0,P|240:340|260:332,1,70
384,280,84665,1,0,0:0:0:0:
232,44,85062,1,4,0:0:0:0:
96,68,85459,5,0,0:0:0:0:
384,68,85658,1,0,0:0:0:0:
96,300,85857,1,0,0:0:0:0:
384,296,86055,1,0,0:0:0:0:
240,192,86254,1,0,0:0:0:0:
472,36,86651,1,0,0:0:0:0:
472,176,86850,1,0,0:0:0:0:
348,92,87247,1,0,0:0:0:0:
348,92,87446,2,0,B|292:56|192:48|152:100|128:160|148:232|256:204|304:224|352:240|340:296|328:332|288:360|248:368|180:360|132:352|84:340|96:292|80:260|92:248|88:228,1,700
