osu file format v14

[General]
AudioFilename: audio.mp3
AudioLeadIn: 0
PreviewTime: 192615
Countdown: 0
SampleSet: Soft
StackLeniency: 0.3
Mode: 0
LetterboxInBreaks: 0
WidescreenStoryboard: 0

[Editor]
DistanceSpacing: 1.8
BeatDivisor: 4
GridSize: 4
TimelineZoom: 1

[Metadata]
Title:Shikaku Kakumei
TitleUnicode:Shikaku Kakumei
Artist:SOUTAISEIRIRON
ArtistUnicode:SOUTAISEIRIRON
Creator:Nokris
Version:Insane
Source:
Tags:
BeatmapID:1621328
BeatmapSetID:771167

[Difficulty]
HPDrainRate:6.8
CircleSize:4
OverallDifficulty:8.5
ApproachRate:9
SliderMultiplier:1.6
SliderTickRate:1

[Events]
//Background and Video events
0,0,"kakumei.jpg",0,0
//Break Periods
2,168815,180015
//Storyboard Layer 0 (Background)
//Storyboard Layer 1 (Fail)
//Storyboard Layer 2 (Pass)
//Storyboard Layer 3 (Foreground)
//Storyboard Sound Samples

[TimingPoints]
615,375,4,2,1,40,1,0
615,-200,4,2,1,40,0,0
48615,-100,4,2,1,40,0,0
58177,-133.333333333333,4,2,1,40,0,0
58740,-200,4,2,1,40,0,0
59115,-100,4,2,1,40,0,0
60615,-66.6666666666667,4,2,1,40,0,0
61177,-100,4,2,1,40,0,0
63240,-200,4,2,1,40,0,0
63615,-66.6666666666667,4,2,1,40,0,0
63990,-100,4,2,1,40,0,0
65865,-200,4,2,1,40,0,0
66615,-66.6666666666667,4,2,1,40,0,0
66990,-100,4,2,1,40,0,0
69240,-200,4,2,1,40,0,0
69615,-66.6666666666667,4,2,1,40,0,0
69990,-100,4,2,1,40,0,0
84615,-83.3333333333333,4,2,1,40,0,0
85365,-83.3333333333333,4,2,1,50,0,1
108615,-100,4,2,1,40,0,0
120615,-66.6666666666667,4,2,1,40,0,0
121365,-100,4,2,1,40,0,0
122865,-200,4,2,1,40,0,0
123615,-66.6666666666667,4,2,1,40,0,0
123990,-100,4,2,1,40,0,0
126240,-200,4,2,1,40,0,0
126615,-66.6666666666667,4,2,1,40,0,0
127177,-100,4,2,1,40,0,0
129240,-200,4,2,1,40,0,0
129615,-66.6666666666667,4,2,1,40,0,0
130365,-100,4,2,1,40,0,0
144615,-83.3333333333333,4,2,1,40,0,1
144990,-83.3333333333333,4,2,1,50,0,1
168615,-83.3333333333333,4,2,1,50,0,0
180615,-100,4,2,1,40,0,0
192615,-76.9230769230769,4,2,1,50,0,1
196365,-76.9230769230769,4,2,1,30,0,1
196740,-76.9230769230769,4,2,1,35,0,1
197115,-76.9230769230769,4,2,1,40,0,1
197490,-76.9230769230769,4,2,1,50,0,1
202365,-76.9230769230769,4,2,1,35,0,1
202740,-76.9230769230769,4,2,1,40,0,1
203115,-76.9230769230769,4,2,1,45,0,1
204615,-76.9230769230769,4,2,1,50,0,1
216427,-76.9230769230769,4,2,1,60,0,0

[Colours]
Combo1 : 216,216,235
Combo2 : 164,209,255
Combo3 : 170,255,213
Combo4 : 255,196,225

[HitObjects]
47,176,48615,6,0,P|27:141|25:101,1,80
79,31,48990,1,0,0:0:0:0:
87,37,49177,1,0,0:0:0:0:
140,203,49365,6,0,P|150:164|177:135,1,80
262,76,49740,1,0,0:0:0:0:
255,82,49927,1,0,0:0:0:0:
361,68,50115,5,0,0:0:0:0:
234,210,50302,1,0,0:0:0:0:
177,135,50490,1,0,0:0:0:0:
36,264,50677,6,0,B|75:248|110:273|110:273|146:299|187:280,1,160
248,347,51240,2,0,P|264:331|270:261,1,80
172,112,51615,5,0,0:0:0:0:
264,88,51802,2,0,L|359:66,1,80
172,112,52177,1,0,0:0:0:0:
363,234,52365,2,0,P|363:211|318:157,1,80
172,112,52740,1,0,0:0:0:0:
0,234,52927,5,0,0:0:0:0:
152,189,53115,1,0,0:0:0:0:
112,342,53302,1,0,0:0:0:0:
76,211,53490,5,0,0:0:0:0:
132,265,53677,1,0,0:0:0:0:
192,317,53865,2,0,L|277:302,1,80
421,372,54240,2,0,L|506:357,1,80
358,329,54615,5,0,0:0:0:0:
349,338,54802,1,0,0:0:0:0:
392,223,54990,5,0,0:0:0:0:
380,227,55177,1,0,0:0:0:0:
511,174,55365,5,0,0:0:0:0:
384,142,55552,1,0,0:0:0:0:
496,189,55740,5,0,0:0:0:0:
435,77,55927,1,0,0:0:0:0:
392,223,56115,6,0,P|322:260|244:249,1,160
193,311,56677,1,0,0:0:0:0:
119,152,56865,2,0,P|153:172|175:204,1,80
250,363,57240,2,0,P|215:342|193:310,1,80
198,102,57615,6,0,L|288:118,1,80
198,102,57990,1,0,0:0:0:0:
347,168,58177,6,0,L|396:134,1,60.0000022888184
347,168,58552,1,0,0:0:0:0:
481,124,58740,6,0,L|489:84,1,40
481,124,59115,1,0,0:0:0:0:
506,9,59302,1,0,0:0:0:0:
212,82,59490,5,0,0:0:0:0:
376,93,59677,1,0,0:0:0:0:
288,111,59864,1,0,0:0:0:0:
434,35,60052,1,0,0:0:0:0:
347,168,60239,1,0,0:0:0:0:
315,25,60427,1,0,0:0:0:0:
421,210,60615,6,0,B|357:178|292:199|323:245|240:269|175:221,1,240.000009155274
84,279,61177,1,0,0:0:0:0:
75,269,61271,1,0,0:0:0:0:
69,258,61365,6,0,P|79:219|109:194,1,80
230,320,61740,2,0,P|219:358|189:383,1,80
0,209,62115,1,0,0:0:0:0:
0,209,62865,5,0,0:0:0:0:
0,209,62958,1,0,0:0:0:0:
0,209,63052,1,0,0:0:0:0:
0,209,63146,1,0,0:0:0:0:
0,209,63240,2,0,P|19:186|30:158,1,60
0,84,63615,6,0,P|86:159|198:129,1,240.000009155274
329,50,64177,1,0,0:0:0:0:
333,39,64271,1,0,0:0:0:0:
336,28,64365,6,0,P|296:25|260:42,1,80
248,227,64740,2,0,P|287:229|323:212,1,80
456,40,65115,1,0,0:0:0:0:
456,40,65865,5,0,0:0:0:0:
456,40,66052,1,0,0:0:0:0:
456,40,66240,2,0,L|474:110,1,60
512,163,66615,6,0,B|410:149|410:149|377:164|377:164|277:151,1,240.000009155274
215,299,67177,1,0,0:0:0:0:
215,299,67271,1,0,0:0:0:0:
215,299,67365,6,0,L|197:203,1,80
18,151,67740,2,0,L|3:229,1,80
163,31,68115,1,0,0:0:0:0:
163,31,68865,5,0,0:0:0:0:
163,31,68958,1,0,0:0:0:0:
163,31,69052,1,0,0:0:0:0:
163,31,69146,1,0,0:0:0:0:
162,30,69240,2,0,P|190:41|228:41,1,60
283,0,69615,6,0,B|253:60|297:113|297:113|337:169|297:223,1,240.000009155274
172,261,70177,1,0,0:0:0:0:
172,261,70271,1,0,0:0:0:0:
172,261,70365,6,0,P|135:240|85:244,1,80
6,359,70740,2,0,P|43:380|93:376,1,80
254,245,71115,6,0,B|211:243|187:278|187:278|162:315|116:312,2,160
298,377,72052,1,0,0:0:0:0:
298,377,72146,1,0,0:0:0:0:
298,377,72240,6,0,P|307:336|333:285,1,80
490,250,72615,2,0,L|327:216,1,160
448,159,73177,1,0,0:0:0:0:
254,245,73365,6,0,P|235:210|237:170,1,80
358,42,73740,2,0,P|376:76|374:116,1,80
323,301,74115,2,0,P|253:263|175:272,1,160
0,335,74677,1,0,0:0:0:0:
137,179,74865,5,0,0:0:0:0:
221,375,75052,1,0,0:0:0:0:
128,92,75240,5,0,0:0:0:0:
59,230,75427,1,0,0:0:0:0:
75,40,75615,6,0,B|114:56|149:31|149:31|185:5|226:23,1,160
385,24,76177,1,0,0:0:0:0:
318,69,76365,2,0,P|296:102|284:140,1,80
394,282,76740,2,0,P|415:248|427:210,1,80
284,140,77115,5,0,0:0:0:0:
200,155,77302,1,0,0:0:0:0:
117,170,77490,1,0,0:0:0:0:
34,185,77677,1,0,0:0:0:0:
148,94,77865,5,0,0:0:0:0:
82,245,78052,1,0,0:0:0:0:
59,108,78240,5,0,0:0:0:0:
170,230,78427,1,0,0:0:0:0:
193,12,78615,6,0,P|218:35|235:87,1,80
170,230,78990,2,0,B|131:214|96:239|96:239|60:265|18:246,1,160
241,169,79552,1,0,0:0:0:0:
224,302,79740,2,0,P|198:325|181:377,1,80
314,211,80115,6,0,P|378:254|456:244,1,160
224,302,80677,1,0,0:0:0:0:
268,148,80865,2,0,P|277:109|266:71,1,80
81,116,81240,2,0,P|71:154|82:192,1,80
102,337,81615,5,0,0:0:0:0:
347,267,81802,1,0,0:0:0:0:
224,302,81990,1,0,0:0:0:0:
377,184,82177,5,0,0:0:0:0:
403,196,82271,1,0,0:0:0:0:
420,218,82365,1,0,0:0:0:0:
254,370,82552,1,0,0:0:0:0:
279,237,82740,2,0,L|297:143,1,80
223,92,83115,6,0,B|181:96|161:134|161:134|142:174|96:178,1,160
10,151,83677,2,0,L|-6:94,2,40
121,359,84052,1,0,0:0:0:0:
126,339,84145,1,0,0:0:0:0:
131,320,84239,1,0,0:0:0:0:
36,241,84427,5,0,0:0:0:0:
199,384,84615,2,0,L|307:361,1,95.9999970703126
471,199,84990,5,0,0:0:0:0:
292,271,85177,1,0,0:0:0:0:
320,161,85365,5,0,0:0:0:0:
442,306,85552,1,0,0:0:0:0:
400,160,85740,5,0,0:0:0:0:
363,308,85927,1,0,0:0:0:0:
250,203,86115,5,0,0:0:0:0:
512,266,86303,1,0,0:0:0:0:
320,161,86490,6,0,B|268:185|228:152|228:152|185:118|140:136,2,191.999994140625
320,161,87427,1,0,0:0:0:0:
49,60,87615,5,0,0:0:0:0:
90,197,87802,1,0,0:0:0:0:
131,335,87990,1,0,0:0:0:0:
46,289,88177,1,0,0:0:0:0:
90,197,88365,5,0,0:0:0:0:
365,261,88552,1,0,0:0:0:0:
131,284,88740,5,0,0:0:0:0:
323,173,88927,1,0,0:0:0:0:
212,282,89115,5,0,0:0:0:0:
241,174,89302,1,0,0:0:0:0:
29,235,89490,5,0,0:0:0:0:
107,314,89677,1,0,0:0:0:0:
162,97,89865,5,0,0:0:0:0:
54,125,90052,1,0,0:0:0:0:
138,207,90240,5,0,0:0:0:0:
185,0,90427,1,0,0:0:0:0:
94,49,90615,5,0,0:0:0:0:
215,169,90802,1,0,0:0:0:0:
185,74,90990,1,0,0:0:0:0:
118,142,91177,1,0,0:0:0:0:
251,260,91365,6,0,P|284:227|291:181,1,95.9999970703126
158,62,91740,2,0,P|124:95|117:141,1,95.9999970703126
158,301,92115,2,0,B|201:279|244:304|244:304|296:334|341:306,2,191.999994140625
359,194,93052,1,0,0:0:0:0:
417,343,93240,2,0,P|460:362|507:359,1,95.9999970703126
294,244,93615,6,0,P|263:154|296:66,1,191.999994140625
236,5,94177,5,0,0:0:0:0:
95,118,94365,2,0,P|139:135|172:169,1,95.9999970703126
88,349,94740,2,0,P|80:301|94:256,1,95.9999970703126
294,244,95115,2,0,P|256:273|210:284,1,95.9999970703126
11,135,95490,5,0,0:0:0:0:
123,113,95677,1,0,0:0:0:0:
236,93,95865,1,0,0:0:0:0:
58,70,96052,5,0,0:0:0:0:
225,102,96239,1,0,0:0:0:0:
394,132,96427,1,0,0:0:0:0:
209,284,96615,5,0,0:0:0:0:
209,284,96802,1,0,0:0:0:0:
180,217,96990,5,0,0:0:0:0:
236,347,97177,1,0,0:0:0:0:
117,186,97365,5,0,0:0:0:0:
298,380,97552,1,0,0:0:0:0:
151,323,97740,5,0,0:0:0:0:
265,241,97927,1,0,0:0:0:0:
80,319,98115,5,0,0:0:0:0:
209,284,98302,1,0,0:0:0:0:
336,246,98490,1,0,0:0:0:0:
368,363,98678,5,0,0:0:0:0:
209,284,98865,1,0,0:0:0:0:
48,201,99052,1,0,0:0:0:0:
387,295,99240,5,0,0:0:0:0:
29,270,99427,1,0,0:0:0:0:
114,382,99615,2,0,B|161:390|195:353|195:353|236:310|287:323,1,191.999994140625
492,236,100177,1,0,0:0:0:0:
459,354,100365,2,0,P|411:358|368:338,1,95.9999970703126
332,169,100740,2,0,P|379:164|422:184,1,95.9999970703126
176,255,101115,1,0,0:0:0:0:
200,172,101302,1,0,0:0:0:0:
225,88,101490,1,0,0:0:0:0:
156,42,101677,5,0,0:0:0:0:
296,130,101865,1,0,0:0:0:0:
229,5,102052,1,0,0:0:0:0:
153,125,102240,1,0,0:0:0:0:
300,47,102427,1,0,0:0:0:0:
156,42,102615,1,0,0:0:0:0:
224,170,102802,1,0,0:0:0:0:
225,88,102990,5,0,0:0:0:0:
128,217,103177,1,0,0:0:0:0:
285,247,103365,2,0,P|324:273|370:285,1,95.9999970703126
493,100,103740,2,0,P|446:111|407:138,1,95.9999970703126
250,360,104115,2,0,L|222:161,1,191.999994140625
201,13,104677,1,0,0:0:0:0:
298,142,104865,2,0,B|251:155|214:122|214:122|168:83|119:102,1,191.999994140625
280,55,105427,1,0,0:0:0:0:
109,261,105615,6,0,P|115:215|146:178,1,95.9999970703126
360,78,105990,2,0,P|385:117|386:164,1,95.9999970703126
207,254,106365,1,0,0:0:0:0:
198,249,106552,1,0,0:0:0:0:
312,324,106740,1,0,0:0:0:0:
302,326,106927,1,0,0:0:0:0:
450,301,107115,1,0,0:0:0:0:
444,309,107302,1,0,0:0:0:0:
511,195,107490,1,0,0:0:0:0:
416,64,107677,5,0,0:0:0:0:
442,76,107771,1,0,0:0:0:0:
459,98,107865,1,0,0:0:0:0:
511,195,108052,5,0,0:0:0:0:
368,220,108240,1,0,0:0:0:0:
498,208,108427,1,0,0:0:0:0:
337,177,108615,6,0,L|247:155,1,80
192,99,108990,1,0,0:0:0:0:
198,94,109177,1,0,0:0:0:0:
426,0,109365,6,0,L|336:21,1,80
281,78,109740,1,0,0:0:0:0:
287,83,109927,1,0,0:0:0:0:
397,233,110115,6,0,P|416:198|417:159,1,80
364,98,110490,1,0,0:0:0:0:
312,258,110677,2,0,B|224:238|242:294|139:269,1,160
89,318,111240,1,0,0:0:0:0:
85,312,111427,1,0,0:0:0:0:
10,199,111615,6,0,P|9:159|29:125,1,80
184,11,111990,2,0,P|204:44|203:84,1,80
135,170,112365,1,0,0:0:0:0:
310,112,112552,2,0,B|411:98|372:147|483:129,1,160
342,257,113115,5,0,0:0:0:0:
499,318,113302,1,0,0:0:0:0:
434,371,113490,1,0,0:0:0:0:
407,205,113677,5,0,0:0:0:0:
486,235,113865,1,0,0:0:0:0:
355,340,114052,1,0,0:0:0:0:
224,250,114240,6,0,P|243:215|275:191,1,80
279,366,114615,2,0,B|214:358|214:358|189:369|189:369|104:358,1,160
14,237,115177,1,0,0:0:0:0:
62,301,115365,2,0,P|39:338|42:387,1,80
154,211,115740,2,0,P|177:248|174:297,1,80
12,131,116115,6,0,L|100:118,1,80
230,97,116490,1,0,0:0:0:0:
154,211,116677,2,0,L|316:235,1,160
391,287,117240,1,0,0:0:0:0:
396,282,117427,1,0,0:0:0:0:
505,6,117615,6,0,P|465:5|431:25,1,80
453,227,117990,2,0,P|493:159|483:81,1,160
405,100,118552,5,0,0:0:0:0:
479,369,118740,2,0,P|462:332|437:301,1,80
231,222,119115,5,0,0:0:0:0:
218,231,119302,1,0,0:0:0:0:
262,120,119490,5,0,0:0:0:0:
260,104,119677,1,0,0:0:0:0:
343,193,119865,5,0,0:0:0:0:
357,199,120052,1,0,0:0:0:0:
316,351,120240,2,0,P|339:318|353:281,1,80
382,102,120615,6,0,B|278:116|278:116|251:140|251:140|136:157,1,240.000009155274
23,85,121177,1,0,0:0:0:0:
23,85,121271,1,0,0:0:0:0:
23,85,121365,6,0,L|102:72,1,80
77,225,121740,1,0,0:0:0:0:
145,156,121927,1,0,0:0:0:0:
213,294,122115,1,0,0:0:0:0:
213,294,122865,5,0,0:0:0:0:
213,294,122958,1,0,0:0:0:0:
213,294,123052,1,0,0:0:0:0:
213,294,123146,1,0,0:0:0:0:
213,294,123240,2,0,L|231:220,1,60
140,322,123615,6,0,B|204:290|269:311|238:357|321:381|386:333,1,240.000009155274
512,289,124177,1,0,0:0:0:0:
501,300,124271,1,0,0:0:0:0:
491,309,124365,6,0,P|451:308|414:292,1,80
261,165,124740,2,0,P|297:149|337:148,1,80
425,195,125115,1,0,0:0:0:0:
425,195,125865,5,0,0:0:0:0:
425,195,126052,1,0,0:0:0:0:
425,195,126240,2,0,P|412:167|411:138,1,60
509,236,126615,6,0,L|259:194,1,240.000009155274
94,158,127177,1,0,0:0:0:0:
94,158,127271,1,0,0:0:0:0:
94,158,127365,6,0,L|178:143,1,80
351,182,127740,1,0,0:0:0:0:
272,195,127927,1,0,0:0:0:0:
323,52,128115,1,0,0:0:0:0:
323,52,128865,5,0,0:0:0:0:
323,52,128958,1,0,0:0:0:0:
323,52,129052,1,0,0:0:0:0:
323,52,129146,1,0,0:0:0:0:
323,51,129240,2,0,P|296:37|268:27,1,60
400,0,129615,6,0,P|347:104|384:215,1,240.000009155274
429,372,130177,1,0,0:0:0:0:
429,372,130271,1,0,0:0:0:0:
429,371,130365,6,0,P|466:358|496:332,1,80
351,349,130927,2,0,B|253:326|289:380|168:352,1,160
101,373,131490,2,0,P|78:342|73:302,1,80
159,189,131865,1,0,0:0:0:0:
0,266,132052,1,0,0:0:0:0:
0,266,132146,1,0,0:0:0:0:
0,266,132240,2,0,P|5:226|30:195,1,80
236,83,132615,5,0,0:0:0:0:
146,43,132802,1,0,0:0:0:0:
94,136,132990,2,0,B|188:128|147:182|275:166,1,160
368,261,133552,1,0,0:0:0:0:
251,314,133740,2,0,P|263:275|289:245,1,80
498,371,134115,6,0,L|321:347,1,160
109,317,134677,1,0,0:0:0:0:
258,376,134865,2,0,L|173:365,1,80
418,359,135240,2,0,L|333:348,1,80
39,370,135615,6,0,P|12:296|40:223,1,160
52,71,136177,1,0,0:0:0:0:
52,71,136365,2,0,P|74:104|90:140,1,80
248,244,136740,2,0,P|264:207|286:174,1,80
506,38,137115,5,0,0:0:0:0:
421,99,137302,1,0,0:0:0:0:
352,36,137490,1,0,0:0:0:0:
292,80,137677,1,0,0:0:0:0:
258,53,137865,2,0,L|178:41,1,80
79,223,138240,2,0,L|158:211,1,80
295,169,138615,6,0,B|202:187|228:118|141:134,1,160
331,99,139177,1,0,0:0:0:0:
331,99,139365,2,0,P|364:131|371:174,1,80
198,317,139740,5,0,0:0:0:0:
362,306,139927,1,0,0:0:0:0:
274,288,140114,1,0,0:0:0:0:
420,364,140302,1,0,0:0:0:0:
333,231,140489,1,0,0:0:0:0:
301,374,140677,1,0,0:0:0:0:
290,365,140865,2,0,P|250:364|213:378,1,80
35,341,141240,2,0,P|72:355|111:354,1,80
268,261,141615,6,0,B|255:193|255:193|265:170|265:170|251:87,1,160
190,289,142177,5,0,0:0:0:0:
368,123,142365,2,0,P|404:138|444:145,1,80
141,104,142740,2,0,P|107:108|55:130,1,80
173,302,143115,5,0,0:0:0:0:
315,208,143302,1,0,0:0:0:0:
211,232,143490,1,0,0:0:0:0:
380,253,143677,1,0,0:0:0:0:
286,333,143865,5,0,0:0:0:0:
249,162,144052,1,0,0:0:0:0:
256,143,144145,1,0,0:0:0:0:
264,125,144239,1,0,0:0:0:0:
211,232,144427,5,0,0:0:0:0:
414,180,144615,2,0,L|514:154,1,95.9999970703126
171,152,144990,5,0,0:0:0:0:
387,290,145177,1,0,0:0:0:0:
137,263,145365,5,0,0:0:0:0:
324,176,145552,1,0,0:0:0:0:
216,227,145740,5,0,0:0:0:0:
200,316,145927,1,0,0:0:0:0:
137,263,146115,1,0,0:0:0:0:
315,264,146302,5,0,0:0:0:0:
118,384,146490,1,0,0:0:0:0:
119,158,146677,1,0,0:0:0:0:
185,267,146865,5,0,0:0:0:0:
296,142,147052,1,0,0:0:0:0:
239,206,147240,1,0,0:0:0:0:
239,206,147427,5,0,0:0:0:0:
375,153,147615,1,0,0:0:0:0:
475,253,147802,1,0,0:0:0:0:
322,367,147990,5,0,0:0:0:0:
318,356,148177,1,0,0:0:0:0:
188,298,148365,1,0,0:0:0:0:
192,287,148552,1,0,0:0:0:0:
143,157,148740,1,0,0:0:0:0:
153,152,148927,1,0,0:0:0:0:
174,14,149115,1,0,0:0:0:0:
184,17,149302,1,0,0:0:0:0:
262,132,149490,5,0,0:0:0:0:
139,231,149677,1,0,0:0:0:0:
358,110,149865,5,0,0:0:0:0:
122,149,150052,1,0,0:0:0:0:
397,194,150240,5,0,0:0:0:0:
183,80,150427,1,0,0:0:0:0:
285,322,150615,6,0,L|260:121,1,191.999994140625
291,55,151177,1,0,0:0:0:0:
139,231,151365,2,0,P|91:221|47:202,1,95.9999970703126
385,147,151740,2,0,P|432:156|476:175,1,95.9999970703126
153,308,152115,5,0,0:0:0:0:
244,194,152303,1,0,0:0:0:0:
349,71,152490,1,0,0:0:0:0:
274,274,152677,5,0,0:0:0:0:
217,115,152865,1,0,0:0:0:0:
244,194,153052,1,0,0:0:0:0:
141,160,153240,5,0,0:0:0:0:
349,228,153427,1,0,0:0:0:0:
217,115,153615,6,0,L|14:154,1,191.999994140625
360,116,154177,1,0,0:0:0:0:
440,240,154365,6,0,P|402:268|355:280,1,95.9999970703126
184,195,154740,2,0,P|210:234|250:260,1,95.9999970703126
356,124,155115,2,0,P|346:171|319:210,1,95.9999970703126
70,256,155490,2,0,P|108:283|155:293,1,95.9999970703126
293,370,155865,1,0,0:0:0:0:
243,224,156052,1,0,0:0:0:0:
216,384,156240,5,0,0:0:0:0:
252,237,156427,1,0,0:0:0:0:
288,103,156615,2,0,L|312:-6,1,95.9999970703126
151,207,156990,5,0,0:0:0:0:
358,159,157177,1,0,0:0:0:0:
134,190,157365,1,0,0:0:0:0:
374,173,157552,1,0,0:0:0:0:
271,311,157740,5,0,0:0:0:0:
209,258,157927,1,0,0:0:0:0:
228,50,158115,1,0,0:0:0:0:
291,109,158302,1,0,0:0:0:0:
250,185,158490,2,0,B|200:164|161:190|161:190|111:220|68:193,1,191.999994140625
12,114,159052,1,0,0:0:0:0:
25,106,159240,1,0,0:0:0:0:
13,276,159427,1,0,0:0:0:0:
1,266,159615,5,0,0:0:0:0:
113,301,159802,1,0,0:0:0:0:
222,331,159990,1,0,0:0:0:0:
65,370,160177,5,0,0:0:0:0:
167,235,160365,1,0,0:0:0:0:
335,239,160552,1,0,0:0:0:0:
242,384,160740,1,0,0:0:0:0:
278,183,160927,1,0,0:0:0:0:
204,312,161115,1,0,0:0:0:0:
313,354,161302,5,0,0:0:0:0:
219,128,161490,1,0,0:0:0:0:
167,235,161677,5,0,0:0:0:0:
408,278,161865,1,0,0:0:0:0:
339,232,162052,1,0,0:0:0:0:
297,305,162240,1,0,0:0:0:0:
512,348,162427,1,0,0:0:0:0:
367,352,162615,1,0,0:0:0:0:
370,365,162802,5,0,0:0:0:0:
481,256,162990,2,0,P|506:215|512:168,1,95.9999970703126
284,330,163365,2,0,P|237:319|199:290,1,95.9999970703126
410,182,163740,2,0,P|407:134|385:92,1,95.9999970703126
299,230,164115,2,0,P|267:194|254:148,1,95.9999970703126
0,346,164490,2,0,L|189:376,1,191.999994140625
108,260,165052,5,0,0:0:0:0:
299,230,165240,2,0,L|178:249,1,95.9999970703126
318,149,165615,1,0,0:0:0:0:
504,359,165802,1,0,0:0:0:0:
436,173,165990,1,0,0:0:0:0:
311,314,166177,1,0,0:0:0:0:
494,238,166365,5,0,0:0:0:0:
505,251,166552,1,0,0:0:0:0:
353,119,166740,5,0,0:0:0:0:
369,120,166927,1,0,0:0:0:0:
181,180,167115,5,0,0:0:0:0:
193,169,167302,1,0,0:0:0:0:
108,326,167490,5,0,0:0:0:0:
38,252,167677,5,0,0:0:0:0:
58,232,167771,1,0,0:0:0:0:
85,225,167865,1,0,0:0:0:0:
204,362,168052,5,0,0:0:0:0:
181,180,168240,1,0,0:0:0:0:
108,326,168427,1,0,0:0:0:0:
293,269,168615,5,0,0:0:0:0:
48,297,180615,6,0,P|22:266|15:227,1,80
63,163,180990,1,0,0:0:0:0:
125,365,181177,6,0,P|128:325|150:292,1,80
229,275,181552,1,0,0:0:0:0:
223,287,181740,5,0,0:0:0:0:
181,218,181927,1,0,0:0:0:0:
236,160,182115,1,0,0:0:0:0:
198,89,182302,1,0,0:0:0:0:
250,28,182490,6,0,P|287:41|326:48,1,80
512,32,182865,2,0,P|474:18|435:11,1,80
349,128,183240,1,0,0:0:0:0:
436,101,183427,1,0,0:0:0:0:
506,251,183615,5,0,0:0:0:0:
432,281,183802,2,0,L|325:258,1,80
281,299,184177,5,0,0:0:0:0:
205,326,184365,2,0,L|98:303,1,80
2,235,184740,5,0,0:0:0:0:
18,157,184927,1,0,0:0:0:0:
84,112,185115,1,0,0:0:0:0:
163,114,185302,1,0,0:0:0:0:
216,173,185490,5,0,0:0:0:0:
18,157,185677,1,0,0:0:0:0:
163,114,185865,5,0,0:0:0:0:
2,235,186052,1,0,0:0:0:0:
84,112,186240,5,0,0:0:0:0:
84,112,186427,1,0,0:0:0:0:
46,334,186615,5,0,0:0:0:0:
121,383,186802,1,0,0:0:0:0:
206,352,186990,1,0,0:0:0:0:
232,266,187177,1,0,0:0:0:0:
259,180,187365,1,0,0:0:0:0:
344,150,187553,1,0,0:0:0:0:
419,201,187740,1,0,0:0:0:0:
391,286,187927,5,0,0:0:0:0:
156,216,188115,1,0,0:0:0:0:
306,316,188302,1,0,0:0:0:0:
71,247,188490,1,0,0:0:0:0:
206,352,188677,5,0,0:0:0:0:
156,216,188865,1,0,0:0:0:0:
45,333,189052,5,0,0:0:0:0:
232,266,189240,1,0,0:0:0:0:
419,201,189427,1,0,0:0:0:0:
221,262,189615,1,0,0:0:0:0:
221,262,191115,5,0,0:0:0:0:
312,197,191302,1,0,0:0:0:0:
338,210,191395,1,0,0:0:0:0:
356,234,191489,1,0,0:0:0:0:
221,262,191677,1,0,0:0:0:0:
162,178,191865,1,0,0:0:0:0:
160,148,191958,1,0,0:0:0:0:
172,121,192052,1,0,0:0:0:0:
248,355,192240,1,0,0:0:0:0:
223,371,192333,1,0,0:0:0:0:
193,374,192427,1,0,0:0:0:0:
113,306,192615,6,0,B|234:284|182:343|326:316,1,207.999990478516
395,132,193177,1,0,0:0:0:0:
288,105,193365,2,0,P|312:150|315:201,1,103.999995239258
467,47,193740,2,0,P|415:45|369:22,1,103.999995239258
431,229,194115,6,0,P|457:185|501:156,1,103.999995239258
418,338,194490,2,0,L|394:124,2,207.999990478516
501,156,195427,5,0,0:0:0:0:
313,260,195615,1,0,0:0:0:0:
506,375,195802,1,0,0:0:0:0:
376,369,195990,5,0,0:0:0:0:
456,235,196177,1,0,0:0:0:0:
463,315,196365,5,0,0:0:0:0:
374,195,196552,1,0,0:0:0:0:
360,324,196740,5,0,0:0:0:0:
446,156,196927,1,0,0:0:0:0:
313,260,197115,5,0,0:0:0:0:
457,234,197302,1,0,0:0:0:0:
318,28,197490,5,0,0:0:0:0:
344,109,197677,1,0,0:0:0:0:
169,76,197865,5,0,0:0:0:0:
226,12,198052,1,0,0:0:0:0:
284,177,198240,5,0,0:0:0:0:
199,160,198427,1,0,0:0:0:0:
257,93,198615,6,0,P|299:186|284:288,1,207.999990478516
8,376,199177,1,0,0:0:0:0:
165,318,199365,1,0,0:0:0:0:
68,184,199552,1,0,0:0:0:0:
87,347,199740,1,0,0:0:0:0:
116,251,199927,1,0,0:0:0:0:
1,281,200115,5,0,0:0:0:0:
165,318,200302,1,0,0:0:0:0:
340,351,200490,2,0,B|404:352|433:304|433:304|461:255|512:255,2,207.999990478516
481,374,201427,5,0,0:0:0:0:
353,262,201615,2,0,P|354:159|427:87,1,207.999990478516
473,155,202177,1,0,0:0:0:0:
364,15,202365,5,0,0:0:0:0:
377,21,202552,1,0,0:0:0:0:
239,8,202740,5,0,0:0:0:0:
252,3,202927,1,0,0:0:0:0:
129,60,203115,5,0,0:0:0:0:
134,47,203302,1,0,0:0:0:0:
84,175,203490,5,0,0:0:0:0:
215,88,203677,1,0,0:0:0:0:
215,88,203771,1,0,0:0:0:0:
215,88,203865,1,0,0:0:0:0:
109,258,204052,5,0,0:0:0:0:
128,100,204240,1,0,0:0:0:0:
95,277,204427,1,0,0:0:0:0:
138,84,204615,6,0,L|155:206,1,103.999995239258
388,269,204990,1,0,0:0:0:0:
246,105,205177,1,0,0:0:0:0:
175,310,205365,1,0,0:0:0:0:
364,146,205552,1,0,0:0:0:0:
294,351,205740,1,0,0:0:0:0:
152,187,205927,1,0,0:0:0:0:
328,251,206115,5,0,0:0:0:0:
256,169,206302,1,0,0:0:0:0:
222,272,206490,2,0,B|306:258|306:258|344:277|344:277|443:259,2,207.999990478516
222,272,207427,5,0,0:0:0:0:
334,96,207615,2,0,P|362:138|362:191,1,103.999995239258
163,349,207990,2,0,P|134:306|134:253,1,103.999995239258
232,79,208365,2,0,L|334:96,1,103.999995239258
383,24,208740,5,0,0:0:0:0:
282,168,208927,1,0,0:0:0:0:
437,111,209115,1,0,0:0:0:0:
429,101,209302,1,0,0:0:0:0:
285,2,209490,1,0,0:0:0:0:
293,12,209677,1,0,0:0:0:0:
474,20,209865,5,0,0:0:0:0:
247,92,210052,1,0,0:0:0:0:
390,0,210240,5,0,0:0:0:0:
331,116,210427,1,0,0:0:0:0:
183,22,210615,6,0,L|284:1,1,103.999995239258
141,106,210990,1,0,0:0:0:0:
26,4,211177,1,0,0:0:0:0:
152,201,211365,5,0,0:0:0:0:
105,14,211552,1,0,0:0:0:0:
75,230,211740,5,0,0:0:0:0:
183,22,211927,1,0,0:0:0:0:
0,214,212115,5,0,0:0:0:0:
260,25,212302,1,0,0:0:0:0:
53,128,212490,6,0,P|154:119|234:182,2,207.999990478516
303,134,213427,1,0,0:0:0:0:
211,271,213615,5,0,0:0:0:0:
219,282,213802,1,0,0:0:0:0:
123,254,213990,5,0,0:0:0:0:
306,284,214177,1,0,0:0:0:0:
195,193,214365,5,0,0:0:0:0:
85,362,214552,1,0,0:0:0:0:
285,128,214740,5,0,0:0:0:0:
87,169,214927,1,0,0:0:0:0:
407,137,215115,5,0,0:0:0:0:
238,25,215302,1,0,0:0:0:0:
328,211,215490,5,0,0:0:0:0:
368,28,215677,1,0,0:0:0:0:
511,149,215865,1,0,0:0:0:0:
273,110,216052,5,0,0:0:0:0:
446,258,216240,1,0,0:0:0:0:
497,37,216427,1,0,0:0:0:0:
