osu file format v14

[General]
AudioFilename: audio.ogg
AudioLeadIn: 0
PreviewTime: 106181
Countdown: 0
SampleSet: Normal
StackLeniency: 0.4
Mode: 0
LetterboxInBreaks: 0
WidescreenStoryboard: 0

[Editor]
Bookmarks: 8109,40652,73194,89465,106754,123025,139296,155567,171838,189126,205397,221668,237469,265010,280746,297280,310575,323375,336175,350084
DistanceSpacing: 0.7
BeatDivisor: 8
GridSize: 4
TimelineZoom: 3.860401

[Metadata]
Title:Septuor de ecarlate
TitleUnicode:Septuor de écarlate
Artist:SOUND HOLIC feat. YURiCa
ArtistUnicode:SOUND HOLIC feat. ユリカ
Creator:-Kemsyt
Version:Crumbling Dream Reality
Source:東方紅魔郷 ~ the Embodiment of Scarlet Devil.
Tags:touhou 東方project th06 remilia scarlet hanatan 花たん septette for the dead princess 亡き王女の為のセプテット the young descendant of tepes ツェペシュの幼き末裔 metallic vampire 8style takayoshi ohmura japanese symphonic metal rock video game zun cordelia entry naki oujo no tame no tsepeshu no osanaki matsuei team shanghai alice eosd koumakyou
BeatmapID:3224278
BeatmapSetID:1579075

[Difficulty]
HPDrainRate:5.6
CircleSize:4.4
OverallDifficulty:9
ApproachRate:9.3
SliderMultiplier:1.8
SliderTickRate:1

[Events]
//Background and Video events
0,0,"bg.jpg",0,0
//Break Periods
//Storyboard Layer 0 (Background)
//Storyboard Layer 1 (Fail)
//Storyboard Layer 2 (Pass)
//Storyboard Layer 3 (Foreground)
//Storyboard Layer 4 (Overlay)
//Storyboard Sound Samples

[TimingPoints]
8109,508.474576271186,4,2,1,20,1,0
8109,-200,4,2,1,20,0,0
14592,-200,4,2,1,5,0,0
14719,-200,4,2,1,20,0,0
15354,-200,4,2,1,5,0,0
15481,-200,4,2,1,20,0,0
16117,-200,4,2,1,5,0,0
16244,-200,4,2,1,20,0,0
24380,-153.846153846154,4,2,1,30,0,0
40651,-125,4,2,2,50,0,0
46498,-125,4,2,1,50,0,0
46753,-125,4,2,2,50,0,0
54125,-125,4,2,1,50,0,0
54380,-125,4,2,2,50,0,0
54634,-125,4,2,1,50,0,0
54888,-125,4,2,2,50,0,0
56159,-500,4,2,1,30,0,0
56922,-142.857142857143,4,2,1,40,0,0
59337,-142.857142857143,4,2,1,20,0,0
59464,-142.857142857143,4,2,3,20,0,0
59719,-142.857142857143,4,2,3,40,0,0
60227,-142.857142857143,4,2,1,40,0,0
63405,-142.857142857143,4,2,1,20,0,0
63532,-142.857142857143,4,2,3,20,0,0
63786,-142.857142857143,4,2,3,40,0,0
64295,-142.857142857143,4,2,1,40,0,0
67473,-142.857142857143,4,2,1,20,0,0
67854,-142.857142857143,4,2,1,40,0,0
69634,-142.857142857143,4,2,3,40,0,0
69888,-142.857142857143,4,2,1,40,0,0
74719,-142.857142857143,4,2,3,40,0,0
74973,-142.857142857143,4,2,1,40,0,0
75608,-142.857142857143,4,2,1,20,0,0
75736,-142.857142857143,4,2,3,20,0,0
75990,-142.857142857143,4,2,3,40,0,0
76498,-142.857142857143,4,2,1,40,0,0
79676,-142.857142857143,4,2,1,20,0,0
79803,-142.857142857143,4,2,3,20,0,0
80058,-142.857142857143,4,2,3,40,0,0
80566,-142.857142857143,4,2,1,40,0,0
83744,-142.857142857143,4,2,1,20,0,0
84125,-142.857142857143,4,2,1,40,0,0
86922,-142.857142857143,4,2,3,40,0,0
87176,-142.857142857143,4,2,1,40,0,0
87939,-142.857142857143,4,2,3,40,0,0
88447,-142.857142857143,4,2,1,40,0,0
89464,-100,4,2,1,60,0,0
96075,-111.111111111111,4,2,3,60,0,0
96329,-100,4,2,1,60,0,0
106753,508.474576271186,4,2,1,60,1,0
106753,-66.6666666666667,4,2,1,60,0,0
108087,-66.6666666666667,4,2,1,5,0,0
108151,-66.6666666666667,4,2,1,60,0,0
108278,-66.6666666666667,4,2,3,60,0,0
108532,-66.6666666666667,4,2,1,60,0,0
108786,-74.0740740740741,4,2,3,60,0,0
109104,-74.0740740740741,4,2,3,5,0,0
109168,-74.0740740740741,4,2,3,60,0,0
110312,-83.3333333333333,4,2,3,60,0,0
110503,-83.3333333333333,4,2,3,5,0,0
110566,-100,4,2,3,60,0,0
110757,-100,4,2,3,5,0,0
110820,-66.6666666666667,4,2,1,60,0,0
111265,-66.6666666666667,4,2,1,5,0,0
111329,-74.0740740740741,4,2,3,60,0,0
111583,-74.0740740740741,4,2,1,60,0,0
111837,-74.0740740740741,4,2,1,60,0,0
112155,-74.0740740740741,4,2,1,5,0,0
112219,-74.0740740740741,4,2,1,60,0,0
112346,-66.6666666666667,4,2,3,60,0,0
112600,-66.6666666666667,4,2,1,60,0,0
112854,-74.0740740740741,4,2,3,60,0,0
113172,-74.0740740740741,4,2,3,5,0,0
113236,-74.0740740740741,4,2,3,60,0,0
114380,-83.3333333333333,4,2,3,60,0,0
114634,-100,4,2,3,60,0,0
114888,-66.6666666666667,4,2,1,60,0,0
115333,-66.6666666666667,4,2,1,5,0,0
115397,-66.6666666666667,4,2,3,60,0,0
115651,-66.6666666666667,4,2,1,60,0,0
115905,-74.0740740740741,4,2,1,60,0,0
116223,-74.0740740740741,4,2,1,5,0,0
116286,-74.0740740740741,4,2,1,60,0,0
116414,-74.0740740740741,4,2,3,60,0,0
116668,-74.0740740740741,4,2,1,60,0,0
116858,-74.0740740740741,4,2,1,5,0,0
116922,-74.0740740740741,4,2,3,60,0,0
117240,-74.0740740740741,4,2,3,5,0,0
117303,-74.0740740740741,4,2,3,60,0,0
118447,-83.3333333333333,4,2,3,60,0,0
118638,-83.3333333333333,4,2,3,5,0,0
118702,-100,4,2,3,60,0,0
118892,-100,4,2,3,5,0,0
118956,-66.6666666666667,4,2,1,60,0,0
120291,-66.6666666666667,4,2,1,5,0,0
120354,-66.6666666666667,4,2,1,60,0,0
120990,-74.0740740740741,4,2,1,60,0,0
121308,-74.0740740740741,4,2,1,5,0,0
121371,-74.0740740740741,4,2,1,60,0,0
121498,-74.0740740740741,4,2,3,60,0,0
122515,-83.3333333333333,4,2,3,60,0,0
122769,-100,4,2,3,60,0,0
123024,-66.6666666666667,4,2,1,60,0,0
123532,-66.6666666666667,4,2,3,60,0,0
123786,-74.0740740740741,4,2,1,60,0,0
123977,-74.0740740740741,4,2,1,5,0,0
124041,-66.6666666666667,4,2,1,60,0,0
124549,-66.6666666666667,4,2,3,60,0,0
124803,-66.6666666666667,4,2,1,60,0,0
125058,-74.0740740740741,4,2,3,60,0,0
125375,-74.0740740740741,4,2,3,5,0,0
125439,-74.0740740740741,4,2,3,60,0,0
125757,-74.0740740740741,4,2,3,5,0,0
125820,-74.0740740740741,4,2,3,60,0,0
127091,-66.6666666666667,4,2,1,60,0,0
127600,-66.6666666666667,4,2,3,60,0,0
127854,-74.0740740740741,4,2,1,60,0,0
128045,-74.0740740740741,4,2,1,5,0,0
128108,-66.6666666666667,4,2,1,60,0,0
128426,-66.6666666666667,4,2,1,5,0,0
128490,-74.0740740740741,4,2,1,60,0,0
128871,-66.6666666666667,4,2,1,60,0,0
129062,-66.6666666666667,4,2,1,5,0,0
129125,-55.5555555555556,4,2,3,60,0,0
131159,-66.6666666666667,4,2,1,60,0,0
131668,-66.6666666666667,4,2,3,60,0,0
131922,-74.0740740740741,4,2,1,60,0,0
132113,-74.0740740740741,4,2,1,5,0,0
132176,-66.6666666666667,4,2,1,60,0,0
132685,-66.6666666666667,4,2,1,60,0,0
132939,-66.6666666666667,4,2,1,60,0,0
133193,-74.0740740740741,4,2,3,60,0,0
133511,-74.0740740740741,4,2,3,5,0,0
133575,-74.0740740740741,4,2,3,60,0,0
133892,-74.0740740740741,4,2,3,5,0,0
133956,-74.0740740740741,4,2,3,60,0,0
135227,-74.0740740740741,4,2,1,60,0,0
136244,-66.6666666666667,4,2,1,60,0,0
136689,-66.6666666666667,4,2,1,5,0,0
136752,-66.6666666666667,4,2,1,60,0,0
137261,-74.0740740740741,4,2,1,60,0,0
137579,-74.0740740740741,4,2,1,5,0,0
137642,-74.0740740740741,4,2,1,60,0,0
137769,-74.0740740740741,4,2,3,60,0,0
137960,-74.0740740740741,4,2,3,5,0,0
138024,-74.0740740740741,4,2,3,60,0,0
138214,-74.0740740740741,4,2,3,5,0,0
138278,-74.0740740740741,4,2,3,60,0,0
139295,-57.1428571428571,4,2,2,50,0,0
139994,-57.1428571428571,4,2,2,5,0,0
140058,-57.1428571428571,4,2,2,50,0,0
140757,-57.1428571428571,4,2,2,5,0,0
140820,-57.1428571428571,4,2,2,50,0,0
141329,-62.5,4,2,2,50,0,0
142028,-62.5,4,2,2,5,0,0
142091,-62.5,4,2,2,50,0,0
142346,-60.6060606060606,4,2,2,50,0,0
142536,-60.6060606060606,4,2,2,5,0,0
142600,-60.6060606060606,4,2,1,50,0,0
142791,-60.6060606060606,4,2,2,5,0,0
142854,-74.0740740740741,4,2,2,50,0,0
143363,-66.6666666666667,4,2,2,50,0,0
143553,-66.6666666666667,4,2,2,5,0,0
143617,-66.6666666666667,4,2,1,50,0,0
143808,-66.6666666666667,4,2,2,5,0,0
143871,-74.0740740740741,4,2,2,50,0,0
144062,-74.0740740740741,4,2,2,5,0,0
144125,-74.0740740740741,4,2,1,50,0,0
144316,-74.0740740740741,4,2,2,5,0,0
144380,-83.3333333333333,4,2,2,50,0,0
144570,-83.3333333333333,4,2,2,5,0,0
144634,-83.3333333333333,4,2,1,50,0,0
144825,-83.3333333333333,4,2,2,5,0,0
144888,-100,4,2,2,50,0,0
145079,-100,4,2,2,5,0,0
145142,-90.9090909090909,4,2,1,50,0,0
145333,-90.9090909090909,4,2,2,5,0,0
145397,-74.0740740740741,4,2,2,50,0,0
146096,-74.0740740740741,4,2,2,5,0,0
146159,-74.0740740740741,4,2,2,50,0,0
147430,-66.6666666666667,4,2,2,50,0,0
147621,-66.6666666666667,4,2,2,5,0,0
147685,-66.6666666666667,4,2,1,50,0,0
147875,-66.6666666666667,4,2,1,5,0,0
147939,-125,4,2,2,50,0,0
148193,-125,4,2,1,50,0,0
148447,-100,4,2,2,50,0,0
149083,-125,4,2,1,50,0,0
149464,-74.0740740740741,4,2,2,50,0,0
149719,-125,4,2,1,50,0,0
150029,-100,4,2,2,50,0,0
150199,-125,4,2,1,50,0,0
150481,-125,4,2,2,50,0,0
150651,-125,4,2,1,50,0,0
150990,-125,4,2,2,50,0,0
151159,-125,4,2,1,50,0,0
151498,-50,4,2,2,50,0,0
152515,-50,4,2,2,50,0,0
154803,-500,4,2,1,30,0,0
155566,-142.857142857143,4,2,1,40,0,0
157981,-142.857142857143,4,2,1,20,0,0
158363,-142.857142857143,4,2,1,40,0,0
166117,-142.857142857143,4,2,1,20,0,0
166498,-142.857142857143,4,2,1,40,0,0
171202,-142.857142857143,4,2,1,5,0,0
171329,-142.857142857143,4,2,1,40,0,0
171837,-99.9999999999999,4,2,1,60,0,0
189125,508.474576271186,4,2,1,60,1,0
189125,-66.6666666666667,4,2,1,60,0,0
189633,-66.6666666666667,4,2,3,60,0,0
189887,-74.0740740740741,4,2,1,60,0,0
190078,-74.0740740740741,4,2,1,5,0,0
190141,-66.6666666666667,4,2,1,60,0,0
190650,-66.6666666666667,4,2,3,60,0,0
190904,-66.6666666666667,4,2,1,60,0,0
191158,-74.0740740740741,4,2,3,60,0,0
191476,-74.0740740740741,4,2,3,5,0,0
191540,-74.0740740740741,4,2,3,60,0,0
191858,-74.0740740740741,4,2,3,5,0,0
191921,-74.0740740740741,4,2,3,60,0,0
193192,-66.6666666666667,4,2,1,60,0,0
193701,-66.6666666666667,4,2,3,60,0,0
193955,-74.0740740740741,4,2,1,60,0,0
194146,-74.0740740740741,4,2,1,5,0,0
194209,-66.6666666666667,4,2,1,60,0,0
194527,-66.6666666666667,4,2,1,5,0,0
194591,-74.0740740740741,4,2,1,60,0,0
194972,-66.6666666666667,4,2,1,60,0,0
195163,-66.6666666666667,4,2,1,5,0,0
195226,-55.5555555555556,4,2,3,60,0,0
197260,-66.6666666666667,4,2,1,60,0,0
197769,-66.6666666666667,4,2,3,60,0,0
198023,-74.0740740740741,4,2,1,60,0,0
198213,-74.0740740740741,4,2,1,5,0,0
198277,-66.6666666666667,4,2,1,60,0,0
198786,-66.6666666666667,4,2,3,60,0,0
199040,-66.6666666666667,4,2,1,60,0,0
199294,-74.0740740740741,4,2,3,60,0,0
199612,-74.0740740740741,4,2,3,5,0,0
199675,-74.0740740740741,4,2,3,60,0,0
199993,-74.0740740740741,4,2,3,5,0,0
200057,-74.0740740740741,4,2,3,60,0,0
201328,-74.0740740740741,4,2,1,60,0,0
202345,-66.6666666666667,4,2,1,60,0,0
202790,-66.6666666666667,4,2,1,5,0,0
202853,-66.6666666666667,4,2,1,60,0,0
203362,-74.0740740740741,4,2,1,60,0,0
203680,-74.0740740740741,4,2,1,5,0,0
203743,-74.0740740740741,4,2,1,60,0,0
203870,-74.0740740740741,4,2,3,60,0,0
204061,-74.0740740740741,4,2,3,5,0,0
204125,-74.0740740740741,4,2,3,60,0,0
204315,-74.0740740740741,4,2,3,5,0,0
204379,-74.0740740740741,4,2,3,60,0,0
205396,-66.6666666666667,4,2,1,60,0,0
205841,-66.6666666666667,4,2,1,5,0,0
205904,-90.9090909090909,4,2,3,60,0,0
206158,-90.9090909090909,4,2,1,60,0,0
206413,-66.6666666666667,4,2,1,60,0,0
206921,-66.6666666666667,4,2,3,60,0,0
207112,-66.6666666666667,4,2,3,5,0,0
207175,-66.6666666666667,4,2,1,60,0,0
207366,-66.6666666666667,4,2,1,5,0,0
207430,-74.0740740740741,4,2,3,60,0,0
208955,-83.3333333333333,4,2,3,60,0,0
209146,-83.3333333333333,4,2,3,5,0,0
209209,-100,4,2,3,60,0,0
209400,-100,4,2,3,5,0,0
209463,-66.6666666666667,4,2,1,60,0,0
209908,-66.6666666666667,4,2,1,5,0,0
209972,-90.9090909090909,4,2,3,60,0,0
210163,-90.9090909090909,4,2,3,5,0,0
210226,-66.6666666666667,4,2,1,60,0,0
211497,-74.0740740740741,4,2,3,60,0,0
211815,-74.0740740740741,4,2,3,5,0,0
211879,-74.0740740740741,4,2,3,60,0,0
212197,-74.0740740740741,4,2,3,5,0,0
212260,-74.0740740740741,4,2,3,60,0,0
213531,-66.6666666666667,4,2,1,60,0,0
213976,-66.6666666666667,4,2,1,5,0,0
214040,-90.9090909090909,4,2,3,60,0,0
214294,-66.6666666666667,4,2,1,60,0,0
214866,-66.6666666666667,4,2,1,5,0,0
214930,-66.6666666666667,4,2,1,60,0,0
215247,-66.6666666666667,4,2,1,5,0,0
215311,-66.6666666666667,4,2,1,60,0,0
215565,-74.0740740740741,4,2,3,60,0,0
215883,-74.0740740740741,4,2,3,5,0,0
215947,-74.0740740740741,4,2,3,60,0,0
216264,-74.0740740740741,4,2,3,5,0,0
216328,-74.0740740740741,4,2,3,60,0,0
217091,-83.3333333333333,4,2,3,60,0,0
217281,-83.3333333333333,4,2,3,5,0,0
217345,-100,4,2,3,60,0,0
217536,-100,4,2,3,5,0,0
217599,-66.6666666666667,4,2,1,60,0,0
219061,-66.6666666666667,4,2,1,5,0,0
219124,-66.6666666666667,4,2,1,60,0,0
219633,-74.0740740740741,4,2,1,60,0,0
221667,476.190476190476,4,1,11,75,1,0
221667,-55.5555555555556,4,1,11,75,0,0
222143,500,4,1,11,75,1,0
222393,-55.5555555555556,4,1,11,75,0,0
223393,-66.6666666666667,4,1,11,60,0,0
223580,-66.6666666666667,4,1,11,5,0,0
223643,500,4,1,11,75,1,0
224643,-71.4285714285714,4,1,11,75,0,0
225080,-71.4285714285714,4,1,11,5,0,0
225143,-71.4285714285714,4,1,11,75,0,0
225493,-71.4285714285714,4,1,11,5,0,0
225580,-71.4285714285714,4,1,11,5,0,0
225643,493.827160493827,4,1,11,75,1,0
225643,-66.6666666666667,4,1,11,75,0,0
227124,-31.25,4,1,11,75,0,0
227618,-83.3333333333333,4,1,11,75,0,0
229099,-55.5555555555556,4,1,11,75,0,0
229284,-55.5555555555556,4,1,11,5,0,0
229346,-55.5555555555556,4,1,11,75,0,0
229531,-55.5555555555556,4,1,11,5,0,0
229600,491.803278688524,4,1,11,75,1,0
229600,-50,4,1,11,75,0,0
230337,-83.3333333333333,4,1,11,75,0,0
230399,-83.3333333333333,4,1,11,5,0,0
230460,-83.3333333333333,4,1,11,75,0,0
230522,-83.3333333333333,4,1,11,5,0,0
230583,-45.4545454545455,4,1,11,75,0,0
231321,-55.5555555555556,4,1,11,75,0,0
231813,-83.3333333333333,4,1,11,75,0,0
231874,-83.3333333333333,4,1,11,5,0,0
231936,-83.3333333333333,4,1,11,75,0,0
231997,-83.3333333333333,4,1,11,5,0,0
232059,-38.4615384615385,4,1,11,75,0,0
233288,-62.5,4,1,11,75,0,0
233472,-62.5,4,1,11,5,0,0
233534,-62.5,4,1,11,75,0,0
236977,-62.5,4,1,11,75,0,0
237222,-55.5555555555556,4,1,11,75,0,0
237468,-100,4,1,11,40,0,0
239436,-83.3333333333333,4,1,11,40,0,0
240419,491.803278688524,4,1,11,40,1,0
240419,-90.9090909090909,4,1,11,40,0,0
241157,-100,4,1,11,40,0,0
244108,-83.3333333333333,4,1,11,40,0,0
244845,-83.3333333333333,4,1,11,25,0,0
245337,-83.3333333333333,4,1,11,30,0,0
245828,-83.3333333333333,4,1,11,35,0,0
246320,-83.3333333333333,4,1,11,40,0,0
246812,-83.3333333333333,4,1,11,45,0,0
248288,-100,4,2,1,60,0,0
264517,-200,4,2,1,30,0,0
264886,-200,4,2,1,5,0,0
265009,491.803278688524,4,2,1,60,1,0
265009,-62.5,4,2,1,60,0,0
266914,-62.5,4,2,1,5,0,0
266976,-71.4285714285714,4,2,1,60,0,0
267529,-71.4285714285714,4,2,1,5,0,0
267590,-71.4285714285714,4,2,1,60,0,0
267898,-71.4285714285714,4,2,1,5,0,0
267959,-62.5,4,2,1,60,0,0
268328,-62.5,4,2,1,5,0,0
268390,-62.5,4,2,1,5,0,0
268451,-62.5,4,2,1,60,0,0
270234,-62.5,4,2,1,5,0,0
270295,-62.5,4,2,1,60,0,0
270418,-71.4285714285714,4,2,1,60,0,0
270603,-71.4285714285714,4,2,1,5,0,0
270664,-62.5,4,2,1,60,0,0
270849,-62.5,4,2,1,5,0,0
270910,-71.4285714285714,4,2,1,60,0,0
271463,-71.4285714285714,4,2,1,5,0,0
271525,-71.4285714285714,4,2,1,60,0,0
271832,-71.4285714285714,4,2,1,5,0,0
271894,-71.4285714285714,4,2,1,60,0,0
272877,-62.5,4,2,1,60,0,0
273185,-62.5,4,2,1,5,0,0
273246,-71.4285714285714,4,2,1,60,0,0
273431,-71.4285714285714,4,2,1,5,0,0
273492,-71.4285714285714,4,2,1,60,0,0
273799,-71.4285714285714,4,2,1,5,0,0
273861,-62.5,4,2,1,60,0,0
274783,-62.5,4,2,1,5,0,0
274845,-71.4285714285714,4,2,1,60,0,0
275398,-71.4285714285714,4,2,1,5,0,0
275459,-71.4285714285714,4,2,1,60,0,0
275767,-71.4285714285714,4,2,1,5,0,0
275828,-62.5,4,2,1,60,0,0
276197,-62.5,4,2,1,5,0,0
276259,-62.5,4,2,1,5,0,0
276320,-62.5,4,2,1,60,0,0
277795,-71.4285714285714,4,2,1,60,0,0
278226,-71.4285714285714,4,2,1,5,0,0
278287,-71.4285714285714,4,2,1,60,0,0
279701,-71.4285714285714,4,2,1,5,0,0
279763,-71.4285714285714,4,2,1,60,0,0
280746,472.440944881889,4,2,15,75,1,0
280746,-66.6666666666667,4,2,15,75,0,0
280923,-66.6666666666667,4,2,15,5,0,0
280982,-66.6666666666667,4,2,15,75,0,0
282812,-66.6666666666667,4,2,15,5,0,0
282871,-66.6666666666667,4,2,15,75,0,0
284525,468.749999999999,4,2,15,75,1,0
284525,-66.6666666666667,4,2,15,75,0,0
288275,461.538461538461,4,2,15,75,1,0
288275,-66.6666666666667,4,2,15,75,0,0
288448,-66.6666666666667,4,2,15,5,0,0
288505,-66.6666666666667,4,2,15,75,0,0
291967,444.444444444444,4,2,15,75,1,0
291967,-66.6666666666667,4,2,15,75,0,0
295522,437.956204379562,4,2,15,75,1,0
295522,-66.6666666666667,4,2,15,60,0,0
297280,425.531914893617,4,1,15,75,1,0
297280,-62.5,4,1,15,75,0,0
300684,416.666666666667,4,1,15,75,1,0
300684,-62.5,4,1,15,75,0,0
304021,413.793103448276,4,1,15,75,1,0
304021,-66.6666666666667,4,1,15,75,0,0
305986,-90.9090909090909,4,1,15,75,0,0
306503,-83.3333333333333,4,1,15,75,0,0
307331,405.405405405405,4,1,15,75,1,0
307331,-66.6666666666667,4,1,15,75,0,0
308547,-83.3333333333333,4,1,15,75,0,0
308749,-62.5,4,1,15,75,0,0
309155,-66.6666666666667,4,1,15,75,0,0
310168,-83.3333333333333,4,1,15,75,0,0
310574,400,4,1,15,75,1,0
310574,-66.6666666666667,4,1,15,75,0,0
313774,-60.6060606060606,4,1,15,75,0,0
314174,-66.6666666666667,4,1,15,75,0,0
316474,-62.5,4,1,15,75,0,0
316974,-71.4285714285714,4,1,15,75,0,0
318574,-62.5,4,1,15,75,0,0
320174,-57.1428571428571,4,1,15,75,0,0
320574,-62.5,4,1,15,75,0,0
321274,-57.1428571428571,4,1,15,75,0,0
321774,-50,4,1,15,75,0,0
323374,-62.5,4,3,1,80,0,0
334574,-62.5,4,3,1,100,0,0
335774,-62.5,4,3,1,90,0,0
336174,-62.5,4,3,1,80,0,0
340974,-50,4,3,1,80,0,0
342174,-62.5,4,3,1,80,0,0
345574,487.80487804878,4,3,1,80,1,0
345574,-62.5,4,3,1,80,0,0
345817,422.535211267605,4,2,1,70,1,0
346239,-100,4,2,1,70,0,0
346450,-100,4,2,1,70,0,0
346662,441.176470588235,4,2,1,60,1,0
347103,447.76119402985,4,2,1,60,1,0
347550,483.870967741935,4,2,1,60,1,0
348032,530.973451327432,4,2,1,50,1,0
348565,579.710144927536,4,2,1,40,1,0
349579,504.201680672269,4,2,1,40,1,0
350083,504.201680672269,4,2,1,40,1,0
357646,-100,4,2,1,5,0,0

[Colours]
Combo1 : 122,107,182
Combo2 : 253,204,243
Combo3 : 167,152,211
Combo4 : 188,75,118

[HitObjects]
100,187,8109,6,0,L|80:89,1,90,2|2,0:0|0:0,0:0:0:0:
179,251,9125,2,0,L|198:153,1,90,2|2,0:0|0:0,0:0:0:0:
196,162,9888,1,0,0:0:0:0:
108,299,10142,6,0,P|145:329|186:336,1,90,2|2,0:0|0:0,0:0:0:0:
278,287,11159,2,0,P|321:295|355:324,1,90,2|2,0:0|0:0,0:0:0:0:
355,324,11922,1,0,0:0:0:0:
474,368,12176,6,0,B|478:324|478:324|476:321|476:321|479:278,1,90,2|2,0:0|0:0,0:0:0:0:
424,197,13193,2,0,B|420:153|420:153|422:150|422:150|418:107,1,90,2|2,0:0|0:0,0:0:0:0:
418,107,13956,1,0,0:0:0:0:
507,4,14210,6,0,P|474:18|435:17,1,67.5,2|0,0:0|0:0,0:0:0:0:
423,11,14719,1,2,0:0:0:0:
255,19,14973,2,0,P|287:3|327:5,1,67.5,2|0,0:0|0:0,0:0:0:0:
340,8,15481,1,2,0:0:0:0:
226,118,15736,2,0,P|207:91|182:69,1,67.5,2|0,0:0|0:0,0:0:0:0:
115,42,16244,5,2,0:0:0:0:
11,146,16753,1,2,0:0:0:0:
172,249,17261,2,0,P|152:289|103:315,1,90,2|2,0:0|0:0,0:0:0:0:
114,312,18024,1,0,0:0:0:0:
262,353,18278,6,0,B|298:342|298:342|312:348|312:348|347:338,1,90,2|2,0:0|0:0,0:0:0:0:
481,375,19295,2,0,B|473:354|460:337|460:337|468:316|465:291,1,90,2|2,0:0|0:0,0:0:0:0:
465,291,20058,1,0,0:0:0:0:
512,191,20312,6,0,P|464:184|422:160,1,90,2|2,0:0|0:0,0:0:0:0:
327,231,21329,2,0,P|279:238|237:262,1,90,2|2,0:0|0:0,0:0:0:0:
242,257,22092,1,0,0:0:0:0:
338,130,22346,1,2,0:0:0:0:
338,130,23617,5,2,0:0:0:0:
264,101,23871,1,2,0:0:0:0:
226,31,24125,1,2,0:0:0:0:
325,34,24380,6,0,B|300:22|261:35|255:75|258:77|260:77|263:112|224:136|189:124,1,175.499991966248,2|2,0:0|0:0,0:0:0:0:
81,23,25397,2,0,P|102:96|111:203,1,175.499991966248,2|2,0:0|0:0,0:0:0:0:
79,266,26414,1,2,0:0:0:0:
79,266,27685,5,2,0:0:0:0:
179,342,27939,2,0,P|147:337|116:321,1,58.4999973220826,2|2,0:0|0:0,0:0:0:0:
0,220,28447,6,0,P|40:297|54:383,1,175.499991966248,2|2,0:0|0:0,0:0:0:0:
234,288,29464,2,0,P|311:247|397:233,1,175.499991966248,2|2,0:0|0:0,0:0:0:0:
473,256,30481,1,2,0:0:0:0:
473,256,31753,5,2,0:0:0:0:
508,187,32007,2,0,P|514:157|511:124,1,58.4999973220826,2|2,0:0|0:0,0:0:0:0:
434,28,32515,5,2,0:0:0:0:
434,28,32770,1,2,0:0:0:0:
512,50,33024,2,0,P|445:52|381:17,1,116.999994644165,2|0,0:0|0:0,0:0:0:0:
274,21,33786,2,0,P|301:9|335:0,2,58.4999973220826,2|2|2,0:0|0:0|0:0,0:0:0:0:
204,101,34549,5,2,0:0:0:0:
204,101,34803,1,2,0:0:0:0:
119,12,35058,2,0,B|125:57|125:57|115:81|115:81|121:125,1,116.999994644165,2|0,0:0|0:0,0:0:0:0:
174,243,35820,2,0,L|184:172,2,58.4999973220826,2|2|2,0:0|0:0|0:0,0:0:0:0:
69,282,36583,6,0,P|134:267|219:334,1,175.499991966248,2|2,0:0|0:0,0:0:0:0:
290,230,37600,2,0,P|353:286|437:275,1,175.499991966248,2|2,0:0|0:0,0:0:0:0:
512,190,38617,2,0,L|500:15,1,175.499991966248,2|0,0:0|0:0,0:0:0:0:
385,186,39634,1,2,0:0:0:0:
385,186,40651,6,0,P|356:245|308:333,1,144,6|2,3:2|0:2,0:0:0:0:
372,381,41414,1,0,3:0:0:0:
348,109,41668,2,0,P|283:121|186:145,1,144,10|2,0:2|0:2,0:0:0:0:
156,71,42431,1,0,3:0:0:0:
24,195,42685,6,0,P|44:161|77:146,1,72,2|0,3:2|3:0,0:0:0:0:
108,142,43066,1,0,3:0:0:0:
108,142,43193,1,2,3:2:0:0:
131,225,43447,1,0,3:0:0:0:
399,171,43702,2,0,P|448:152|474:65,1,144,10|2,0:2|3:2,0:0:0:0:
393,2,44464,1,8,0:0:0:0:
305,343,44719,6,0,B|294:374|294:374|283:314|251:252,1,144,6|2,3:2|0:2,0:0:0:0:
218,192,45481,1,0,3:0:0:0:
46,28,45736,2,0,B|57:-3|57:-3|68:57|100:119,1,144,10|2,0:2|0:2,0:0:0:0:
130,189,46498,1,2,3:2:0:0:
130,189,46625,1,2,0:0:0:0:
130,189,46753,6,0,L|15:173,2,108,2|0|0,3:2|3:0|3:0,0:0:0:0:
379,377,47770,2,0,L|458:365,1,72,10|0,0:2|3:0,0:0:0:0:
281,320,48278,1,10,0:2:0:0:
178,293,48405,1,8,0:0:0:0:
271,247,48532,1,8,3:3:0:0:
294,236,48659,1,4,3:3:0:0:
85,373,48786,6,0,B|19:328|19:328|39:263,1,144,6|2,3:2|0:2,0:0:0:0:
7,185,49549,1,0,3:0:0:0:
285,142,49803,2,0,B|219:96|219:96|165:138,1,144,10|2,0:2|0:2,0:0:0:0:
81,137,50566,1,0,3:0:0:0:
185,11,50820,6,0,P|225:2|269:0,1,72,2|0,3:2|3:0,0:0:0:0:
293,4,51202,1,0,3:0:0:0:
293,4,51329,1,2,3:2:0:0:
323,84,51583,1,0,3:0:0:0:
505,256,51837,2,0,B|496:214|471:189|471:189|477:204|480:222|480:222|478:262,1,144,10|2,0:2|3:2,0:0:0:0:
450,152,52600,1,8,0:0:0:0:
165,286,52854,6,0,P|192:335|280:381,2,144,6|2|10,3:2|0:2|0:2,0:0:0:0:
205,113,54125,2,0,P|196:94|193:116,1,36,2|0,0:0|0:0,0:0:0:0:
91,131,54380,2,0,P|70:129|87:142,1,36,2|0,3:2|0:0,0:0:0:0:
51,237,54634,2,0,P|39:254|59:245,1,36,10|0,0:0|0:0,0:0:0:0:
74,356,54888,1,2,3:2:0:0:
335,200,55142,5,8,0:0:0:0:
313,161,55270,1,8,0:0:0:0:
410,217,55397,5,8,0:0:0:0:
361,302,55525,1,8,0:0:0:0:
436,319,55651,5,8,3:0:0:0:
443,333,55779,1,4,3:0:0:0:
490,135,55905,5,8,0:0:0:0:
452,68,56159,2,0,L|460:45,2,18
196,29,56922,6,0,P|159:6|134:75,1,125.999996154785,6|0,3:2|0:0,0:0:0:0:
167,126,57685,1,2,3:2:0:0:
43,284,57939,2,0,B|35:268|35:268|63:154|63:154|95:151|110:180,1,188.999994232178,10|2,0:2|0:2,0:0:0:0:
243,113,58956,2,0,P|290:100|341:78,1,94.499997116089,2|8,3:2|0:0,0:0:0:0:
412,33,59464,1,8,0:0:0:0:
321,2,59719,1,0,3:0:0:0:
261,244,59973,1,8,0:0:0:0:
298,311,60227,2,0,P|281:342|246:374,2,62.9999980773926,2|2|2,0:2|0:2|0:2,0:0:0:0:
424,178,60990,6,0,B|400:213|400:213|310:190,1,125.999996154785,2|0,3:2|0:0,0:0:0:0:
272,132,61753,1,2,3:2:0:0:
497,69,62007,2,0,B|462:39|412:36|412:36|410:39|410:39|360:46|329:81,1,188.999994232178,10|2,0:2|0:2,0:0:0:0:
203,162,63024,2,0,P|190:201|163:263,1,94.499997116089,2|8,3:2|0:0,0:0:0:0:
107,326,63532,1,10,0:0:0:0:
71,250,63786,1,0,3:0:0:0:
221,47,64041,1,10,0:0:0:0:
294,25,64295,2,0,P|329:33|369:48,2,62.9999980773926,2|2|2,0:2|0:2|0:2,0:0:0:0:
35,7,65058,5,6,3:2:0:0:
92,55,65312,1,2,0:2:0:0:
29,97,65566,2,0,P|15:132|7:165,1,62.9999980773926,2|0,0:2|3:0,0:0:0:0:
24,365,66075,1,8,0:0:0:0:
3,292,66329,2,0,P|17:257|25:224,2,62.9999980773926,2|2|2,0:2|0:2|0:2,0:0:0:0:
180,349,67092,5,2,3:2:0:0:
254,335,67346,2,0,L|288:344,1,31.4999990386963,2|8,0:2|0:0,0:0:0:0:
354,375,67600,2,0,P|387:364|421:345,1,62.9999980773926,10|0,0:2|3:0,0:0:0:0:
269,200,68108,1,8,0:0:0:0:
228,264,68363,2,0,P|195:253|161:234,2,62.9999980773926,2|2|2,0:2|0:2|0:2,0:0:0:0:
141,84,69125,6,0,P|178:40|241:50,1,125.999996154785,2|2,3:2|0:2,0:0:0:0:
288,107,69888,1,2,3:2:0:0:
503,198,70142,2,0,B|484:170|445:178|445:178|442:183|442:183|393:196|393:196|329:169,1,188.999994232178,10|2,0:2|0:2,0:0:0:0:
393,365,71159,2,0,B|404:286|404:286|409:281|409:281|406:273,2,94.499997116089,2|0|0,3:2|3:0|3:0,0:0:0:0:
486,99,72176,1,10,0:2:0:0:
451,31,72431,2,0,P|424:14|382:14,1,62.9999980773926,2|2,3:2|0:2,0:0:0:0:
320,111,72939,1,10,0:0:0:0:
399,86,73066,1,8,0:0:0:0:
209,43,73193,6,0,B|225:56|233:84|233:84|211:123|199:179|199:179|204:205|225:221,1,188.999994232178,6|2,3:2|3:2,0:0:0:0:
379,346,74210,2,0,B|299:318|299:318|249:338,1,125.999996154785,10|2,0:2|0:0,0:0:0:0:
260,333,74973,1,2,0:2:0:0:
94,354,75227,2,0,L|182:322,1,94.499997116089,2|8,3:2|0:0,0:0:0:0:
260,333,75736,1,10,0:0:0:0:
299,238,75990,1,0,3:0:0:0:
512,333,76244,1,10,0:0:0:0:
452,383,76498,2,0,P|437:349|436:316,1,62.9999980773926,2|2,0:2|0:2,0:0:0:0:
460,249,77007,1,2,0:2:0:0:
347,50,77261,6,0,B|353:62|365:71|365:71|375:121|343:181|343:181|320:162|275:166,1,188.999994232178,2|2,3:2|3:2,0:0:0:0:
10,79,78278,1,10,0:2:0:0:
63,137,78532,1,2,0:2:0:0:
169,44,78786,2,0,P|123:41|80:60,1,94.499997116089,2|0,0:2|0:0,0:0:0:0:
63,137,79295,6,0,P|81:180|78:226,1,94.499997116089,2|8,3:2|0:0,0:0:0:0:
13,338,79803,1,10,0:0:0:0:
8,260,80058,1,0,3:0:0:0:
229,305,80312,1,10,0:0:0:0:
303,342,80566,2,0,P|279:373|256:385,1,62.9999980773926,2|2,0:2|0:2,0:0:0:0:
188,373,81075,1,2,0:2:0:0:
437,239,81329,5,6,3:2:0:0:
502,290,81583,1,2,0:2:0:0:
512,141,81837,2,0,P|480:154|444:159,1,62.9999980773926,2|0,0:2|3:0,0:0:0:0:
234,80,82346,1,8,0:0:0:0:
303,111,82600,2,0,P|333:105|362:93,2,62.9999980773926,2|2|2,0:2|0:2|0:2,0:0:0:0:
173,1,83363,5,2,3:2:0:0:
57,31,83617,2,0,L|94:21,1,31.4999990386963,2|8,0:2|0:0,0:0:0:0:
159,4,83871,1,10,0:2:0:0:
43,34,84125,1,0,3:2:0:0:
285,115,84380,1,8,0:0:0:0:
55,132,84634,2,0,P|45:166|47:194,1,62.9999980773926,2|2,0:2|0:2,0:0:0:0:
96,248,85142,1,2,0:2:0:0:
3,371,85397,6,0,B|34:331|96:341|97:344|98:347|165:380|203:335,1,188.999994232178,2|2,3:2|3:2,0:0:0:0:
355,185,86414,2,0,P|361:215|355:246,2,62.9999980773926,10|0|2,0:2|0:0|0:0,0:0:0:0:
343,275,87176,1,2,0:2:0:0:
183,128,87431,2,0,P|227:125|283:108,1,94.499997116089,2|0,3:2|3:0,0:0:0:0:
298,97,87939,1,2,3:2:0:0:
349,5,88193,1,0,3:0:0:0:
113,15,88447,2,0,P|119:50|120:80,1,62.9999980773926,10|0,0:2|0:0,0:0:0:0:
180,276,88956,5,8,0:0:0:0:
213,199,89083,1,8,0:0:0:0:
58,277,89210,5,8,3:0:0:0:
96,260,89337,1,4,3:0:0:0:
208,356,89464,6,0,L|298:368,1,90,6|2,3:2|0:2,0:0:0:0:
351,273,89973,1,2,0:2:0:0:
295,175,90227,1,2,3:2:0:0:
506,318,90481,2,0,B|479:380|479:380|479:387|479:387|443:339|468:286,1,180,10|2,0:2|0:2,0:0:0:0:
498,198,91244,1,2,3:2:0:0:
426,4,91498,5,2,3:2:0:0:
501,90,91753,1,2,0:2:0:0:
336,45,92007,2,0,P|312:85|295:130,1,90,2|2,0:2|3:2,0:0:0:0:
135,291,92515,2,0,B|176:285|176:285|181:279|181:279|223:284,1,90,10|0,0:2|0:0,0:0:0:0:
227,216,92897,2,0,B|186:210|186:210|180:204|180:204|139:209,1,90,2|0,0:2|0:0,0:0:0:0:
75,168,93278,1,2,3:2:0:0:
390,159,93532,6,0,B|376:167|355:170|355:170|320:270,2,135,2|2|2,3:2|0:2|3:2,0:0:0:0:
311,378,94549,2,0,B|287:358|278:322|278:322|274:323|274:323|248:300|212:303,1,135,10|2,0:2|0:2,0:0:0:0:
165,362,95058,1,2,0:0:0:0:
64,328,95312,1,2,3:2:0:0:
180,172,95566,5,2,3:2:0:0:
136,39,95820,1,0,0:0:0:0:
270,67,96075,1,0,0:0:0:0:
44,126,96329,1,0,3:0:0:0:
156,352,96583,5,8,0:0:0:0:
247,318,96837,1,0,3:0:0:0:
272,211,97092,1,8,3:0:0:0:
392,165,97346,1,4,3:0:0:0:
245,6,97600,6,0,P|221:43|308:109,1,180,6|2,3:2|0:2,0:0:0:0:
193,68,98363,1,2,3:2:0:0:
453,7,98617,2,0,B|401:42|401:42|363:25|327:22,2,135,10|2|2,0:2|0:2|3:2,0:0:0:0:
287,206,99634,6,0,P|227:193|113:159,1,180,2|2,3:2|0:2,0:0:0:0:
234,105,100397,1,2,3:2:0:0:
11,29,100651,5,10,0:2:0:0:
180,349,101032,5,2,3:2:0:0:
17,40,101414,5,2,3:2:0:0:
47,218,101668,6,0,B|20:194|18:162|18:162|22:158|22:158|30:124|65:116,2,135,6|2|2,3:2|0:2|3:2,0:0:0:0:
169,2,102685,2,0,B|193:36|193:36|182:56|176:84,1,90,10|0,0:2|0:0,0:0:0:0:
237,128,103066,2,0,B|209:166|209:166|220:184|227:211,1,90,2|0,0:2|0:0,0:0:0:0:
252,279,103447,1,2,3:2:0:0:
28,381,103702,2,0,B|33:369|34:359|34:359|185:314,1,180,2|0,3:2|3:0,0:0:0:0:
280,336,104464,1,0,3:0:0:0:
347,225,104719,5,8,0:0:0:0:
285,84,104973,1,8,0:0:0:0:
118,21,105227,1,8,0:0:0:0:
16,196,105481,1,8,0:0:0:0:
16,196,106753,6,0,B|59:237|119:212|119:212|109:208|109:208|131:164|68:141|96:61,1,270.000010299683,6|0,3:2|0:0,0:0:0:0:
252,217,107515,1,2,3:2:0:0:
386,129,107769,2,0,B|355:135|327:125|327:125|301:138|301:138|265:115|223:129,1,168.750006437302,10|0,0:2|0:0,0:0:0:0:
214,139,108151,1,2,0:2:0:0:
365,51,108278,1,2,0:0:0:0:
246,230,108532,1,2,3:2:0:0:
483,19,108786,6,0,B|463:88|463:88|459:91|459:91|475:131|459:172,1,151.875000579357,2|0,3:2|0:0,0:0:0:0:
454,181,109168,1,0,3:0:0:0:
512,329,109295,2,0,P|454:309|394:297,1,121.500000463486,2|0,3:2|3:0,0:0:0:0:
92,384,109803,5,10,0:2:0:0:
202,305,110058,1,0,3:0:0:0:
41,145,110312,6,0,B|48:174|61:198|61:198|53:233,1,80.9999975280763,8|0,3:0|0:0,0:0:0:0:
30,231,110566,6,0,B|24:251|15:269|15:269|21:294,1,67.5,4|0,3:0|0:0,0:0:0:0:
77,347,110820,6,0,B|125:313|179:343|179:343|188:340|188:340|225:403|295:383,1,236.250009012223,6|0,3:2|0:0,0:0:0:0:
304,381,111329,2,0,P|311:351|324:324,1,60.7500002317429,2|0,0:0|0:0,0:0:0:0:
455,225,111583,1,2,3:2:0:0:
221,9,111837,6,0,B|224:56|184:84|184:84|221:77|249:105,1,151.875000579357,10|0,0:2|0:0,0:0:0:0:
256,114,112219,1,2,0:0:0:0:
378,22,112346,2,0,P|345:31|312:37,1,67.5000025749208,2|0,0:2|0:0,0:0:0:0:
139,5,112600,1,2,3:2:0:0:
139,5,112727,1,0,0:0:0:0:
52,145,112854,6,0,B|64:110|64:110|59:97|59:97|68:48|68:48|54:76|39:90,1,151.875000579357,2|0,3:2|0:0,0:0:0:0:
26,96,113236,1,0,3:0:0:0:
111,208,113363,2,0,B|79:205|57:179|57:179|51:211|26:226,1,121.500000463486,0|0,3:0|3:0,0:0:0:0:
0,384,113871,5,10,0:2:0:0:
82,280,114125,1,0,3:0:0:0:
253,384,114380,5,8,3:0:0:0:
180,373,114507,1,8,3:0:0:0:
355,310,114634,5,4,3:0:0:0:
319,316,114761,1,4,3:0:0:0:
439,344,114888,6,0,B|451:361|461:385|461:385|473:288|499:190,1,236.250009012223,4|0,3:2|0:0,0:0:0:0:
504,184,115397,1,2,0:0:0:0:
392,12,115651,1,2,3:2:0:0:
265,111,115905,6,0,B|318:104|362:78|362:78|343:98|338:125,1,151.875000579357,10|0,0:2|0:0,0:0:0:0:
337,137,116286,1,2,0:2:0:0:
199,158,116414,2,0,P|186:130|184:100,1,60.7500002317429,2|0,0:2|0:0,0:0:0:0:
270,208,116668,2,0,P|266:253|248:294,1,91.1250003476143,2|0,3:2|0:0,0:0:0:0:
291,351,116922,6,0,P|219:324|144:311,1,151.875000579357,2|0,3:2|0:0,0:0:0:0:
129,312,117303,1,0,3:0:0:0:
313,368,117430,6,0,P|339:352|376:341,1,60.7500002317429,2|0,3:2|0:0,0:0:0:0:
473,370,117685,1,0,3:0:0:0:
337,137,117939,5,10,0:0:0:0:
248,294,118193,1,0,3:0:0:0:
512,196,118447,6,0,B|485:194|466:179|466:179|446:184|432:195,1,80.9999975280763,8|0,3:0|0:0,0:0:0:0:
420,214,118702,6,0,B|399:215|384:227|384:227|368:223|357:214,1,67.5,4|0,3:0|0:0,0:0:0:0:
307,165,118956,5,6,3:2:0:0:
473,370,119210,1,2,0:2:0:0:
290,143,119464,1,2,0:2:0:0:
72,376,119719,1,2,3:2:0:0:
7,63,119973,6,0,B|5:33|-14:14|-14:14|54:8|88:54,1,168.750006437302,10|0,0:2|0:0,0:0:0:0:
96,71,120354,1,0,0:0:0:0:
192,33,120481,2,0,P|200:65|196:99,1,67.5000025749208,2|0,0:2|0:0,0:0:0:0:
287,132,120736,2,0,P|268:164|242:181,1,67.5000025749208,0|0,3:0|0:0,0:0:0:0:
143,280,120990,6,0,B|154:274|163:259|163:259|210:307|281:289,1,151.875000579357,2|0,3:2|0:0,0:0:0:0:
295,285,121371,1,0,3:0:0:0:
168,180,121498,1,2,3:2:0:0:
368,346,121752,1,0,3:0:0:0:
452,117,122007,5,12,0:2:0:0:
286,371,122261,1,0,3:0:0:0:
151,0,122515,5,8,0:0:0:0:
173,104,122642,1,8,3:0:0:0:
283,15,122769,5,4,3:0:0:0:
272,67,122896,1,4,3:0:0:0:
101,71,123024,6,0,P|49:99|26:294,1,270.000010299683,6|0,3:2|0:0,0:0:0:0:
201,378,123786,2,0,P|158:366|106:355,1,91.1250003476143,2|0,3:2|0:0,0:0:0:0:
23,256,124041,2,0,B|116:258|171:194|171:194|133:172,1,202.500007724762,10|2,0:2|0:2,0:0:0:0:
65,143,124549,1,2,0:2:0:0:
368,195,124803,1,2,3:2:0:0:
444,162,125058,6,0,P|466:83|483:12,1,151.875000579357,2|0,3:2|0:0,0:0:0:0:
441,152,125439,2,0,P|463:234|511:291,1,151.875000579357,0|0,3:0|0:0,0:0:0:0:
438,143,125820,1,0,3:0:0:0:
508,382,126075,1,10,0:2:0:0:
430,367,126329,1,0,3:0:0:0:
296,160,126583,1,8,3:0:0:0:
324,19,126837,1,4,3:0:0:0:
321,305,127091,6,0,B|322:357|288:385|288:385|197:322|197:322|235:292|252:335,1,270.000010299683,6|2,3:2|0:2,0:0:0:0:
215,116,127854,2,0,P|205:156|179:205,1,91.1250003476143,2|0,3:2|0:0,0:0:0:0:
178,29,128108,2,0,P|239:6|305:77,1,168.750006437302,10|0,0:2|0:0,0:0:0:0:
294,79,128490,2,0,P|305:131|337:198,1,121.500000463486,2|0,0:2|0:0,0:0:0:0:
109,242,128871,2,0,B|40:221|40:221|56:209|74:193,1,101.250003862381,2|0,3:2|0:0,0:0:0:0:
65,190,129125,6,0,B|24:356|24:356|59:341|107:330,2,242.999992584229,2|0|0,3:2|3:0|3:0,0:0:0:0:
346,202,130142,1,8,0:0:0:0:
291,143,130397,1,0,3:0:0:0:
95,39,130651,5,8,3:0:0:0:
28,21,130778,1,8,3:0:0:0:
191,78,130905,5,4,3:0:0:0:
225,66,131032,1,4,3:0:0:0:
425,3,131159,6,0,B|422:33|414:63|414:63|470:121|470:121|478:125|478:125|502:179|509:245,1,270.000010299683,6|2,3:2|0:2,0:0:0:0:
290,257,131922,2,0,P|317:296|361:329,1,91.1250003476143,2|0,3:2|0:0,0:0:0:0:
498,376,132176,2,0,B|441:317|404:226|404:226|381:207,1,202.500007724762,10|2,0:2|0:2,0:0:0:0:
310,177,132685,1,2,0:2:0:0:
157,381,132939,1,2,3:2:0:0:
202,312,133193,6,0,P|126:283|66:238,1,151.875000579357,2|0,3:2|0:0,0:0:0:0:
211,315,133575,2,0,P|177:240|167:166,1,151.875000579357,0|0,3:0|0:0,0:0:0:0:
221,319,133956,1,0,3:0:0:0:
280,65,134210,1,10,0:0:0:0:
223,8,134464,1,0,3:0:0:0:
6,133,134719,1,8,3:0:0:0:
140,87,134973,1,4,3:0:0:0:
285,366,135227,5,6,3:2:0:0:
339,120,135481,1,2,0:2:0:0:
55,198,135736,1,2,0:2:0:0:
299,111,135990,1,2,3:2:0:0:
2,12,136244,2,0,P|112:40|219:115,1,236.250009012223,10|0,0:2|0:0,0:0:0:0:
215,120,136752,1,2,0:2:0:0:
193,198,137007,1,0,3:0:0:0:
478,98,137261,6,0,B|506:111|506:111|442:119|396:74,1,151.875000579357,2|0,3:2|0:0,0:0:0:0:
393,61,137642,1,0,3:0:0:0:
274,188,137769,2,0,L|260:281,1,91.1250003476143,2|0,0:2|0:0,0:0:0:0:
260,375,138024,2,0,L|273:284,1,91.1250003476143,0|0,3:0|0:0,0:0:0:0:
303,115,138278,1,12,0:2:0:0:
372,156,138532,1,0,3:0:0:0:
167,71,138786,5,8,0:0:0:0:
183,3,138914,1,8,3:0:0:0:
217,151,139041,5,4,3:0:0:0:
227,186,139169,1,4,3:0:0:0:
24,302,139295,6,0,B|35:260|72:246|72:246|91:207|126:187|126:187|107:220|121:261|121:261|77:258|34:221|20:189|20:189|34:150|76:134,1,433.125004130602,6|0,3:2|0:0,0:0:0:0:
77,136,140058,2,0,P|89:93|80:60,1,78.7500007510185,0|0,3:0|0:0,0:0:0:0:
192,230,140312,6,0,B|280:190|264:262|328:238|392:262|378:191|458:227,1,275.625002628565,10|0,0:2|0:0,0:0:0:0:
468,238,140820,2,0,P|476:199|489:162,1,78.7500007510185,2|0,0:2|0:0,0:0:0:0:
449,45,141075,1,0,3:0:0:0:
246,309,141329,6,0,B|205:296|164:323|164:323|139:281|85:272|85:272|117:236|117:236|99:200|115:161|115:161|136:117|112:77,1,396,2|0,3:2|0:0,0:0:0:0:
104,67,142091,1,0,3:0:0:0:
437,311,142346,6,0,B|418:287|395:250|395:250|399:291,1,111.375001062155,10|0,0:2|0:0,0:0:0:0:
385,317,142600,2,0,B|404:341|427:378|427:378|423:340,1,111.375001062155,2|0,0:0|0:0,0:0:0:0:
391,214,142854,1,2,3:2:0:0:
299,224,143108,5,8,0:0:0:0:
447,34,143236,1,8,0:0:0:0:
343,154,143363,6,0,B|286:135|286:135|252:159,1,101.250003862381,6|0,3:2|0:0,0:0:0:0:
234,177,143617,2,0,B|177:196|177:196|143:171,1,101.250003862381,2|0,0:0|0:0,0:0:0:0:
67,107,143871,6,0,B|72:149|72:149|69:152|69:152|75:195,1,91.1250003476143,2|0,0:2|0:0,0:0:0:0:
47,293,144125,2,0,B|52:249|52:249|49:247|49:247|55:204,1,91.1250003476143,2|0,3:2|0:0,0:0:0:0:
103,352,144380,6,0,B|142:338|142:338|158:352|173:361,1,80.9999975280763,10|0,0:2|0:0,0:0:0:0:
200,359,144634,2,0,B|239:373|239:373|255:359|270:349,1,80.9999975280763,2|0,0:0|0:0,0:0:0:0:
343,350,144888,6,0,P|346:320|316:296,1,67.5,2|0,0:2|0:0,0:0:0:0:
262,251,145142,2,0,P|297:244|322:271,1,74.2500022659302,2|0,3:2|0:0,0:0:0:0:
423,374,145397,6,0,B|444:317|406:254|406:254|416:226|416:226|413:218|413:218|432:176|432:176|438:176|438:176|383:179|344:140|348:90,1,334.125001274586,2|0,3:2|0:0,0:0:0:0:
429,90,146159,1,0,3:0:0:0:
487,252,146414,5,10,0:2:0:0:
262,251,146668,1,0,3:0:0:0:
234,9,146922,5,10,0:2:0:0:
154,28,147049,1,8,0:0:0:0:
300,82,147176,5,8,3:0:0:0:
348,93,147303,1,4,3:0:0:0:
494,31,147430,6,0,P|492:83|477:135,1,101.250003862381,6|0,3:2|0:0,0:0:0:0:
468,126,147685,2,0,P|481:77|483:26,1,101.250003862381,2|0,0:2|0:0,0:0:0:0:
479,8,147939,5,2,0:2:0:0:
405,173,148193,1,2,3:2:0:0:
512,353,148447,2,0,B|481:354|481:354|470:346|470:346|445:355|445:355|432:338|432:338|386:359|342:331,1,180,10|2,0:2|0:2,0:0:0:0:
240,344,149083,6,0,P|244:364|252:384,2,36,2|2|2,0:2|3:2|0:2,0:0:0:0:
168,256,149464,6,0,P|212:256|264:204,1,121.500000463486,2|2,3:2|0:0,0:0:0:0:
352,240,149846,1,2,0:0:0:0:
452,144,150029,6,0,L|440:84,2,60,2|2|2,0:0|0:0|0:0,0:0:0:0:
464,236,150481,5,10,0:2:0:0:
356,132,150651,1,2,0:2:0:0:
456,252,150820,1,2,0:2:0:0:
252,332,150990,5,2,3:2:0:0:
360,228,151160,1,2,0:2:0:0:
260,348,151329,1,2,0:2:0:0:
46,222,151498,6,0,B|79:192|128:200|128:200|130:195|130:195|179:203|216:240|216:240|189:193|207:147|207:147|204:143|204:143|245:116|239:69|239:69|244:59|244:59|213:74|172:62|176:56|137:43|101:54,1,540,6|0,3:2|3:0,0:0:0:0:
289,186,152515,1,10,0:2:0:0:
121,303,152769,1,0,0:0:0:0:
303,175,153024,1,2,3:2:0:0:
359,326,153278,1,8,0:0:0:0:
205,145,153532,1,2,3:2:0:0:
435,200,153786,5,8,0:0:0:0:
444,238,153914,1,8,0:0:0:0:
362,174,154041,5,8,0:0:0:0:
388,64,154169,1,8,0:0:0:0:
499,100,154295,5,8,3:0:0:0:
479,105,154422,1,4,3:0:0:0:
323,25,154549,5,8,0:0:0:0:
257,69,154803,2,0,L|233:64,2,18
105,235,155566,6,0,B|132:269|132:269|137:291|130:313|130:313|131:316|131:316|123:331|109:343,1,125.999996154785,6|0,3:2|0:0,0:0:0:0:
42,375,156329,1,2,3:2:0:0:
7,118,156583,2,0,B|18:164|19:208|19:208|26:218|26:218|19:288|19:288|25:302,1,188.999994232178,10|2,0:2|0:2,0:0:0:0:
173,196,157600,2,0,P|223:172|251:142,1,94.499997116089,2|8,3:2|0:0,0:0:0:0:
282,50,158108,1,8,0:0:0:0:
342,111,158363,1,0,3:0:0:0:
159,270,158617,1,8,0:0:0:0:
229,296,158871,2,0,P|232:329|244:378,2,62.9999980773926,2|2|2,0:2|0:2|0:2,0:0:0:0:
3,379,159634,6,0,P|45:351|88:283,1,125.999996154785,2|0,3:2|0:0,0:0:0:0:
97,215,160397,1,2,3:2:0:0:
287,59,160651,2,0,B|207:82|207:82|208:101|208:101|166:124|139:153,1,188.999994232178,10|2,0:2|0:2,0:0:0:0:
341,7,161668,2,0,B|411:27|411:27|418:57,2,94.499997116089,2|0|0,3:2|0:0|3:0,0:0:0:0:
92,90,162685,1,8,0:0:0:0:
37,40,162939,1,2,0:2:0:0:
100,0,163193,1,2,0:2:0:0:
155,50,163447,1,2,0:2:0:0:
279,240,163702,5,6,3:2:0:0:
345,206,163956,1,2,0:2:0:0:
372,137,164210,2,0,L|311:112,1,62.9999980773926,2|0,0:2|3:0,0:0:0:0:
477,243,164719,1,8,0:0:0:0:
504,174,164973,2,0,L|443:149,2,62.9999980773926,2|2|2,0:2|0:2|0:2,0:0:0:0:
341,281,165736,5,2,3:2:0:0:
410,308,165990,2,0,L|396:351,1,31.4999990386963,2|8,0:2|0:0,0:0:0:0:
338,378,166244,2,0,P|299:373|265:346,1,62.9999980773926,10|0,0:2|3:0,0:0:0:0:
163,187,166752,1,8,0:0:0:0:
188,257,167007,2,0,P|173:284|171:315,2,62.9999980773926,2|2|2,0:2|0:2|0:2,0:0:0:0:
278,86,167769,6,0,B|247:10|247:10|246:37|237:61,1,125.999996154785,2|0,3:2|0:0,0:0:0:0:
204,119,168532,1,2,3:2:0:0:
16,217,168786,2,0,B|62:199|92:159|101:109|101:109|115:131|132:140,1,188.999994232178,10|2,0:2|0:2,0:0:0:0:
79,364,169803,2,0,B|93:313|93:313|77:270,2,94.499997116089,2|0|0,3:2|3:0|3:0,0:0:0:0:
190,192,170820,2,0,P|237:203|282:216,1,94.499997116089,10|0,0:2|0:0,0:0:0:0:
309,227,171329,5,8,3:0:0:0:
337,306,171456,1,8,3:0:0:0:
365,163,171583,5,4,3:0:0:0:
388,128,171710,1,4,3:0:0:0:
498,347,171837,6,0,P|456:330|412:328,1,90,6|2,3:2|0:2,0:0:0:0:
250,324,172346,2,0,P|290:307|335:305,1,90,2|2,0:2|3:2,0:0:0:0:
504,232,172854,6,0,B|482:220|482:220|480:223|480:223|476:188|493:159,1,90,10|0,0:2|0:0,0:0:0:0:
512,95,173236,2,0,B|501:74|501:74|504:72|504:72|470:68|442:85,1,90,2|0,0:2|0:0,0:0:0:0:
417,153,173617,1,2,3:2:0:0:
224,1,173871,5,2,3:2:0:0:
237,154,174125,1,2,0:2:0:0:
238,12,174380,2,0,P|270:43|274:85,1,90,2|2,0:2|3:2,0:0:0:0:
0,214,174888,6,0,B|24:199|52:197|52:197|50:195|50:195|78:209,1,90,10|0,0:2|0:0,0:0:0:0:
132,159,175269,2,0,B|159:165|180:183|180:183|180:180|180:180|190:210,1,90,2|0,0:2|0:0,0:0:0:0:
133,262,175651,1,2,3:2:0:0:
365,347,175905,6,0,P|407:297|472:294,2,135,2|2|2,3:2|0:2|3:2,0:0:0:0:
512,232,176922,2,0,B|480:218|475:182|475:182|469:180|469:180|464:145|432:132,1,135,10|2,0:2|0:2,0:0:0:0:
360,130,177430,1,2,0:0:0:0:
391,277,177685,1,2,3:2:0:0:
150,217,177939,5,2,3:2:0:0:
175,72,178193,1,0,0:0:0:0:
68,19,178447,1,0,0:0:0:0:
106,133,178702,1,0,3:0:0:0:
187,294,178956,5,8,0:0:0:0:
253,202,179210,1,0,3:0:0:0:
360,206,179464,1,8,3:0:0:0:
412,132,179718,1,4,3:0:0:0:
285,346,179973,6,0,B|263:325|231:323|231:323|229:318|229:318|189:354|121:348,1,180,6|2,3:2|0:2,0:0:0:0:
39,292,180736,1,2,3:2:0:0:
188,83,180990,6,0,B|193:94|196:116|196:116|199:115|199:115|179:128|166:155,1,90,10|0,0:2|0:0,0:0:0:0:
103,190,181371,2,0,B|96:201|93:223|93:223|90:222|90:222|110:235|122:261,1,90,2|0,0:2|0:0,0:0:0:0:
191,284,181752,1,2,3:2:0:0:
0,27,182007,6,0,L|180:8,1,180,2|2,3:2|0:2,0:0:0:0:
267,77,182769,1,2,3:2:0:0:
329,338,183024,5,10,0:2:0:0:
460,38,183405,5,2,3:2:0:0:
337,321,183786,5,2,3:2:0:0:
503,278,184041,6,0,P|459:278|415:206,1,135,6|2,3:2|0:0,0:0:0:0:
365,152,184549,1,2,0:0:0:0:
252,359,184803,1,2,3:2:0:0:
252,359,185058,2,0,P|189:338|120:335,2,135,10|2|2,0:2|0:2|3:2,0:0:0:0:
46,383,186075,6,0,B|57:338|40:297|40:297|47:294|47:294|36:275|34:256,1,135,2|0,3:2|0:0,0:0:0:0:
25,244,186583,1,0,0:0:0:0:
27,165,186837,1,0,3:0:0:0:
75,77,187092,5,8,0:0:0:0:
212,6,187346,1,8,0:0:0:0:
381,62,187600,1,8,0:0:0:0:
406,264,187854,1,8,0:0:0:0:
12,376,188617,5,8,3:0:0:0:
89,356,188744,1,8,3:0:0:0:
205,325,188871,5,4,3:0:0:0:
166,315,188998,1,4,3:0:0:0:
242,151,189125,6,0,B|271:120|271:120|404:87|404:87|380:46|380:-6,1,270.000010299683,6|2,3:2|0:2,0:0:0:0:
493,190,189887,2,0,P|505:140|499:90,1,91.1250003476143,2|0,3:2|0:0,0:0:0:0:
403,9,190141,2,0,B|338:22|338:22|313:19|313:19|200:49,1,202.500007724762,10|2,0:2|0:2,0:0:0:0:
134,7,190650,1,2,0:2:0:0:
67,258,190904,1,2,3:2:0:0:
106,185,191158,6,0,P|76:118|6:75,1,151.875000579357,2|0,3:2|0:0,0:0:0:0:
114,189,191540,2,0,P|173:145|255:143,1,151.875000579357,0|0,3:0|0:0,0:0:0:0:
123,193,191921,1,0,3:0:0:0:
406,264,192175,1,10,0:2:0:0:
473,308,192430,1,0,3:0:0:0:
199,338,192684,1,0,3:0:0:0:
61,377,192939,1,4,3:0:0:0:
295,251,193192,6,0,B|261:239|224:234|224:234|242:146|242:146|190:141|136:125,1,270.000010299683,6|2,3:2|0:2,0:0:0:0:
383,98,193955,2,0,P|356:129|351:90,1,91.1250003476143,2|0,3:2|0:0,0:0:0:0:
389,226,194209,2,0,B|413:324|413:324|406:360|406:360|385:334,1,168.750006437302,10|0,0:2|0:0,0:0:0:0:
394,326,194591,2,0,P|334:335|266:354,1,121.500000463486,2|0,0:2|0:0,0:0:0:0:
441,160,194972,2,0,B|457:139|475:124|475:124|491:102|494:75,1,101.250003862381,2|0,3:2|0:0,0:0:0:0:
497,64,195226,6,0,B|474:25|474:25|346:37|346:37|366:57|366:57|422:51,2,242.999992584229,2|0|0,3:2|3:0|3:0,0:0:0:0:
108,35,196243,1,8,0:0:0:0:
35,1,196497,1,0,3:0:0:0:
244,89,196752,5,8,3:0:0:0:
307,59,196879,1,8,3:0:0:0:
139,110,197006,5,4,3:0:0:0:
170,129,197133,1,4,3:0:0:0:
33,313,197260,6,0,B|21:373|21:373|78:368|125:351|125:351|127:347|127:347|180:335|221:308,1,270.000010299683,6|2,3:2|0:2,0:0:0:0:
387,208,198023,2,0,B|426:238|426:238|412:255|388:247,1,91.1250003476143,2|0,3:2|0:0,0:0:0:0:
290,373,198277,2,0,B|298:386|298:386|329:328|306:258|261:213,1,202.500007724762,10|2,0:2|0:2,0:0:0:0:
200,161,198786,1,2,0:2:0:0:
460,60,199040,1,2,3:2:0:0:
384,27,199294,6,0,B|348:27|310:38|310:38|306:41|306:41|235:53,1,151.875000579357,2|0,3:2|0:0,0:0:0:0:
386,19,199675,2,0,B|386:55|397:92|397:92|400:96|400:96|412:167,1,151.875000579357,0|0,3:0|0:0,0:0:0:0:
387,11,200057,1,0,3:0:0:0:
470,258,200311,1,8,0:0:0:0:
420,321,200565,1,0,3:0:0:0:
167,360,200819,1,8,3:0:0:0:
81,247,201073,1,4,3:0:0:0:
374,149,201328,5,6,3:2:0:0:
149,0,201582,1,2,0:2:0:0:
367,183,201836,1,2,0:2:0:0:
86,149,202091,1,2,3:2:0:0:
296,375,202345,2,0,B|306:293|306:293|288:264|288:264|175:227,1,236.250009012223,10|0,0:0|0:0,0:0:0:0:
167,219,202853,1,2,0:2:0:0:
191,141,203108,1,0,3:0:0:0:
10,9,203362,6,0,P|65:14|140:79,1,151.875000579357,2|0,3:2|0:0,0:0:0:0:
131,85,203743,1,0,3:0:0:0:
76,260,203870,2,0,P|105:306|116:358,1,91.1250003476143,2|0,0:2|0:0,0:0:0:0:
83,247,204125,2,0,P|57:209|44:165,1,91.1250003476143,0|0,3:0|0:0,0:0:0:0:
99,5,204379,1,8,0:0:0:0:
56,72,204633,1,0,3:0:0:0:
242,179,204887,5,8,0:0:0:0:
306,152,205014,1,8,3:0:0:0:
194,298,205141,5,4,3:0:0:0:
206,263,205269,1,4,3:0:0:0:
403,245,205396,6,0,B|440:218|497:238|525:291|504:337|504:337|488:307|453:301,1,236.250009012223,6|0,3:2|0:0,0:0:0:0:
440,370,205904,1,2,0:2:0:0:
496,218,206158,1,2,3:2:0:0:
250,139,206413,6,0,B|288:150|304:186|304:186|299:185|299:185|268:256|305:308,1,202.500007724762,10|2,0:2|0:2,0:0:0:0:
215,352,206921,2,0,P|257:326|310:321,1,101.250003862381,2|0,0:2|0:0,0:0:0:0:
407,371,207175,2,0,P|365:345|312:340,1,101.250003862381,2|0,3:2|0:0,0:0:0:0:
207,368,207430,6,0,B|159:312|77:317|77:317|109:307|120:275,2,182.250000695229,2|0|0,3:2|3:0|3:0,0:0:0:0:
0,134,208447,1,10,0:2:0:0:
58,244,208701,1,0,3:0:0:0:
185,33,208955,6,0,B|170:25|149:23|149:23|126:43|97:45,1,80.9999975280763,8|0,3:0|0:0,0:0:0:0:
81,59,209209,6,0,B|69:65|53:66|53:66|35:51|13:49,1,67.5,4|0,3:0|0:0,0:0:0:0:
208,128,209463,6,0,B|230:67|239:-2|239:-2|286:97,1,236.250009012223,6|0,3:2|0:0,0:0:0:0:
273,161,209972,2,0,P|301:138|336:125,1,74.2500022659302,2|0,0:2|0:0,0:0:0:0:
360,123,210226,1,2,3:2:0:0:
512,350,210480,6,0,B|525:316|515:283|515:283|518:282|518:282|489:267|478:231,1,135.000005149842,10|0,0:2|0:0,0:0:0:0:
401,263,210862,2,0,B|387:229|397:196|397:196|394:195|394:195|424:180|434:144,1,135.000005149842,2|0,0:2|0:0,0:0:0:0:
406,374,211243,1,2,3:2:0:0:
179,273,211497,6,0,P|253:282|337:309,1,151.875000579357,2|0,3:2|0:0,0:0:0:0:
348,323,211879,2,0,P|274:332|190:359,1,151.875000579357,0|0,3:0|0:0,0:0:0:0:
179,373,212260,1,0,3:0:0:0:
0,256,212514,1,10,0:2:0:0:
35,352,212769,1,0,3:0:0:0:
117,205,213023,5,8,3:0:0:0:
131,257,213150,1,8,3:0:0:0:
14,98,213277,5,4,3:0:0:0:
0,150,213404,1,4,3:0:0:0:
193,211,213531,6,0,P|267:215|343:78,1,236.250009012223,6|0,3:2|0:0,0:0:0:0:
343,69,214040,1,2,0:2:0:0:
286,244,214294,1,2,3:2:0:0:
495,74,214548,6,0,B|472:77|454:84|454:84|453:113|448:138|448:138|444:133|444:133|435:172|436:205,1,168.750006437302,10|0,0:2|0:0,0:0:0:0:
439,222,214930,2,0,B|462:226|480:233|480:233|481:262|486:287|486:287|490:282|490:282|499:321|498:354,1,168.750006437302,2|0,0:2|0:0,0:0:0:0:
498,346,215311,1,2,3:2:0:0:
222,321,215565,6,0,B|258:318|291:305|291:305|296:314|296:314|326:332|348:360,1,151.875000579357,2|0,3:2|0:0,0:0:0:0:
203,323,215947,2,0,B|167:326|134:339|134:339|129:330|129:330|99:312|77:284,1,151.875000579357,0|0,3:0|0:0,0:0:0:0:
67,269,216328,1,0,3:0:0:0:
113,82,216582,5,8,0:0:0:0:
158,240,216836,1,0,3:0:0:0:
389,46,217091,6,0,B|365:43|347:35|347:35|345:37|345:37|322:28|293:25,1,80.9999975280763,8|0,3:0|0:0,0:0:0:0:
296,16,217345,6,0,B|286:16|265:24|265:24|263:22|263:22|247:29|225:32,1,67.5,4|0,3:0|0:0,0:0:0:0:
213,41,217599,5,6,3:2:0:0:
305,282,217853,1,2,0:2:0:0:
502,192,218108,1,2,0:2:0:0:
325,273,218362,1,2,3:2:0:0:
512,381,218616,6,0,B|497:351|468:335|468:335|465:322|465:322|407:322|387:381|319:377,1,236.250009012223,10|0,0:2|0:0,0:0:0:0:
301,375,219124,1,2,0:2:0:0:
502,192,219379,1,0,3:0:0:0:
393,8,219633,6,0,B|386:39|386:66|386:66|383:61|383:61|382:92|376:118,1,121.500000463486,2|0,3:2|0:0,0:0:0:0:
331,171,220014,2,0,B|299:164|272:164|272:164|277:161|277:161|246:160|220:154,1,121.500000463486,0|0,3:0|0:0,0:0:0:0:
168,109,220396,1,0,3:0:0:0:
0,0,220650,1,12,0:2:0:0:
51,107,220904,1,0,3:0:0:0:
47,291,221158,5,12,3:2:0:0:
102,214,221286,1,8,3:0:0:0:
211,321,221413,5,4,3:0:0:0:
163,313,221541,1,4,3:0:0:0:
317,379,221667,6,0,B|392:370|437:308|438:230|438:230|511:257|511:257|492:263|475:273,1,323.999990112305,6|10,3:2|0:2,0:2:0:0:
223,145,222393,2,0,B|202:128|173:121|173:121|259:8|259:8|288:93|288:93|273:106|262:121,1,323.999990112305,0|0,3:2|3:2,0:2:0:0:
239,384,223143,1,10,0:2:0:0:
203,223,223393,2,0,P|225:270|273:320,1,101.250003862381,0|0,3:2|0:0,0:0:0:0:
269,315,223643,5,2,3:2:0:0:
230,299,223726,1,0,0:2:0:0:
188,293,223809,1,0,0:2:0:0:
146,297,223893,1,0,3:2:0:0:
107,311,223976,1,0,0:2:0:0:
72,333,224059,1,0,0:2:0:0:
37,384,224143,5,10,0:2:0:0:
73,363,224226,1,0,0:2:0:0:
100,331,224309,1,0,0:2:0:0:
116,292,224393,1,0,3:2:0:0:
117,251,224476,1,0,0:2:0:0:
104,211,224559,1,0,0:2:0:0:
72,159,224643,6,0,B|96:164|96:164|107:151|107:151|135:140,2,62.9999980773926,2|0|0,3:2|0:0|3:0,0:0:0:0:
295,71,225018,2,0,L|285:110,1,31.4999990386963,0|0,0:2|0:0,0:0:0:0:
22,4,225143,2,0,B|73:25|73:25|75:35|75:35|119:53|119:53|124:63|124:63|169:76|213:102,1,220.499993270874,10|0,0:2|0:0,0:2:0:0:
366,50,225643,6,0,P|401:41|441:27,1,67.5000025749208,6|0,3:2|0:2,0:2:0:0:
504,153,225889,1,0,3:2:0:0:
507,173,226013,2,0,P|471:164|432:150,1,67.5000025749208,0|10,0:2|0:2,0:2:0:0:
370,277,226260,1,0,0:2:0:0:
367,297,226383,2,0,P|402:288|442:274,2,67.5000025749208,0|0|2,3:2|0:2|3:2,0:2:0:0:
218,379,226754,1,0,0:2:0:0:
237,372,226877,2,0,P|242:335|248:286,1,67.5000025749208,0|0,3:2|0:2,0:2:0:0:
316,107,227124,6,0,B|324:106|324:106|332:40|403:-1|487:15|487:15|470:49|470:49|490:52|501:57,1,288,10|0,0:2|3:2,0:2:0:0:
57,143,227618,6,0,L|19:129,3,26.9999991760254,2|0|0|0,3:2|0:2|0:2|0:2,0:0:0:0:
195,240,227865,2,0,L|233:226,3,26.9999991760254,0|0|0|0,3:2|0:2|0:2|0:2,0:0:0:0:
118,231,228112,1,10,0:2:0:0:
120,217,228173,1,0,0:2:0:0:
122,204,228235,1,0,0:2:0:0:
124,191,228297,1,0,0:2:0:0:
127,178,228359,1,0,3:2:0:0:
256,47,228482,5,0,0:2:0:0:
256,47,228544,1,0,0:2:0:0:
256,47,228605,2,0,P|250:22|240:0,2,35.9999989013672,2|0|0,3:2|0:2|0:2,0:2:0:0:
192,96,228852,2,0,P|185:112|181:132,2,26.9999991760254,0|0|0,3:2|0:2|0:2,0:0:0:0:
399,301,229099,6,0,B|453:333|453:333|464:317|464:317|421:293,1,121.499996292114,10|0,0:2|0:0,0:2:0:0:
332,333,229346,2,0,B|278:365|278:365|266:349|266:349|301:329,1,121.499996292114,0|0,3:2|0:0,0:0:0:0:
138,287,229600,6,0,B|79:275|26:305|26:305|20:303|20:303|27:306|27:306|59:390|156:374|156:374|167:339|198:319,1,360,6|10,3:2|0:2,0:2:0:0:
312,135,230337,6,0,L|302:176,1,26.9999991760254,0|0,3:2|0:0,0:2:0:0:
321,129,230460,2,0,L|327:102,1,26.9999991760254,0|0,0:2|0:0,0:0:0:0:
181,10,230583,6,0,B|190:36|192:63|192:63|214:80|226:108|226:108|142:145|142:145|125:132|122:116|122:116|54:154|54:154|48:150|48:150|22:183|22:183|43:203,1,396.000012084961,2|10,3:2|0:2,0:2:0:0:
288,34,231321,2,0,B|319:15|350:18|350:18|357:9|357:9|394:28|437:36,1,161.999995056153,0|2,3:2|3:2,0:2:0:0:
415,338,231813,6,0,L|425:297,1,26.9999991760254,0|0,3:2|0:0,0:2:0:0:
406,344,231936,2,0,L|399:370,1,26.9999991760254,0|0,0:2|0:0,0:0:0:0:
346,184,232059,6,0,B|428:197|489:249|489:249|449:137|348:109|348:109|264:227|264:227|213:240|213:240|203:247|203:247|52:287|52:287|88:326|106:388|106:388|116:335|146:291,1,935.999957153322,10|10,0:2|0:2,0:2:0:0:
353,262,233288,2,0,P|328:274|303:357,1,108,0|0,3:2|0:0,0:2:0:0:
304,360,233534,6,0,P|319:372|332:384,2,36,6|0|0,3:2|0:2|0:2,0:0:0:0:
221,275,233780,1,0,3:2:0:0:
200,245,233862,1,0,0:2:0:0:
191,210,233944,1,0,0:2:0:0:
191,173,234026,2,0,L|196:136,2,36,10|0|0,0:2|0:2|0:2,0:2:0:0:
303,258,234272,2,0,P|318:270|331:282,2,36,0|0|0,3:2|0:2|0:2,0:0:0:0:
406,171,234518,5,2,3:2:0:0:
390,174,234579,1,0,0:2:0:0:
373,178,234641,1,0,0:2:0:0:
357,182,234702,1,0,0:2:0:0:
341,186,234763,1,0,3:2:0:0:
31,250,235009,5,10,0:2:0:0:
33,217,235091,1,0,0:2:0:0:
36,184,235173,1,0,0:2:0:0:
39,152,235255,1,0,3:2:0:0:
41,119,235337,1,0,0:2:0:0:
44,86,235419,1,0,0:2:0:0:
70,31,235501,5,10,0:2:0:0:
90,69,235583,1,0,0:2:0:0:
129,88,235665,1,0,0:2:0:0:
172,80,235747,1,0,3:2:0:0:
201,48,235829,1,0,0:2:0:0:
205,4,235911,1,0,0:2:0:0:
160,43,235993,5,10,0:2:0:0:
212,33,236075,1,0,0:2:0:0:
265,25,236157,1,0,0:2:0:0:
315,18,236239,2,0,P|352:13|400:9,1,72,0|0,3:2|0:2,0:2:0:0:
498,173,236485,5,10,0:2:0:0:
444,127,236567,1,0,0:2:0:0:
374,132,236649,1,0,0:2:0:0:
328,185,236731,1,0,3:2:0:0:
332,255,236813,1,0,0:2:0:0:
384,302,236895,1,0,0:2:0:0:
452,317,236977,2,0,P|437:263|401:226,1,96,8|0,3:0|2:0,0:0:0:0:
175,212,237222,2,0,P|190:154|229:115,1,107.999996704102,4|0,3:0|2:0,0:0:0:0:
499,361,237468,6,0,B|448:377|388:376|388:376|380:386|380:386|329:346|263:366|263:366|225:315|236:247|289:203|289:203|256:249|273:309,1,540,4|8,3:2|3:0,0:0:0:0:
0,162,239436,6,0,B|37:174|74:150|74:150|80:154|80:154|120:131|158:141,1,161.999995056153,4|0,3:2|0:0,0:0:0:0:
186,144,239927,1,8,0:2:0:0:
236,8,240091,1,0,0:0:0:0:
195,128,240255,1,0,0:0:0:0:
429,74,240419,6,0,P|341:23|247:31,1,198.000006042481,4|0,3:2|0:0,0:0:0:0:
473,221,241157,2,0,B|485:181|473:135|473:135|476:140|476:140|503:149|525:172,1,135,8|0,3:0|0:0,0:0:0:0:
464,243,241649,1,8,3:0:0:0:
405,316,241895,1,4,3:0:0:0:
312,309,242140,1,4,3:0:0:0:
101,384,242386,6,0,B|123:366|123:332|123:332|131:336|131:336|123:265|70:241,1,180,4|8,3:2|0:2,0:0:0:0:
0,249,243000,1,0,0:0:0:0:
64,169,243123,1,0,0:0:0:0:
0,110,243246,1,8,3:0:0:0:
7,96,243308,1,8,3:0:0:0:
14,82,243369,2,0,B|56:78|56:78|55:81|55:81|109:76,2,90,4|4|4,3:0|3:0|3:0,0:0:0:0:
272,0,244108,5,4,3:2:0:0:
233,120,244354,2,0,B|233:80|212:44|212:44|257:71|261:122|261:122|265:120|265:120|258:152|264:182,1,215.999993408203,0|8,0:0|0:2,0:0:0:0:
321,239,245091,1,8,0:2:0:0:
471,353,245337,5,8,0:2:0:0:
305,226,245583,1,8,0:2:0:0:
512,264,245829,1,8,0:2:0:0:
241,378,246075,1,8,0:2:0:0:
450,124,246321,1,8,0:2:0:0:
378,364,246567,1,8,0:2:0:0:
28,102,246813,1,8,0:2:0:0:
499,161,247181,5,0,3:0:0:0:
487,160,247243,1,0,3:0:0:0:
475,159,247304,1,12,0:2:0:0:
281,304,247673,1,0,3:0:0:0:
293,303,247735,1,0,3:0:0:0:
305,302,247796,1,12,0:2:0:0:
43,21,248288,6,0,P|66:59|70:110,1,90,6|2,3:2|3:2,0:2:0:0:
205,160,248779,1,10,0:2:0:0:
243,78,249025,1,2,0:2:0:0:
4,218,249271,6,0,B|16:198|26:178|26:178|22:202|22:227,1,90,2|0,3:2|0:2,0:2:0:0:
70,279,249640,2,0,B|82:298|92:319|92:319|88:294|88:270,1,90,2|0,0:2|0:2,0:2:0:0:
136,218,250009,1,2,3:2:0:0:
362,315,250255,5,2,3:2:0:0:
281,303,250501,1,2,3:2:0:0:
421,372,250747,2,0,P|447:337|489:319,1,90,10|2,0:2|0:2,0:2:0:0:
393,127,251238,6,0,P|412:192|422:259,1,135,2|2,3:2|3:2,0:2:0:0:
451,195,251730,1,8,0:2:0:0:
334,78,251976,1,2,3:2:0:0:
512,0,252222,6,0,B|470:-16|436:7|436:7|428:5|428:5|410:28|376:29,2,135,2|2|2,3:2|0:2|0:2,0:2:0:0:
322,89,253206,2,0,P|254:81|187:77,1,135,2|2,3:2|0:2,0:2:0:0:
128,130,253697,1,10,0:0:0:0:
1,123,253943,1,2,0:2:0:0:
79,2,254189,5,2,3:2:0:0:
65,80,254435,1,0,3:2:0:0:
136,254,254681,5,8,0:2:0:0:
117,152,254927,1,0,3:2:0:0:
270,348,255173,5,8,0:2:0:0:
327,224,255419,1,0,3:2:0:0:
7,328,255665,5,8,0:2:0:0:
54,264,255788,1,8,3:0:0:0:
152,344,255910,5,4,3:0:0:0:
188,331,256033,1,4,3:0:0:0:
360,377,256156,6,0,P|364:333|379:280,1,90,6|2,3:2|3:2,0:0:0:0:
474,154,256648,1,10,0:2:0:0:
512,270,256894,1,2,0:2:0:0:
327,224,257140,2,0,P|321:162|300:89,1,135,2|2,3:2|3:2,0:2:0:0:
412,33,257632,2,0,P|373:12|330:20,1,90,8|2,0:2|3:2,0:2:0:0:
327,249,258124,5,2,3:2:0:0:
463,98,258369,1,2,3:2:0:0:
313,266,258615,2,0,P|264:260|214:260,1,90,10|2,0:2|0:2,0:2:0:0:
53,0,259107,5,2,3:2:0:0:
118,343,259476,5,2,3:2:0:0:
118,343,259599,1,8,0:0:0:0:
61,33,259845,5,2,3:2:0:0:
0,270,260091,6,0,B|21:241|58:253|57:250|57:246|97:261|121:227,1,135,2|2,3:2|0:2,0:2:0:0:
144,155,260582,1,10,0:0:0:0:
331,40,260828,1,2,0:2:0:0:
271,246,261074,2,0,B|282:197|256:157|256:157|276:177|299:178,1,135,2|2,3:2|0:2,0:2:0:0:
363,175,261566,2,0,P|348:133|311:110,1,90,8|2,0:2|3:2,0:2:0:0:
209,287,262058,5,8,0:2:0:0:
242,364,262304,1,0,3:2:0:0:
446,171,262550,5,8,0:2:0:0:
413,248,262796,1,0,3:2:0:0:
19,159,263042,5,8,0:2:0:0:
157,123,263288,1,8,0:2:0:0:
295,87,263533,1,8,0:2:0:0:
433,51,263779,1,8,0:2:0:0:
433,51,264517,6,0,P|456:37|450:67,1,67.5,2|0,0:0|0:0,0:0:0:0:
366,8,265009,5,6,3:2:0:0:
304,324,265254,5,8,3:0:0:0:
230,278,265377,1,8,3:0:0:0:
134,369,265500,5,4,3:0:0:0:
82,299,265623,1,4,3:0:0:0:
220,360,265746,5,4,3:0:0:0:
228,383,265869,1,4,3:0:0:0:
25,188,265992,6,0,B|52:132|76:67|76:67|114:97|114:97|155:81,1,216,14|2,0:2|0:2,0:0:0:0:
178,8,266484,1,0,3:2:0:0:
329,218,266730,2,0,P|279:203|222:172,1,108,10|0,0:2|0:0,0:0:0:0:
212,162,266976,6,0,P|250:121|334:106,1,125.999996154785,0|0,3:2|0:2,0:2:0:0:
393,367,267345,2,0,P|438:356|470:323,1,94.499997116089,0|0,3:2|0:0,0:2:0:0:
478,302,267590,1,8,0:2:0:0:
486,52,267713,2,0,L|505:156,1,94.499997116089,0|0,3:2|0:0,0:0:0:0:
409,4,267959,2,0,B|393:45|393:45|245:20|245:20|257:46|261:80,1,252,8|0,0:2|0:0,0:2:0:0:
260,93,268451,1,2,3:2:0:0:
225,277,268697,1,2,0:2:0:0:
512,228,268943,5,6,3:2:0:0:
148,234,269189,5,8,3:0:0:0:
65,260,269312,1,8,3:0:0:0:
227,184,269435,5,4,3:0:0:0:
310,211,269558,1,4,3:0:0:0:
267,347,269681,5,4,3:0:0:0:
279,368,269804,1,4,3:0:0:0:
495,307,269927,6,0,B|462:386|462:386|425:363|397:314,1,180,10|0,0:2|0:0,0:0:0:0:
389,294,270295,1,2,0:2:0:0:
172,324,270418,2,0,P|122:319|79:287,1,94.499997116089,0|0,3:0|0:0,0:0:0:0:
191,310,270664,2,0,P|211:271|206:205,1,108,10|0,0:2|0:0,0:0:0:0:
199,186,270910,6,0,B|281:152|281:152|345:169,1,125.999996154785,0|0,3:0|0:0,0:0:0:0:
146,6,271279,2,0,B|79:33|79:33|28:19,1,94.499997116089,0|0,3:0|0:0,0:0:0:0:
37,20,271525,1,8,0:2:0:0:
50,257,271648,2,0,L|69:153,1,94.499997116089,0|0,3:0|0:0,0:0:0:0:
5,334,271894,1,8,0:2:0:0:
85,374,272140,1,0,3:0:0:0:
142,120,272386,1,8,3:0:0:0:
17,14,272631,1,4,3:0:0:0:
309,251,272877,6,0,B|378:249|422:191|422:191|399:202|376:206,1,180,6|0,3:2|0:0,0:0:0:0:
495,128,273246,2,0,P|446:138|398:158,1,94.499997116089,0|0,3:0|0:0,0:0:0:0:
384,165,273492,1,8,0:2:0:0:
322,359,273615,2,0,P|371:349|419:329,1,94.499997116089,2|0,3:2|0:0,0:0:0:0:
235,384,273861,2,0,B|221:381|221:381|161:253|161:253|194:189,1,216,10|2,0:2|0:2,0:0:0:0:
232,131,274353,1,0,3:0:0:0:
464,14,274599,2,0,B|468:30|468:30|432:8|378:8,1,108,10|0,0:2|0:0,0:0:0:0:
358,9,274845,6,0,P|332:33|391:73,1,125.999996154785,2|0,3:2|0:0,0:0:0:0:
123,95,275213,2,0,P|143:131|105:150,1,94.499997116089,0|0,3:0|0:0,0:0:0:0:
85,141,275459,1,8,0:2:0:0:
328,175,275582,2,0,P|283:158|237:149,1,94.499997116089,0|0,3:0|0:0,0:0:0:0:
419,162,275828,2,0,B|447:158|471:149|471:149|494:302|494:302|473:307|452:315,1,252,8|0,0:2|0:0,0:0:0:0:
440,321,276320,1,2,3:2:0:0:
262,384,276566,1,2,0:2:0:0:
212,311,276812,5,2,3:2:0:0:
301,72,277058,1,2,0:2:0:0:
371,19,277304,1,2,0:0:0:0:
298,56,277427,1,8,0:0:0:0:
224,22,277549,1,2,3:2:0:0:
126,292,277795,2,0,B|109:334|97:376|97:376|91:308|50:243,1,220.499993270874,10|0,0:2|0:0,0:0:0:0:
41,234,278287,1,2,3:2:0:0:
222,6,278533,1,8,0:2:0:0:
207,268,278779,6,0,P|179:192|121:91,1,188.999994232178,2|0,3:2|3:0,0:0:0:0:
322,234,279271,1,0,0:0:0:0:
281,306,279394,1,8,0:2:0:0:
335,370,279517,2,0,P|372:348|405:302,1,94.499997116089,0|0,3:0|0:0,0:0:0:0:
410,285,279763,1,8,0:2:0:0:
215,356,280009,1,0,3:0:0:0:
383,154,280254,5,10,0:2:0:0:
368,118,280377,1,8,0:2:0:0:
227,105,280500,5,10,0:2:0:0:
250,171,280623,1,8,0:2:0:0:
136,374,280746,6,0,B|126:345|139:314|139:314|135:314|135:314|122:282|91:270,1,101.250003862381,6|0,3:2|0:0,0:0:0:0:
96,272,280982,2,0,P|68:243|62:207,1,67.5000025749208,10|0,0:2|0:0,0:0:0:0:
114,54,281218,1,0,3:0:0:0:
92,135,281336,1,2,3:2:0:0:
134,207,281454,2,0,P|167:202|203:196,1,67.5000025749208,8|0,0:2|0:0,0:0:0:0:
340,13,281690,6,0,B|367:7|392:26|392:26|399:27|399:27|423:57|417:95,1,135.000005149842,2|8,3:2|0:2,0:0:0:0:
400,191,282045,2,0,B|373:197|348:178|348:178|341:177|341:177|317:147|322:108,1,135.000005149842,2|2,3:2|3:2,0:0:0:0:
477,157,282399,1,8,0:2:0:0:
477,157,282517,1,10,0:2:0:0:
509,239,282635,6,0,P|487:302|477:368,1,101.250003862381,2|0,3:2|0:0,0:0:0:0:
478,365,282871,2,0,P|448:379|415:376,1,67.5000025749208,10|0,0:2|0:0,0:0:0:0:
261,256,283108,1,2,3:2:0:0:
327,383,283226,1,2,3:2:0:0:
354,297,283344,2,0,P|386:282|419:278,1,67.5000025749208,8|0,0:2|0:0,0:0:0:0:
245,370,283580,6,0,B|202:366|171:339|171:339|166:342|166:342|139:314|123:282,1,135.000005149842,2|8,3:2|0:2,0:0:0:0:
7,183,283934,2,0,P|71:178|112:229,1,135.000005149842,2|2,3:2|3:2,0:0:0:0:
41,295,284289,1,8,0:2:0:0:
41,295,284407,1,8,0:2:0:0:
179,201,284525,6,0,P|183:166|200:128,1,67.5000025749208,6|0,3:2|0:0,0:0:0:0:
242,17,284759,2,0,P|211:30|184:51,1,67.5000025749208,10|0,0:2|0:0,0:0:0:0:
354,101,284993,1,2,3:2:0:0:
333,20,285110,1,2,3:2:0:0:
360,116,285228,2,0,P|395:117|429:96,1,67.5000025749208,8|0,0:2|0:0,0:0:0:0:
512,182,285462,6,0,B|490:161|456:164|436:190|436:190|432:187|432:187|439:218|419:246,1,135.000005149842,2|8,3:2|0:2,0:0:0:0:
456,312,285814,2,0,P|455:280|441:244,1,67.5000025749208,2|0,3:2|0:0,0:0:0:0:
406,373,286048,1,2,3:2:0:0:
336,344,286165,2,0,P|303:335|268:328,1,67.5000025749208,8|0,0:2|0:0,0:0:0:0:
202,135,286400,6,0,P|236:193|237:260,2,135.000005149842,2|10|0,3:2|0:2|3:0,0:0:0:0:
245,1,286985,1,2,3:2:0:0:
116,42,287103,2,0,P|148:49|191:54,1,67.5000025749208,8|2,0:2|3:2,0:0:0:0:
402,0,287337,5,2,0:0:0:0:
392,33,287454,1,2,3:2:0:0:
412,102,287571,5,10,0:2:0:0:
402,135,287689,1,2,3:2:0:0:
508,226,287806,5,2,0:0:0:0:
426,212,287923,1,2,3:2:0:0:
362,319,288040,5,10,0:2:0:0:
280,333,288157,1,2,0:0:0:0:
425,374,288275,6,0,P|406:307|414:247,1,101.250003862381,4|0,3:2|0:0,0:0:0:0:
411,254,288505,2,0,P|373:237|338:241,1,67.5000025749208,10|0,0:2|0:0,0:0:0:0:
173,301,288736,1,2,3:2:0:0:
253,339,288851,1,2,3:2:0:0:
75,361,288967,2,0,P|58:323|62:288,1,67.5000025749208,8|0,0:2|0:0,0:0:0:0:
246,147,289198,6,0,B|256:145|256:145|210:200|137:184,1,135.000005149842,2|8,3:2|0:2,0:0:0:0:
30,144,289544,2,0,B|20:140|20:140|89:120|141:174,1,135.000005149842,2|2,3:2|3:2,0:0:0:0:
323,243,289890,2,0,P|331:212|324:174,1,67.5000025749208,8|2,0:2|0:2,0:0:0:0:
387,0,290121,6,0,P|371:59|385:132,2,135.000005149842,2|10|2,3:2|0:2|3:2,0:0:0:0:
463,252,290698,1,2,3:2:0:0:
512,182,290813,2,0,P|479:173|445:170,1,67.5000025749208,8|0,0:2|0:0,0:0:0:0:
257,326,291044,6,0,B|269:317|275:300|275:300|296:309|315:327|315:327|340:312|378:309,1,135.000005149842,2|8,3:2|0:2,0:0:0:0:
446,335,291390,1,2,3:2:0:0:
184,354,291505,2,0,P|153:334|115:324,1,67.5000025749208,0|2,0:0|3:2,0:0:0:0:
63,258,291736,2,0,P|26:265|-8:285,1,67.5000025749208,8|0,0:2|0:0,0:0:0:0:
222,95,291967,6,0,B|229:130|229:130|219:160,1,67.5000025749208,4|0,3:2|0:0,0:0:0:0:
170,32,292189,1,10,0:2:0:0:
170,32,292300,1,0,0:0:0:0:
283,47,292411,2,0,L|358:36,1,67.5000025749208,2|2,3:2|3:2,0:0:0:0:
204,180,292633,2,0,L|129:169,1,67.5000025749208,8|0,0:2|0:0,0:0:0:0:
290,225,292855,6,0,P|344:187|409:197,2,135.000005149842,2|8|0,3:2|0:2|3:0,0:0:0:0:
446,327,293411,1,2,3:2:0:0:
446,327,293522,2,0,P|450:293|458:260,1,67.5000025749208,8|2,0:2|0:2,0:0:0:0:
270,367,293744,6,0,B|283:365|295:366|295:366|277:334|231:323|197:337,1,135.000005149842,4|8,3:2|0:2,0:0:0:0:
65,251,294078,1,2,0:2:0:0:
112,377,294189,2,0,P|105:340|109:307,1,67.5000025749208,0|0,3:0|3:0,0:0:0:0:
178,209,294411,1,10,0:2:0:0:
178,209,294522,1,0,0:2:0:0:
321,255,294633,5,0,3:0:0:0:
319,153,294744,1,8,0:2:0:0:
253,76,294855,1,8,0:2:0:0:
152,62,294967,1,8,0:2:0:0:
59,139,295078,5,8,3:0:0:0:
98,205,295189,1,8,3:0:0:0:
89,280,295300,1,4,3:0:0:0:
34,332,295411,1,4,3:0:0:0:
158,374,295522,6,0,P|176:363|201:351,2,45.0000017166138,6|0|0,3:2|0:0|0:0,0:0:0:0:
271,383,295740,2,0,P|275:347|284:305,1,67.5000025749208,2|0,3:2|3:0,0:0:0:0:
400,173,295959,5,2,3:2:0:0:
391,202,296069,1,0,3:0:0:0:
346,271,296178,5,2,3:2:0:0:
355,300,296288,1,0,3:0:0:0:
407,365,296397,6,0,P|426:347|436:311,2,45.0000017166138,2|0|0,3:2|0:2|0:2,0:2:0:0:
512,298,296616,2,0,P|500:274|469:253,2,45.0000017166138,2|0|0,3:2|0:2|0:2,0:2:0:0:
400,173,296835,5,2,3:2:0:0:
433,157,296908,1,0,0:2:0:0:
458,129,296981,1,0,0:2:0:0:
470,94,297054,1,2,3:2:0:0:
467,57,297127,1,0,0:2:0:0:
449,24,297200,1,0,0:2:0:0:
420,3,297280,6,0,B|391:20|391:20|278:-2,2,144,4|10|0,3:2|0:2|3:0,0:0:0:0:
243,68,297811,1,2,3:2:0:0:
243,68,297918,2,0,P|212:74|166:113,1,72,8|0,0:2|0:0,0:0:0:0:
74,192,298131,6,0,B|65:173|65:173|67:163|67:163|45:109|45:109|29:138|15:158,1,144,2|8,3:2|0:2,0:0:0:0:
125,252,298450,2,0,B|127:231|127:231|134:223|134:223|145:166|145:166|116:182|94:191,1,144,2|2,3:2|3:2,0:0:0:0:
185,344,298769,2,0,L|201:258,1,72,8|2,0:2|0:2,0:0:0:0:
419,217,298982,6,0,B|493:236|493:236|501:256|501:256|452:243,1,144,2|10,3:2|0:2,0:0:0:0:
252,384,299407,1,0,3:0:0:0:
297,361,299514,1,2,3:2:0:0:
330,323,299620,2,0,P|348:281|353:235,1,72,8|0,0:2|0:0,0:0:0:0:
280,111,299833,6,0,L|216:66,1,72,2|0,3:2|0:0,0:0:0:0:
265,7,300045,1,8,0:2:0:0:
265,7,300152,1,2,3:2:0:0:
239,233,300365,1,2,3:2:0:0:
239,233,300471,2,0,L|297:191,1,72,8|0,0:2|0:0,0:0:0:0:
142,377,300684,6,0,B|122:305|122:305|109:297|109:297|40:323|40:323|43:307|43:307|-2:262|11:203,1,288,6|0,3:2|3:0,0:0:0:0:
61,43,301204,1,2,3:2:0:0:
61,43,301309,2,0,P|34:66|21:103,1,72,8|0,0:2|0:0,0:0:0:0:
136,173,301517,6,0,B|70:161|70:161|103:135|143:146,1,144,2|8,3:2|0:2,0:0:0:0:
239,233,301829,2,0,B|239:214|239:214|230:199|230:199|222:163|222:163|223:159|223:159|214:122|214:122|239:138,1,144,2|2,3:2|3:2,0:0:0:0:
305,32,302142,2,0,B|291:21|291:21|275:81,1,72,8|2,0:2|0:2,0:0:0:0:
466,160,302350,6,0,B|484:132|491:98|491:98|489:91|489:91|499:62|499:22,1,144,2|8,3:2|0:2,0:0:0:0:
313,140,302767,1,2,3:2:0:0:
352,162,302871,1,2,3:2:0:0:
387,190,302975,2,0,P|411:214|437:259,1,72,8|2,0:2|3:2,0:0:0:0:
285,356,303184,6,0,P|249:368|197:391,1,72,0|2,0:0|3:2,0:0:0:0:
438,333,303392,1,8,0:2:0:0:
438,333,303496,2,0,P|371:305|302:279,1,144,2|0,3:2|3:0,0:0:0:0:
108,231,303809,1,8,0:2:0:0:
506,373,304021,1,4,3:2:0:0:
232,298,304227,6,0,P|200:284|163:271,1,67.5000025749208,8|0,0:2|0:0,0:0:0:0:
296,204,304434,2,0,B|356:165|377:95|377:95|381:89|381:89|373:62|360:37,1,202.500007724762,2|0,3:2|0:0,0:0:0:0:
331,2,304848,5,2,3:2:0:0:
360,78,304952,1,0,0:0:0:0:
437,54,305055,1,8,0:2:0:0:
466,130,305159,1,2,3:2:0:0:
365,90,305262,5,0,0:0:0:0:
305,122,305365,1,2,3:2:0:0:
271,180,305469,1,8,0:2:0:0:
265,247,305572,1,0,0:0:0:0:
174,294,305676,5,2,3:2:0:0:
184,346,305779,1,0,0:0:0:0:
131,359,305883,1,8,0:2:0:0:
78,372,305986,2,0,L|66:305,1,49.5000015106202,0|2,0:0|3:2,0:0:0:0:
12,236,306193,5,2,3:2:0:0:
21,196,306296,1,8,0:2:0:0:
31,156,306400,1,0,0:0:0:0:
115,115,306503,2,0,P|152:142|172:203,1,107.999996704102,2|8,3:2|0:2,0:0:0:0:
200,76,306814,2,0,P|223:30|278:4,1,107.999996704102,2|2,3:2|3:2,0:0:0:0:
256,135,307124,2,0,P|266:167|280:191,1,53.9999983520508,8|0,0:2|0:0,0:0:0:0:
442,266,307331,6,0,P|429:293|420:318,3,45.0000017166138,4|0|0|8,3:2|0:0|0:0|0:2,0:0:0:0:
377,300,307635,6,0,P|382:313|386:333,1,33.7500012874604
330,379,307736,5,2,3:2:0:0:
312,375,307803,1,0,0:0:0:0:
295,370,307871,1,0,0:0:0:0:
278,363,307939,1,8,0:2:0:0:
262,356,308006,2,0,L|220:378,1,45.0000017166138
240,288,308141,5,4,3:2:0:0:
237,270,308209,1,0,0:0:0:0:
238,252,308276,1,0,0:0:0:0:
241,234,308344,1,8,0:2:0:0:
247,217,308412,1,0,0:0:0:0:
256,201,308479,1,0,0:0:0:0:
267,187,308547,2,0,P|282:212|289:248,1,53.9999983520508,0|0,3:0|3:0,0:0:0:0:
325,110,308749,6,0,L|341:34,1,72,12|0,0:2|0:0,0:0:0:0:
508,143,308952,6,0,L|493:213,1,72,4|0,3:2|3:0,0:0:0:0:
418,164,309155,6,0,P|398:167|382:170,3,33.7500012874604,8|0|8|0,0:2|0:0|0:2|0:0,0:0:0:0:
374,196,309358,5,8,0:2:0:0:
293,185,309459,1,8,0:2:0:0:
227,137,309560,1,4,3:2:0:0:
227,137,309662,1,0,3:0:0:0:
167,213,309763,5,8,0:2:0:0:
84,189,309864,1,8,0:2:0:0:
45,114,309965,1,8,0:2:0:0:
73,33,310067,1,8,0:2:0:0:
153,0,310168,2,0,B|171:4|189:4|189:4|203:14|221:20,2,71.9999978027344,8|8|4,3:0|3:0|3:0,0:0:0:0:
282,70,310574,5,4,3:2:0:0:
359,91,310674,1,0,0:0:0:0:
437,80,310774,1,10,0:2:0:0:
492,23,310874,1,0,0:0:0:0:
444,98,310974,5,2,3:2:0:0:
431,124,311040,1,0,0:0:0:0:
427,154,311107,1,0,0:0:0:0:
435,182,311174,1,8,0:2:0:0:
452,207,311240,1,0,0:0:0:0:
477,223,311307,1,0,0:0:0:0:
506,229,311374,5,2,3:2:0:0:
477,236,311441,1,0,0:0:0:0:
454,255,311508,1,0,0:0:0:0:
440,281,311574,1,8,0:2:0:0:
434,310,311641,2,0,P|438:338|447:362,1,45.0000017166138
363,280,311774,5,0,3:0:0:0:
334,273,311840,1,0,0:0:0:0:
305,279,311907,1,0,0:0:0:0:
281,297,311974,1,8,0:2:0:0:
257,316,312040,1,0,0:0:0:0:
229,324,312107,1,0,0:0:0:0:
199,320,312174,6,0,L|153:310,2,45.0000017166138,2|0|0,3:2|0:0|0:0,0:0:0:0:
86,351,312374,1,8,0:2:0:0:
108,340,312440,1,0,0:0:0:0:
123,320,312507,1,0,0:0:0:0:
126,296,312574,1,0,3:0:0:0:
117,273,312640,1,0,0:0:0:0:
98,257,312707,1,0,0:0:0:0:
74,252,312774,1,8,0:2:0:0:
51,259,312840,1,0,0:0:0:0:
33,276,312907,1,0,0:0:0:0:
27,300,312974,5,2,3:2:0:0:
46,283,313040,1,0,0:0:0:0:
60,265,313107,1,0,0:0:0:0:
68,243,313174,1,8,0:2:0:0:
70,219,313240,1,0,0:0:0:0:
62,193,313307,1,0,0:0:0:0:
42,166,313374,1,0,3:0:0:0:
24,130,313440,1,0,0:0:0:0:
26,89,313507,1,0,0:0:0:0:
49,51,313574,1,8,0:2:0:0:
87,41,313640,1,0,0:0:0:0:
128,49,313707,1,0,0:0:0:0:
158,86,313774,6,0,B|177:57|212:36|254:38|254:38|232:51|224:75,1,148.500001416206,4|10,3:2|0:2,0:0:0:0:
216,136,314040,2,0,P|224:161|245:185,1,49.5000004720688
257,255,314174,6,0,P|286:269|320:268,1,67.5000025749208,2|2,3:2|3:2,0:0:0:0:
416,340,314374,2,0,P|447:329|470:304,1,67.5000025749208,8|0,0:2|0:0,0:0:0:0:
503,171,314574,5,2,3:2:0:0:
450,139,314674,1,0,0:0:0:0:
398,108,314774,1,8,0:2:0:0:
411,60,314874,1,2,3:2:0:0:
505,64,314974,5,0,0:0:0:0:
492,112,315074,1,2,3:2:0:0:
479,160,315174,1,8,0:2:0:0:
466,208,315274,1,0,0:0:0:0:
512,280,315374,5,2,3:2:0:0:
468,304,315474,1,0,0:0:0:0:
425,329,315574,1,8,0:2:0:0:
382,354,315674,1,0,0:0:0:0:
309,315,315774,6,0,P|315:289|295:308,1,67.5000025749208,2|2,3:2|3:2,0:0:0:0:
209,286,315974,2,0,P|190:267|196:293,1,67.5000025749208,8|2,0:2|3:2,0:0:0:0:
101,332,316174,5,0,0:0:0:0:
85,255,316274,1,2,3:2:0:0:
125,189,316374,1,8,0:2:0:0:
49,132,316474,6,0,P|37:67|-2:-3,1,144,2|2,3:2|3:2,0:0:0:0:
181,30,316774,2,0,P|159:56|121:64,1,72,8|0,0:2|0:0,0:0:0:0:
255,132,316974,5,4,3:2:0:0:
274,57,317074,1,0,0:0:0:0:
330,3,317174,1,10,0:2:0:0:
287,67,317274,1,0,0:0:0:0:
270,138,317374,5,0,3:0:0:0:
283,209,317474,1,2,3:2:0:0:
332,273,317574,2,0,B|365:276|365:276|388:257,1,62.9999980773926,8|0,0:2|0:0,0:0:0:0:
511,99,317774,5,2,3:2:0:0:
462,91,317874,1,0,0:0:0:0:
413,83,317974,1,8,0:2:0:0:
364,75,318074,1,2,3:2:0:0:
297,11,318174,5,0,0:0:0:0:
287,67,318274,1,2,3:2:0:0:
324,139,318374,5,8,0:2:0:0:
311,216,318474,1,2,0:2:0:0:
252,300,318574,6,0,B|244:288|230:281|230:281|209:295|186:296|186:296|178:292|178:292|141:301|109:316,1,144,2|8,3:2|0:2,0:0:0:0:
36,278,318874,1,0,0:0:0:0:
86,171,318974,5,2,3:2:0:0:
40,257,319074,1,2,3:2:0:0:
0,189,319174,1,8,0:2:0:0:
13,111,319274,1,0,0:0:0:0:
100,173,319374,5,2,3:2:0:0:
156,179,319474,1,0,0:0:0:0:
211,183,319574,1,8,0:2:0:0:
276,146,319674,5,2,3:2:0:0:
332,148,319774,1,0,0:0:0:0:
387,152,319874,1,2,3:2:0:0:
451,201,319974,5,8,0:2:0:0:
451,201,320074,1,0,0:0:0:0:
487,308,320174,6,0,B|469:271|488:225|488:225|503:221|503:221|495:208|491:194|491:194|515:154|493:100,1,210.000002002716,4|0,3:2|0:0,0:0:0:0:
486,15,320507,1,0,0:0:0:0:
486,15,320574,6,0,P|457:34|421:33,1,72,2|2,3:2|3:2,0:0:0:0:
360,104,320774,2,0,P|325:96|300:71,1,72,8|0,0:2|0:0,0:0:0:0:
177,114,320974,1,4,3:2:0:0:
228,38,321074,1,0,0:0:0:0:
225,23,321174,1,8,0:2:0:0:
174,129,321274,6,0,B|176:163|176:163|154:201|154:201|156:208|156:208|134:244|134:244|136:276,1,157.500001502037,0|2,0:0|3:2,0:0:0:0:
252,367,321574,1,12,0:2:0:0:
137,294,321674,1,0,0:0:0:0:
280,368,321774,6,2,B|325:349|389:363|389:363|394:352|394:352|451:389|495:340|495:340|447:320|421:262|434:211|434:211|443:220|443:220|454:202|477:189|477:189|454:152|459:96|478:60|478:60|474:108|504:147|504:147|429:118|385:140|385:140|372:126|372:126|352:136|352:136|304:155|247:130|247:130|277:149|292:177,1,990,2|4,3:1|3:0,1:0:0:0:
299,230,322974,6,0,P|351:184|353:140,1,90,4|4,3:0|3:0,0:0:0:0:
423,102,323174,2,0,P|427:32|397:0,1,90,4|4,3:0|3:0,0:0:0:0:
217,121,323374,5,6,0:2:0:0:
167,128,323474,1,0,0:0:0:0:
117,136,323574,1,8,0:2:0:0:
67,144,323674,1,0,0:0:0:0:
17,152,323774,1,0,0:0:0:0:
8,132,323874,1,0,0:0:0:0:
0,111,323974,2,0,P|46:114|82:135,1,72,10|0,0:2|0:0,0:0:0:0:
227,272,324174,5,2,0:2:0:0:
240,320,324274,1,0,0:0:0:0:
253,368,324374,1,8,0:2:0:0:
290,218,324474,5,2,0:2:0:0:
284,196,324574,1,0,0:0:0:0:
278,175,324674,1,0,0:0:0:0:
145,269,324774,2,0,P|111:282|76:282,1,72,10|0,0:2|0:0,0:0:0:0:
333,349,324974,5,2,0:2:0:0:
399,373,325074,1,0,0:0:0:0:
466,352,325174,1,8,0:2:0:0:
507,294,325274,1,0,0:0:0:0:
505,224,325374,1,0,0:0:0:0:
460,169,325474,1,0,0:0:0:0:
391,153,325574,2,0,P|379:185|372:227,1,72,8|0,0:2|0:0,0:0:0:0:
419,8,325774,5,0,0:0:0:0:
440,11,325874,1,0,0:0:0:0:
461,15,325974,1,8,0:2:0:0:
482,18,326074,1,0,0:0:0:0:
504,22,326174,2,0,L|431:41,1,72,2|0,0:2|0:0,0:0:0:0:
275,56,326374,2,0,L|348:75,1,72,10|0,0:2|0:0,0:0:0:0:
153,185,326574,5,6,0:2:0:0:
118,230,326674,1,0,0:0:0:0:
108,286,326774,1,8,0:2:0:0:
124,341,326874,1,0,0:0:0:0:
163,383,326974,1,0,0:0:0:0:
175,365,327074,1,0,0:0:0:0:
187,347,327174,2,0,L|98:374,1,72,10|0,0:2|0:0,0:0:0:0:
18,230,327374,5,2,0:2:0:0:
23,208,327474,1,0,0:0:0:0:
28,186,327574,1,8,0:2:0:0:
10,44,327674,5,2,0:2:0:0:
65,27,327774,1,0,0:0:0:0:
120,11,327874,1,0,0:0:0:0:
110,172,327974,2,0,P|94:134|83:100,1,72,10|0,0:2|0:0,0:0:0:0:
263,218,328174,5,2,0:2:0:0:
340,203,328274,1,0,0:0:0:0:
418,188,328374,1,8,0:2:0:0:
496,173,328474,1,0,0:0:0:0:
506,252,328574,1,0,0:0:0:0:
428,266,328674,1,0,0:0:0:0:
350,281,328774,2,0,P|326:310|317:349,1,72,8|0,0:2|0:0,0:0:0:0:
193,177,328974,5,0,0:0:0:0:
197,155,329074,1,0,0:0:0:0:
201,134,329174,1,8,0:2:0:0:
205,113,329274,1,0,0:0:0:0:
209,92,329374,2,0,B|200:73|200:73|167:112,1,72,2|0,0:2|0:0,0:0:0:0:
242,296,329574,2,0,B|233:315|233:315|200:276,1,72,10|0,0:2|0:0,0:0:0:0:
288,136,329774,5,6,0:2:0:0:
337,126,329874,1,0,0:0:0:0:
383,106,329974,1,8,0:2:0:0:
424,76,330074,1,0,0:0:0:0:
457,39,330174,1,0,0:0:0:0:
465,59,330274,1,0,0:0:0:0:
472,79,330374,2,0,P|497:47|509:10,1,72,10|0,0:2|0:0,0:0:0:0:
419,181,330574,5,2,0:2:0:0:
424,202,330674,1,0,0:0:0:0:
429,223,330774,1,8,0:2:0:0:
378,356,330874,5,2,0:2:0:0:
366,306,330974,1,0,0:0:0:0:
354,257,331074,1,0,0:0:0:0:
383,106,331174,2,0,P|355:50|272:23,1,144,10|0,0:2|0:0,0:0:0:0:
81,68,331474,1,0,0:0:0:0:
81,68,331574,6,0,B|101:43|101:43|85:5,1,72,8|0,0:2|0:0,0:0:0:0:
179,71,331774,2,0,B|199:46|199:46|183:8,1,72
21,202,331974,2,0,B|40:143|40:143|71:197|71:197|78:201|78:201|134:293|134:293|129:297|129:297|119:341,1,288,8|8,0:2|0:2,0:0:0:0:
233,384,332474,1,0,0:0:0:0:
233,384,332574,2,0,P|217:349|205:367,1,72,2|0,0:2|0:0,0:0:0:0:
10,286,332774,2,0,P|25:320|37:302,1,72,10|0,0:2|0:0,0:0:0:0:
253,186,332974,6,0,P|291:176|337:161,1,72,6|0,0:2|0:0,0:0:0:0:
108,234,333174,2,0,P|145:244|193:254,1,72,10|0,0:2|0:0,0:0:0:0:
356,375,333374,1,2,0:2:0:0:
350,354,333474,1,0,0:0:0:0:
341,334,333574,2,0,P|325:306|290:268,1,72,10|0,0:2|0:0,0:0:0:0:
490,100,333774,5,6,0:2:0:0:
485,150,333874,1,0,0:0:0:0:
480,200,333974,1,8,0:2:0:0:
475,250,334074,1,0,0:2:0:0:
470,300,334174,1,2,0:2:0:0:
450,290,334274,1,0,0:0:0:0:
430,279,334374,2,0,P|401:254|381:217,1,72,8|0,0:2|0:0,0:0:0:0:
304,12,334574,5,14,0:2:0:0:
233,67,334674,1,0,0:0:0:0:
239,157,334774,1,0,0:0:0:0:
159,33,334874,5,14,0:2:0:0:
219,113,334974,1,0,0:0:0:0:
188,209,335074,1,0,0:0:0:0:
29,227,335174,5,14,0:2:0:0:
132,164,335274,1,0,0:0:0:0:
178,281,335374,5,8,0:0:0:0:
255,234,335474,1,8,0:0:0:0:
319,297,335574,2,0,P|321:316|326:337,2,36,4|4|4,0:0|0:0|0:0,0:0:0:0:
323,174,335774,6,0,L|302:71,1,72,4|4,0:0|0:0,0:0:0:0:
158,15,335974,2,0,L|143:85,1,72,4|4,0:0|0:0,0:0:0:0:
179,297,336174,5,6,0:2:0:0:
256,250,336274,1,0,0:0:0:0:
328,309,336374,5,8,0:2:0:0:
405,262,336474,1,0,0:0:0:0:
477,321,336574,5,0,0:0:0:0:
494,284,336674,1,0,0:0:0:0:
495,239,336774,2,0,P|480:205|453:179,1,72,10|0,0:2|0:0,0:0:0:0:
248,363,336974,5,6,0:2:0:0:
192,345,337074,1,0,0:0:0:0:
136,327,337174,1,8,0:2:0:0:
70,367,337274,5,2,0:2:0:0:
43,314,337374,1,0,0:0:0:0:
16,262,337474,1,0,0:0:0:0:
72,210,337574,5,10,0:2:0:0:
88,135,337674,1,0,0:0:0:0:
47,70,337774,5,2,0:2:0:0:
82,59,337874,1,0,0:0:0:0:
117,48,337974,1,8,0:2:0:0:
152,37,338074,1,0,0:0:0:0:
219,80,338174,5,0,0:0:0:0:
256,82,338274,1,0,0:0:0:0:
288,100,338374,1,8,0:2:0:0:
302,134,338474,1,0,0:0:0:0:
300,171,338574,6,0,P|336:173|368:158,1,72
219,252,338774,2,0,P|183:254|151:239,1,72,8|0,0:2|0:0,0:0:0:0:
309,357,338974,6,0,P|314:321|327:288,1,72,2|0,0:2|0:0,0:0:0:0:
181,104,339174,2,0,P|193:137|198:173,1,72,10|0,0:2|0:0,0:0:0:0:
96,384,339374,5,6,0:2:0:0:
128,347,339474,1,0,0:0:0:0:
127,300,339574,1,8,0:2:0:0:
93,263,339674,1,0,0:0:0:0:
45,259,339774,1,0,0:0:0:0:
39,280,339874,1,0,0:0:0:0:
33,301,339974,2,0,P|68:305|98:287,1,72,10|0,0:2|0:0,0:0:0:0:
300,192,340174,5,6,0:2:0:0:
292,245,340274,1,0,0:0:0:0:
284,298,340374,1,8,0:2:0:0:
344,360,340474,5,2,0:2:0:0:
418,343,340574,1,0,0:0:0:0:
468,283,340674,1,0,0:0:0:0:
406,200,340774,2,0,L|391:119,1,72,10|0,0:2|0:0,0:0:0:0:
467,60,340974,6,2,B|476:33|506:13|506:13|460:-1|417:21|402:59|402:59|381:51|362:28|362:28|360:52|347:77|347:77|305:58|251:81|251:81|255:67|255:67|203:94|149:73|149:73|187:57|205:16|205:16|171:85|197:150|197:150|184:149|184:149|211:199|185:255|185:255|184:205|154:163|106:158,1,990,2|0,0:1|0:0,2:1:0:0:
35,209,342174,6,0,P|59:235|92:247,1,72,2|0,0:2|0:0,0:0:0:0:
170,334,342374,2,0,P|205:335|237:319,1,72,10|0,0:2|0:0,0:0:0:0:
426,177,342574,5,6,0:2:0:0:
469,196,342674,1,0,0:0:0:0:
496,234,342774,1,8,0:2:0:0:
499,282,342874,1,0,0:0:0:0:
484,327,342974,1,0,0:0:0:0:
461,322,343074,1,0,0:0:0:0:
438,317,343174,2,0,L|362:303,1,72,10|0,0:2|0:0,0:0:0:0:
426,177,343374,5,6,0:2:0:0:
454,108,343474,1,0,0:0:0:0:
422,41,343574,1,8,0:2:0:0:
352,17,343674,5,2,0:2:0:0:
320,28,343774,1,0,0:0:0:0:
288,39,343874,1,0,0:0:0:0:
233,95,343974,2,0,P|199:82|164:72,1,72,10|0,0:2|0:0,0:0:0:0:
72,342,344174,5,2,0:2:0:0:
19,291,344274,1,0,0:0:0:0:
5,219,344374,1,8,0:2:0:0:
20,147,344474,1,0,0:0:0:0:
73,96,344574,5,0,0:0:0:0:
58,136,344674,1,0,0:0:0:0:
52,178,344774,1,8,0:2:0:0:
57,220,344874,1,0,0:0:0:0:
73,259,344974,5,0,0:0:0:0:
147,244,345074,1,0,0:0:0:0:
218,270,345174,1,8,0:2:0:0:
255,336,345274,1,0,0:0:0:0:
338,372,345374,6,0,P|372:366|407:346,1,72,2|0,0:2|0:0,0:0:0:0:
512,214,345574,2,0,P|502:248|482:278,1,72,10|0,0:2|0:0,0:0:0:0:
245,349,345817,5,6,3:2:0:0:
0,237,346028,1,8,0:0:0:0:
72,239,346133,1,8,0:0:0:0:
136,289,346239,5,8,0:0:0:0:
147,244,346345,1,8,0:0:0:0:
158,199,346450,1,8,0:0:0:0:
169,154,346556,1,8,0:0:0:0:
135,80,346662,5,6,3:2:0:0:
236,199,346882,1,8,3:0:0:0:
273,189,346992,1,8,3:0:0:0:
340,150,347103,5,8,3:0:0:0:
377,160,347214,1,4,3:0:0:0:
435,215,347326,5,4,3:0:0:0:
472,205,347438,1,4,3:0:0:0:
503,122,347550,6,0,B|499:96|501:74|501:74|481:58|464:18,1,90,6|8,3:2|0:0,0:0:0:0:
364,237,348032,1,8,0:0:0:0:
503,352,348297,1,8,3:0:0:0:
512,320,348430,1,8,3:0:0:0:
494,384,348565,5,4,3:0:0:0:
351,225,348854,1,4,3:0:0:0:
123,365,349144,5,4,3:0:0:0:
425,345,349579,1,4,3:0:0:0:
171,62,350083,5,4,3:2:0:0:
256,192,350209,12,0,357646,0:0:0:0:
