osu file format v14

[General]
AudioFilename: audio.mp3
AudioLeadIn: 0
PreviewTime: 70937
Countdown: 0
SampleSet: Soft
StackLeniency: 0.7
Mode: 1
LetterboxInBreaks: 0
WidescreenStoryboard: 1

[Editor]
Bookmarks: 12767,24196,47053,71338,94196,105624,117053,141338,164196,175624,198481,222767,245624,257053,269821
DistanceSpacing: 1
BeatDivisor: 4
GridSize: 32
TimelineZoom: 2.5

[Metadata]
Title:ENDLESS REBIRTH
TitleUnicode:ENDLESS REBIRTH
Artist:SOUND HOLIC feat. YURiCa
ArtistUnicode:SOUND HOLIC feat. ユリカ
Creator:k3v227
Version:ENDLESS ONI (no 1/6)
Source:-EIYA-
Tags:8STYLE Harumai 永夜 Comiket 86
BeatmapID:1636259
BeatmapSetID:779147

[Difficulty]
HPDrainRate:4
CircleSize:2
OverallDifficulty:6
ApproachRate:5
SliderMultiplier:1.4
SliderTickRate:1

[Events]
//Background and Video events
0,0,"endless rebirth (bg).jpg",0,0
//Break Periods
//Storyboard Layer 0 (Background)
//Storyboard Layer 1 (Fail)
//Storyboard Layer 2 (Pass)
//Storyboard Layer 3 (Foreground)
//Storyboard Sound Samples

[TimingPoints]
1339,357.142857142857,4,2,0,100,1,0
47142,-111.111111111111,4,2,0,100,0,0
56696,-105.263157894737,4,2,0,100,0,0
56874,-102.040816326531,4,2,0,100,0,0
56963,-100,4,2,0,100,0,0
71338,-95.2380952380952,4,2,0,100,0,1
93749,-96.1538461538461,4,2,0,100,0,1
93838,-97.0873786407767,4,2,0,100,0,1
93928,-98.0392156862745,4,2,0,100,0,1
94017,-99.009900990099,4,2,0,100,0,1
94196,-100,4,2,0,100,0,0
117142,-111.111111111111,4,2,0,100,0,0
126696,-107.52688172043,4,2,0,100,0,0
126874,-104.166666666667,4,2,0,100,0,0
127053,-102.040816326531,4,2,0,100,0,0
127142,-100,4,2,0,100,0,0
128660,-74.0740740740741,4,2,0,100,0,0
128749,-100,4,2,0,100,0,0
141338,-95.2380952380952,4,2,0,100,0,1
163749,-96.1538461538461,4,2,0,100,0,1
163838,-97.0873786407767,4,2,0,100,0,1
163928,-98.0392156862745,4,2,0,100,0,1
164017,-99.009900990099,4,2,0,100,0,1
164196,-100,4,2,0,100,0,0
175624,-95.2380952380952,4,2,0,100,0,1
198124,-96.1538461538461,4,2,0,100,0,1
198303,-98.0392156862745,4,2,0,100,0,1
198481,-95.2380952380952,4,2,0,100,0,0
198481,-100,4,2,0,100,0,0
198571,-111.111111111111,4,2,0,100,0,0
208124,-105.263157894737,4,2,0,100,0,0
208303,-102.040816326531,4,2,0,100,0,0
208392,-100,4,2,0,100,0,0
222767,-95.2380952380952,4,2,0,100,0,1
245178,-96.1538461538461,4,2,0,100,0,1
245267,-97.0873786407767,4,2,0,100,0,1
245356,-98.0392156862745,4,2,0,100,0,1
245446,-99.009900990099,4,2,0,100,0,1
245624,-100,4,2,0,100,0,0
268481,-90.9090909090909,4,2,0,100,0,0

[HitObjects]
256,192,89,8,0,1160,0:0:0:0:
256,192,1335,5,12,0:0:0:0:
256,192,1517,1,0,0:0:0:0:
256,192,1606,1,0,0:0:0:0:
256,192,1696,1,8,0:0:0:0:
256,192,1785,1,8,0:0:0:0:
256,192,1874,1,0,0:0:0:0:
256,192,2053,1,12,0:0:0:0:
256,192,2321,1,12,0:0:0:0:
256,192,2588,1,12,0:0:0:0:
256,192,2946,1,0,0:0:0:0:
256,192,3035,1,0,0:0:0:0:
256,192,3124,1,8,0:0:0:0:
256,192,3213,1,0,0:0:0:0:
256,192,3303,1,0,0:0:0:0:
256,192,3392,1,0,0:0:0:0:
256,192,3481,1,8,0:0:0:0:
256,192,3571,1,8,0:0:0:0:
256,192,3660,1,0,0:0:0:0:
256,192,3749,1,8,0:0:0:0:
256,192,3838,1,0,0:0:0:0:
256,192,3928,1,8,0:0:0:0:
256,192,4017,1,0,0:0:0:0:
256,192,4196,1,12,0:0:0:0:
256,192,4374,1,0,0:0:0:0:
256,192,4463,1,0,0:0:0:0:
256,192,4553,1,8,0:0:0:0:
256,192,4642,1,8,0:0:0:0:
256,192,4731,1,0,0:0:0:0:
256,192,4910,1,12,0:0:0:0:
256,192,5178,1,12,0:0:0:0:
256,192,5446,1,12,0:0:0:0:
256,192,5624,1,0,0:0:0:0:
256,192,5713,1,0,0:0:0:0:
256,192,5803,1,0,0:0:0:0:
256,192,5892,1,0,0:0:0:0:
256,192,5981,1,8,0:0:0:0:
256,192,6071,1,8,0:0:0:0:
256,192,6160,1,0,0:0:0:0:
256,192,6249,1,0,0:0:0:0:
256,192,6338,1,8,0:0:0:0:
256,192,6428,1,0,0:0:0:0:
256,192,6517,1,0,0:0:0:0:
256,192,6606,1,0,0:0:0:0:
256,192,6696,1,8,0:0:0:0:
256,192,6785,1,0,0:0:0:0:
256,192,6874,1,0,0:0:0:0:
256,192,7053,1,12,0:0:0:0:
256,192,7231,1,0,0:0:0:0:
256,192,7321,1,0,0:0:0:0:
256,192,7410,1,8,0:0:0:0:
256,192,7499,1,8,0:0:0:0:
256,192,7588,1,0,0:0:0:0:
256,192,7767,1,12,0:0:0:0:
256,192,8035,1,12,0:0:0:0:
256,192,8303,1,12,0:0:0:0:
256,192,8481,1,0,0:0:0:0:
256,192,8571,1,0,0:0:0:0:
256,192,8660,1,0,0:0:0:0:
256,192,8749,1,8,0:0:0:0:
256,192,8838,1,8,0:0:0:0:
256,192,8928,1,8,0:0:0:0:
256,192,9017,1,0,0:0:0:0:
256,192,9106,1,8,0:0:0:0:
256,192,9196,1,8,0:0:0:0:
256,192,9285,1,8,0:0:0:0:
256,192,9374,1,0,0:0:0:0:
256,192,9463,1,8,0:0:0:0:
256,192,9553,1,8,0:0:0:0:
256,192,9642,1,8,0:0:0:0:
256,192,9731,1,0,0:0:0:0:
256,192,9910,1,12,0:0:0:0:
256,192,10088,1,0,0:0:0:0:
256,192,10178,1,0,0:0:0:0:
256,192,10267,1,8,0:0:0:0:
256,192,10356,1,8,0:0:0:0:
256,192,10446,1,0,0:0:0:0:
256,192,10624,1,12,0:0:0:0:
256,192,10892,1,12,0:0:0:0:
256,192,11160,1,12,0:0:0:0:
256,192,11338,1,0,0:0:0:0:
256,192,11428,1,0,0:0:0:0:
256,192,11517,1,0,0:0:0:0:
256,192,11606,1,0,0:0:0:0:
256,192,11696,1,8,0:0:0:0:
256,192,11785,1,8,0:0:0:0:
256,192,11874,1,0,0:0:0:0:
256,192,11963,1,0,0:0:0:0:
256,192,12053,1,8,0:0:0:0:
256,192,12142,1,0,0:0:0:0:
256,192,12231,1,0,0:0:0:0:
256,192,12321,1,0,0:0:0:0:
256,192,12410,1,8,0:0:0:0:
256,192,12767,1,12,0:0:0:0:
256,192,12946,1,0,0:0:0:0:
256,192,13035,1,0,0:0:0:0:
256,192,13124,1,8,0:0:0:0:
256,192,13213,1,0,0:0:0:0:
256,192,13303,1,8,0:0:0:0:
256,192,13392,1,8,0:0:0:0:
256,192,13481,1,0,0:0:0:0:
256,192,13660,1,8,0:0:0:0:
256,192,13749,1,8,0:0:0:0:
256,192,13838,1,0,0:0:0:0:
256,192,13928,1,8,0:0:0:0:
256,192,14017,1,0,0:0:0:0:
256,192,14106,1,0,0:0:0:0:
256,192,14196,1,0,0:0:0:0:
256,192,14374,1,8,0:0:0:0:
256,192,14463,1,0,0:0:0:0:
256,192,14553,1,0,0:0:0:0:
256,192,14642,1,0,0:0:0:0:
256,192,14731,1,8,0:0:0:0:
256,192,14821,1,8,0:0:0:0:
256,192,14910,1,0,0:0:0:0:
256,192,14999,1,0,0:0:0:0:
256,192,15088,1,8,0:0:0:0:
256,192,15178,1,0,0:0:0:0:
256,192,15267,1,8,0:0:0:0:
256,192,15356,1,8,0:0:0:0:
256,192,15446,1,8,0:0:0:0:
256,192,15624,1,12,0:0:0:0:
256,192,15803,1,8,0:0:0:0:
256,192,15892,1,0,0:0:0:0:
256,192,15981,1,8,0:0:0:0:
256,192,16071,1,8,0:0:0:0:
256,192,16160,1,0,0:0:0:0:
256,192,16338,1,8,0:0:0:0:
256,192,16428,1,0,0:0:0:0:
256,192,16517,1,0,0:0:0:0:
256,192,16606,1,8,0:0:0:0:
256,192,16696,1,0,0:0:0:0:
256,192,16785,1,0,0:0:0:0:
256,192,16874,1,8,0:0:0:0:
256,192,16963,1,8,0:0:0:0:
256,192,17053,1,0,0:0:0:0:
256,192,17231,1,8,0:0:0:0:
256,192,17321,1,0,0:0:0:0:
256,192,17410,1,0,0:0:0:0:
256,192,17499,1,0,0:0:0:0:
256,192,17588,1,8,0:0:0:0:
256,192,17678,1,0,0:0:0:0:
256,192,17767,1,8,0:0:0:0:
256,192,17856,1,8,0:0:0:0:
256,192,17946,1,8,0:0:0:0:
256,192,18035,1,0,0:0:0:0:
256,192,18124,1,8,0:0:0:0:
256,192,18213,1,8,0:0:0:0:
256,192,18303,1,0,0:0:0:0:
256,192,18481,1,12,0:0:0:0:
256,192,18660,1,0,0:0:0:0:
256,192,18749,1,8,0:0:0:0:
256,192,18838,1,0,0:0:0:0:
256,192,18928,1,8,0:0:0:0:
256,192,19017,1,0,0:0:0:0:
256,192,19106,1,0,0:0:0:0:
256,192,19196,1,8,0:0:0:0:
256,192,19374,1,8,0:0:0:0:
256,192,19463,1,0,0:0:0:0:
256,192,19553,1,8,0:0:0:0:
256,192,19642,1,8,0:0:0:0:
256,192,19731,1,0,0:0:0:0:
256,192,19821,1,0,0:0:0:0:
256,192,19910,1,8,0:0:0:0:
256,192,20088,1,0,0:0:0:0:
256,192,20178,1,0,0:0:0:0:
256,192,20267,1,8,0:0:0:0:
256,192,20356,1,8,0:0:0:0:
256,192,20446,1,0,0:0:0:0:
256,192,20535,1,0,0:0:0:0:
256,192,20624,1,8,0:0:0:0:
256,192,20713,1,0,0:0:0:0:
256,192,20803,1,8,0:0:0:0:
256,192,20892,1,8,0:0:0:0:
256,192,20981,1,0,0:0:0:0:
256,192,21071,1,0,0:0:0:0:
256,192,21160,1,8,0:0:0:0:
256,192,21338,1,12,0:0:0:0:
256,192,21517,1,0,0:0:0:0:
256,192,21606,1,0,0:0:0:0:
256,192,21696,1,8,0:0:0:0:
256,192,21785,1,8,0:0:0:0:
256,192,21874,1,0,0:0:0:0:
256,192,22053,1,8,0:0:0:0:
256,192,22142,1,0,0:0:0:0:
256,192,22231,1,0,0:0:0:0:
256,192,22321,1,8,0:0:0:0:
256,192,22410,1,0,0:0:0:0:
256,192,22499,1,0,0:0:0:0:
256,192,22588,1,8,0:0:0:0:
256,192,22767,1,8,0:0:0:0:
256,192,22856,1,8,0:0:0:0:
256,192,22946,1,0,0:0:0:0:
256,192,23035,1,0,0:0:0:0:
256,192,23124,1,8,0:0:0:0:
256,192,23213,1,0,0:0:0:0:
256,192,23303,1,8,0:0:0:0:
256,192,23392,1,8,0:0:0:0:
256,192,23481,1,0,0:0:0:0:
256,192,23571,1,8,0:0:0:0:
256,192,23660,1,0,0:0:0:0:
256,192,23749,1,0,0:0:0:0:
256,192,23838,1,8,0:0:0:0:
256,192,24196,1,4,0:0:0:0:
256,192,24374,1,8,0:0:0:0:
256,192,24553,1,0,0:0:0:0:
256,192,24642,1,0,0:0:0:0:
256,192,24731,1,8,0:0:0:0:
256,192,24910,1,0,0:0:0:0:
256,192,25088,1,8,0:0:0:0:
256,192,25178,1,0,0:0:0:0:
256,192,25356,1,0,0:0:0:0:
256,192,25446,1,8,0:0:0:0:
256,192,25624,1,0,0:0:0:0:
256,192,25803,1,8,0:0:0:0:
256,192,25892,1,8,0:0:0:0:
256,192,25981,1,0,0:0:0:0:
256,192,26160,1,8,0:0:0:0:
256,192,26338,1,0,0:0:0:0:
256,192,26428,1,0,0:0:0:0:
256,192,26517,1,8,0:0:0:0:
256,192,26606,1,0,0:0:0:0:
256,192,26785,1,0,0:0:0:0:
256,192,26874,1,8,0:0:0:0:
256,192,27053,1,0,0:0:0:0:
256,192,27231,1,8,0:0:0:0:
256,192,27410,1,0,0:0:0:0:
256,192,27499,1,0,0:0:0:0:
256,192,27588,1,8,0:0:0:0:
256,192,27678,1,0,0:0:0:0:
256,192,27767,1,0,0:0:0:0:
256,192,27856,1,0,0:0:0:0:
256,192,27946,1,8,0:0:0:0:
256,192,28035,1,8,0:0:0:0:
256,192,28124,1,0,0:0:0:0:
256,192,28213,1,0,0:0:0:0:
256,192,28303,1,8,0:0:0:0:
256,192,28481,1,0,0:0:0:0:
256,192,28660,1,8,0:0:0:0:
256,192,28749,1,0,0:0:0:0:
256,192,28928,1,0,0:0:0:0:
256,192,29017,1,8,0:0:0:0:
256,192,29196,1,0,0:0:0:0:
256,192,29285,1,0,0:0:0:0:
256,192,29374,1,8,0:0:0:0:
256,192,29463,1,8,0:0:0:0:
256,192,29553,1,0,0:0:0:0:
256,192,29731,1,12,0:0:0:0:
256,192,29910,1,4,0:0:0:0:
256,192,30088,1,8,0:0:0:0:
256,192,30267,1,0,0:0:0:0:
256,192,30356,1,0,0:0:0:0:
256,192,30446,1,8,0:0:0:0:
256,192,30624,1,0,0:0:0:0:
256,192,30803,1,8,0:0:0:0:
256,192,30892,1,0,0:0:0:0:
256,192,31071,1,0,0:0:0:0:
256,192,31160,1,8,0:0:0:0:
256,192,31338,1,0,0:0:0:0:
256,192,31517,1,8,0:0:0:0:
256,192,31606,1,0,0:0:0:0:
256,192,31696,1,0,0:0:0:0:
256,192,31785,1,0,0:0:0:0:
256,192,31874,1,8,0:0:0:0:
256,192,32053,1,0,0:0:0:0:
256,192,32231,1,8,0:0:0:0:
256,192,32321,1,0,0:0:0:0:
256,192,32410,1,8,0:0:0:0:
256,192,32499,1,8,0:0:0:0:
256,192,32588,1,0,0:0:0:0:
256,192,32678,1,8,0:0:0:0:
256,192,32767,1,0,0:0:0:0:
256,192,32946,1,8,0:0:0:0:
256,192,33124,1,8,0:0:0:0:
256,192,33213,1,8,0:0:0:0:
256,192,33303,1,0,0:0:0:0:
256,192,33481,1,8,0:0:0:0:
256,192,33660,1,0,0:0:0:0:
256,192,33749,1,0,0:0:0:0:
256,192,33838,1,0,0:0:0:0:
256,192,33928,1,0,0:0:0:0:
256,192,34017,1,8,0:0:0:0:
256,192,34196,1,0,0:0:0:0:
256,192,34374,1,8,0:0:0:0:
256,192,34463,1,8,0:0:0:0:
256,192,34553,1,0,0:0:0:0:
256,192,34642,1,0,0:0:0:0:
256,192,34731,1,8,0:0:0:0:
256,192,34821,1,0,0:0:0:0:
256,192,34910,1,8,0:0:0:0:
256,192,35088,1,8,0:0:0:0:
256,192,35267,1,0,0:0:0:0:
256,192,35356,1,0,0:0:0:0:
256,192,35446,1,8,0:0:0:0:
256,192,35535,1,8,0:0:0:0:
256,192,35624,1,0,0:0:0:0:
256,192,35803,1,8,0:0:0:0:
256,192,35981,1,0,0:0:0:0:
256,192,36071,1,0,0:0:0:0:
256,192,36160,1,8,0:0:0:0:
256,192,36338,1,0,0:0:0:0:
256,192,36517,1,8,0:0:0:0:
256,192,36606,1,8,0:0:0:0:
256,192,36696,1,0,0:0:0:0:
256,192,36785,1,0,0:0:0:0:
256,192,36874,1,8,0:0:0:0:
256,192,37053,1,0,0:0:0:0:
256,192,37231,1,8,0:0:0:0:
256,192,37410,1,0,0:0:0:0:
256,192,37499,1,0,0:0:0:0:
256,192,37588,1,8,0:0:0:0:
256,192,37767,1,8,0:0:0:0:
256,192,37856,1,0,0:0:0:0:
256,192,37946,1,8,0:0:0:0:
256,192,38035,1,8,0:0:0:0:
256,192,38124,1,0,0:0:0:0:
256,192,38213,1,8,0:0:0:0:
256,192,38303,1,0,0:0:0:0:
256,192,38481,1,0,0:0:0:0:
256,192,38660,1,8,0:0:0:0:
256,192,38838,1,0,0:0:0:0:
256,192,38928,1,0,0:0:0:0:
256,192,39017,1,8,0:0:0:0:
256,192,39196,1,0,0:0:0:0:
256,192,39374,1,8,0:0:0:0:
256,192,39463,1,0,0:0:0:0:
256,192,39642,1,0,0:0:0:0:
256,192,39731,1,8,0:0:0:0:
256,192,39910,1,0,0:0:0:0:
256,192,40088,1,8,0:0:0:0:
256,192,40178,1,0,0:0:0:0:
256,192,40267,1,0,0:0:0:0:
256,192,40356,1,0,0:0:0:0:
256,192,40446,1,8,0:0:0:0:
256,192,40535,1,8,0:0:0:0:
256,192,40624,1,0,0:0:0:0:
256,192,40803,1,8,0:0:0:0:
256,192,40892,1,8,0:0:0:0:
256,192,40981,1,0,0:0:0:0:
256,192,41071,1,0,0:0:0:0:
256,192,41160,1,8,0:0:0:0:
256,192,41249,1,8,0:0:0:0:
256,192,41338,1,0,0:0:0:0:
256,192,41517,1,8,0:0:0:0:
256,192,41696,1,0,0:0:0:0:
256,192,41785,1,0,0:0:0:0:
256,192,41874,1,8,0:0:0:0:
256,192,42053,1,0,0:0:0:0:
256,192,42231,1,8,0:0:0:0:
256,192,42321,1,8,0:0:0:0:
256,192,42410,1,0,0:0:0:0:
256,192,42499,1,8,0:0:0:0:
256,192,42588,1,8,0:0:0:0:
256,192,42767,1,0,0:0:0:0:
256,192,42946,1,8,0:0:0:0:
256,192,43035,1,8,0:0:0:0:
256,192,43124,1,0,0:0:0:0:
256,192,43213,1,0,0:0:0:0:
256,192,43303,1,8,0:0:0:0:
256,192,43481,1,0,0:0:0:0:
256,192,43571,1,8,0:0:0:0:
256,192,43660,1,0,0:0:0:0:
256,192,43749,1,0,0:0:0:0:
256,192,43838,1,8,0:0:0:0:
256,192,43928,1,8,0:0:0:0:
256,192,44017,1,0,0:0:0:0:
256,192,44196,1,0,0:0:0:0:
256,192,44374,1,8,0:0:0:0:
256,192,44553,1,0,0:0:0:0:
256,192,44642,1,0,0:0:0:0:
256,192,44731,1,8,0:0:0:0:
256,192,44821,1,8,0:0:0:0:
256,192,44910,1,0,0:0:0:0:
256,192,45088,1,8,0:0:0:0:
256,192,45267,1,0,0:0:0:0:
256,192,45446,1,8,0:0:0:0:
256,192,45535,1,8,0:0:0:0:
256,192,45624,1,0,0:0:0:0:
256,192,45803,1,8,0:0:0:0:
256,192,45892,1,8,0:0:0:0:
256,192,45981,1,0,0:0:0:0:
256,192,46071,1,8,0:0:0:0:
256,192,46160,1,0,0:0:0:0:
256,192,46249,1,0,0:0:0:0:
256,192,46338,1,8,0:0:0:0:
256,192,46517,1,4,0:0:0:0:
256,192,46696,1,4,0:0:0:0:
256,192,46874,1,4,0:0:0:0:
256,192,47053,1,12,0:0:0:0:
256,192,47321,1,0,0:0:0:0:
256,192,47588,1,0,0:0:0:0:
256,192,47767,1,8,0:0:0:0:
256,192,48124,1,0,0:0:0:0:
256,192,48303,1,8,0:0:0:0:
256,192,48660,1,0,0:0:0:0:
256,192,48928,1,0,0:0:0:0:
256,192,49196,1,8,0:0:0:0:
256,192,49463,1,8,0:0:0:0:
256,192,49553,1,0,0:0:0:0:
256,192,49731,1,8,0:0:0:0:
256,192,49910,1,4,0:0:0:0:
256,192,50178,1,0,0:0:0:0:
256,192,50446,1,0,0:0:0:0:
256,192,50624,1,8,0:0:0:0:
256,192,50981,1,0,0:0:0:0:
256,192,51160,1,8,0:0:0:0:
256,192,51517,1,0,0:0:0:0:
256,192,51785,1,0,0:0:0:0:
256,192,52053,1,8,0:0:0:0:
256,192,52321,1,0,0:0:0:0:
256,192,52588,1,0,0:0:0:0:
256,192,52767,1,12,0:0:0:0:
256,192,53035,1,0,0:0:0:0:
256,192,53303,1,0,0:0:0:0:
256,192,53481,1,8,0:0:0:0:
256,192,53749,1,8,0:0:0:0:
256,192,53838,1,0,0:0:0:0:
256,192,54017,1,8,0:0:0:0:
256,192,54374,1,0,0:0:0:0:
256,192,54642,1,0,0:0:0:0:
256,192,54910,1,8,0:0:0:0:
256,192,55267,1,0,0:0:0:0:
256,192,55446,1,8,0:0:0:0:
256,192,55624,1,4,0:0:0:0:
256,192,55892,1,0,0:0:0:0:
256,192,56160,1,0,0:0:0:0:
256,192,56338,1,8,0:0:0:0:
256,192,56696,1,0,0:0:0:0:
256,192,56874,1,8,0:0:0:0:
256,192,57053,1,8,0:0:0:0:
256,192,57142,1,0,0:0:0:0:
256,192,57231,1,0,0:0:0:0:
256,192,57321,1,8,0:0:0:0:
256,192,57410,1,0,0:0:0:0:
256,192,57499,1,0,0:0:0:0:
256,192,57588,1,8,0:0:0:0:
256,192,57678,1,0,0:0:0:0:
256,192,57767,1,8,0:0:0:0:
256,192,57856,1,0,0:0:0:0:
256,192,57946,1,8,0:0:0:0:
256,192,58035,1,8,0:0:0:0:
256,192,58124,1,8,0:0:0:0:
256,192,58213,1,8,0:0:0:0:
256,192,58303,1,8,0:0:0:0:
256,192,58392,1,8,0:0:0:0:
256,192,58481,1,0,0:0:0:0:
256,192,58660,1,8,0:0:0:0:
256,192,58838,1,0,0:0:0:0:
256,192,58928,1,0,0:0:0:0:
256,192,59017,1,8,0:0:0:0:
256,192,59196,1,0,0:0:0:0:
256,192,59374,1,8,0:0:0:0:
256,192,59463,1,8,0:0:0:0:
256,192,59553,1,0,0:0:0:0:
256,192,59642,1,0,0:0:0:0:
256,192,59731,1,8,0:0:0:0:
256,192,59910,1,0,0:0:0:0:
256,192,60088,1,8,0:0:0:0:
256,192,60178,1,8,0:0:0:0:
256,192,60267,1,0,0:0:0:0:
256,192,60446,1,8,0:0:0:0:
256,192,60624,1,0,0:0:0:0:
256,192,60803,1,0,0:0:0:0:
256,192,60892,1,8,0:0:0:0:
256,192,60981,1,0,0:0:0:0:
256,192,61071,1,0,0:0:0:0:
256,192,61160,1,8,0:0:0:0:
256,192,61338,1,0,0:0:0:0:
256,192,61517,1,8,0:0:0:0:
256,192,61696,1,0,0:0:0:0:
256,192,61785,1,0,0:0:0:0:
256,192,61874,1,8,0:0:0:0:
256,192,62053,1,0,0:0:0:0:
256,192,62231,1,8,0:0:0:0:
256,192,62321,1,0,0:0:0:0:
256,192,62499,1,0,0:0:0:0:
256,192,62588,1,8,0:0:0:0:
256,192,62767,1,0,0:0:0:0:
256,192,62946,1,8,0:0:0:0:
256,192,63035,1,8,0:0:0:0:
256,192,63124,1,0,0:0:0:0:
256,192,63213,1,0,0:0:0:0:
256,192,63303,1,8,0:0:0:0:
256,192,63481,1,0,0:0:0:0:
256,192,63660,1,0,0:0:0:0:
256,192,63749,1,8,0:0:0:0:
256,192,63838,1,0,0:0:0:0:
256,192,63928,1,0,0:0:0:0:
256,192,64017,1,8,0:0:0:0:
256,192,64106,1,8,0:0:0:0:
256,192,64196,1,0,0:0:0:0:
256,192,64374,1,8,0:0:0:0:
256,192,64553,1,0,0:0:0:0:
256,192,64642,1,0,0:0:0:0:
256,192,64731,1,8,0:0:0:0:
256,192,64910,1,0,0:0:0:0:
256,192,65088,1,8,0:0:0:0:
256,192,65178,1,0,0:0:0:0:
256,192,65356,1,0,0:0:0:0:
256,192,65446,1,8,0:0:0:0:
256,192,65624,1,0,0:0:0:0:
256,192,65803,1,8,0:0:0:0:
256,192,65981,1,0,0:0:0:0:
256,192,66071,1,0,0:0:0:0:
256,192,66160,1,8,0:0:0:0:
256,192,66338,1,0,0:0:0:0:
256,192,66428,1,0,0:0:0:0:
256,192,66517,1,8,0:0:0:0:
256,192,66606,1,0,0:0:0:0:
256,192,66785,1,0,0:0:0:0:
256,192,66874,1,8,0:0:0:0:
256,192,67053,1,0,0:0:0:0:
256,192,67231,1,8,0:0:0:0:
256,192,67321,1,0,0:0:0:0:
256,192,67410,1,0,0:0:0:0:
256,192,67499,1,0,0:0:0:0:
256,192,67588,1,8,0:0:0:0:
256,192,67678,1,8,0:0:0:0:
256,192,67767,1,0,0:0:0:0:
256,192,67856,1,0,0:0:0:0:
256,192,67946,1,8,0:0:0:0:
256,192,68035,1,0,0:0:0:0:
256,192,68124,1,0,0:0:0:0:
256,192,68213,1,0,0:0:0:0:
256,192,68303,1,8,0:0:0:0:
256,192,68392,1,0,0:0:0:0:
256,192,68481,1,8,0:0:0:0:
256,192,68571,1,0,0:0:0:0:
256,192,68660,1,0,0:0:0:0:
256,192,68749,1,8,0:0:0:0:
256,192,68838,1,0,0:0:0:0:
256,192,68928,1,0,0:0:0:0:
256,192,69017,1,8,0:0:0:0:
256,192,69106,1,0,0:0:0:0:
256,192,69196,1,8,0:0:0:0:
256,192,69285,1,0,0:0:0:0:
256,192,69374,1,0,0:0:0:0:
256,192,69463,1,8,0:0:0:0:
256,192,69553,1,0,0:0:0:0:
256,192,69642,1,0,0:0:0:0:
256,192,69731,1,8,0:0:0:0:
256,192,69821,1,0,0:0:0:0:
256,192,69910,1,8,0:0:0:0:
256,192,69999,1,8,0:0:0:0:
256,192,70088,1,0,0:0:0:0:
256,192,70178,1,0,0:0:0:0:
256,192,70267,1,0,0:0:0:0:
256,192,70356,1,0,0:0:0:0:
256,192,70446,1,8,0:0:0:0:
256,192,70535,1,8,0:0:0:0:
256,192,70624,1,0,0:0:0:0:
256,192,71338,1,12,0:0:0:0:
256,192,71517,1,0,0:0:0:0:
256,192,71606,1,8,0:0:0:0:
256,192,71696,1,0,0:0:0:0:
256,192,71785,1,0,0:0:0:0:
256,192,71874,1,8,0:0:0:0:
256,192,72053,1,12,0:0:0:0:
256,192,72231,1,8,0:0:0:0:
256,192,72321,1,8,0:0:0:0:
256,192,72410,1,0,0:0:0:0:
256,192,72499,1,0,0:0:0:0:
256,192,72588,1,0,0:0:0:0:
256,192,72767,1,12,0:0:0:0:
256,192,72946,1,8,0:0:0:0:
256,192,73035,1,8,0:0:0:0:
256,192,73124,1,0,0:0:0:0:
256,192,73213,1,0,0:0:0:0:
256,192,73303,1,8,0:0:0:0:
256,192,73392,1,0,0:0:0:0:
256,192,73571,1,0,0:0:0:0:
256,192,73660,1,8,0:0:0:0:
256,192,73838,1,8,0:0:0:0:
256,192,73928,1,8,0:0:0:0:
256,192,74017,1,0,0:0:0:0:
256,192,74106,1,0,0:0:0:0:
256,192,74196,1,8,0:0:0:0:
256,192,74374,1,0,0:0:0:0:
256,192,74463,1,0,0:0:0:0:
256,192,74553,1,8,0:0:0:0:
256,192,74731,1,8,0:0:0:0:
256,192,74821,1,8,0:0:0:0:
256,192,74910,1,0,0:0:0:0:
256,192,75088,1,8,0:0:0:0:
256,192,75178,1,0,0:0:0:0:
256,192,75267,1,8,0:0:0:0:
256,192,75356,1,8,0:0:0:0:
256,192,75446,1,0,0:0:0:0:
256,192,75624,1,8,0:0:0:0:
256,192,75713,1,0,0:0:0:0:
256,192,75803,1,0,0:0:0:0:
256,192,75892,1,8,0:0:0:0:
256,192,76071,1,0,0:0:0:0:
256,192,76160,1,8,0:0:0:0:
256,192,76338,1,0,0:0:0:0:
256,192,76428,1,8,0:0:0:0:
256,192,76517,1,8,0:0:0:0:
256,192,76606,1,8,0:0:0:0:
256,192,76696,1,0,0:0:0:0:
256,192,76785,1,0,0:0:0:0:
256,192,76874,1,8,0:0:0:0:
256,192,76963,1,0,0:0:0:0:
256,192,77053,1,0,0:0:0:0:
256,192,77231,1,8,0:0:0:0:
256,192,77321,1,8,0:0:0:0:
256,192,77410,1,0,0:0:0:0:
256,192,77499,1,0,0:0:0:0:
256,192,77588,1,8,0:0:0:0:
256,192,77767,1,0,0:0:0:0:
256,192,77946,1,8,0:0:0:0:
256,192,78035,1,0,0:0:0:0:
256,192,78213,1,0,0:0:0:0:
256,192,78303,1,8,0:0:0:0:
256,192,78481,1,0,0:0:0:0:
256,192,78571,1,0,0:0:0:0:
256,192,78660,1,8,0:0:0:0:
256,192,78749,1,0,0:0:0:0:
256,192,78928,1,0,0:0:0:0:
256,192,79017,1,8,0:0:0:0:
256,192,79196,1,0,0:0:0:0:
256,192,79285,1,0,0:0:0:0:
256,192,79374,1,8,0:0:0:0:
256,192,79463,1,8,0:0:0:0:
256,192,79553,1,0,0:0:0:0:
256,192,79731,1,8,0:0:0:0:
256,192,79910,1,4,0:0:0:0:
256,192,80088,1,8,0:0:0:0:
256,192,80178,1,8,0:0:0:0:
256,192,80267,1,0,0:0:0:0:
256,192,80356,1,0,0:0:0:0:
256,192,80446,1,8,0:0:0:0:
256,192,80624,1,4,0:0:0:0:
256,192,80803,1,8,0:0:0:0:
256,192,80892,1,8,0:0:0:0:
256,192,80981,1,0,0:0:0:0:
256,192,81071,1,8,0:0:0:0:
256,192,81160,1,0,0:0:0:0:
256,192,81338,1,12,0:0:0:0:
256,192,81517,1,8,0:0:0:0:
256,192,81606,1,8,0:0:0:0:
256,192,81696,1,0,0:0:0:0:
256,192,81874,1,8,0:0:0:0:
256,192,81963,1,8,0:0:0:0:
256,192,82053,1,0,0:0:0:0:
256,192,82231,1,8,0:0:0:0:
256,192,82321,1,8,0:0:0:0:
256,192,82410,1,0,0:0:0:0:
256,192,82499,1,0,0:0:0:0:
256,192,82588,1,0,0:0:0:0:
256,192,82767,1,12,0:0:0:0:
256,192,82946,1,0,0:0:0:0:
256,192,83035,1,8,0:0:0:0:
256,192,83124,1,0,0:0:0:0:
256,192,83213,1,0,0:0:0:0:
256,192,83303,1,8,0:0:0:0:
256,192,83481,1,12,0:0:0:0:
256,192,83660,1,8,0:0:0:0:
256,192,83749,1,8,0:0:0:0:
256,192,83838,1,0,0:0:0:0:
256,192,83928,1,0,0:0:0:0:
256,192,84017,1,0,0:0:0:0:
256,192,84196,1,12,0:0:0:0:
256,192,84374,1,8,0:0:0:0:
256,192,84463,1,8,0:0:0:0:
256,192,84553,1,0,0:0:0:0:
256,192,84642,1,0,0:0:0:0:
256,192,84731,1,8,0:0:0:0:
256,192,84821,1,0,0:0:0:0:
256,192,84999,1,0,0:0:0:0:
256,192,85088,1,8,0:0:0:0:
256,192,85267,1,8,0:0:0:0:
256,192,85356,1,8,0:0:0:0:
256,192,85446,1,0,0:0:0:0:
256,192,85535,1,0,0:0:0:0:
256,192,85624,1,8,0:0:0:0:
256,192,85803,1,0,0:0:0:0:
256,192,85892,1,0,0:0:0:0:
256,192,85981,1,8,0:0:0:0:
256,192,86160,1,8,0:0:0:0:
256,192,86249,1,8,0:0:0:0:
256,192,86338,1,0,0:0:0:0:
256,192,86517,1,8,0:0:0:0:
256,192,86606,1,0,0:0:0:0:
256,192,86696,1,8,0:0:0:0:
256,192,86785,1,8,0:0:0:0:
256,192,86874,1,0,0:0:0:0:
256,192,87053,1,8,0:0:0:0:
256,192,87142,1,0,0:0:0:0:
256,192,87231,1,0,0:0:0:0:
256,192,87321,1,8,0:0:0:0:
256,192,87499,1,0,0:0:0:0:
256,192,87588,1,8,0:0:0:0:
256,192,87767,1,0,0:0:0:0:
256,192,87856,1,8,0:0:0:0:
256,192,87946,1,8,0:0:0:0:
256,192,88035,1,8,0:0:0:0:
256,192,88124,1,0,0:0:0:0:
256,192,88213,1,0,0:0:0:0:
256,192,88303,1,8,0:0:0:0:
256,192,88392,1,0,0:0:0:0:
256,192,88481,1,0,0:0:0:0:
256,192,88660,1,8,0:0:0:0:
256,192,88749,1,8,0:0:0:0:
256,192,88838,1,0,0:0:0:0:
256,192,88928,1,0,0:0:0:0:
256,192,89017,1,8,0:0:0:0:
256,192,89196,1,0,0:0:0:0:
256,192,89374,1,8,0:0:0:0:
256,192,89463,1,0,0:0:0:0:
256,192,89642,1,0,0:0:0:0:
256,192,89731,1,8,0:0:0:0:
256,192,89910,1,0,0:0:0:0:
256,192,89999,1,0,0:0:0:0:
256,192,90088,1,8,0:0:0:0:
256,192,90178,1,0,0:0:0:0:
256,192,90356,1,0,0:0:0:0:
256,192,90446,1,8,0:0:0:0:
256,192,90624,1,0,0:0:0:0:
256,192,90713,1,0,0:0:0:0:
256,192,90803,1,8,0:0:0:0:
256,192,90892,1,8,0:0:0:0:
256,192,90981,1,0,0:0:0:0:
256,192,91160,1,8,0:0:0:0:
256,192,91338,1,4,0:0:0:0:
256,192,91517,1,8,0:0:0:0:
256,192,91606,1,8,0:0:0:0:
256,192,91696,1,0,0:0:0:0:
256,192,91785,1,0,0:0:0:0:
256,192,91874,1,8,0:0:0:0:
256,192,92053,1,4,0:0:0:0:
256,192,92231,1,8,0:0:0:0:
256,192,92321,1,8,0:0:0:0:
256,192,92410,1,0,0:0:0:0:
256,192,92499,1,8,0:0:0:0:
256,192,92588,1,0,0:0:0:0:
256,192,92767,1,12,0:0:0:0:
256,192,92946,1,8,0:0:0:0:
256,192,93035,1,8,0:0:0:0:
256,192,93124,1,0,0:0:0:0:
256,192,93303,1,8,0:0:0:0:
256,192,93392,1,8,0:0:0:0:
256,192,93481,1,0,0:0:0:0:
256,192,93660,1,8,0:0:0:0:
256,192,93749,1,8,0:0:0:0:
256,192,93838,1,8,0:0:0:0:
256,192,93928,1,8,0:0:0:0:
256,192,94017,1,8,0:0:0:0:
256,192,94196,1,12,0:0:0:0:
256,192,94374,1,0,0:0:0:0:
256,192,94463,1,0,0:0:0:0:
256,192,94553,1,8,0:0:0:0:
256,192,94642,1,0,0:0:0:0:
256,192,94731,1,8,0:0:0:0:
256,192,94821,1,8,0:0:0:0:
256,192,94910,1,0,0:0:0:0:
256,192,95088,1,8,0:0:0:0:
256,192,95178,1,8,0:0:0:0:
256,192,95267,1,0,0:0:0:0:
256,192,95356,1,8,0:0:0:0:
256,192,95446,1,0,0:0:0:0:
256,192,95535,1,0,0:0:0:0:
256,192,95624,1,0,0:0:0:0:
256,192,95803,1,8,0:0:0:0:
256,192,95892,1,0,0:0:0:0:
256,192,95981,1,0,0:0:0:0:
256,192,96071,1,0,0:0:0:0:
256,192,96160,1,8,0:0:0:0:
256,192,96249,1,8,0:0:0:0:
256,192,96338,1,0,0:0:0:0:
256,192,96428,1,0,0:0:0:0:
256,192,96517,1,8,0:0:0:0:
256,192,96606,1,0,0:0:0:0:
256,192,96696,1,8,0:0:0:0:
256,192,96785,1,8,0:0:0:0:
256,192,96874,1,8,0:0:0:0:
256,192,97053,1,12,0:0:0:0:
256,192,97231,1,8,0:0:0:0:
256,192,97321,1,0,0:0:0:0:
256,192,97410,1,8,0:0:0:0:
256,192,97499,1,8,0:0:0:0:
256,192,97588,1,0,0:0:0:0:
256,192,97767,1,8,0:0:0:0:
256,192,97856,1,0,0:0:0:0:
256,192,97946,1,0,0:0:0:0:
256,192,98035,1,8,0:0:0:0:
256,192,98124,1,0,0:0:0:0:
256,192,98213,1,0,0:0:0:0:
256,192,98303,1,8,0:0:0:0:
256,192,98392,1,8,0:0:0:0:
256,192,98481,1,0,0:0:0:0:
256,192,98660,1,8,0:0:0:0:
256,192,98749,1,0,0:0:0:0:
256,192,98838,1,0,0:0:0:0:
256,192,98928,1,0,0:0:0:0:
256,192,99017,1,8,0:0:0:0:
256,192,99106,1,0,0:0:0:0:
256,192,99196,1,8,0:0:0:0:
256,192,99285,1,8,0:0:0:0:
256,192,99374,1,8,0:0:0:0:
256,192,99463,1,0,0:0:0:0:
256,192,99553,1,8,0:0:0:0:
256,192,99642,1,8,0:0:0:0:
256,192,99731,1,0,0:0:0:0:
256,192,99910,1,12,0:0:0:0:
256,192,100088,1,0,0:0:0:0:
256,192,100178,1,8,0:0:0:0:
256,192,100267,1,0,0:0:0:0:
256,192,100356,1,8,0:0:0:0:
256,192,100446,1,0,0:0:0:0:
256,192,100535,1,0,0:0:0:0:
256,192,100624,1,8,0:0:0:0:
256,192,100803,1,8,0:0:0:0:
256,192,100892,1,0,0:0:0:0:
256,192,100981,1,8,0:0:0:0:
256,192,101071,1,8,0:0:0:0:
256,192,101160,1,0,0:0:0:0:
256,192,101249,1,0,0:0:0:0:
256,192,101338,1,8,0:0:0:0:
256,192,101517,1,0,0:0:0:0:
256,192,101606,1,0,0:0:0:0:
256,192,101696,1,8,0:0:0:0:
256,192,101785,1,8,0:0:0:0:
256,192,101874,1,0,0:0:0:0:
256,192,101963,1,0,0:0:0:0:
256,192,102053,1,8,0:0:0:0:
256,192,102142,1,0,0:0:0:0:
256,192,102231,1,8,0:0:0:0:
256,192,102321,1,8,0:0:0:0:
256,192,102410,1,0,0:0:0:0:
256,192,102499,1,0,0:0:0:0:
256,192,102588,1,8,0:0:0:0:
256,192,102767,1,12,0:0:0:0:
256,192,102946,1,0,0:0:0:0:
256,192,103035,1,0,0:0:0:0:
256,192,103124,1,8,0:0:0:0:
256,192,103213,1,8,0:0:0:0:
256,192,103303,1,0,0:0:0:0:
256,192,103481,1,8,0:0:0:0:
256,192,103571,1,0,0:0:0:0:
256,192,103660,1,0,0:0:0:0:
256,192,103749,1,8,0:0:0:0:
256,192,103838,1,0,0:0:0:0:
256,192,103928,1,0,0:0:0:0:
256,192,104017,1,8,0:0:0:0:
256,192,104196,1,8,0:0:0:0:
256,192,104285,1,8,0:0:0:0:
256,192,104374,1,0,0:0:0:0:
256,192,104463,1,0,0:0:0:0:
256,192,104553,1,8,0:0:0:0:
256,192,104642,1,0,0:0:0:0:
256,192,104731,1,0,0:0:0:0:
256,192,104821,1,0,0:0:0:0:
256,192,104910,1,8,0:0:0:0:
256,192,104999,1,8,0:0:0:0:
256,192,105088,1,0,0:0:0:0:
256,192,105178,1,0,0:0:0:0:
256,192,105267,1,0,0:0:0:0:
256,192,105356,1,8,0:0:0:0:
256,192,105446,1,8,0:0:0:0:
256,192,105535,1,8,0:0:0:0:
256,192,105624,1,0,0:0:0:0:
256,192,105803,1,8,0:0:0:0:
256,192,105981,1,0,0:0:0:0:
256,192,106071,1,0,0:0:0:0:
256,192,106160,1,8,0:0:0:0:
256,192,106338,1,0,0:0:0:0:
256,192,106517,1,8,0:0:0:0:
256,192,106606,1,8,0:0:0:0:
256,192,106696,1,0,0:0:0:0:
256,192,106785,1,0,0:0:0:0:
256,192,106874,1,8,0:0:0:0:
256,192,107053,1,0,0:0:0:0:
256,192,107231,1,8,0:0:0:0:
256,192,107410,1,0,0:0:0:0:
256,192,107499,1,0,0:0:0:0:
256,192,107588,1,8,0:0:0:0:
256,192,107767,1,8,0:0:0:0:
256,192,107856,1,0,0:0:0:0:
256,192,107946,1,8,0:0:0:0:
256,192,108035,1,8,0:0:0:0:
256,192,108124,1,0,0:0:0:0:
256,192,108213,1,8,0:0:0:0:
256,192,108303,1,0,0:0:0:0:
256,192,108481,1,0,0:0:0:0:
256,192,108660,1,8,0:0:0:0:
256,192,108838,1,0,0:0:0:0:
256,192,108928,1,0,0:0:0:0:
256,192,109017,1,8,0:0:0:0:
256,192,109196,1,0,0:0:0:0:
256,192,109374,1,8,0:0:0:0:
256,192,109463,1,0,0:0:0:0:
256,192,109642,1,0,0:0:0:0:
256,192,109731,1,8,0:0:0:0:
256,192,109910,1,0,0:0:0:0:
256,192,110088,1,8,0:0:0:0:
256,192,110178,1,0,0:0:0:0:
256,192,110267,1,0,0:0:0:0:
256,192,110356,1,0,0:0:0:0:
256,192,110446,1,8,0:0:0:0:
256,192,110535,1,8,0:0:0:0:
256,192,110624,1,0,0:0:0:0:
256,192,110803,1,8,0:0:0:0:
256,192,110892,1,8,0:0:0:0:
256,192,110981,1,0,0:0:0:0:
256,192,111071,1,0,0:0:0:0:
256,192,111160,1,8,0:0:0:0:
256,192,111249,1,8,0:0:0:0:
256,192,111338,1,0,0:0:0:0:
256,192,111517,1,8,0:0:0:0:
256,192,111696,1,0,0:0:0:0:
256,192,111785,1,0,0:0:0:0:
256,192,111874,1,8,0:0:0:0:
256,192,112053,1,0,0:0:0:0:
256,192,112231,1,8,0:0:0:0:
256,192,112321,1,8,0:0:0:0:
256,192,112410,1,0,0:0:0:0:
256,192,112499,1,8,0:0:0:0:
256,192,112588,1,8,0:0:0:0:
256,192,112767,1,0,0:0:0:0:
256,192,112946,1,8,0:0:0:0:
256,192,113035,1,8,0:0:0:0:
256,192,113124,1,0,0:0:0:0:
256,192,113213,1,0,0:0:0:0:
256,192,113303,1,8,0:0:0:0:
256,192,113481,1,0,0:0:0:0:
256,192,113571,1,8,0:0:0:0:
256,192,113660,1,0,0:0:0:0:
256,192,113749,1,0,0:0:0:0:
256,192,113838,1,8,0:0:0:0:
256,192,113928,1,8,0:0:0:0:
256,192,114017,1,0,0:0:0:0:
256,192,114196,1,0,0:0:0:0:
256,192,114374,1,8,0:0:0:0:
256,192,114553,1,0,0:0:0:0:
256,192,114642,1,0,0:0:0:0:
256,192,114731,1,8,0:0:0:0:
256,192,114821,1,8,0:0:0:0:
256,192,114910,1,0,0:0:0:0:
256,192,115088,1,8,0:0:0:0:
256,192,115267,1,0,0:0:0:0:
256,192,115446,1,8,0:0:0:0:
256,192,115535,1,8,0:0:0:0:
256,192,115624,1,0,0:0:0:0:
256,192,115803,1,8,0:0:0:0:
256,192,115892,1,8,0:0:0:0:
256,192,115981,1,0,0:0:0:0:
256,192,116071,1,8,0:0:0:0:
256,192,116160,1,0,0:0:0:0:
256,192,116249,1,0,0:0:0:0:
256,192,116338,1,8,0:0:0:0:
256,192,116517,1,4,0:0:0:0:
256,192,116696,1,4,0:0:0:0:
256,192,116874,1,4,0:0:0:0:
256,192,117053,1,12,0:0:0:0:
256,192,117231,1,0,0:0:0:0:
256,192,117321,1,0,0:0:0:0:
256,192,117499,1,0,0:0:0:0:
256,192,117588,1,0,0:0:0:0:
256,192,117678,1,0,0:0:0:0:
256,192,117767,1,8,0:0:0:0:
256,192,118124,1,0,0:0:0:0:
256,192,118303,1,8,0:0:0:0:
256,192,118660,1,0,0:0:0:0:
256,192,118838,1,8,0:0:0:0:
256,192,118928,1,0,0:0:0:0:
256,192,119106,1,0,0:0:0:0:
256,192,119196,1,8,0:0:0:0:
256,192,119553,1,0,0:0:0:0:
256,192,119731,1,8,0:0:0:0:
256,192,119910,1,0,0:0:0:0:
256,192,119999,1,0,0:0:0:0:
256,192,120088,1,0,0:0:0:0:
256,192,120178,1,0,0:0:0:0:
256,192,120267,1,8,0:0:0:0:
256,192,120356,1,0,0:0:0:0:
256,192,120446,1,0,0:0:0:0:
256,192,120535,1,0,0:0:0:0:
256,192,120624,1,8,0:0:0:0:
256,192,120981,1,0,0:0:0:0:
256,192,121160,1,8,0:0:0:0:
256,192,121517,1,0,0:0:0:0:
256,192,121696,1,8,0:0:0:0:
256,192,121785,1,0,0:0:0:0:
256,192,121963,1,0,0:0:0:0:
256,192,122053,1,8,0:0:0:0:
256,192,122321,1,8,0:0:0:0:
256,192,122410,1,0,0:0:0:0:
256,192,122499,1,0,0:0:0:0:
256,192,122588,1,0,0:0:0:0:
256,192,122678,1,0,0:0:0:0:
256,192,122767,1,8,0:0:0:0:
256,192,122946,1,0,0:0:0:0:
256,192,123035,1,0,0:0:0:0:
256,192,123213,1,0,0:0:0:0:
256,192,123392,1,0,0:0:0:0:
256,192,123481,1,8,0:0:0:0:
256,192,123838,1,0,0:0:0:0:
256,192,124017,1,8,0:0:0:0:
256,192,124374,1,0,0:0:0:0:
256,192,124553,1,8,0:0:0:0:
256,192,124642,1,0,0:0:0:0:
256,192,124821,1,0,0:0:0:0:
256,192,124910,1,8,0:0:0:0:
256,192,125267,1,0,0:0:0:0:
256,192,125446,1,8,0:0:0:0:
256,192,125624,1,0,0:0:0:0:
256,192,125713,1,0,0:0:0:0:
256,192,125803,1,0,0:0:0:0:
256,192,125892,1,0,0:0:0:0:
256,192,125981,1,8,0:0:0:0:
256,192,126071,1,0,0:0:0:0:
256,192,126160,1,0,0:0:0:0:
256,192,126249,1,0,0:0:0:0:
256,192,126338,1,8,0:0:0:0:
256,192,126696,1,0,0:0:0:0:
256,192,126874,1,8,0:0:0:0:
256,192,127053,1,0,0:0:0:0:
256,192,127231,1,8,0:0:0:0:
256,192,127321,1,8,0:0:0:0:
256,192,127410,1,0,0:0:0:0:
256,192,127499,1,0,0:0:0:0:
256,192,127588,1,8,0:0:0:0:
256,192,127678,1,0,0:0:0:0:
256,192,127767,1,8,0:0:0:0:
256,192,127856,1,8,0:0:0:0:
256,192,127946,1,0,0:0:0:0:
256,192,128035,1,0,0:0:0:0:
256,192,128124,1,8,0:0:0:0:
256,192,128213,1,8,0:0:0:0:
256,192,128303,1,8,0:0:0:0:
256,192,128392,1,8,0:0:0:0:
256,192,128660,1,12,0:0:0:0:
256,192,128838,1,0,0:0:0:0:
256,192,128928,1,0,0:0:0:0:
256,192,129017,1,8,0:0:0:0:
256,192,129196,1,0,0:0:0:0:
256,192,129374,1,8,0:0:0:0:
256,192,129463,1,8,0:0:0:0:
256,192,129553,1,0,0:0:0:0:
256,192,129642,1,0,0:0:0:0:
256,192,129731,1,8,0:0:0:0:
256,192,129910,1,0,0:0:0:0:
256,192,130088,1,8,0:0:0:0:
256,192,130178,1,8,0:0:0:0:
256,192,130267,1,0,0:0:0:0:
256,192,130446,1,8,0:0:0:0:
256,192,130624,1,0,0:0:0:0:
256,192,130803,1,0,0:0:0:0:
256,192,130892,1,8,0:0:0:0:
256,192,130981,1,0,0:0:0:0:
256,192,131071,1,0,0:0:0:0:
256,192,131160,1,8,0:0:0:0:
256,192,131338,1,0,0:0:0:0:
256,192,131517,1,8,0:0:0:0:
256,192,131696,1,0,0:0:0:0:
256,192,131785,1,0,0:0:0:0:
256,192,131874,1,8,0:0:0:0:
256,192,132053,1,0,0:0:0:0:
256,192,132231,1,8,0:0:0:0:
256,192,132321,1,0,0:0:0:0:
256,192,132499,1,0,0:0:0:0:
256,192,132588,1,8,0:0:0:0:
256,192,132767,1,0,0:0:0:0:
256,192,132946,1,8,0:0:0:0:
256,192,133035,1,8,0:0:0:0:
256,192,133124,1,0,0:0:0:0:
256,192,133213,1,0,0:0:0:0:
256,192,133303,1,8,0:0:0:0:
256,192,133481,1,0,0:0:0:0:
256,192,133660,1,0,0:0:0:0:
256,192,133749,1,8,0:0:0:0:
256,192,133838,1,0,0:0:0:0:
256,192,133928,1,0,0:0:0:0:
256,192,134017,1,8,0:0:0:0:
256,192,134106,1,8,0:0:0:0:
256,192,134196,1,0,0:0:0:0:
256,192,134374,1,8,0:0:0:0:
256,192,134553,1,0,0:0:0:0:
256,192,134642,1,0,0:0:0:0:
256,192,134731,1,8,0:0:0:0:
256,192,134910,1,0,0:0:0:0:
256,192,135088,1,8,0:0:0:0:
256,192,135178,1,0,0:0:0:0:
256,192,135356,1,0,0:0:0:0:
256,192,135446,1,8,0:0:0:0:
256,192,135624,1,0,0:0:0:0:
256,192,135803,1,8,0:0:0:0:
256,192,135981,1,0,0:0:0:0:
256,192,136071,1,0,0:0:0:0:
256,192,136160,1,8,0:0:0:0:
256,192,136338,1,0,0:0:0:0:
256,192,136428,1,0,0:0:0:0:
256,192,136517,1,8,0:0:0:0:
256,192,136606,1,0,0:0:0:0:
256,192,136785,1,0,0:0:0:0:
256,192,136874,1,8,0:0:0:0:
256,192,137053,1,0,0:0:0:0:
256,192,137231,1,8,0:0:0:0:
256,192,137321,1,0,0:0:0:0:
256,192,137410,1,0,0:0:0:0:
256,192,137499,1,0,0:0:0:0:
256,192,137588,1,8,0:0:0:0:
256,192,137678,1,8,0:0:0:0:
256,192,137767,1,0,0:0:0:0:
256,192,137856,1,0,0:0:0:0:
256,192,137946,1,8,0:0:0:0:
256,192,138035,1,0,0:0:0:0:
256,192,138124,1,0,0:0:0:0:
256,192,138213,1,0,0:0:0:0:
256,192,138303,1,8,0:0:0:0:
256,192,138392,1,0,0:0:0:0:
256,192,138481,1,8,0:0:0:0:
256,192,138571,1,0,0:0:0:0:
256,192,138660,1,0,0:0:0:0:
256,192,138749,1,8,0:0:0:0:
256,192,138838,1,0,0:0:0:0:
256,192,138928,1,0,0:0:0:0:
256,192,139017,1,8,0:0:0:0:
256,192,139106,1,0,0:0:0:0:
256,192,139196,1,8,0:0:0:0:
256,192,139285,1,0,0:0:0:0:
256,192,139374,1,0,0:0:0:0:
256,192,139463,1,8,0:0:0:0:
256,192,139553,1,0,0:0:0:0:
256,192,139642,1,0,0:0:0:0:
256,192,139731,1,8,0:0:0:0:
256,192,139821,1,0,0:0:0:0:
256,192,139910,1,8,0:0:0:0:
256,192,139999,1,8,0:0:0:0:
256,192,140088,1,0,0:0:0:0:
256,192,140178,1,0,0:0:0:0:
256,192,140267,1,0,0:0:0:0:
256,192,140356,1,0,0:0:0:0:
256,192,140446,1,8,0:0:0:0:
256,192,140535,1,8,0:0:0:0:
256,192,140624,1,0,0:0:0:0:
256,192,141338,1,12,0:0:0:0:
256,192,141517,1,0,0:0:0:0:
256,192,141606,1,8,0:0:0:0:
256,192,141696,1,0,0:0:0:0:
256,192,141785,1,0,0:0:0:0:
256,192,141874,1,8,0:0:0:0:
256,192,142053,1,12,0:0:0:0:
256,192,142231,1,8,0:0:0:0:
256,192,142321,1,8,0:0:0:0:
256,192,142410,1,0,0:0:0:0:
256,192,142499,1,0,0:0:0:0:
256,192,142588,1,0,0:0:0:0:
256,192,142767,1,12,0:0:0:0:
256,192,142946,1,8,0:0:0:0:
256,192,143035,1,8,0:0:0:0:
256,192,143124,1,0,0:0:0:0:
256,192,143213,1,0,0:0:0:0:
256,192,143303,1,8,0:0:0:0:
256,192,143392,1,0,0:0:0:0:
256,192,143571,1,0,0:0:0:0:
256,192,143660,1,8,0:0:0:0:
256,192,143838,1,8,0:0:0:0:
256,192,143928,1,8,0:0:0:0:
256,192,144017,1,0,0:0:0:0:
256,192,144106,1,0,0:0:0:0:
256,192,144196,1,8,0:0:0:0:
256,192,144374,1,0,0:0:0:0:
256,192,144463,1,0,0:0:0:0:
256,192,144553,1,8,0:0:0:0:
256,192,144731,1,8,0:0:0:0:
256,192,144821,1,8,0:0:0:0:
256,192,144910,1,0,0:0:0:0:
256,192,145088,1,8,0:0:0:0:
256,192,145178,1,0,0:0:0:0:
256,192,145267,1,8,0:0:0:0:
256,192,145356,1,8,0:0:0:0:
256,192,145446,1,0,0:0:0:0:
256,192,145624,1,8,0:0:0:0:
256,192,145713,1,0,0:0:0:0:
256,192,145803,1,0,0:0:0:0:
256,192,145892,1,8,0:0:0:0:
256,192,146071,1,0,0:0:0:0:
256,192,146160,1,8,0:0:0:0:
256,192,146338,1,0,0:0:0:0:
256,192,146428,1,8,0:0:0:0:
256,192,146517,1,8,0:0:0:0:
256,192,146606,1,8,0:0:0:0:
256,192,146696,1,0,0:0:0:0:
256,192,146785,1,0,0:0:0:0:
256,192,146874,1,8,0:0:0:0:
256,192,146963,1,0,0:0:0:0:
256,192,147053,1,0,0:0:0:0:
256,192,147231,1,8,0:0:0:0:
256,192,147321,1,8,0:0:0:0:
256,192,147410,1,0,0:0:0:0:
256,192,147499,1,0,0:0:0:0:
256,192,147588,1,8,0:0:0:0:
256,192,147767,1,0,0:0:0:0:
256,192,147946,1,8,0:0:0:0:
256,192,148035,1,0,0:0:0:0:
256,192,148213,1,0,0:0:0:0:
256,192,148303,1,8,0:0:0:0:
256,192,148481,1,0,0:0:0:0:
256,192,148571,1,0,0:0:0:0:
256,192,148660,1,8,0:0:0:0:
256,192,148749,1,0,0:0:0:0:
256,192,148928,1,0,0:0:0:0:
256,192,149017,1,8,0:0:0:0:
256,192,149196,1,0,0:0:0:0:
256,192,149285,1,0,0:0:0:0:
256,192,149374,1,8,0:0:0:0:
256,192,149463,1,8,0:0:0:0:
256,192,149553,1,0,0:0:0:0:
256,192,149731,1,8,0:0:0:0:
256,192,149910,1,4,0:0:0:0:
256,192,150088,1,8,0:0:0:0:
256,192,150178,1,8,0:0:0:0:
256,192,150267,1,0,0:0:0:0:
256,192,150356,1,0,0:0:0:0:
256,192,150446,1,8,0:0:0:0:
256,192,150624,1,4,0:0:0:0:
256,192,150803,1,8,0:0:0:0:
256,192,150892,1,8,0:0:0:0:
256,192,150981,1,0,0:0:0:0:
256,192,151071,1,8,0:0:0:0:
256,192,151160,1,0,0:0:0:0:
256,192,151338,1,12,0:0:0:0:
256,192,151517,1,8,0:0:0:0:
256,192,151606,1,8,0:0:0:0:
256,192,151696,1,0,0:0:0:0:
256,192,151874,1,8,0:0:0:0:
256,192,151963,1,8,0:0:0:0:
256,192,152053,1,0,0:0:0:0:
256,192,152231,1,8,0:0:0:0:
256,192,152321,1,8,0:0:0:0:
256,192,152410,1,0,0:0:0:0:
256,192,152499,1,0,0:0:0:0:
256,192,152588,1,0,0:0:0:0:
256,192,152767,1,12,0:0:0:0:
256,192,152946,1,0,0:0:0:0:
256,192,153035,1,8,0:0:0:0:
256,192,153124,1,0,0:0:0:0:
256,192,153213,1,0,0:0:0:0:
256,192,153303,1,8,0:0:0:0:
256,192,153481,1,12,0:0:0:0:
256,192,153660,1,8,0:0:0:0:
256,192,153749,1,8,0:0:0:0:
256,192,153838,1,0,0:0:0:0:
256,192,153928,1,0,0:0:0:0:
256,192,154017,1,0,0:0:0:0:
256,192,154196,1,12,0:0:0:0:
256,192,154374,1,8,0:0:0:0:
256,192,154463,1,8,0:0:0:0:
256,192,154553,1,0,0:0:0:0:
256,192,154642,1,0,0:0:0:0:
256,192,154731,1,8,0:0:0:0:
256,192,154821,1,0,0:0:0:0:
256,192,154999,1,0,0:0:0:0:
256,192,155088,1,8,0:0:0:0:
256,192,155267,1,8,0:0:0:0:
256,192,155356,1,8,0:0:0:0:
256,192,155446,1,0,0:0:0:0:
256,192,155535,1,0,0:0:0:0:
256,192,155624,1,8,0:0:0:0:
256,192,155803,1,0,0:0:0:0:
256,192,155892,1,0,0:0:0:0:
256,192,155981,1,8,0:0:0:0:
256,192,156160,1,8,0:0:0:0:
256,192,156249,1,8,0:0:0:0:
256,192,156338,1,0,0:0:0:0:
256,192,156517,1,8,0:0:0:0:
256,192,156606,1,0,0:0:0:0:
256,192,156696,1,8,0:0:0:0:
256,192,156785,1,8,0:0:0:0:
256,192,156874,1,0,0:0:0:0:
256,192,157053,1,8,0:0:0:0:
256,192,157142,1,0,0:0:0:0:
256,192,157231,1,0,0:0:0:0:
256,192,157321,1,8,0:0:0:0:
256,192,157499,1,0,0:0:0:0:
256,192,157588,1,8,0:0:0:0:
256,192,157767,1,0,0:0:0:0:
256,192,157856,1,8,0:0:0:0:
256,192,157946,1,8,0:0:0:0:
256,192,158035,1,8,0:0:0:0:
256,192,158124,1,0,0:0:0:0:
256,192,158213,1,0,0:0:0:0:
256,192,158303,1,8,0:0:0:0:
256,192,158392,1,0,0:0:0:0:
256,192,158481,1,0,0:0:0:0:
256,192,158660,1,8,0:0:0:0:
256,192,158749,1,8,0:0:0:0:
256,192,158838,1,0,0:0:0:0:
256,192,158928,1,0,0:0:0:0:
256,192,159017,1,8,0:0:0:0:
256,192,159196,1,0,0:0:0:0:
256,192,159374,1,8,0:0:0:0:
256,192,159463,1,0,0:0:0:0:
256,192,159642,1,0,0:0:0:0:
256,192,159731,1,8,0:0:0:0:
256,192,159910,1,0,0:0:0:0:
256,192,159999,1,0,0:0:0:0:
256,192,160088,1,8,0:0:0:0:
256,192,160178,1,0,0:0:0:0:
256,192,160356,1,0,0:0:0:0:
256,192,160446,1,8,0:0:0:0:
256,192,160624,1,0,0:0:0:0:
256,192,160713,1,0,0:0:0:0:
256,192,160803,1,8,0:0:0:0:
256,192,160892,1,8,0:0:0:0:
256,192,160981,1,0,0:0:0:0:
256,192,161160,1,8,0:0:0:0:
256,192,161338,1,4,0:0:0:0:
256,192,161517,1,8,0:0:0:0:
256,192,161606,1,8,0:0:0:0:
256,192,161696,1,0,0:0:0:0:
256,192,161785,1,0,0:0:0:0:
256,192,161874,1,8,0:0:0:0:
256,192,162053,1,4,0:0:0:0:
256,192,162231,1,8,0:0:0:0:
256,192,162321,1,8,0:0:0:0:
256,192,162410,1,0,0:0:0:0:
256,192,162499,1,8,0:0:0:0:
256,192,162588,1,0,0:0:0:0:
256,192,162767,1,12,0:0:0:0:
256,192,162946,1,8,0:0:0:0:
256,192,163035,1,8,0:0:0:0:
256,192,163124,1,0,0:0:0:0:
256,192,163303,1,8,0:0:0:0:
256,192,163392,1,8,0:0:0:0:
256,192,163481,1,0,0:0:0:0:
256,192,163660,1,8,0:0:0:0:
256,192,163749,1,8,0:0:0:0:
256,192,163838,1,8,0:0:0:0:
256,192,163928,1,8,0:0:0:0:
256,192,164017,1,8,0:0:0:0:
256,192,164196,1,12,0:0:0:0:
256,192,164374,1,0,0:0:0:0:
256,192,164463,1,0,0:0:0:0:
256,192,164553,1,8,0:0:0:0:
256,192,164642,1,8,0:0:0:0:
256,192,164731,1,0,0:0:0:0:
256,192,164910,1,12,0:0:0:0:
256,192,165178,1,12,0:0:0:0:
256,192,165446,1,12,0:0:0:0:
256,192,165803,1,0,0:0:0:0:
256,192,165892,1,0,0:0:0:0:
256,192,165981,1,8,0:0:0:0:
256,192,166071,1,0,0:0:0:0:
256,192,166160,1,0,0:0:0:0:
256,192,166249,1,0,0:0:0:0:
256,192,166338,1,8,0:0:0:0:
256,192,166428,1,8,0:0:0:0:
256,192,166517,1,0,0:0:0:0:
256,192,166606,1,8,0:0:0:0:
256,192,166696,1,0,0:0:0:0:
256,192,166785,1,8,0:0:0:0:
256,192,166874,1,0,0:0:0:0:
256,192,167053,1,12,0:0:0:0:
256,192,167231,1,0,0:0:0:0:
256,192,167321,1,0,0:0:0:0:
256,192,167410,1,8,0:0:0:0:
256,192,167499,1,8,0:0:0:0:
256,192,167588,1,0,0:0:0:0:
256,192,167767,1,12,0:0:0:0:
256,192,168035,1,12,0:0:0:0:
256,192,168303,1,12,0:0:0:0:
256,192,168481,1,0,0:0:0:0:
256,192,168571,1,0,0:0:0:0:
256,192,168660,1,0,0:0:0:0:
256,192,168749,1,0,0:0:0:0:
256,192,168838,1,8,0:0:0:0:
256,192,168928,1,8,0:0:0:0:
256,192,169017,1,0,0:0:0:0:
256,192,169106,1,0,0:0:0:0:
256,192,169196,1,8,0:0:0:0:
256,192,169285,1,0,0:0:0:0:
256,192,169374,1,0,0:0:0:0:
256,192,169463,1,0,0:0:0:0:
256,192,169553,1,8,0:0:0:0:
256,192,169642,1,0,0:0:0:0:
256,192,169731,1,0,0:0:0:0:
256,192,169910,1,12,0:0:0:0:
256,192,170088,1,0,0:0:0:0:
256,192,170178,1,0,0:0:0:0:
256,192,170267,1,8,0:0:0:0:
256,192,170356,1,8,0:0:0:0:
256,192,170446,1,0,0:0:0:0:
256,192,170624,1,12,0:0:0:0:
256,192,170892,1,12,0:0:0:0:
256,192,171160,1,12,0:0:0:0:
256,192,171338,1,0,0:0:0:0:
256,192,171428,1,0,0:0:0:0:
256,192,171517,1,0,0:0:0:0:
256,192,171606,1,8,0:0:0:0:
256,192,171696,1,8,0:0:0:0:
256,192,171785,1,8,0:0:0:0:
256,192,171874,1,0,0:0:0:0:
256,192,171963,1,8,0:0:0:0:
256,192,172053,1,8,0:0:0:0:
256,192,172142,1,8,0:0:0:0:
256,192,172231,1,0,0:0:0:0:
256,192,172321,1,8,0:0:0:0:
256,192,172410,1,8,0:0:0:0:
256,192,172499,1,8,0:0:0:0:
256,192,172588,1,0,0:0:0:0:
256,192,172767,1,12,0:0:0:0:
256,192,172946,1,0,0:0:0:0:
256,192,173035,1,0,0:0:0:0:
256,192,173124,1,8,0:0:0:0:
256,192,173213,1,8,0:0:0:0:
256,192,173303,1,0,0:0:0:0:
256,192,173481,1,12,0:0:0:0:
256,192,173749,1,12,0:0:0:0:
256,192,174017,1,12,0:0:0:0:
256,192,174196,1,0,0:0:0:0:
256,192,174285,1,0,0:0:0:0:
256,192,174374,1,0,0:0:0:0:
256,192,174463,1,0,0:0:0:0:
256,192,174553,1,8,0:0:0:0:
256,192,174642,1,8,0:0:0:0:
256,192,174731,1,0,0:0:0:0:
256,192,174821,1,0,0:0:0:0:
256,192,174910,1,8,0:0:0:0:
256,192,174999,1,0,0:0:0:0:
256,192,175088,1,0,0:0:0:0:
256,192,175178,1,0,0:0:0:0:
256,192,175267,1,8,0:0:0:0:
256,192,175624,1,12,0:0:0:0:
256,192,175803,1,0,0:0:0:0:
256,192,175892,1,0,0:0:0:0:
256,192,175981,1,0,0:0:0:0:
256,192,176071,1,0,0:0:0:0:
256,192,176160,1,8,0:0:0:0:
256,192,176338,1,0,0:0:0:0:
256,192,176428,1,0,0:0:0:0:
256,192,176517,1,8,0:0:0:0:
256,192,176606,1,0,0:0:0:0:
256,192,176696,1,8,0:0:0:0:
256,192,176874,1,0,0:0:0:0:
256,192,177053,1,8,0:0:0:0:
256,192,177142,1,0,0:0:0:0:
256,192,177231,1,8,0:0:0:0:
256,192,177321,1,8,0:0:0:0:
256,192,177410,1,0,0:0:0:0:
256,192,177588,1,0,0:0:0:0:
256,192,177767,1,8,0:0:0:0:
256,192,177856,1,8,0:0:0:0:
256,192,177946,1,0,0:0:0:0:
256,192,178124,1,8,0:0:0:0:
256,192,178303,1,0,0:0:0:0:
256,192,178392,1,0,0:0:0:0:
256,192,178481,1,8,0:0:0:0:
256,192,178660,1,0,0:0:0:0:
256,192,178749,1,0,0:0:0:0:
256,192,178838,1,0,0:0:0:0:
256,192,179017,1,8,0:0:0:0:
256,192,179196,1,0,0:0:0:0:
256,192,179374,1,0,0:0:0:0:
256,192,179463,1,0,0:0:0:0:
256,192,179553,1,8,0:0:0:0:
256,192,179642,1,8,0:0:0:0:
256,192,179731,1,0,0:0:0:0:
256,192,179910,1,0,0:0:0:0:
256,192,180088,1,8,0:0:0:0:
256,192,180178,1,8,0:0:0:0:
256,192,180267,1,0,0:0:0:0:
256,192,180446,1,8,0:0:0:0:
256,192,180624,1,0,0:0:0:0:
256,192,180713,1,0,0:0:0:0:
256,192,180803,1,8,0:0:0:0:
256,192,180981,1,0,0:0:0:0:
256,192,181071,1,0,0:0:0:0:
256,192,181160,1,8,0:0:0:0:
256,192,181338,1,8,0:0:0:0:
256,192,181428,1,8,0:0:0:0:
256,192,181517,1,0,0:0:0:0:
256,192,181606,1,0,0:0:0:0:
256,192,181696,1,8,0:0:0:0:
256,192,181785,1,0,0:0:0:0:
256,192,181874,1,8,0:0:0:0:
256,192,181963,1,8,0:0:0:0:
256,192,182053,1,0,0:0:0:0:
256,192,182142,1,0,0:0:0:0:
256,192,182231,1,8,0:0:0:0:
256,192,182321,1,0,0:0:0:0:
256,192,182410,1,8,0:0:0:0:
256,192,182499,1,8,0:0:0:0:
256,192,182588,1,0,0:0:0:0:
256,192,182678,1,0,0:0:0:0:
256,192,182767,1,8,0:0:0:0:
256,192,182856,1,0,0:0:0:0:
256,192,182946,1,8,0:0:0:0:
256,192,183035,1,8,0:0:0:0:
256,192,183124,1,0,0:0:0:0:
256,192,183213,1,0,0:0:0:0:
256,192,183303,1,8,0:0:0:0:
256,192,183392,1,0,0:0:0:0:
256,192,183481,1,8,0:0:0:0:
256,192,183571,1,8,0:0:0:0:
256,192,183660,1,0,0:0:0:0:
256,192,183749,1,8,0:0:0:0:
256,192,183838,1,0,0:0:0:0:
256,192,183928,1,0,0:0:0:0:
256,192,184017,1,8,0:0:0:0:
256,192,184106,1,0,0:0:0:0:
256,192,184196,1,8,0:0:0:0:
256,192,184285,1,8,0:0:0:0:
256,192,184374,1,0,0:0:0:0:
256,192,184463,1,0,0:0:0:0:
256,192,184553,1,8,0:0:0:0:
256,192,184642,1,0,0:0:0:0:
256,192,184731,1,8,0:0:0:0:
256,192,184821,1,8,0:0:0:0:
256,192,184910,1,0,0:0:0:0:
256,192,184999,1,0,0:0:0:0:
256,192,185088,1,8,0:0:0:0:
256,192,185178,1,0,0:0:0:0:
256,192,185267,1,8,0:0:0:0:
256,192,185356,1,8,0:0:0:0:
256,192,185446,1,0,0:0:0:0:
256,192,185535,1,0,0:0:0:0:
256,192,185624,1,8,0:0:0:0:
256,192,185713,1,0,0:0:0:0:
256,192,185803,1,8,0:0:0:0:
256,192,185892,1,8,0:0:0:0:
256,192,185981,1,0,0:0:0:0:
256,192,186071,1,0,0:0:0:0:
256,192,186160,1,8,0:0:0:0:
256,192,186249,1,0,0:0:0:0:
256,192,186338,1,8,0:0:0:0:
256,192,186428,1,8,0:0:0:0:
256,192,186517,1,0,0:0:0:0:
256,192,186606,1,0,0:0:0:0:
256,192,186696,1,8,0:0:0:0:
256,192,186785,1,8,0:0:0:0:
256,192,186874,1,0,0:0:0:0:
256,192,186963,1,0,0:0:0:0:
256,192,187053,1,8,0:0:0:0:
256,192,187231,1,8,0:0:0:0:
256,192,187410,1,0,0:0:0:0:
256,192,187499,1,0,0:0:0:0:
256,192,187588,1,8,0:0:0:0:
256,192,187678,1,0,0:0:0:0:
256,192,187767,1,0,0:0:0:0:
256,192,187856,1,0,0:0:0:0:
256,192,187946,1,8,0:0:0:0:
256,192,188035,1,8,0:0:0:0:
256,192,188124,1,0,0:0:0:0:
256,192,188213,1,0,0:0:0:0:
256,192,188303,1,8,0:0:0:0:
256,192,188481,1,4,0:0:0:0:
256,192,188660,1,8,0:0:0:0:
256,192,188838,1,0,0:0:0:0:
256,192,188928,1,0,0:0:0:0:
256,192,189017,1,8,0:0:0:0:
256,192,189106,1,0,0:0:0:0:
256,192,189196,1,0,0:0:0:0:
256,192,189285,1,0,0:0:0:0:
256,192,189374,1,8,0:0:0:0:
256,192,189463,1,8,0:0:0:0:
256,192,189553,1,8,0:0:0:0:
256,192,189642,1,8,0:0:0:0:
256,192,189731,1,0,0:0:0:0:
256,192,189910,1,4,0:0:0:0:
256,192,190088,1,8,0:0:0:0:
256,192,190178,1,8,0:0:0:0:
256,192,190267,1,0,0:0:0:0:
256,192,190356,1,0,0:0:0:0:
256,192,190446,1,8,0:0:0:0:
256,192,190535,1,0,0:0:0:0:
256,192,190624,1,0,0:0:0:0:
256,192,190713,1,0,0:0:0:0:
256,192,190803,1,8,0:0:0:0:
256,192,190892,1,8,0:0:0:0:
256,192,190981,1,0,0:0:0:0:
256,192,191160,1,0,0:0:0:0:
256,192,191249,1,0,0:0:0:0:
256,192,191338,1,8,0:0:0:0:
256,192,191458,1,8,0:0:0:0:
256,192,191577,1,0,0:0:0:0:
256,192,191696,1,8,0:0:0:0:
256,192,191815,1,8,0:0:0:0:
256,192,191934,1,0,0:0:0:0:
256,192,192053,1,8,0:0:0:0:
160,96,192231,2,0,L|320:96,1,140
256,192,192767,1,8,0:0:0:0:
256,192,192856,1,8,0:0:0:0:
256,192,192946,1,0,0:0:0:0:
256,192,193035,1,0,0:0:0:0:
256,192,193124,1,8,0:0:0:0:
256,192,193213,1,8,0:0:0:0:
256,192,193303,1,0,0:0:0:0:
256,192,193392,1,0,0:0:0:0:
256,192,193481,1,8,0:0:0:0:
256,192,193571,1,0,0:0:0:0:
256,192,193660,1,8,0:0:0:0:
256,192,193749,1,8,0:0:0:0:
256,192,193838,1,0,0:0:0:0:
256,192,193928,1,0,0:0:0:0:
256,192,194017,1,8,0:0:0:0:
256,192,194106,1,8,0:0:0:0:
256,192,194196,1,0,0:0:0:0:
256,192,194285,1,0,0:0:0:0:
256,192,194374,1,8,0:0:0:0:
256,192,194463,1,0,0:0:0:0:
256,192,194553,1,8,0:0:0:0:
256,192,194642,1,8,0:0:0:0:
256,192,194731,1,0,0:0:0:0:
256,192,194821,1,0,0:0:0:0:
256,192,194910,1,8,0:0:0:0:
256,192,195088,1,0,0:0:0:0:
256,192,195178,1,8,0:0:0:0:
256,192,195267,1,0,0:0:0:0:
256,192,195356,1,0,0:0:0:0:
256,192,195446,1,0,0:0:0:0:
256,192,195535,1,0,0:0:0:0:
256,192,195624,1,8,0:0:0:0:
256,192,195803,1,8,0:0:0:0:
256,192,195892,1,0,0:0:0:0:
256,192,196071,1,0,0:0:0:0:
256,192,196160,1,8,0:0:0:0:
256,192,196249,1,0,0:0:0:0:
256,192,196338,1,8,0:0:0:0:
256,192,196517,1,8,0:0:0:0:
256,192,196606,1,0,0:0:0:0:
256,192,196785,1,0,0:0:0:0:
256,192,196874,1,8,0:0:0:0:
256,192,196963,1,8,0:0:0:0:
256,192,197053,1,0,0:0:0:0:
256,192,197231,1,8,0:0:0:0:
256,192,197410,1,0,0:0:0:0:
256,192,197499,1,0,0:0:0:0:
256,192,197588,1,8,0:0:0:0:
256,192,197678,1,0,0:0:0:0:
256,192,197767,1,8,0:0:0:0:
256,192,197856,1,8,0:0:0:0:
256,192,197946,1,0,0:0:0:0:
256,192,198124,1,0,0:0:0:0:
256,192,198303,1,0,0:0:0:0:
256,192,198481,1,12,0:0:0:0:
256,192,198660,1,0,0:0:0:0:
256,192,198749,1,0,0:0:0:0:
256,192,198928,1,0,0:0:0:0:
256,192,199017,1,0,0:0:0:0:
256,192,199106,1,0,0:0:0:0:
256,192,199196,1,8,0:0:0:0:
256,192,199553,1,0,0:0:0:0:
256,192,199731,1,8,0:0:0:0:
256,192,200088,1,0,0:0:0:0:
256,192,200267,1,8,0:0:0:0:
256,192,200356,1,0,0:0:0:0:
256,192,200535,1,0,0:0:0:0:
256,192,200624,1,8,0:0:0:0:
256,192,200981,1,0,0:0:0:0:
256,192,201160,1,8,0:0:0:0:
256,192,201338,1,0,0:0:0:0:
256,192,201428,1,0,0:0:0:0:
256,192,201517,1,0,0:0:0:0:
256,192,201606,1,0,0:0:0:0:
256,192,201696,1,8,0:0:0:0:
256,192,201785,1,0,0:0:0:0:
256,192,201874,1,0,0:0:0:0:
256,192,201963,1,0,0:0:0:0:
256,192,202053,1,8,0:0:0:0:
256,192,202410,1,0,0:0:0:0:
256,192,202588,1,8,0:0:0:0:
256,192,202946,1,0,0:0:0:0:
256,192,203124,1,8,0:0:0:0:
256,192,203213,1,0,0:0:0:0:
256,192,203392,1,0,0:0:0:0:
256,192,203481,1,8,0:0:0:0:
256,192,203749,1,8,0:0:0:0:
256,192,203838,1,0,0:0:0:0:
256,192,203928,1,0,0:0:0:0:
256,192,204017,1,0,0:0:0:0:
256,192,204106,1,0,0:0:0:0:
256,192,204196,1,8,0:0:0:0:
256,192,204374,1,0,0:0:0:0:
256,192,204463,1,0,0:0:0:0:
256,192,204642,1,0,0:0:0:0:
256,192,204821,1,0,0:0:0:0:
256,192,204910,1,8,0:0:0:0:
256,192,205267,1,0,0:0:0:0:
256,192,205446,1,8,0:0:0:0:
256,192,205803,1,0,0:0:0:0:
256,192,205981,1,8,0:0:0:0:
256,192,206071,1,0,0:0:0:0:
256,192,206249,1,0,0:0:0:0:
256,192,206338,1,8,0:0:0:0:
256,192,206696,1,0,0:0:0:0:
256,192,206874,1,8,0:0:0:0:
256,192,207053,1,0,0:0:0:0:
256,192,207142,1,0,0:0:0:0:
256,192,207231,1,0,0:0:0:0:
256,192,207321,1,0,0:0:0:0:
256,192,207410,1,8,0:0:0:0:
256,192,207499,1,0,0:0:0:0:
256,192,207588,1,0,0:0:0:0:
256,192,207678,1,0,0:0:0:0:
256,192,207767,1,8,0:0:0:0:
256,192,208124,1,0,0:0:0:0:
256,192,208303,1,8,0:0:0:0:
256,192,208481,1,8,0:0:0:0:
256,192,208571,1,8,0:0:0:0:
256,192,208660,1,8,0:0:0:0:
256,192,208749,1,8,0:0:0:0:
256,192,208838,1,8,0:0:0:0:
256,192,208928,1,8,0:0:0:0:
256,192,209017,1,8,0:0:0:0:
256,192,209106,1,8,0:0:0:0:
256,192,209196,1,0,0:0:0:0:
256,192,209285,1,0,0:0:0:0:
256,192,209374,1,0,0:0:0:0:
256,192,209463,1,0,0:0:0:0:
256,192,209553,1,8,0:0:0:0:
256,192,209642,1,8,0:0:0:0:
256,192,209731,1,0,0:0:0:0:
256,192,209910,1,4,0:0:0:0:
256,192,210088,1,8,0:0:0:0:
256,192,210267,1,0,0:0:0:0:
256,192,210356,1,0,0:0:0:0:
256,192,210446,1,8,0:0:0:0:
256,192,210624,1,0,0:0:0:0:
256,192,210803,1,8,0:0:0:0:
256,192,210892,1,8,0:0:0:0:
256,192,210981,1,0,0:0:0:0:
256,192,211071,1,0,0:0:0:0:
256,192,211160,1,8,0:0:0:0:
256,192,211338,1,0,0:0:0:0:
256,192,211517,1,8,0:0:0:0:
256,192,211606,1,8,0:0:0:0:
256,192,211696,1,0,0:0:0:0:
256,192,211874,1,8,0:0:0:0:
256,192,212053,1,0,0:0:0:0:
256,192,212231,1,0,0:0:0:0:
256,192,212321,1,8,0:0:0:0:
256,192,212410,1,0,0:0:0:0:
256,192,212499,1,0,0:0:0:0:
256,192,212588,1,8,0:0:0:0:
256,192,212767,1,0,0:0:0:0:
256,192,212946,1,8,0:0:0:0:
256,192,213124,1,0,0:0:0:0:
256,192,213213,1,0,0:0:0:0:
256,192,213303,1,8,0:0:0:0:
256,192,213481,1,0,0:0:0:0:
256,192,213660,1,8,0:0:0:0:
256,192,213749,1,0,0:0:0:0:
256,192,213928,1,0,0:0:0:0:
256,192,214017,1,8,0:0:0:0:
256,192,214196,1,0,0:0:0:0:
256,192,214374,1,8,0:0:0:0:
256,192,214463,1,8,0:0:0:0:
256,192,214553,1,0,0:0:0:0:
256,192,214642,1,0,0:0:0:0:
256,192,214731,1,8,0:0:0:0:
256,192,214910,1,0,0:0:0:0:
256,192,215088,1,0,0:0:0:0:
256,192,215178,1,8,0:0:0:0:
256,192,215267,1,0,0:0:0:0:
256,192,215356,1,0,0:0:0:0:
256,192,215446,1,8,0:0:0:0:
256,192,215535,1,8,0:0:0:0:
256,192,215624,1,0,0:0:0:0:
256,192,215803,1,8,0:0:0:0:
256,192,215981,1,0,0:0:0:0:
256,192,216071,1,0,0:0:0:0:
256,192,216160,1,8,0:0:0:0:
256,192,216338,1,0,0:0:0:0:
256,192,216517,1,8,0:0:0:0:
256,192,216606,1,0,0:0:0:0:
256,192,216785,1,0,0:0:0:0:
256,192,216874,1,8,0:0:0:0:
256,192,217053,1,0,0:0:0:0:
256,192,217231,1,8,0:0:0:0:
256,192,217410,1,0,0:0:0:0:
256,192,217499,1,0,0:0:0:0:
256,192,217588,1,8,0:0:0:0:
256,192,217767,1,0,0:0:0:0:
256,192,217856,1,0,0:0:0:0:
256,192,217946,1,8,0:0:0:0:
256,192,218035,1,0,0:0:0:0:
256,192,218213,1,0,0:0:0:0:
256,192,218303,1,8,0:0:0:0:
256,192,218481,1,0,0:0:0:0:
256,192,218660,1,8,0:0:0:0:
256,192,218749,1,0,0:0:0:0:
256,192,218838,1,0,0:0:0:0:
256,192,218928,1,0,0:0:0:0:
256,192,219017,1,8,0:0:0:0:
256,192,219106,1,8,0:0:0:0:
256,192,219196,1,0,0:0:0:0:
256,192,219285,1,0,0:0:0:0:
256,192,219374,1,8,0:0:0:0:
256,192,219463,1,0,0:0:0:0:
256,192,219553,1,0,0:0:0:0:
256,192,219642,1,0,0:0:0:0:
256,192,219731,1,8,0:0:0:0:
256,192,219821,1,0,0:0:0:0:
256,192,219910,1,8,0:0:0:0:
256,192,219999,1,0,0:0:0:0:
256,192,220088,1,0,0:0:0:0:
256,192,220178,1,8,0:0:0:0:
256,192,220267,1,0,0:0:0:0:
256,192,220356,1,0,0:0:0:0:
256,192,220446,1,8,0:0:0:0:
256,192,220535,1,0,0:0:0:0:
256,192,220624,1,8,0:0:0:0:
256,192,220713,1,0,0:0:0:0:
256,192,220803,1,0,0:0:0:0:
256,192,220892,1,8,0:0:0:0:
256,192,220981,1,0,0:0:0:0:
256,192,221071,1,0,0:0:0:0:
256,192,221160,1,8,0:0:0:0:
256,192,221249,1,0,0:0:0:0:
256,192,221338,1,8,0:0:0:0:
256,192,221428,1,8,0:0:0:0:
256,192,221517,1,0,0:0:0:0:
256,192,221606,1,0,0:0:0:0:
256,192,221696,1,0,0:0:0:0:
256,192,221785,1,0,0:0:0:0:
256,192,221874,1,8,0:0:0:0:
256,192,221963,1,8,0:0:0:0:
256,192,222053,1,0,0:0:0:0:
256,192,222767,1,12,0:0:0:0:
256,192,222946,1,0,0:0:0:0:
256,192,223035,1,8,0:0:0:0:
256,192,223124,1,0,0:0:0:0:
256,192,223213,1,0,0:0:0:0:
256,192,223303,1,8,0:0:0:0:
256,192,223481,1,12,0:0:0:0:
256,192,223660,1,8,0:0:0:0:
256,192,223749,1,8,0:0:0:0:
256,192,223838,1,0,0:0:0:0:
256,192,223928,1,0,0:0:0:0:
256,192,224017,1,0,0:0:0:0:
256,192,224196,1,12,0:0:0:0:
256,192,224374,1,8,0:0:0:0:
256,192,224463,1,8,0:0:0:0:
256,192,224553,1,0,0:0:0:0:
256,192,224642,1,0,0:0:0:0:
256,192,224731,1,8,0:0:0:0:
256,192,224821,1,0,0:0:0:0:
256,192,224999,1,0,0:0:0:0:
256,192,225088,1,8,0:0:0:0:
256,192,225267,1,8,0:0:0:0:
256,192,225356,1,8,0:0:0:0:
256,192,225446,1,0,0:0:0:0:
256,192,225535,1,0,0:0:0:0:
256,192,225624,1,8,0:0:0:0:
256,192,225803,1,0,0:0:0:0:
256,192,225892,1,0,0:0:0:0:
256,192,225981,1,8,0:0:0:0:
256,192,226160,1,8,0:0:0:0:
256,192,226249,1,8,0:0:0:0:
256,192,226338,1,0,0:0:0:0:
256,192,226517,1,8,0:0:0:0:
256,192,226606,1,0,0:0:0:0:
256,192,226696,1,8,0:0:0:0:
256,192,226785,1,8,0:0:0:0:
256,192,226874,1,0,0:0:0:0:
256,192,227053,1,8,0:0:0:0:
256,192,227142,1,0,0:0:0:0:
256,192,227231,1,0,0:0:0:0:
256,192,227321,1,8,0:0:0:0:
256,192,227499,1,0,0:0:0:0:
256,192,227588,1,8,0:0:0:0:
256,192,227767,1,0,0:0:0:0:
256,192,227856,1,8,0:0:0:0:
256,192,227946,1,8,0:0:0:0:
256,192,228035,1,8,0:0:0:0:
256,192,228124,1,0,0:0:0:0:
256,192,228213,1,0,0:0:0:0:
256,192,228303,1,8,0:0:0:0:
256,192,228392,1,0,0:0:0:0:
256,192,228481,1,0,0:0:0:0:
256,192,228660,1,8,0:0:0:0:
256,192,228749,1,8,0:0:0:0:
256,192,228838,1,0,0:0:0:0:
256,192,228928,1,0,0:0:0:0:
256,192,229017,1,8,0:0:0:0:
256,192,229196,1,0,0:0:0:0:
256,192,229374,1,8,0:0:0:0:
256,192,229463,1,0,0:0:0:0:
256,192,229642,1,0,0:0:0:0:
256,192,229731,1,8,0:0:0:0:
256,192,229910,1,0,0:0:0:0:
256,192,229999,1,0,0:0:0:0:
256,192,230088,1,8,0:0:0:0:
256,192,230178,1,0,0:0:0:0:
256,192,230356,1,0,0:0:0:0:
256,192,230446,1,8,0:0:0:0:
256,192,230624,1,0,0:0:0:0:
256,192,230713,1,0,0:0:0:0:
256,192,230803,1,8,0:0:0:0:
256,192,230892,1,8,0:0:0:0:
256,192,230981,1,0,0:0:0:0:
256,192,231160,1,8,0:0:0:0:
256,192,231338,1,4,0:0:0:0:
256,192,231517,1,8,0:0:0:0:
256,192,231606,1,8,0:0:0:0:
256,192,231696,1,0,0:0:0:0:
256,192,231785,1,0,0:0:0:0:
256,192,231874,1,8,0:0:0:0:
256,192,232053,1,4,0:0:0:0:
256,192,232231,1,8,0:0:0:0:
256,192,232321,1,8,0:0:0:0:
256,192,232410,1,0,0:0:0:0:
256,192,232499,1,8,0:0:0:0:
256,192,232588,1,0,0:0:0:0:
256,192,232767,1,12,0:0:0:0:
256,192,232946,1,8,0:0:0:0:
256,192,233035,1,8,0:0:0:0:
256,192,233124,1,0,0:0:0:0:
256,192,233303,1,8,0:0:0:0:
256,192,233392,1,8,0:0:0:0:
256,192,233481,1,0,0:0:0:0:
256,192,233660,1,8,0:0:0:0:
256,192,233749,1,8,0:0:0:0:
256,192,233838,1,0,0:0:0:0:
256,192,233928,1,0,0:0:0:0:
256,192,234017,1,0,0:0:0:0:
256,192,234196,1,12,0:0:0:0:
256,192,234374,1,0,0:0:0:0:
256,192,234463,1,8,0:0:0:0:
256,192,234553,1,0,0:0:0:0:
256,192,234642,1,0,0:0:0:0:
256,192,234731,1,8,0:0:0:0:
256,192,234910,1,12,0:0:0:0:
256,192,235088,1,8,0:0:0:0:
256,192,235178,1,8,0:0:0:0:
256,192,235267,1,0,0:0:0:0:
256,192,235356,1,0,0:0:0:0:
256,192,235446,1,0,0:0:0:0:
256,192,235624,1,12,0:0:0:0:
256,192,235803,1,8,0:0:0:0:
256,192,235892,1,8,0:0:0:0:
256,192,235981,1,0,0:0:0:0:
256,192,236071,1,0,0:0:0:0:
256,192,236160,1,8,0:0:0:0:
256,192,236249,1,0,0:0:0:0:
256,192,236428,1,0,0:0:0:0:
256,192,236517,1,8,0:0:0:0:
256,192,236696,1,8,0:0:0:0:
256,192,236785,1,8,0:0:0:0:
256,192,236874,1,0,0:0:0:0:
256,192,236963,1,0,0:0:0:0:
256,192,237053,1,8,0:0:0:0:
256,192,237231,1,0,0:0:0:0:
256,192,237321,1,0,0:0:0:0:
256,192,237410,1,8,0:0:0:0:
256,192,237588,1,8,0:0:0:0:
256,192,237678,1,8,0:0:0:0:
256,192,237767,1,0,0:0:0:0:
256,192,237946,1,8,0:0:0:0:
256,192,238035,1,0,0:0:0:0:
256,192,238124,1,8,0:0:0:0:
256,192,238213,1,8,0:0:0:0:
256,192,238303,1,0,0:0:0:0:
256,192,238481,1,8,0:0:0:0:
256,192,238571,1,0,0:0:0:0:
256,192,238660,1,0,0:0:0:0:
256,192,238749,1,8,0:0:0:0:
256,192,238928,1,0,0:0:0:0:
256,192,239017,1,8,0:0:0:0:
256,192,239196,1,0,0:0:0:0:
256,192,239285,1,8,0:0:0:0:
256,192,239374,1,8,0:0:0:0:
256,192,239463,1,8,0:0:0:0:
256,192,239553,1,0,0:0:0:0:
256,192,239642,1,0,0:0:0:0:
256,192,239731,1,8,0:0:0:0:
256,192,239821,1,0,0:0:0:0:
256,192,239910,1,0,0:0:0:0:
256,192,240088,1,8,0:0:0:0:
256,192,240178,1,8,0:0:0:0:
256,192,240267,1,0,0:0:0:0:
256,192,240356,1,0,0:0:0:0:
256,192,240446,1,8,0:0:0:0:
256,192,240624,1,0,0:0:0:0:
256,192,240803,1,8,0:0:0:0:
256,192,240892,1,0,0:0:0:0:
256,192,241071,1,0,0:0:0:0:
256,192,241160,1,8,0:0:0:0:
256,192,241338,1,0,0:0:0:0:
256,192,241428,1,0,0:0:0:0:
256,192,241517,1,8,0:0:0:0:
256,192,241606,1,0,0:0:0:0:
256,192,241785,1,0,0:0:0:0:
256,192,241874,1,8,0:0:0:0:
256,192,242053,1,0,0:0:0:0:
256,192,242142,1,0,0:0:0:0:
256,192,242231,1,8,0:0:0:0:
256,192,242321,1,8,0:0:0:0:
256,192,242410,1,0,0:0:0:0:
256,192,242588,1,8,0:0:0:0:
256,192,242767,1,4,0:0:0:0:
256,192,242946,1,8,0:0:0:0:
256,192,243035,1,8,0:0:0:0:
256,192,243124,1,0,0:0:0:0:
256,192,243213,1,0,0:0:0:0:
256,192,243303,1,8,0:0:0:0:
256,192,243481,1,4,0:0:0:0:
256,192,243660,1,8,0:0:0:0:
256,192,243749,1,8,0:0:0:0:
256,192,243838,1,0,0:0:0:0:
256,192,243928,1,8,0:0:0:0:
256,192,244017,1,0,0:0:0:0:
256,192,244196,1,12,0:0:0:0:
256,192,244374,1,8,0:0:0:0:
256,192,244463,1,8,0:0:0:0:
256,192,244553,1,0,0:0:0:0:
256,192,244731,1,8,0:0:0:0:
256,192,244821,1,8,0:0:0:0:
256,192,244910,1,0,0:0:0:0:
256,192,245088,1,8,0:0:0:0:
256,192,245178,1,8,0:0:0:0:
256,192,245267,1,8,0:0:0:0:
256,192,245356,1,8,0:0:0:0:
256,192,245446,1,8,0:0:0:0:
256,192,245624,1,12,0:0:0:0:
256,192,245803,1,0,0:0:0:0:
256,192,245892,1,0,0:0:0:0:
256,192,245981,1,8,0:0:0:0:
256,192,246071,1,0,0:0:0:0:
256,192,246160,1,8,0:0:0:0:
256,192,246249,1,8,0:0:0:0:
256,192,246338,1,0,0:0:0:0:
256,192,246517,1,8,0:0:0:0:
256,192,246606,1,8,0:0:0:0:
256,192,246696,1,0,0:0:0:0:
256,192,246785,1,8,0:0:0:0:
256,192,246874,1,0,0:0:0:0:
256,192,246963,1,0,0:0:0:0:
256,192,247053,1,0,0:0:0:0:
256,192,247231,1,8,0:0:0:0:
256,192,247321,1,0,0:0:0:0:
256,192,247410,1,0,0:0:0:0:
256,192,247499,1,0,0:0:0:0:
256,192,247588,1,8,0:0:0:0:
256,192,247678,1,8,0:0:0:0:
256,192,247767,1,0,0:0:0:0:
256,192,247856,1,0,0:0:0:0:
256,192,247946,1,8,0:0:0:0:
256,192,248035,1,0,0:0:0:0:
256,192,248124,1,8,0:0:0:0:
256,192,248213,1,8,0:0:0:0:
256,192,248303,1,8,0:0:0:0:
256,192,248481,1,12,0:0:0:0:
256,192,248660,1,8,0:0:0:0:
256,192,248749,1,0,0:0:0:0:
256,192,248838,1,8,0:0:0:0:
256,192,248928,1,8,0:0:0:0:
256,192,249017,1,0,0:0:0:0:
256,192,249196,1,8,0:0:0:0:
256,192,249285,1,0,0:0:0:0:
256,192,249374,1,0,0:0:0:0:
256,192,249463,1,8,0:0:0:0:
256,192,249553,1,0,0:0:0:0:
256,192,249642,1,0,0:0:0:0:
256,192,249731,1,8,0:0:0:0:
256,192,249821,1,8,0:0:0:0:
256,192,249910,1,0,0:0:0:0:
256,192,250088,1,8,0:0:0:0:
256,192,250178,1,0,0:0:0:0:
256,192,250267,1,0,0:0:0:0:
256,192,250356,1,0,0:0:0:0:
256,192,250446,1,8,0:0:0:0:
256,192,250535,1,0,0:0:0:0:
256,192,250624,1,8,0:0:0:0:
256,192,250713,1,8,0:0:0:0:
256,192,250803,1,8,0:0:0:0:
256,192,250892,1,0,0:0:0:0:
256,192,250981,1,8,0:0:0:0:
256,192,251071,1,8,0:0:0:0:
256,192,251160,1,0,0:0:0:0:
256,192,251338,1,12,0:0:0:0:
256,192,251517,1,0,0:0:0:0:
256,192,251606,1,8,0:0:0:0:
256,192,251696,1,0,0:0:0:0:
256,192,251785,1,8,0:0:0:0:
256,192,251874,1,0,0:0:0:0:
256,192,251963,1,0,0:0:0:0:
256,192,252053,1,8,0:0:0:0:
256,192,252231,1,8,0:0:0:0:
256,192,252321,1,0,0:0:0:0:
256,192,252410,1,8,0:0:0:0:
256,192,252499,1,8,0:0:0:0:
256,192,252588,1,0,0:0:0:0:
256,192,252678,1,0,0:0:0:0:
256,192,252767,1,8,0:0:0:0:
256,192,252946,1,0,0:0:0:0:
256,192,253035,1,0,0:0:0:0:
256,192,253124,1,8,0:0:0:0:
256,192,253213,1,8,0:0:0:0:
256,192,253303,1,0,0:0:0:0:
256,192,253392,1,0,0:0:0:0:
256,192,253481,1,8,0:0:0:0:
256,192,253571,1,0,0:0:0:0:
256,192,253660,1,8,0:0:0:0:
256,192,253749,1,8,0:0:0:0:
256,192,253838,1,0,0:0:0:0:
256,192,253928,1,0,0:0:0:0:
256,192,254017,1,8,0:0:0:0:
256,192,254196,1,12,0:0:0:0:
256,192,254374,1,0,0:0:0:0:
256,192,254463,1,0,0:0:0:0:
256,192,254553,1,8,0:0:0:0:
256,192,254642,1,8,0:0:0:0:
256,192,254731,1,0,0:0:0:0:
256,192,254910,1,8,0:0:0:0:
256,192,254999,1,0,0:0:0:0:
256,192,255088,1,0,0:0:0:0:
256,192,255178,1,8,0:0:0:0:
256,192,255267,1,0,0:0:0:0:
256,192,255356,1,0,0:0:0:0:
256,192,255446,1,8,0:0:0:0:
256,192,255624,1,8,0:0:0:0:
256,192,255713,1,8,0:0:0:0:
256,192,255803,1,0,0:0:0:0:
256,192,255892,1,0,0:0:0:0:
256,192,255981,1,8,0:0:0:0:
256,192,256071,1,0,0:0:0:0:
256,192,256160,1,8,0:0:0:0:
256,192,256249,1,8,0:0:0:0:
256,192,256338,1,0,0:0:0:0:
256,192,256428,1,8,0:0:0:0:
256,192,256517,1,0,0:0:0:0:
256,192,256606,1,0,0:0:0:0:
256,192,256696,1,8,0:0:0:0:
256,192,257053,1,12,0:0:0:0:
256,192,257231,1,0,0:0:0:0:
256,192,257321,1,0,0:0:0:0:
256,192,257410,1,8,0:0:0:0:
256,192,257499,1,8,0:0:0:0:
256,192,257588,1,0,0:0:0:0:
256,192,257767,1,12,0:0:0:0:
256,192,258035,1,12,0:0:0:0:
256,192,258303,1,12,0:0:0:0:
256,192,258660,1,0,0:0:0:0:
256,192,258749,1,0,0:0:0:0:
256,192,258838,1,8,0:0:0:0:
256,192,258928,1,0,0:0:0:0:
256,192,259017,1,0,0:0:0:0:
256,192,259106,1,0,0:0:0:0:
256,192,259196,1,8,0:0:0:0:
256,192,259285,1,8,0:0:0:0:
256,192,259374,1,0,0:0:0:0:
256,192,259463,1,8,0:0:0:0:
256,192,259553,1,0,0:0:0:0:
256,192,259642,1,8,0:0:0:0:
256,192,259731,1,0,0:0:0:0:
256,192,259910,1,12,0:0:0:0:
256,192,260088,1,0,0:0:0:0:
256,192,260178,1,0,0:0:0:0:
256,192,260267,1,8,0:0:0:0:
256,192,260356,1,8,0:0:0:0:
256,192,260446,1,0,0:0:0:0:
256,192,260624,1,12,0:0:0:0:
256,192,260892,1,12,0:0:0:0:
256,192,261160,1,12,0:0:0:0:
256,192,261338,1,0,0:0:0:0:
256,192,261428,1,0,0:0:0:0:
256,192,261517,1,0,0:0:0:0:
256,192,261606,1,0,0:0:0:0:
256,192,261696,1,8,0:0:0:0:
256,192,261785,1,8,0:0:0:0:
256,192,261874,1,0,0:0:0:0:
256,192,261963,1,0,0:0:0:0:
256,192,262053,1,8,0:0:0:0:
256,192,262142,1,0,0:0:0:0:
256,192,262231,1,0,0:0:0:0:
256,192,262321,1,0,0:0:0:0:
256,192,262410,1,8,0:0:0:0:
256,192,262499,1,0,0:0:0:0:
256,192,262588,1,0,0:0:0:0:
256,192,262767,1,12,0:0:0:0:
256,192,262946,1,0,0:0:0:0:
256,192,263035,1,0,0:0:0:0:
256,192,263124,1,8,0:0:0:0:
256,192,263213,1,8,0:0:0:0:
256,192,263303,1,0,0:0:0:0:
256,192,263481,1,12,0:0:0:0:
256,192,263749,1,12,0:0:0:0:
256,192,264017,1,12,0:0:0:0:
256,192,264196,1,0,0:0:0:0:
256,192,264285,1,0,0:0:0:0:
256,192,264374,1,0,0:0:0:0:
256,192,264463,1,8,0:0:0:0:
256,192,264553,1,8,0:0:0:0:
256,192,264642,1,8,0:0:0:0:
256,192,264731,1,0,0:0:0:0:
256,192,264821,1,8,0:0:0:0:
256,192,264910,1,8,0:0:0:0:
256,192,264999,1,8,0:0:0:0:
256,192,265088,1,0,0:0:0:0:
256,192,265178,1,8,0:0:0:0:
256,192,265267,1,8,0:0:0:0:
256,192,265356,1,8,0:0:0:0:
256,192,265446,1,0,0:0:0:0:
256,192,265624,1,12,0:0:0:0:
256,192,265803,1,0,0:0:0:0:
256,192,265892,1,0,0:0:0:0:
256,192,265981,1,8,0:0:0:0:
256,192,266071,1,8,0:0:0:0:
256,192,266160,1,0,0:0:0:0:
256,192,266338,1,12,0:0:0:0:
256,192,266606,1,12,0:0:0:0:
256,192,266874,1,12,0:0:0:0:
256,192,267053,1,0,0:0:0:0:
256,192,267142,1,0,0:0:0:0:
256,192,267231,1,0,0:0:0:0:
256,192,267321,1,0,0:0:0:0:
256,192,267410,1,8,0:0:0:0:
256,192,267499,1,8,0:0:0:0:
256,192,267588,1,0,0:0:0:0:
256,192,267678,1,0,0:0:0:0:
256,192,267767,1,8,0:0:0:0:
256,192,267856,1,0,0:0:0:0:
256,192,267946,1,0,0:0:0:0:
256,192,268035,1,0,0:0:0:0:
256,192,268124,1,8,0:0:0:0:
256,192,268481,1,8,0:0:0:0:
256,192,268571,1,8,0:0:0:0:
256,192,268660,1,0,0:0:0:0:
256,192,268749,1,0,0:0:0:0:
256,192,268838,1,8,0:0:0:0:
256,192,268928,1,0,0:0:0:0:
256,192,269017,1,0,0:0:0:0:
256,192,269106,1,0,0:0:0:0:
256,192,269196,1,8,0:0:0:0:
256,192,269285,1,0,0:0:0:0:
256,192,269374,1,0,0:0:0:0:
256,192,269463,1,0,0:0:0:0:
256,192,269553,1,8,0:0:0:0:
256,192,269642,1,8,0:0:0:0:
256,192,269731,1,8,0:0:0:0:
256,192,269821,1,8,0:0:0:0:
