osu file format v14

[General]
AudioFilename: audio.mp3
AudioLeadIn: 0
PreviewTime: 192009
Countdown: 0
SampleSet: Normal
StackLeniency: 0.7
Mode: 3
LetterboxInBreaks: 0
SpecialStyle: 0
WidescreenStoryboard: 1

[Editor]
DistanceSpacing: 0.7
BeatDivisor: 4
GridSize: 16
TimelineZoom: 1.1

[Metadata]
Title:CRYSTAL GLACIER
TitleUnicode:CRYSTAL GLACIER
Artist:SOUND HOLIC feat. Nana Takahashi vs. Quarks (kradness x Camellia)
ArtistUnicode:SOUND HOLIC feat. Nana Takahashi vs. Quarks (kradness x Camellia)
Creator:Claren
Version:HARD
Source:
Tags:Exit Tunes 焔 -MAGMA- 耽溺ミラアジュイズム Tandeki Mirage-ism 高橋菜々 かめるかめりあ かめりあ KamelCamellia Cametek Japanese Electronic
BeatmapID:1668332
BeatmapSetID:794314

[Difficulty]
HPDrainRate:7.5
CircleSize:4
OverallDifficulty:7.4
ApproachRate:5
SliderMultiplier:1.4
SliderTickRate:1

[Events]
//Background and Video events
0,0,"artur-sadlos-future-tokyo-003-wip004i.jpg",0,0
//Break Periods
//Storyboard Layer 0 (Background)
//Storyboard Layer 1 (Fail)
//Storyboard Layer 2 (Pass)
//Storyboard Layer 3 (Foreground)
//Storyboard Layer 4 (Overlay)
//Storyboard Sound Samples

[TimingPoints]
980,441.176470588235,4,1,1,70,1,0
78627,-100,4,1,1,70,0,1
92744,-100,4,1,1,70,0,0
149215,-100,4,1,1,70,0,1
161568,-100,4,1,1,70,0,0
163332,-100,4,1,1,70,0,1
177450,-100,4,1,1,70,0,0
193332,-100,4,1,1,70,0,1
205685,-100,4,1,1,70,0,0
207891,-100,4,1,1,70,0,1
221568,-100,4,1,1,70,0,0
244068,-100,4,1,1,70,0,1
256862,-100,4,1,1,70,0,0

[HitObjects]
64,192,979,5,8,0:0:0:0:
448,192,979,1,4,0:0:0:0:
192,192,979,1,0,0:0:0:0:
320,192,1200,1,0,0:0:0:0:
64,192,1421,1,0,0:0:0:0:
192,192,1641,1,0,0:0:0:0:
448,192,1752,1,0,0:0:0:0:
320,192,1862,1,0,0:0:0:0:
64,192,2082,1,0,0:0:0:0:
448,192,2303,1,0,0:0:0:0:
320,192,2524,1,0,0:0:0:0:
192,192,2634,1,0,0:0:0:0:
64,192,2744,1,0,0:0:0:0:
448,192,2965,1,0,0:0:0:0:
192,192,3185,1,0,0:0:0:0:
64,192,3406,1,0,0:0:0:0:
448,192,3516,1,0,0:0:0:0:
320,192,3627,1,0,0:0:0:0:
192,192,3847,1,0,0:0:0:0:
320,192,4068,1,0,0:0:0:0:
448,192,4288,128,0,4509:0:0:0:0:
192,192,4399,1,0,0:0:0:0:
64,192,4509,128,0,4840:0:0:0:0:
320,192,4729,1,0,0:0:0:0:
192,192,4840,128,0,5171:0:0:0:0:
448,192,4950,1,0,0:0:0:0:
320,192,5171,128,0,5502:0:0:0:0:
64,192,5281,1,0,0:0:0:0:
192,192,5391,1,0,0:0:0:0:
448,192,5502,128,0,5832:0:0:0:0:
64,192,5612,1,0,0:0:0:0:
192,192,5832,128,0,6053:0:0:0:0:
320,192,6053,128,0,6274:0:0:0:0:
448,192,6163,1,0,0:0:0:0:
64,192,6274,128,0,6604:0:0:0:0:
448,192,6604,128,0,6935:0:0:0:0:
320,192,6935,128,0,7156:0:0:0:0:
192,192,7156,128,0,7597:0:0:0:0:
64,192,7597,1,2,0:0:0:0:
320,192,7597,1,4,0:0:0:0:
64,192,8038,5,8,0:0:0:0:
192,192,8038,1,0,0:0:0:0:
448,192,8038,1,4,0:0:0:0:
320,192,8369,1,0,0:0:0:0:
192,192,8700,1,0,0:0:0:0:
192,192,9031,1,0,0:0:0:0:
64,192,9362,1,0,0:0:0:0:
192,192,9582,1,0,0:0:0:0:
448,192,9803,1,0,0:0:0:0:
320,192,9803,1,0,0:0:0:0:
64,192,10134,1,0,0:0:0:0:
320,192,10465,1,0,0:0:0:0:
320,192,10796,1,0,0:0:0:0:
448,192,11127,1,0,0:0:0:0:
192,192,11347,1,0,0:0:0:0:
64,192,11568,1,0,0:0:0:0:
448,192,11568,1,0,0:0:0:0:
320,192,11899,1,0,0:0:0:0:
64,192,12229,1,0,0:0:0:0:
64,192,12560,1,0,0:0:0:0:
192,192,12891,1,0,0:0:0:0:
320,192,13112,1,0,0:0:0:0:
192,192,13332,1,0,0:0:0:0:
448,192,13332,1,0,0:0:0:0:
64,192,13663,1,0,0:0:0:0:
448,192,13994,1,0,0:0:0:0:
448,192,14325,1,0,0:0:0:0:
192,192,14656,1,0,0:0:0:0:
320,192,14877,1,0,0:0:0:0:
192,192,15097,1,0,0:0:0:0:
64,192,15097,1,8,0:0:0:0:
448,192,15097,1,4,0:0:0:0:
320,192,15318,1,8,0:0:0:0:
192,192,15538,1,0,0:0:0:0:
64,192,15538,1,8,0:0:0:0:
448,192,15759,1,8,0:0:0:0:
64,192,15979,1,8,0:0:0:0:
320,192,15979,1,0,0:0:0:0:
192,192,16200,1,8,0:0:0:0:
448,192,16421,1,0,0:0:0:0:
320,192,16421,1,8,0:0:0:0:
64,192,16641,1,8,0:0:0:0:
192,192,16862,1,8,0:0:0:0:
448,192,16862,1,0,0:0:0:0:
320,192,17082,1,8,0:0:0:0:
448,192,17303,1,0,0:0:0:0:
64,192,17303,1,8,0:0:0:0:
192,192,17524,1,8,0:0:0:0:
320,192,17744,1,0,0:0:0:0:
64,192,17744,1,8,0:0:0:0:
448,192,17965,1,8,0:0:0:0:
64,192,18185,1,8,0:0:0:0:
192,192,18185,1,0,0:0:0:0:
320,192,18406,1,8,0:0:0:0:
192,192,18627,1,0,0:0:0:0:
64,192,18627,1,8,0:0:0:0:
320,192,18737,1,8,0:0:0:0:
448,192,18847,1,8,0:0:0:0:
64,192,18957,1,8,0:0:0:0:
192,192,19068,1,8,0:0:0:0:
448,192,19178,1,8,0:0:0:0:
320,192,19288,1,8,0:0:0:0:
64,192,19399,1,8,0:0:0:0:
192,192,19509,1,8,0:0:0:0:
320,192,19619,1,8,0:0:0:0:
448,192,19729,1,8,0:0:0:0:
192,192,19840,1,8,0:0:0:0:
64,192,19950,1,8,0:0:0:0:
448,192,20060,1,8,0:0:0:0:
320,192,20171,1,8,0:0:0:0:
192,192,20281,1,8,0:0:0:0:
448,192,20391,1,0,0:0:0:0:
64,192,20391,1,8,0:0:0:0:
192,192,20612,1,0,0:0:0:0:
320,192,20832,1,0,0:0:0:0:
448,192,21053,1,0,0:0:0:0:
64,192,21163,1,0,0:0:0:0:
320,192,21274,1,0,0:0:0:0:
192,192,21494,1,0,0:0:0:0:
64,192,21715,1,8,0:0:0:0:
192,192,21825,1,8,0:0:0:0:
448,192,21935,1,0,0:0:0:0:
320,192,21935,1,8,0:0:0:0:
448,192,22156,128,4,22597:0:0:0:0:
64,192,22156,1,8,0:0:0:0:
192,192,22156,128,0,22597:0:0:0:0:
320,192,22597,1,0,0:0:0:0:
64,192,22597,1,2,0:0:0:0:
192,192,22818,1,0,0:0:0:0:
448,192,23038,1,0,0:0:0:0:
320,192,23038,1,8,0:0:0:0:
64,192,23259,1,0,0:0:0:0:
320,192,23479,1,0,0:0:0:0:
192,192,23479,1,2,0:0:0:0:
448,192,23700,1,0,0:0:0:0:
320,192,23810,1,0,0:0:0:0:
192,192,23921,1,0,0:0:0:0:
64,192,23921,1,8,0:0:0:0:
320,192,24141,1,0,0:0:0:0:
448,192,24362,1,0,0:0:0:0:
64,192,24362,1,2,0:0:0:0:
320,192,24582,1,0,0:0:0:0:
64,192,24693,1,0,0:0:0:0:
192,192,24803,1,8,0:0:0:0:
448,192,24803,1,0,0:0:0:0:
320,192,25024,1,0,0:0:0:0:
64,192,25244,1,2,0:0:0:0:
192,192,25244,128,0,25685:0:0:0:0:
448,192,25685,1,0,0:0:0:0:
64,192,25685,1,8,0:0:0:0:
320,192,25796,1,0,0:0:0:0:
192,192,25906,1,0,0:0:0:0:
320,192,26016,1,0,0:0:0:0:
192,192,26127,1,0,0:0:0:0:
64,192,26127,128,2,26347:0:0:0:0:
448,192,26347,128,0,26568:0:0:0:0:
64,192,26568,128,8,26788:0:0:0:0:
192,192,26568,1,0,0:0:0:0:
448,192,26788,128,0,27009:0:0:0:0:
192,192,27009,1,0,0:0:0:0:
64,192,27009,1,2,0:0:0:0:
320,192,27119,1,0,0:0:0:0:
192,192,27229,1,0,0:0:0:0:
64,192,27340,1,0,0:0:0:0:
320,192,27450,1,8,0:0:0:0:
448,192,27450,128,0,27671:0:0:0:0:
64,192,27671,128,0,27891:0:0:0:0:
448,192,27891,128,0,28112:0:0:0:0:
320,192,27891,1,2,0:0:0:0:
64,192,28112,128,0,28332:0:0:0:0:
448,192,28332,128,0,28553:0:0:0:0:
320,192,28332,1,8,0:0:0:0:
192,192,28553,128,0,28774:0:0:0:0:
64,192,28774,128,2,28994:0:0:0:0:
448,192,28774,1,0,0:0:0:0:
320,192,28994,128,0,29215:0:0:0:0:
448,192,29215,128,4,29656:0:0:0:0:
192,192,29215,1,0,0:0:0:0:
64,192,29215,128,8,29656:0:0:0:0:
320,192,29656,1,0,0:0:0:0:
192,192,29656,1,2,0:0:0:0:
64,192,29877,1,0,0:0:0:0:
192,192,30097,1,8,0:0:0:0:
448,192,30097,1,0,0:0:0:0:
320,192,30318,1,0,0:0:0:0:
192,192,30538,1,0,0:0:0:0:
64,192,30538,1,2,0:0:0:0:
448,192,30759,1,0,0:0:0:0:
192,192,30869,1,0,0:0:0:0:
320,192,30979,1,0,0:0:0:0:
64,192,30979,1,8,0:0:0:0:
192,192,31200,1,0,0:0:0:0:
448,192,31421,1,0,0:0:0:0:
320,192,31421,1,2,0:0:0:0:
64,192,31641,1,0,0:0:0:0:
320,192,31752,1,0,0:0:0:0:
192,192,31862,1,8,0:0:0:0:
448,192,31862,1,0,0:0:0:0:
320,192,32082,1,0,0:0:0:0:
64,192,32303,1,2,0:0:0:0:
448,192,32303,128,0,32744:0:0:0:0:
320,192,32744,1,0,0:0:0:0:
64,192,32744,1,8,0:0:0:0:
192,192,32854,1,0,0:0:0:0:
448,192,32965,1,0,0:0:0:0:
64,192,33075,1,0,0:0:0:0:
320,192,33185,1,2,0:0:0:0:
448,192,33185,128,0,33406:0:0:0:0:
64,192,33406,128,0,33627:0:0:0:0:
448,192,33627,128,0,33847:0:0:0:0:
320,192,33627,1,8,0:0:0:0:
64,192,33847,128,0,34068:0:0:0:0:
448,192,34068,1,0,0:0:0:0:
320,192,34068,1,2,0:0:0:0:
192,192,34178,1,0,0:0:0:0:
64,192,34288,1,0,0:0:0:0:
448,192,34399,1,0,0:0:0:0:
320,192,34509,1,0,0:0:0:0:
192,192,34509,1,8,0:0:0:0:
448,192,34729,1,0,0:0:0:0:
64,192,34867,1,0,0:0:0:0:
320,192,34950,1,0,0:0:0:0:
192,192,35171,1,0,0:0:0:0:
448,192,35391,1,0,0:0:0:0:
320,192,35529,1,0,0:0:0:0:
64,192,35832,1,8,0:0:0:0:
320,192,35943,1,8,0:0:0:0:
192,192,36053,1,8,0:0:0:0:
448,192,36053,1,0,0:0:0:0:
64,192,36274,128,8,36715:0:0:0:0:
448,192,36274,1,4,0:0:0:0:
320,192,36274,128,0,36715:0:0:0:0:
192,192,36715,1,0,0:0:0:0:
320,192,36935,1,0,0:0:0:0:
448,192,37156,1,0,0:0:0:0:
64,192,37156,1,2,0:0:0:0:
192,192,37377,1,0,0:0:0:0:
448,192,37597,1,0,0:0:0:0:
320,192,37597,1,8,0:0:0:0:
64,192,37818,1,0,0:0:0:0:
192,192,38038,1,0,0:0:0:0:
448,192,38259,1,0,0:0:0:0:
64,192,38479,128,8,38921:0:0:0:0:
320,192,38479,1,0,0:0:0:0:
192,192,38700,1,0,0:0:0:0:
320,192,38921,1,2,0:0:0:0:
448,192,38921,128,0,39362:0:0:0:0:
192,192,39141,1,0,0:0:0:0:
64,192,39362,1,0,0:0:0:0:
192,192,39509,1,0,0:0:0:0:
320,192,39656,1,0,0:0:0:0:
64,192,39803,1,8,0:0:0:0:
448,192,39803,1,0,0:0:0:0:
192,192,40024,128,0,40244:0:0:0:0:
320,192,40244,128,0,40465:0:0:0:0:
192,192,40465,128,0,40685:0:0:0:0:
64,192,40685,128,2,41127:0:0:0:0:
448,192,40685,1,0,0:0:0:0:
192,192,41127,1,8,0:0:0:0:
320,192,41127,1,0,0:0:0:0:
448,192,41347,1,0,0:0:0:0:
64,192,41568,1,0,0:0:0:0:
192,192,41788,128,0,42009:0:0:0:0:
448,192,42009,128,0,42450:0:0:0:0:
320,192,42009,1,8,0:0:0:0:
64,192,42229,1,0,0:0:0:0:
320,192,42450,1,0,0:0:0:0:
192,192,42450,1,2,0:0:0:0:
64,192,42671,128,0,42891:0:0:0:0:
320,192,42891,128,0,43332:0:0:0:0:
192,192,43332,128,0,43774:0:0:0:0:
448,192,43332,1,4,0:0:0:0:
64,192,43332,128,8,43774:0:0:0:0:
448,192,43774,1,0,0:0:0:0:
192,192,43994,1,0,0:0:0:0:
64,192,44215,1,2,0:0:0:0:
448,192,44215,1,0,0:0:0:0:
320,192,44435,1,0,0:0:0:0:
192,192,44656,1,0,0:0:0:0:
64,192,44656,1,8,0:0:0:0:
320,192,44877,1,0,0:0:0:0:
448,192,45097,1,0,0:0:0:0:
64,192,45318,1,0,0:0:0:0:
192,192,45538,1,8,0:0:0:0:
448,192,45538,128,0,45979:0:0:0:0:
320,192,45759,1,0,0:0:0:0:
64,192,45979,128,2,46421:0:0:0:0:
192,192,45979,1,0,0:0:0:0:
320,192,46200,1,0,0:0:0:0:
448,192,46421,1,0,0:0:0:0:
192,192,46568,1,0,0:0:0:0:
64,192,46715,1,0,0:0:0:0:
448,192,46862,1,0,0:0:0:0:
320,192,46862,1,8,0:0:0:0:
192,192,47082,128,0,47303:0:0:0:0:
320,192,47303,128,0,47524:0:0:0:0:
192,192,47524,128,0,47744:0:0:0:0:
448,192,47744,128,0,48185:0:0:0:0:
64,192,47744,1,2,0:0:0:0:
320,192,48185,1,0,0:0:0:0:
192,192,48185,1,8,0:0:0:0:
64,192,48406,1,0,0:0:0:0:
320,192,48627,1,0,0:0:0:0:
448,192,48847,128,0,49068:0:0:0:0:
64,192,49068,128,8,49509:0:0:0:0:
192,192,49068,1,0,0:0:0:0:
320,192,49288,1,0,0:0:0:0:
448,192,49509,1,0,0:0:0:0:
192,192,49509,1,2,0:0:0:0:
320,192,49729,1,2,0:0:0:0:
448,192,49729,1,0,0:0:0:0:
64,192,49840,1,2,0:0:0:0:
192,192,49840,1,0,0:0:0:0:
320,192,49950,128,2,50391:0:0:0:0:
448,192,49950,1,0,0:0:0:0:
448,192,50391,128,4,50832:0:0:0:0:
192,192,50391,1,0,0:0:0:0:
64,192,50391,128,8,50832:0:0:0:0:
320,192,50832,1,0,0:0:0:0:
192,192,50832,1,2,0:0:0:0:
64,192,51053,1,0,0:0:0:0:
448,192,51163,1,0,0:0:0:0:
192,192,51163,1,8,0:0:0:0:
320,192,51274,1,0,0:0:0:0:
448,192,51494,1,0,0:0:0:0:
192,192,51494,1,8,0:0:0:0:
320,192,51715,1,0,0:0:0:0:
64,192,51715,1,2,0:0:0:0:
448,192,51935,1,0,0:0:0:0:
64,192,52156,1,8,0:0:0:0:
192,192,52156,1,0,0:0:0:0:
320,192,52377,1,0,0:0:0:0:
64,192,52597,1,2,0:0:0:0:
448,192,52597,1,0,0:0:0:0:
192,192,52818,1,0,0:0:0:0:
448,192,52928,1,0,0:0:0:0:
320,192,52928,1,8,0:0:0:0:
64,192,53038,1,0,0:0:0:0:
448,192,53259,1,0,0:0:0:0:
320,192,53259,1,8,0:0:0:0:
64,192,53479,1,2,0:0:0:0:
192,192,53479,1,0,0:0:0:0:
320,192,53700,1,0,0:0:0:0:
192,192,53921,1,8,0:0:0:0:
448,192,53921,1,0,0:0:0:0:
64,192,54141,1,0,0:0:0:0:
320,192,54362,1,2,0:0:0:0:
448,192,54362,1,0,0:0:0:0:
192,192,54582,1,0,0:0:0:0:
448,192,54693,1,0,0:0:0:0:
64,192,54693,1,8,0:0:0:0:
320,192,54803,1,0,0:0:0:0:
448,192,55024,1,0,0:0:0:0:
64,192,55024,1,8,0:0:0:0:
192,192,55244,1,2,0:0:0:0:
320,192,55244,1,0,0:0:0:0:
64,192,55465,1,0,0:0:0:0:
448,192,55685,1,0,0:0:0:0:
192,192,55685,1,8,0:0:0:0:
320,192,55906,1,0,0:0:0:0:
64,192,56127,1,2,0:0:0:0:
448,192,56127,1,0,0:0:0:0:
320,192,56347,1,0,0:0:0:0:
64,192,56457,1,8,0:0:0:0:
192,192,56457,1,0,0:0:0:0:
448,192,56568,1,0,0:0:0:0:
64,192,56788,1,8,0:0:0:0:
192,192,56788,1,0,0:0:0:0:
448,192,57009,1,0,0:0:0:0:
320,192,57009,128,2,57450:0:0:0:0:
448,192,57450,1,4,0:0:0:0:
192,192,57450,128,0,57891:0:0:0:0:
64,192,57450,128,8,57891:0:0:0:0:
448,192,57891,1,0,0:0:0:0:
320,192,57891,1,2,0:0:0:0:
320,192,58112,1,0,0:0:0:0:
192,192,58332,1,0,0:0:0:0:
64,192,58332,1,2,0:0:0:0:
192,192,58553,1,0,0:0:0:0:
64,192,58774,1,2,0:0:0:0:
448,192,58774,1,0,0:0:0:0:
64,192,58994,1,0,0:0:0:0:
448,192,59215,1,0,0:0:0:0:
192,192,59215,1,2,0:0:0:0:
448,192,59435,1,0,0:0:0:0:
192,192,59656,1,2,0:0:0:0:
320,192,59656,1,0,0:0:0:0:
192,192,59877,1,0,0:0:0:0:
64,192,60097,1,2,0:0:0:0:
320,192,60097,1,0,0:0:0:0:
320,192,60318,1,0,0:0:0:0:
64,192,60538,128,2,60759:0:0:0:0:
448,192,60538,1,0,0:0:0:0:
448,192,60759,128,0,60979:0:0:0:0:
192,192,60979,128,0,61421:0:0:0:0:
320,192,60979,128,4,61421:0:0:0:0:
64,192,60979,1,8,0:0:0:0:
64,192,61421,1,8,0:0:0:0:
448,192,61421,1,0,0:0:0:0:
320,192,61862,128,0,62303:0:0:0:0:
64,192,61862,128,8,62303:0:0:0:0:
448,192,61862,1,4,0:0:0:0:
192,192,62303,1,8,0:0:0:0:
448,192,62303,1,0,0:0:0:0:
320,192,62744,1,0,0:0:0:0:
64,192,62744,1,8,0:0:0:0:
448,192,62744,1,4,0:0:0:0:
320,192,62965,1,0,0:0:0:0:
192,192,62965,1,8,0:0:0:0:
192,192,63185,1,0,0:0:0:0:
64,192,63185,1,8,0:0:0:0:
448,192,63296,1,8,0:0:0:0:
320,192,63406,1,8,0:0:0:0:
64,192,63516,1,8,0:0:0:0:
192,192,63627,1,8,0:0:0:0:
448,192,63627,128,0,64509:0:0:0:0:
320,192,64068,1,4,0:0:0:0:
192,192,64068,1,2,0:0:0:0:
320,192,64509,1,4,0:0:0:0:
192,192,64509,1,0,0:0:0:0:
64,192,64509,1,8,0:0:0:0:
448,192,64840,1,0,0:0:0:0:
192,192,65171,1,0,0:0:0:0:
192,192,65502,1,0,0:0:0:0:
320,192,65832,1,0,0:0:0:0:
448,192,66053,1,0,0:0:0:0:
192,192,66274,1,0,0:0:0:0:
64,192,66274,1,0,0:0:0:0:
320,192,66604,1,0,0:0:0:0:
448,192,66935,1,0,0:0:0:0:
448,192,67266,1,0,0:0:0:0:
192,192,67597,1,0,0:0:0:0:
64,192,67818,1,0,0:0:0:0:
320,192,68038,1,0,0:0:0:0:
192,192,68038,1,0,0:0:0:0:
448,192,68369,1,0,0:0:0:0:
64,192,68700,1,0,0:0:0:0:
64,192,69031,1,0,0:0:0:0:
320,192,69362,1,0,0:0:0:0:
448,192,69582,1,0,0:0:0:0:
320,192,69803,1,0,0:0:0:0:
64,192,69803,1,0,0:0:0:0:
192,192,70134,1,0,0:0:0:0:
320,192,70465,1,0,0:0:0:0:
320,192,70796,1,0,0:0:0:0:
64,192,71127,1,0,0:0:0:0:
448,192,71347,1,0,0:0:0:0:
64,192,71568,1,0,0:0:0:0:
320,192,71568,1,0,0:0:0:0:
192,192,71899,1,0,0:0:0:0:
448,192,72229,1,0,0:0:0:0:
448,192,72560,1,0,0:0:0:0:
64,192,72891,1,0,0:0:0:0:
192,192,73112,1,0,0:0:0:0:
320,192,73332,1,0,0:0:0:0:
448,192,73332,1,0,0:0:0:0:
192,192,73663,1,0,0:0:0:0:
64,192,73994,1,0,0:0:0:0:
64,192,74325,1,0,0:0:0:0:
320,192,74656,1,0,0:0:0:0:
192,192,74877,1,0,0:0:0:0:
64,192,75097,1,0,0:0:0:0:
448,192,75097,1,0,0:0:0:0:
320,192,75428,1,0,0:0:0:0:
192,192,75759,1,0,0:0:0:0:
192,192,76090,1,0,0:0:0:0:
448,192,76421,1,0,0:0:0:0:
192,192,76641,1,0,0:0:0:0:
320,192,76862,1,0,0:0:0:0:
64,192,76862,1,0,0:0:0:0:
192,192,77193,1,0,0:0:0:0:
320,192,77524,1,0,0:0:0:0:
64,192,77744,1,8,0:0:0:0:
320,192,77854,1,0,0:0:0:0:
448,192,78185,1,4,0:0:0:0:
192,192,78185,1,2,0:0:0:0:
64,192,78406,1,0,0:0:0:0:
192,192,78627,1,8,0:0:0:0:
320,192,78627,1,0,0:0:0:0:
448,192,78627,1,4,0:0:0:0:
64,192,78847,1,0,0:0:0:0:
320,192,78957,1,0,0:0:0:0:
192,192,79068,1,2,0:0:0:0:
448,192,79068,1,0,0:0:0:0:
320,192,79288,1,0,0:0:0:0:
64,192,79509,1,8,0:0:0:0:
448,192,79509,1,0,0:0:0:0:
192,192,79619,1,0,0:0:0:0:
320,192,79729,1,0,0:0:0:0:
64,192,79950,1,2,0:0:0:0:
192,192,79950,1,0,0:0:0:0:
448,192,80171,1,0,0:0:0:0:
192,192,80391,1,8,0:0:0:0:
320,192,80391,1,0,0:0:0:0:
64,192,80612,1,0,0:0:0:0:
192,192,80722,1,0,0:0:0:0:
320,192,80832,1,2,0:0:0:0:
448,192,80832,1,0,0:0:0:0:
192,192,81053,1,0,0:0:0:0:
448,192,81274,1,0,0:0:0:0:
64,192,81274,1,8,0:0:0:0:
320,192,81384,1,0,0:0:0:0:
192,192,81494,1,0,0:0:0:0:
64,192,81715,1,2,0:0:0:0:
448,192,81715,1,0,0:0:0:0:
320,192,81935,1,0,0:0:0:0:
64,192,82156,1,8,0:0:0:0:
192,192,82156,1,0,0:0:0:0:
448,192,82377,1,0,0:0:0:0:
64,192,82487,1,0,0:0:0:0:
320,192,82597,1,0,0:0:0:0:
192,192,82597,1,2,0:0:0:0:
64,192,82818,1,0,0:0:0:0:
448,192,83038,1,0,0:0:0:0:
192,192,83038,1,8,0:0:0:0:
320,192,83149,1,0,0:0:0:0:
64,192,83259,1,0,0:0:0:0:
192,192,83479,1,2,0:0:0:0:
320,192,83479,1,0,0:0:0:0:
448,192,83700,1,0,0:0:0:0:
64,192,83921,1,8,0:0:0:0:
320,192,83921,1,0,0:0:0:0:
192,192,84141,1,0,0:0:0:0:
64,192,84252,1,0,0:0:0:0:
448,192,84362,1,0,0:0:0:0:
320,192,84362,1,2,0:0:0:0:
192,192,84582,1,0,0:0:0:0:
448,192,84803,1,0,0:0:0:0:
64,192,84803,1,8,0:0:0:0:
320,192,84913,1,0,0:0:0:0:
192,192,85024,1,0,0:0:0:0:
64,192,85244,1,2,0:0:0:0:
320,192,85244,1,0,0:0:0:0:
448,192,85465,1,0,0:0:0:0:
192,192,85685,1,8,0:0:0:0:
320,192,85685,1,0,0:0:0:0:
64,192,85906,1,0,0:0:0:0:
192,192,86016,1,0,0:0:0:0:
448,192,86127,1,0,0:0:0:0:
320,192,86127,1,2,0:0:0:0:
192,192,86347,1,0,0:0:0:0:
64,192,86568,1,8,0:0:0:0:
448,192,86568,1,0,0:0:0:0:
320,192,86678,1,0,0:0:0:0:
192,192,86788,1,0,0:0:0:0:
64,192,87009,1,2,0:0:0:0:
320,192,87009,1,0,0:0:0:0:
448,192,87229,1,0,0:0:0:0:
192,192,87450,1,8,0:0:0:0:
320,192,87450,1,0,0:0:0:0:
64,192,87671,1,0,0:0:0:0:
320,192,87781,1,0,0:0:0:0:
192,192,87891,1,2,0:0:0:0:
448,192,87891,1,0,0:0:0:0:
320,192,88112,1,0,0:0:0:0:
448,192,88332,1,0,0:0:0:0:
64,192,88332,1,8,0:0:0:0:
192,192,88443,1,0,0:0:0:0:
320,192,88553,1,0,0:0:0:0:
64,192,88774,1,2,0:0:0:0:
192,192,88774,1,0,0:0:0:0:
320,192,88994,1,0,0:0:0:0:
64,192,89215,1,8,0:0:0:0:
448,192,89215,1,0,0:0:0:0:
320,192,89325,1,8,0:0:0:0:
192,192,89435,1,8,0:0:0:0:
448,192,89546,1,8,0:0:0:0:
64,192,89656,1,10,0:0:0:0:
320,192,89766,1,8,0:0:0:0:
192,192,89877,1,8,0:0:0:0:
64,192,89987,1,8,0:0:0:0:
448,192,90097,1,8,0:0:0:0:
192,192,90207,1,8,0:0:0:0:
320,192,90318,1,8,0:0:0:0:
448,192,90428,1,8,0:0:0:0:
64,192,90538,1,10,0:0:0:0:
192,192,90649,1,8,0:0:0:0:
320,192,90759,1,8,0:0:0:0:
64,192,90869,1,8,0:0:0:0:
448,192,90979,1,8,0:0:0:0:
320,192,91090,1,8,0:0:0:0:
64,192,91200,1,8,0:0:0:0:
192,192,91310,1,8,0:0:0:0:
320,192,91421,1,10,0:0:0:0:
448,192,91531,1,8,0:0:0:0:
192,192,91641,1,8,0:0:0:0:
64,192,91752,1,8,0:0:0:0:
448,192,91862,1,8,0:0:0:0:
320,192,91972,1,8,0:0:0:0:
192,192,92082,1,8,0:0:0:0:
64,192,92193,1,8,0:0:0:0:
320,192,92303,1,10,0:0:0:0:
448,192,92413,1,8,0:0:0:0:
192,192,92524,1,8,0:0:0:0:
320,192,92634,1,8,0:0:0:0:
192,192,92744,1,0,0:0:0:0:
64,192,92744,1,8,0:0:0:0:
448,192,92744,1,4,0:0:0:0:
320,192,93075,1,0,0:0:0:0:
448,192,93185,1,0,0:0:0:0:
192,192,93185,1,8,0:0:0:0:
64,192,93406,1,0,0:0:0:0:
448,192,93627,1,0,0:0:0:0:
320,192,93627,1,8,0:0:0:0:
64,192,93737,1,0,0:0:0:0:
192,192,94068,1,8,0:0:0:0:
320,192,94068,1,0,0:0:0:0:
448,192,94288,1,0,0:0:0:0:
64,192,94509,1,8,0:0:0:0:
192,192,94509,1,0,0:0:0:0:
320,192,94840,1,0,0:0:0:0:
64,192,94950,1,8,0:0:0:0:
448,192,94950,1,0,0:0:0:0:
192,192,95171,1,0,0:0:0:0:
448,192,95391,1,0,0:0:0:0:
64,192,95391,1,8,0:0:0:0:
192,192,95502,1,0,0:0:0:0:
64,192,95832,128,8,96274:0:0:0:0:
320,192,95832,1,2,0:0:0:0:
448,192,96053,1,0,0:0:0:0:
192,192,96274,1,8,0:0:0:0:
320,192,96274,1,0,0:0:0:0:
64,192,96604,1,0,0:0:0:0:
448,192,96715,1,0,0:0:0:0:
192,192,96715,1,8,0:0:0:0:
320,192,96935,1,0,0:0:0:0:
448,192,97156,1,0,0:0:0:0:
64,192,97156,1,8,0:0:0:0:
320,192,97266,1,0,0:0:0:0:
64,192,97597,1,8,0:0:0:0:
192,192,97597,1,0,0:0:0:0:
448,192,97818,1,0,0:0:0:0:
320,192,98038,1,0,0:0:0:0:
192,192,98038,1,8,0:0:0:0:
64,192,98369,1,0,0:0:0:0:
320,192,98479,1,8,0:0:0:0:
448,192,98479,1,0,0:0:0:0:
192,192,98700,1,0,0:0:0:0:
64,192,98921,1,8,0:0:0:0:
448,192,98921,1,0,0:0:0:0:
192,192,99031,1,0,0:0:0:0:
64,192,99362,1,8,0:0:0:0:
320,192,99362,1,0,0:0:0:0:
448,192,99582,1,0,0:0:0:0:
64,192,99803,1,8,0:0:0:0:
320,192,99803,1,4,0:0:0:0:
192,192,99803,1,0,0:0:0:0:
448,192,100024,1,8,0:0:0:0:
320,192,100244,1,0,0:0:0:0:
192,192,100244,1,8,0:0:0:0:
64,192,100465,1,8,0:0:0:0:
448,192,100685,1,0,0:0:0:0:
192,192,100685,1,8,0:0:0:0:
320,192,100906,1,8,0:0:0:0:
64,192,101127,1,8,0:0:0:0:
448,192,101127,1,0,0:0:0:0:
192,192,101347,1,8,0:0:0:0:
320,192,101568,1,0,0:0:0:0:
64,192,101568,1,8,0:0:0:0:
448,192,101788,1,8,0:0:0:0:
192,192,102009,1,0,0:0:0:0:
64,192,102009,1,8,0:0:0:0:
448,192,102229,1,8,0:0:0:0:
320,192,102450,1,0,0:0:0:0:
64,192,102450,1,8,0:0:0:0:
192,192,102671,1,8,0:0:0:0:
320,192,102891,1,8,0:0:0:0:
448,192,102891,1,0,0:0:0:0:
192,192,103112,1,8,0:0:0:0:
320,192,103332,1,8,0:0:0:0:
448,192,103332,1,0,0:0:0:0:
192,192,103443,1,8,0:0:0:0:
64,192,103553,1,8,0:0:0:0:
448,192,103663,1,8,0:0:0:0:
320,192,103774,1,8,0:0:0:0:
64,192,103884,1,8,0:0:0:0:
192,192,103994,1,8,0:0:0:0:
320,192,104104,1,8,0:0:0:0:
448,192,104215,1,8,0:0:0:0:
64,192,104325,1,8,0:0:0:0:
192,192,104435,1,8,0:0:0:0:
448,192,104546,1,8,0:0:0:0:
320,192,104656,1,8,0:0:0:0:
192,192,104766,1,8,0:0:0:0:
64,192,104877,1,8,0:0:0:0:
448,192,104987,1,8,0:0:0:0:
320,192,105097,1,0,0:0:0:0:
192,192,105097,1,8,0:0:0:0:
64,192,105318,1,0,0:0:0:0:
192,192,105428,1,0,0:0:0:0:
448,192,105538,1,0,0:0:0:0:
320,192,105759,1,0,0:0:0:0:
192,192,105979,1,0,0:0:0:0:
320,192,106310,1,0,0:0:0:0:
64,192,106421,1,8,0:0:0:0:
448,192,106531,1,8,0:0:0:0:
192,192,106641,1,8,0:0:0:0:
320,192,106641,1,0,0:0:0:0:
448,192,106862,128,4,107303:0:0:0:0:
192,192,106862,1,0,0:0:0:0:
64,192,106862,128,8,107303:0:0:0:0:
320,192,107303,1,0,0:0:0:0:
192,192,107303,1,2,0:0:0:0:
64,192,107524,1,0,0:0:0:0:
448,192,107744,1,0,0:0:0:0:
192,192,107744,1,8,0:0:0:0:
320,192,107965,1,0,0:0:0:0:
448,192,108185,1,0,0:0:0:0:
192,192,108185,1,2,0:0:0:0:
64,192,108406,1,0,0:0:0:0:
192,192,108516,1,0,0:0:0:0:
320,192,108627,1,8,0:0:0:0:
448,192,108627,1,0,0:0:0:0:
192,192,108847,1,0,0:0:0:0:
448,192,109068,1,0,0:0:0:0:
64,192,109068,1,2,0:0:0:0:
320,192,109288,1,0,0:0:0:0:
192,192,109399,1,0,0:0:0:0:
64,192,109509,1,8,0:0:0:0:
448,192,109509,1,0,0:0:0:0:
320,192,109729,1,0,0:0:0:0:
64,192,109950,128,2,110391:0:0:0:0:
192,192,109950,1,0,0:0:0:0:
192,192,110391,1,8,0:0:0:0:
448,192,110391,1,0,0:0:0:0:
320,192,110502,1,0,0:0:0:0:
448,192,110612,1,0,0:0:0:0:
192,192,110722,1,0,0:0:0:0:
64,192,110832,128,2,111053:0:0:0:0:
320,192,110832,1,0,0:0:0:0:
448,192,111053,128,0,111274:0:0:0:0:
64,192,111274,128,8,111494:0:0:0:0:
320,192,111274,1,0,0:0:0:0:
448,192,111494,128,0,111715:0:0:0:0:
192,192,111715,1,0,0:0:0:0:
64,192,111715,1,2,0:0:0:0:
320,192,111825,1,0,0:0:0:0:
448,192,111935,1,0,0:0:0:0:
64,192,112046,1,0,0:0:0:0:
192,192,112156,1,8,0:0:0:0:
448,192,112156,128,0,112377:0:0:0:0:
64,192,112377,128,0,112597:0:0:0:0:
448,192,112597,128,0,112818:0:0:0:0:
192,192,112597,1,2,0:0:0:0:
64,192,112818,128,0,113038:0:0:0:0:
448,192,113038,128,0,113259:0:0:0:0:
192,192,113038,1,8,0:0:0:0:
320,192,113259,128,0,113479:0:0:0:0:
64,192,113479,128,2,113700:0:0:0:0:
448,192,113479,1,0,0:0:0:0:
192,192,113700,128,0,113921:0:0:0:0:
448,192,113921,128,4,114362:0:0:0:0:
64,192,113921,1,8,0:0:0:0:
320,192,113921,128,0,114362:0:0:0:0:
64,192,114362,1,2,0:0:0:0:
192,192,114362,1,0,0:0:0:0:
320,192,114582,1,0,0:0:0:0:
192,192,114803,1,8,0:0:0:0:
448,192,114803,1,0,0:0:0:0:
64,192,115024,1,0,0:0:0:0:
448,192,115244,1,0,0:0:0:0:
192,192,115244,1,2,0:0:0:0:
320,192,115465,1,0,0:0:0:0:
448,192,115575,1,0,0:0:0:0:
192,192,115685,1,0,0:0:0:0:
64,192,115685,1,8,0:0:0:0:
448,192,115906,1,0,0:0:0:0:
192,192,116127,1,2,0:0:0:0:
320,192,116127,1,0,0:0:0:0:
64,192,116347,1,0,0:0:0:0:
320,192,116457,1,0,0:0:0:0:
192,192,116568,1,8,0:0:0:0:
448,192,116568,1,0,0:0:0:0:
64,192,116788,1,0,0:0:0:0:
192,192,117009,1,2,0:0:0:0:
448,192,117009,128,0,117450:0:0:0:0:
192,192,117450,1,0,0:0:0:0:
64,192,117450,1,8,0:0:0:0:
320,192,117560,1,0,0:0:0:0:
448,192,117671,1,0,0:0:0:0:
192,192,117781,1,0,0:0:0:0:
64,192,117891,128,2,118112:0:0:0:0:
320,192,117891,1,0,0:0:0:0:
448,192,118112,128,0,118332:0:0:0:0:
64,192,118332,128,8,118553:0:0:0:0:
320,192,118332,1,0,0:0:0:0:
448,192,118553,128,0,118774:0:0:0:0:
320,192,118774,1,0,0:0:0:0:
192,192,118774,1,2,0:0:0:0:
64,192,118884,1,0,0:0:0:0:
448,192,118994,1,0,0:0:0:0:
320,192,119104,1,0,0:0:0:0:
64,192,119215,1,8,0:0:0:0:
192,192,119215,1,0,0:0:0:0:
448,192,119435,1,0,0:0:0:0:
192,192,119546,1,0,0:0:0:0:
320,192,119656,1,0,0:0:0:0:
64,192,119877,1,0,0:0:0:0:
320,192,120097,1,0,0:0:0:0:
192,192,120207,1,0,0:0:0:0:
448,192,120538,1,8,0:0:0:0:
192,192,120649,1,8,0:0:0:0:
64,192,120759,1,8,0:0:0:0:
320,192,120759,1,0,0:0:0:0:
448,192,120979,128,4,121421:0:0:0:0:
192,192,120979,1,0,0:0:0:0:
64,192,120979,128,8,121421:0:0:0:0:
320,192,121421,1,0,0:0:0:0:
192,192,121641,1,0,0:0:0:0:
448,192,121862,1,0,0:0:0:0:
64,192,121862,1,2,0:0:0:0:
320,192,122082,1,0,0:0:0:0:
448,192,122303,1,0,0:0:0:0:
192,192,122303,1,8,0:0:0:0:
64,192,122524,1,0,0:0:0:0:
320,192,122744,1,0,0:0:0:0:
192,192,122965,1,0,0:0:0:0:
448,192,123185,1,0,0:0:0:0:
320,192,123185,128,8,123627:0:0:0:0:
64,192,123406,1,0,0:0:0:0:
448,192,123627,1,0,0:0:0:0:
192,192,123627,128,2,124068:0:0:0:0:
320,192,123847,1,0,0:0:0:0:
64,192,124068,1,0,0:0:0:0:
448,192,124215,1,0,0:0:0:0:
320,192,124362,1,0,0:0:0:0:
64,192,124509,1,8,0:0:0:0:
192,192,124509,1,0,0:0:0:0:
448,192,124729,128,0,124950:0:0:0:0:
320,192,124950,128,0,125171:0:0:0:0:
64,192,125171,128,0,125391:0:0:0:0:
192,192,125391,128,2,125832:0:0:0:0:
448,192,125391,1,0,0:0:0:0:
448,192,125832,1,0,0:0:0:0:
320,192,125832,1,8,0:0:0:0:
64,192,126053,1,0,0:0:0:0:
192,192,126274,1,0,0:0:0:0:
448,192,126494,128,0,126715:0:0:0:0:
64,192,126715,1,8,0:0:0:0:
320,192,126715,128,0,127156:0:0:0:0:
192,192,126935,1,0,0:0:0:0:
64,192,127156,1,2,0:0:0:0:
448,192,127156,1,0,0:0:0:0:
192,192,127377,128,0,127597:0:0:0:0:
320,192,127597,128,0,128038:0:0:0:0:
448,192,128038,128,4,128479:0:0:0:0:
64,192,128038,128,8,128479:0:0:0:0:
192,192,128479,1,0,0:0:0:0:
320,192,128700,1,0,0:0:0:0:
192,192,128921,1,0,0:0:0:0:
64,192,128921,1,2,0:0:0:0:
448,192,129141,1,0,0:0:0:0:
320,192,129362,1,0,0:0:0:0:
64,192,129362,1,8,0:0:0:0:
192,192,129582,1,0,0:0:0:0:
448,192,129803,1,0,0:0:0:0:
320,192,130024,1,0,0:0:0:0:
448,192,130244,128,0,130685:0:0:0:0:
64,192,130244,1,8,0:0:0:0:
192,192,130465,1,0,0:0:0:0:
64,192,130685,128,2,131127:0:0:0:0:
320,192,130685,1,0,0:0:0:0:
448,192,130906,1,0,0:0:0:0:
192,192,131127,1,0,0:0:0:0:
320,192,131274,1,0,0:0:0:0:
448,192,131421,1,0,0:0:0:0:
192,192,131568,1,0,0:0:0:0:
64,192,131568,1,8,0:0:0:0:
320,192,131788,128,0,132009:0:0:0:0:
192,192,132009,128,0,132229:0:0:0:0:
64,192,132229,128,0,132450:0:0:0:0:
448,192,132450,128,0,132891:0:0:0:0:
320,192,132450,1,2,0:0:0:0:
192,192,132891,1,8,0:0:0:0:
320,192,132891,1,0,0:0:0:0:
64,192,133112,1,0,0:0:0:0:
192,192,133332,1,0,0:0:0:0:
320,192,133553,128,0,133774:0:0:0:0:
448,192,133774,128,0,134215:0:0:0:0:
64,192,133774,1,8,0:0:0:0:
192,192,133994,1,0,0:0:0:0:
320,192,134215,1,0,0:0:0:0:
64,192,134215,1,2,0:0:0:0:
64,192,134435,1,2,0:0:0:0:
192,192,134435,1,0,0:0:0:0:
320,192,134546,1,2,0:0:0:0:
448,192,134546,1,0,0:0:0:0:
192,192,134656,128,0,135097:0:0:0:0:
64,192,134656,1,2,0:0:0:0:
64,192,135097,128,8,135538:0:0:0:0:
448,192,135097,1,4,0:0:0:0:
320,192,135097,128,0,135538:0:0:0:0:
192,192,135538,1,2,0:0:0:0:
448,192,135538,1,0,0:0:0:0:
320,192,135759,1,0,0:0:0:0:
448,192,135869,1,0,0:0:0:0:
64,192,135869,1,8,0:0:0:0:
192,192,135979,1,0,0:0:0:0:
64,192,136200,1,8,0:0:0:0:
448,192,136200,1,0,0:0:0:0:
320,192,136421,1,0,0:0:0:0:
192,192,136421,1,2,0:0:0:0:
64,192,136641,1,0,0:0:0:0:
320,192,136862,1,8,0:0:0:0:
448,192,136862,1,0,0:0:0:0:
192,192,137082,1,0,0:0:0:0:
320,192,137303,1,0,0:0:0:0:
64,192,137303,1,2,0:0:0:0:
448,192,137524,1,0,0:0:0:0:
320,192,137634,1,0,0:0:0:0:
192,192,137634,1,8,0:0:0:0:
64,192,137744,1,0,0:0:0:0:
192,192,137965,1,8,0:0:0:0:
320,192,137965,1,0,0:0:0:0:
64,192,138185,1,2,0:0:0:0:
448,192,138185,1,0,0:0:0:0:
320,192,138406,1,0,0:0:0:0:
448,192,138627,1,0,0:0:0:0:
192,192,138627,1,8,0:0:0:0:
64,192,138847,1,0,0:0:0:0:
320,192,139068,1,0,0:0:0:0:
192,192,139068,1,2,0:0:0:0:
448,192,139288,1,0,0:0:0:0:
320,192,139399,1,0,0:0:0:0:
64,192,139399,1,8,0:0:0:0:
192,192,139509,1,0,0:0:0:0:
64,192,139729,1,8,0:0:0:0:
320,192,139729,1,0,0:0:0:0:
192,192,139950,1,2,0:0:0:0:
448,192,139950,1,0,0:0:0:0:
320,192,140171,1,0,0:0:0:0:
64,192,140391,1,8,0:0:0:0:
448,192,140391,1,0,0:0:0:0:
192,192,140612,1,0,0:0:0:0:
448,192,140832,1,0,0:0:0:0:
320,192,140832,1,2,0:0:0:0:
64,192,141053,1,0,0:0:0:0:
192,192,141163,1,8,0:0:0:0:
320,192,141163,1,0,0:0:0:0:
448,192,141274,1,0,0:0:0:0:
192,192,141494,1,8,0:0:0:0:
320,192,141494,1,0,0:0:0:0:
64,192,141715,1,2,0:0:0:0:
448,192,141715,128,0,142156:0:0:0:0:
64,192,142156,128,8,142597:0:0:0:0:
320,192,142156,1,4,0:0:0:0:
192,192,142156,128,0,142597:0:0:0:0:
448,192,142597,1,0,0:0:0:0:
320,192,142597,1,2,0:0:0:0:
448,192,142818,1,0,0:0:0:0:
192,192,143038,1,0,0:0:0:0:
64,192,143038,1,2,0:0:0:0:
64,192,143259,1,0,0:0:0:0:
192,192,143479,1,2,0:0:0:0:
320,192,143479,1,0,0:0:0:0:
320,192,143700,1,0,0:0:0:0:
448,192,143921,1,0,0:0:0:0:
192,192,143921,1,2,0:0:0:0:
192,192,144141,1,0,0:0:0:0:
448,192,144362,1,0,0:0:0:0:
64,192,144362,1,2,0:0:0:0:
448,192,144582,1,0,0:0:0:0:
64,192,144803,1,2,0:0:0:0:
320,192,144803,1,0,0:0:0:0:
64,192,145024,1,0,0:0:0:0:
192,192,145244,128,2,145465:0:0:0:0:
320,192,145244,1,0,0:0:0:0:
320,192,145465,128,0,145685:0:0:0:0:
448,192,145685,128,4,146127:0:0:0:0:
192,192,145685,128,0,146127:0:0:0:0:
64,192,145685,1,8,0:0:0:0:
64,192,146127,1,8,0:0:0:0:
320,192,146127,1,0,0:0:0:0:
192,192,146568,128,8,147009:0:0:0:0:
320,192,146568,128,0,147009:0:0:0:0:
448,192,146568,1,4,0:0:0:0:
64,192,147009,1,8,0:0:0:0:
448,192,147009,1,0,0:0:0:0:
320,192,147450,1,4,0:0:0:0:
192,192,147450,1,0,0:0:0:0:
64,192,147450,1,8,0:0:0:0:
448,192,147671,1,0,0:0:0:0:
320,192,147671,1,8,0:0:0:0:
192,192,147891,1,0,0:0:0:0:
64,192,147891,1,8,0:0:0:0:
448,192,148002,1,8,0:0:0:0:
320,192,148112,1,8,0:0:0:0:
192,192,148222,1,8,0:0:0:0:
64,192,148332,1,8,0:0:0:0:
448,192,148332,128,0,149215:0:0:0:0:
320,192,148774,1,4,0:0:0:0:
64,192,148774,1,2,0:0:0:0:
320,192,149215,1,4,0:0:0:0:
192,192,149215,1,0,0:0:0:0:
64,192,149215,1,8,0:0:0:0:
448,192,149435,1,0,0:0:0:0:
320,192,149546,1,0,0:0:0:0:
64,192,149656,1,2,0:0:0:0:
192,192,149656,1,0,0:0:0:0:
448,192,149877,1,0,0:0:0:0:
320,192,150097,1,0,0:0:0:0:
64,192,150097,1,8,0:0:0:0:
192,192,150207,1,0,0:0:0:0:
320,192,150318,1,0,0:0:0:0:
64,192,150538,1,2,0:0:0:0:
448,192,150538,1,0,0:0:0:0:
192,192,150759,1,0,0:0:0:0:
320,192,150979,1,8,0:0:0:0:
448,192,150979,1,0,0:0:0:0:
192,192,151200,1,0,0:0:0:0:
320,192,151310,1,0,0:0:0:0:
448,192,151421,1,0,0:0:0:0:
64,192,151421,1,2,0:0:0:0:
192,192,151641,1,0,0:0:0:0:
64,192,151862,1,8,0:0:0:0:
320,192,151862,1,0,0:0:0:0:
448,192,151972,1,0,0:0:0:0:
192,192,152082,1,0,0:0:0:0:
448,192,152303,1,0,0:0:0:0:
64,192,152303,1,2,0:0:0:0:
320,192,152524,1,0,0:0:0:0:
192,192,152744,1,0,0:0:0:0:
64,192,152744,1,8,0:0:0:0:
448,192,152965,1,0,0:0:0:0:
320,192,153075,1,0,0:0:0:0:
192,192,153185,1,2,0:0:0:0:
448,192,153185,1,0,0:0:0:0:
64,192,153406,1,0,0:0:0:0:
320,192,153627,1,8,0:0:0:0:
448,192,153627,1,0,0:0:0:0:
192,192,153737,1,0,0:0:0:0:
64,192,153847,1,0,0:0:0:0:
320,192,154068,1,0,0:0:0:0:
192,192,154068,1,2,0:0:0:0:
448,192,154288,1,0,0:0:0:0:
64,192,154509,1,8,0:0:0:0:
192,192,154509,1,0,0:0:0:0:
320,192,154729,1,0,0:0:0:0:
192,192,154840,1,0,0:0:0:0:
64,192,154950,1,2,0:0:0:0:
448,192,154950,1,0,0:0:0:0:
320,192,155171,1,0,0:0:0:0:
64,192,155391,1,8,0:0:0:0:
192,192,155391,1,0,0:0:0:0:
320,192,155502,1,0,0:0:0:0:
448,192,155612,1,0,0:0:0:0:
320,192,155832,1,0,0:0:0:0:
64,192,155832,1,2,0:0:0:0:
192,192,156053,1,0,0:0:0:0:
64,192,156274,1,8,0:0:0:0:
448,192,156274,1,0,0:0:0:0:
320,192,156494,1,0,0:0:0:0:
192,192,156604,1,0,0:0:0:0:
320,192,156715,1,0,0:0:0:0:
64,192,156715,1,2,0:0:0:0:
448,192,156935,1,0,0:0:0:0:
320,192,157156,1,0,0:0:0:0:
192,192,157156,1,8,0:0:0:0:
64,192,157266,1,0,0:0:0:0:
448,192,157377,1,0,0:0:0:0:
64,192,157597,1,2,0:0:0:0:
192,192,157597,1,0,0:0:0:0:
320,192,157818,1,0,0:0:0:0:
192,192,158038,1,8,0:0:0:0:
448,192,158038,1,0,0:0:0:0:
64,192,158259,1,0,0:0:0:0:
192,192,158369,1,0,0:0:0:0:
448,192,158479,1,0,0:0:0:0:
320,192,158479,1,2,0:0:0:0:
192,192,158700,1,0,0:0:0:0:
64,192,158921,1,8,0:0:0:0:
448,192,158921,1,0,0:0:0:0:
320,192,159031,1,0,0:0:0:0:
192,192,159141,1,0,0:0:0:0:
448,192,159362,1,0,0:0:0:0:
64,192,159362,1,2,0:0:0:0:
320,192,159582,1,0,0:0:0:0:
192,192,159803,1,8,0:0:0:0:
448,192,159803,1,0,0:0:0:0:
64,192,160024,1,0,0:0:0:0:
192,192,160134,1,0,0:0:0:0:
320,192,160244,1,2,0:0:0:0:
448,192,160244,1,0,0:0:0:0:
64,192,160465,1,0,0:0:0:0:
320,192,160685,1,0,0:0:0:0:
192,192,160685,1,8,0:0:0:0:
448,192,160796,1,0,0:0:0:0:
64,192,160906,1,0,0:0:0:0:
448,192,161127,1,0,0:0:0:0:
192,192,161127,1,2,0:0:0:0:
320,192,161347,1,0,0:0:0:0:
192,192,161568,1,0,0:0:0:0:
64,192,161568,128,8,162450:0:0:0:0:
320,192,162009,1,2,0:0:0:0:
192,192,162450,128,8,162671:0:0:0:0:
320,192,162671,128,0,162891:0:0:0:0:
64,192,162891,1,2,0:0:0:0:
448,192,162891,1,4,0:0:0:0:
192,192,163002,1,0,0:0:0:0:
320,192,163112,1,0,0:0:0:0:
64,192,163222,1,0,0:0:0:0:
192,192,163332,1,8,0:0:0:0:
320,192,163332,1,0,0:0:0:0:
448,192,163332,1,4,0:0:0:0:
64,192,163553,1,0,0:0:0:0:
448,192,163663,1,0,0:0:0:0:
192,192,163774,1,2,0:0:0:0:
320,192,163774,1,0,0:0:0:0:
448,192,163994,1,0,0:0:0:0:
64,192,164215,1,8,0:0:0:0:
192,192,164215,1,0,0:0:0:0:
320,192,164325,1,0,0:0:0:0:
448,192,164435,1,0,0:0:0:0:
192,192,164656,1,2,0:0:0:0:
320,192,164656,1,0,0:0:0:0:
64,192,164877,1,0,0:0:0:0:
320,192,165097,1,8,0:0:0:0:
448,192,165097,1,0,0:0:0:0:
64,192,165318,1,0,0:0:0:0:
192,192,165428,1,0,0:0:0:0:
448,192,165538,1,0,0:0:0:0:
320,192,165538,1,2,0:0:0:0:
192,192,165759,1,0,0:0:0:0:
448,192,165979,1,0,0:0:0:0:
64,192,165979,1,8,0:0:0:0:
320,192,166090,1,0,0:0:0:0:
192,192,166200,1,0,0:0:0:0:
64,192,166421,1,2,0:0:0:0:
320,192,166421,1,0,0:0:0:0:
448,192,166641,1,0,0:0:0:0:
320,192,166862,1,0,0:0:0:0:
192,192,166862,1,8,0:0:0:0:
64,192,167082,1,0,0:0:0:0:
448,192,167193,1,0,0:0:0:0:
192,192,167303,1,2,0:0:0:0:
320,192,167303,1,0,0:0:0:0:
64,192,167524,1,0,0:0:0:0:
448,192,167744,1,0,0:0:0:0:
192,192,167744,1,8,0:0:0:0:
320,192,167854,1,0,0:0:0:0:
448,192,167965,1,0,0:0:0:0:
64,192,168185,1,2,0:0:0:0:
192,192,168185,1,0,0:0:0:0:
320,192,168406,1,0,0:0:0:0:
448,192,168627,1,0,0:0:0:0:
192,192,168627,1,8,0:0:0:0:
64,192,168847,1,0,0:0:0:0:
192,192,168957,1,0,0:0:0:0:
320,192,169068,1,2,0:0:0:0:
448,192,169068,1,0,0:0:0:0:
192,192,169288,1,0,0:0:0:0:
320,192,169509,1,0,0:0:0:0:
64,192,169509,1,8,0:0:0:0:
192,192,169619,1,0,0:0:0:0:
64,192,169729,1,0,0:0:0:0:
192,192,169950,1,2,0:0:0:0:
448,192,169950,1,0,0:0:0:0:
320,192,170171,1,0,0:0:0:0:
64,192,170391,1,8,0:0:0:0:
192,192,170391,1,0,0:0:0:0:
320,192,170612,1,0,0:0:0:0:
192,192,170722,1,0,0:0:0:0:
448,192,170832,1,0,0:0:0:0:
64,192,170832,1,2,0:0:0:0:
320,192,171053,1,0,0:0:0:0:
192,192,171274,1,8,0:0:0:0:
448,192,171274,1,0,0:0:0:0:
320,192,171384,1,0,0:0:0:0:
64,192,171494,1,0,0:0:0:0:
320,192,171715,1,2,0:0:0:0:
448,192,171715,1,0,0:0:0:0:
192,192,171935,1,0,0:0:0:0:
448,192,172156,1,0,0:0:0:0:
64,192,172156,1,8,0:0:0:0:
320,192,172377,1,0,0:0:0:0:
192,192,172487,1,0,0:0:0:0:
64,192,172597,1,2,0:0:0:0:
448,192,172597,1,0,0:0:0:0:
320,192,172818,1,0,0:0:0:0:
64,192,173038,1,8,0:0:0:0:
192,192,173038,1,0,0:0:0:0:
320,192,173149,1,0,0:0:0:0:
448,192,173259,1,0,0:0:0:0:
64,192,173479,1,2,0:0:0:0:
320,192,173479,1,0,0:0:0:0:
192,192,173700,1,0,0:0:0:0:
448,192,173921,1,8,0:0:0:0:
64,192,173921,1,0,0:0:0:0:
320,192,174031,1,8,0:0:0:0:
192,192,174141,1,8,0:0:0:0:
448,192,174252,1,8,0:0:0:0:
64,192,174362,1,10,0:0:0:0:
192,192,174472,1,8,0:0:0:0:
320,192,174582,1,8,0:0:0:0:
64,192,174693,1,8,0:0:0:0:
448,192,174803,1,8,0:0:0:0:
192,192,174913,1,8,0:0:0:0:
320,192,175024,1,8,0:0:0:0:
64,192,175134,1,8,0:0:0:0:
448,192,175244,1,10,0:0:0:0:
192,192,175354,1,8,0:0:0:0:
320,192,175465,1,8,0:0:0:0:
448,192,175575,1,8,0:0:0:0:
64,192,175685,1,8,0:0:0:0:
192,192,175796,1,8,0:0:0:0:
320,192,175906,1,8,0:0:0:0:
64,192,176016,1,8,0:0:0:0:
448,192,176127,1,10,0:0:0:0:
192,192,176237,1,8,0:0:0:0:
320,192,176347,1,8,0:0:0:0:
64,192,176457,1,8,0:0:0:0:
192,192,176568,1,8,0:0:0:0:
448,192,176678,1,8,0:0:0:0:
320,192,176788,1,8,0:0:0:0:
64,192,176899,1,8,0:0:0:0:
192,192,177009,1,10,0:0:0:0:
320,192,177119,1,8,0:0:0:0:
448,192,177229,1,8,0:0:0:0:
192,192,177340,1,8,0:0:0:0:
320,192,177450,1,0,0:0:0:0:
448,192,177450,1,4,0:0:0:0:
64,192,177450,1,8,0:0:0:0:
192,192,177671,1,0,0:0:0:0:
192,192,178332,1,0,0:0:0:0:
448,192,178663,128,0,178994:0:0:0:0:
320,192,178994,128,0,179215:0:0:0:0:
64,192,179435,1,0,0:0:0:0:
192,192,179656,1,0,0:0:0:0:
448,192,179877,1,0,0:0:0:0:
64,192,180097,1,0,0:0:0:0:
320,192,180428,128,0,180759:0:0:0:0:
192,192,180759,128,0,180979:0:0:0:0:
64,192,181200,1,0,0:0:0:0:
320,192,181421,1,0,0:0:0:0:
192,192,181641,1,0,0:0:0:0:
448,192,181862,1,0,0:0:0:0:
320,192,182082,1,0,0:0:0:0:
64,192,182303,1,0,0:0:0:0:
192,192,182524,128,0,182744:0:0:0:0:
448,192,182965,1,0,0:0:0:0:
320,192,183185,1,0,0:0:0:0:
64,192,183406,128,0,183847:0:0:0:0:
192,192,183847,1,0,0:0:0:0:
448,192,184068,1,0,0:0:0:0:
320,192,184288,1,0,0:0:0:0:
192,192,184509,1,0,0:0:0:0:
448,192,184509,1,4,0:0:0:0:
64,192,184509,1,8,0:0:0:0:
64,192,184729,1,2,0:0:0:0:
448,192,184950,1,0,0:0:0:0:
320,192,184950,1,2,0:0:0:0:
448,192,185171,1,2,0:0:0:0:
64,192,185391,1,2,0:0:0:0:
192,192,185391,1,0,0:0:0:0:
192,192,185612,1,2,0:0:0:0:
320,192,185832,1,2,0:0:0:0:
448,192,185832,1,0,0:0:0:0:
320,192,186053,1,2,0:0:0:0:
448,192,186274,1,4,0:0:0:0:
192,192,186274,1,0,0:0:0:0:
64,192,186274,1,8,0:0:0:0:
64,192,186494,1,2,0:0:0:0:
448,192,186715,1,0,0:0:0:0:
192,192,186715,1,2,0:0:0:0:
448,192,186935,1,2,0:0:0:0:
320,192,187156,1,0,0:0:0:0:
192,192,187156,1,2,0:0:0:0:
192,192,187377,1,2,0:0:0:0:
64,192,187597,1,2,0:0:0:0:
320,192,187597,1,0,0:0:0:0:
320,192,187818,1,2,0:0:0:0:
192,192,188038,1,0,0:0:0:0:
64,192,188038,1,8,0:0:0:0:
448,192,188038,1,4,0:0:0:0:
320,192,188149,1,8,0:0:0:0:
192,192,188259,1,8,0:0:0:0:
448,192,188369,1,8,0:0:0:0:
64,192,188479,1,8,0:0:0:0:
320,192,188590,1,8,0:0:0:0:
192,192,188700,1,8,0:0:0:0:
64,192,188810,1,8,0:0:0:0:
320,192,188921,1,8,0:0:0:0:
192,192,189031,1,8,0:0:0:0:
448,192,189141,1,8,0:0:0:0:
320,192,189252,1,8,0:0:0:0:
64,192,189362,1,8,0:0:0:0:
192,192,189472,1,8,0:0:0:0:
320,192,189582,1,8,0:0:0:0:
64,192,189693,1,8,0:0:0:0:
448,192,189803,1,8,0:0:0:0:
192,192,189913,1,8,0:0:0:0:
448,192,190024,1,8,0:0:0:0:
192,192,190134,1,8,0:0:0:0:
320,192,190244,1,8,0:0:0:0:
64,192,190354,1,8,0:0:0:0:
320,192,190465,1,8,0:0:0:0:
64,192,190575,1,8,0:0:0:0:
192,192,190685,1,8,0:0:0:0:
448,192,190796,1,8,0:0:0:0:
192,192,190906,1,8,0:0:0:0:
448,192,191016,1,8,0:0:0:0:
64,192,191127,1,8,0:0:0:0:
320,192,191237,1,8,0:0:0:0:
64,192,191347,1,8,0:0:0:0:
320,192,191457,1,8,0:0:0:0:
64,192,191568,1,8,0:0:0:0:
448,192,191678,1,8,0:0:0:0:
64,192,191788,1,8,0:0:0:0:
448,192,191899,1,8,0:0:0:0:
192,192,192009,1,8,0:0:0:0:
320,192,192119,1,8,0:0:0:0:
192,192,192229,1,8,0:0:0:0:
320,192,192340,1,8,0:0:0:0:
192,192,192450,1,8,0:0:0:0:
448,192,192450,128,0,192891:0:0:0:0:
64,192,192891,1,2,0:0:0:0:
192,192,192891,1,4,0:0:0:0:
64,192,193332,1,8,0:0:0:0:
320,192,193332,1,0,0:0:0:0:
448,192,193332,1,4,0:0:0:0:
192,192,193553,1,0,0:0:0:0:
320,192,193663,1,0,0:0:0:0:
64,192,193774,1,8,0:0:0:0:
448,192,193774,1,2,0:0:0:0:
192,192,193994,1,0,0:0:0:0:
448,192,194215,1,0,0:0:0:0:
320,192,194215,1,8,0:0:0:0:
192,192,194325,1,0,0:0:0:0:
64,192,194435,1,0,0:0:0:0:
192,192,194656,1,8,0:0:0:0:
448,192,194656,128,2,194877:0:0:0:0:
320,192,194877,128,0,195097:0:0:0:0:
192,192,195097,1,0,0:0:0:0:
64,192,195097,1,8,0:0:0:0:
448,192,195318,1,0,0:0:0:0:
320,192,195428,1,0,0:0:0:0:
64,192,195538,1,8,0:0:0:0:
192,192,195538,1,2,0:0:0:0:
320,192,195759,1,0,0:0:0:0:
448,192,195979,1,8,0:0:0:0:
192,192,195979,1,0,0:0:0:0:
64,192,196090,1,0,0:0:0:0:
320,192,196200,1,0,0:0:0:0:
448,192,196421,1,2,0:0:0:0:
64,192,196421,128,8,196641:0:0:0:0:
320,192,196641,128,0,196862:0:0:0:0:
192,192,196862,1,0,0:0:0:0:
448,192,196862,1,8,0:0:0:0:
320,192,197082,1,0,0:0:0:0:
64,192,197193,1,0,0:0:0:0:
448,192,197303,1,2,0:0:0:0:
192,192,197303,1,8,0:0:0:0:
64,192,197524,1,0,0:0:0:0:
192,192,197744,1,8,0:0:0:0:
320,192,197744,1,0,0:0:0:0:
448,192,197854,1,0,0:0:0:0:
64,192,197965,1,0,0:0:0:0:
192,192,198185,128,8,198406:0:0:0:0:
448,192,198185,1,2,0:0:0:0:
320,192,198406,128,0,198627:0:0:0:0:
64,192,198627,1,8,0:0:0:0:
448,192,198627,1,0,0:0:0:0:
320,192,198847,1,0,0:0:0:0:
192,192,198957,1,0,0:0:0:0:
448,192,199068,1,2,0:0:0:0:
64,192,199068,1,8,0:0:0:0:
320,192,199288,1,0,0:0:0:0:
64,192,199509,1,8,0:0:0:0:
192,192,199509,1,0,0:0:0:0:
320,192,199619,1,0,0:0:0:0:
448,192,199729,1,0,0:0:0:0:
320,192,199950,1,2,0:0:0:0:
64,192,199950,128,8,200171:0:0:0:0:
192,192,200171,128,0,200391:0:0:0:0:
448,192,200391,1,0,0:0:0:0:
320,192,200391,1,8,0:0:0:0:
64,192,200612,1,0,0:0:0:0:
448,192,200722,1,0,0:0:0:0:
192,192,200832,1,8,0:0:0:0:
320,192,200832,1,2,0:0:0:0:
64,192,201053,1,0,0:0:0:0:
192,192,201274,1,8,0:0:0:0:
448,192,201274,1,0,0:0:0:0:
320,192,201384,1,0,0:0:0:0:
64,192,201494,1,0,0:0:0:0:
448,192,201715,1,2,0:0:0:0:
320,192,201715,128,8,201935:0:0:0:0:
192,192,201935,128,0,202156:0:0:0:0:
448,192,202156,1,0,0:0:0:0:
64,192,202156,1,8,0:0:0:0:
192,192,202377,1,0,0:0:0:0:
320,192,202487,1,0,0:0:0:0:
64,192,202597,1,8,0:0:0:0:
448,192,202597,1,2,0:0:0:0:
192,192,202818,1,0,0:0:0:0:
320,192,203038,1,0,0:0:0:0:
64,192,203038,1,8,0:0:0:0:
448,192,203149,1,0,0:0:0:0:
192,192,203259,1,0,0:0:0:0:
448,192,203479,1,2,0:0:0:0:
320,192,203479,128,8,203700:0:0:0:0:
192,192,203700,128,0,203921:0:0:0:0:
448,192,203921,1,0,0:0:0:0:
64,192,203921,1,8,0:0:0:0:
192,192,204141,1,0,0:0:0:0:
448,192,204252,1,0,0:0:0:0:
64,192,204362,1,8,0:0:0:0:
320,192,204362,1,2,0:0:0:0:
192,192,204582,1,0,0:0:0:0:
320,192,204803,1,8,0:0:0:0:
448,192,204803,1,0,0:0:0:0:
192,192,204913,1,0,0:0:0:0:
64,192,205024,1,0,0:0:0:0:
192,192,205244,1,8,0:0:0:0:
448,192,205244,128,2,205465:0:0:0:0:
320,192,205465,128,0,205685:0:0:0:0:
192,192,205685,5,0,0:0:0:0:
64,192,205685,128,8,206568:0:0:0:0:
448,192,206127,1,2,0:0:0:0:
320,192,206568,128,8,206788:0:0:0:0:
192,192,206788,128,0,207009:0:0:0:0:
64,192,207009,1,2,0:0:0:0:
448,192,207009,1,4,0:0:0:0:
320,192,207119,1,0,0:0:0:0:
192,192,207229,1,0,0:0:0:0:
64,192,207340,1,0,0:0:0:0:
320,192,207450,128,8,207891:0:0:0:0:
448,192,207450,1,0,0:0:0:0:
192,192,207891,1,0,0:0:0:0:
64,192,207891,1,2,0:0:0:0:
448,192,207891,1,4,0:0:0:0:
320,192,208112,1,0,0:0:0:0:
192,192,208222,1,0,0:0:0:0:
64,192,208332,1,8,0:0:0:0:
448,192,208332,1,0,0:0:0:0:
320,192,208553,1,0,0:0:0:0:
448,192,208774,1,2,0:0:0:0:
192,192,208774,128,8,208994:0:0:0:0:
64,192,208994,128,0,209215:0:0:0:0:
448,192,209215,1,0,0:0:0:0:
320,192,209215,1,8,0:0:0:0:
192,192,209435,1,0,0:0:0:0:
320,192,209546,1,0,0:0:0:0:
448,192,209656,1,2,0:0:0:0:
64,192,209656,1,8,0:0:0:0:
192,192,209877,1,0,0:0:0:0:
320,192,210097,1,0,0:0:0:0:
64,192,210097,1,8,0:0:0:0:
192,192,210207,1,0,0:0:0:0:
448,192,210318,1,0,0:0:0:0:
192,192,210538,1,2,0:0:0:0:
64,192,210538,128,8,210759:0:0:0:0:
320,192,210759,128,0,210979:0:0:0:0:
448,192,210979,1,0,0:0:0:0:
192,192,210979,1,8,0:0:0:0:
320,192,211200,1,0,0:0:0:0:
448,192,211310,1,0,0:0:0:0:
64,192,211421,1,8,0:0:0:0:
192,192,211421,1,2,0:0:0:0:
320,192,211641,1,0,0:0:0:0:
448,192,211862,1,0,0:0:0:0:
192,192,211862,1,8,0:0:0:0:
64,192,211972,1,0,0:0:0:0:
320,192,212082,1,0,0:0:0:0:
448,192,212303,1,2,0:0:0:0:
64,192,212303,128,8,212524:0:0:0:0:
320,192,212524,128,0,212744:0:0:0:0:
448,192,212744,1,0,0:0:0:0:
192,192,212744,1,8,0:0:0:0:
320,192,212965,1,0,0:0:0:0:
192,192,213075,1,0,0:0:0:0:
64,192,213185,1,8,0:0:0:0:
448,192,213185,1,2,0:0:0:0:
320,192,213406,1,0,0:0:0:0:
192,192,213627,1,8,0:0:0:0:
448,192,213627,1,0,0:0:0:0:
320,192,213737,1,0,0:0:0:0:
64,192,213847,1,0,0:0:0:0:
448,192,214068,1,2,0:0:0:0:
192,192,214068,128,8,214288:0:0:0:0:
320,192,214288,128,0,214509:0:0:0:0:
448,192,214509,1,0,0:0:0:0:
64,192,214509,1,8,0:0:0:0:
192,192,214729,1,0,0:0:0:0:
320,192,214840,1,0,0:0:0:0:
64,192,214950,1,8,0:0:0:0:
448,192,214950,1,2,0:0:0:0:
192,192,215171,1,0,0:0:0:0:
320,192,215391,1,8,0:0:0:0:
448,192,215391,1,0,0:0:0:0:
192,192,215502,1,0,0:0:0:0:
64,192,215612,1,0,0:0:0:0:
192,192,215832,1,8,0:0:0:0:
448,192,215832,128,2,216053:0:0:0:0:
64,192,216053,128,0,216274:0:0:0:0:
192,192,216274,1,8,0:0:0:0:
320,192,216274,1,0,0:0:0:0:
448,192,216494,1,0,0:0:0:0:
320,192,216604,1,0,0:0:0:0:
64,192,216715,1,8,0:0:0:0:
192,192,216715,1,2,0:0:0:0:
320,192,216935,5,0,0:0:0:0:
64,192,217156,1,8,0:0:0:0:
448,192,217156,1,0,0:0:0:0:
192,192,217266,1,0,0:0:0:0:
320,192,217377,1,0,0:0:0:0:
448,192,217597,1,2,0:0:0:0:
192,192,217597,128,8,217818:0:0:0:0:
64,192,217818,128,0,218038:0:0:0:0:
448,192,218038,5,0,0:0:0:0:
320,192,218038,1,8,0:0:0:0:
192,192,218149,1,8,0:0:0:0:
64,192,218259,1,8,0:0:0:0:
320,192,218369,1,8,0:0:0:0:
192,192,218479,1,10,0:0:0:0:
448,192,218590,1,8,0:0:0:0:
320,192,218700,1,8,0:0:0:0:
64,192,218810,1,8,0:0:0:0:
448,192,218921,1,8,0:0:0:0:
192,192,219031,1,8,0:0:0:0:
320,192,219141,1,8,0:0:0:0:
64,192,219252,1,8,0:0:0:0:
192,192,219362,1,10,0:0:0:0:
448,192,219472,1,8,0:0:0:0:
320,192,219582,1,8,0:0:0:0:
64,192,219693,1,8,0:0:0:0:
192,192,219803,1,8,0:0:0:0:
320,192,219913,1,8,0:0:0:0:
64,192,220024,1,8,0:0:0:0:
448,192,220134,1,8,0:0:0:0:
320,192,220244,1,10,0:0:0:0:
192,192,220354,1,8,0:0:0:0:
64,192,220465,1,8,0:0:0:0:
448,192,220575,1,8,0:0:0:0:
320,192,220685,1,8,0:0:0:0:
64,192,220796,1,8,0:0:0:0:
448,192,220906,1,8,0:0:0:0:
192,192,221016,1,8,0:0:0:0:
320,192,221127,1,10,0:0:0:0:
64,192,221237,1,8,0:0:0:0:
192,192,221347,1,8,0:0:0:0:
320,192,221457,1,8,0:0:0:0:
192,192,221568,1,0,0:0:0:0:
448,192,221568,1,4,0:0:0:0:
64,192,221568,1,8,0:0:0:0:
320,192,221788,1,8,0:0:0:0:
64,192,222009,1,8,0:0:0:0:
192,192,222009,1,0,0:0:0:0:
320,192,222229,1,8,0:0:0:0:
64,192,222450,1,8,0:0:0:0:
448,192,222450,1,0,0:0:0:0:
192,192,222671,1,8,0:0:0:0:
320,192,222891,1,8,0:0:0:0:
448,192,222891,1,0,0:0:0:0:
192,192,223112,1,8,0:0:0:0:
448,192,223332,1,0,0:0:0:0:
64,192,223332,1,8,0:0:0:0:
320,192,223553,1,8,0:0:0:0:
192,192,223774,1,8,0:0:0:0:
448,192,223774,1,0,0:0:0:0:
64,192,223994,1,8,0:0:0:0:
320,192,224215,1,0,0:0:0:0:
192,192,224215,1,8,0:0:0:0:
448,192,224435,1,8,0:0:0:0:
192,192,224656,1,0,0:0:0:0:
64,192,224656,1,8,0:0:0:0:
320,192,224877,1,8,0:0:0:0:
64,192,225097,1,8,0:0:0:0:
192,192,225097,1,0,0:0:0:0:
320,192,225207,1,8,0:0:0:0:
448,192,225318,1,8,0:0:0:0:
192,192,225428,1,8,0:0:0:0:
320,192,225538,1,8,0:0:0:0:
64,192,225649,1,8,0:0:0:0:
192,192,225759,1,8,0:0:0:0:
448,192,225869,1,8,0:0:0:0:
320,192,225979,1,8,0:0:0:0:
192,192,226090,1,8,0:0:0:0:
64,192,226200,1,8,0:0:0:0:
320,192,226310,1,8,0:0:0:0:
192,192,226421,1,8,0:0:0:0:
448,192,226531,1,8,0:0:0:0:
320,192,226641,1,8,0:0:0:0:
64,192,226752,1,8,0:0:0:0:
448,192,226862,1,0,0:0:0:0:
192,192,226862,1,8,0:0:0:0:
320,192,227082,1,0,0:0:0:0:
192,192,227193,1,0,0:0:0:0:
448,192,227303,1,0,0:0:0:0:
64,192,227524,1,0,0:0:0:0:
192,192,227744,1,0,0:0:0:0:
448,192,228075,1,0,0:0:0:0:
320,192,228185,1,8,0:0:0:0:
64,192,228296,1,8,0:0:0:0:
192,192,228406,1,8,0:0:0:0:
448,192,228406,1,0,0:0:0:0:
64,192,228627,128,8,229068:0:0:0:0:
448,192,228627,1,4,0:0:0:0:
320,192,228627,128,0,229068:0:0:0:0:
448,192,229068,1,0,0:0:0:0:
192,192,229068,1,2,0:0:0:0:
320,192,229288,1,0,0:0:0:0:
64,192,229509,1,8,0:0:0:0:
192,192,229509,1,0,0:0:0:0:
320,192,229729,1,0,0:0:0:0:
448,192,229950,1,0,0:0:0:0:
64,192,229950,1,2,0:0:0:0:
192,192,230171,1,0,0:0:0:0:
448,192,230281,1,0,0:0:0:0:
64,192,230391,1,8,0:0:0:0:
320,192,230391,1,0,0:0:0:0:
448,192,230612,1,0,0:0:0:0:
320,192,230832,1,0,0:0:0:0:
192,192,230832,1,2,0:0:0:0:
64,192,231053,1,0,0:0:0:0:
192,192,231163,1,0,0:0:0:0:
448,192,231274,1,0,0:0:0:0:
320,192,231274,1,8,0:0:0:0:
192,192,231494,1,0,0:0:0:0:
64,192,231715,128,2,232156:0:0:0:0:
448,192,231715,1,0,0:0:0:0:
448,192,232156,1,0,0:0:0:0:
192,192,232156,1,8,0:0:0:0:
320,192,232266,1,0,0:0:0:0:
64,192,232377,1,0,0:0:0:0:
192,192,232487,1,0,0:0:0:0:
448,192,232597,1,0,0:0:0:0:
320,192,232597,128,2,232818:0:0:0:0:
192,192,232818,128,0,233038:0:0:0:0:
320,192,233038,128,8,233259:0:0:0:0:
448,192,233038,1,0,0:0:0:0:
192,192,233259,128,0,233479:0:0:0:0:
448,192,233479,1,0,0:0:0:0:
320,192,233479,1,2,0:0:0:0:
64,192,233590,1,0,0:0:0:0:
448,192,233700,1,0,0:0:0:0:
320,192,233810,1,0,0:0:0:0:
64,192,233921,1,8,0:0:0:0:
192,192,233921,128,0,234141:0:0:0:0:
320,192,234141,128,0,234362:0:0:0:0:
192,192,234362,128,0,234582:0:0:0:0:
64,192,234362,1,2,0:0:0:0:
320,192,234582,128,0,234803:0:0:0:0:
64,192,234803,1,8,0:0:0:0:
192,192,234803,128,0,235024:0:0:0:0:
448,192,235024,128,0,235244:0:0:0:0:
64,192,235244,128,2,235465:0:0:0:0:
320,192,235244,1,0,0:0:0:0:
192,192,235465,128,0,235685:0:0:0:0:
64,192,235685,128,8,236127:0:0:0:0:
448,192,235685,1,4,0:0:0:0:
320,192,235685,128,0,236127:0:0:0:0:
448,192,236127,1,0,0:0:0:0:
192,192,236127,1,2,0:0:0:0:
320,192,236347,1,0,0:0:0:0:
64,192,236568,1,8,0:0:0:0:
448,192,236568,1,0,0:0:0:0:
192,192,236788,1,0,0:0:0:0:
320,192,237009,1,0,0:0:0:0:
64,192,237009,1,2,0:0:0:0:
448,192,237229,1,0,0:0:0:0:
320,192,237340,1,0,0:0:0:0:
64,192,237450,1,8,0:0:0:0:
192,192,237450,1,0,0:0:0:0:
320,192,237671,1,0,0:0:0:0:
448,192,237891,1,0,0:0:0:0:
192,192,237891,1,2,0:0:0:0:
64,192,238112,1,0,0:0:0:0:
192,192,238222,1,0,0:0:0:0:
448,192,238332,1,0,0:0:0:0:
320,192,238332,1,8,0:0:0:0:
192,192,238553,1,0,0:0:0:0:
64,192,238774,1,2,0:0:0:0:
448,192,238774,128,0,239215:0:0:0:0:
64,192,239215,1,8,0:0:0:0:
192,192,239215,1,0,0:0:0:0:
320,192,239325,1,0,0:0:0:0:
448,192,239435,1,0,0:0:0:0:
192,192,239546,1,0,0:0:0:0:
64,192,239656,1,2,0:0:0:0:
320,192,239656,128,0,239877:0:0:0:0:
192,192,239877,128,0,240097:0:0:0:0:
320,192,240097,128,0,240318:0:0:0:0:
64,192,240097,1,8,0:0:0:0:
192,192,240318,128,0,240538:0:0:0:0:
448,192,240538,1,0,0:0:0:0:
64,192,240538,1,2,0:0:0:0:
320,192,240649,1,0,0:0:0:0:
192,192,240759,1,0,0:0:0:0:
448,192,240869,1,0,0:0:0:0:
64,192,240979,1,8,0:0:0:0:
320,192,240979,1,0,0:0:0:0:
192,192,241200,1,0,0:0:0:0:
448,192,241310,1,0,0:0:0:0:
64,192,241421,1,0,0:0:0:0:
320,192,241641,1,0,0:0:0:0:
448,192,241862,1,0,0:0:0:0:
192,192,241972,1,0,0:0:0:0:
64,192,242303,1,8,0:0:0:0:
192,192,242413,1,8,0:0:0:0:
320,192,242524,1,8,0:0:0:0:
448,192,242524,1,0,0:0:0:0:
448,192,242744,1,4,0:0:0:0:
64,192,242744,128,8,243185:0:0:0:0:
192,192,242744,128,0,243185:0:0:0:0:
320,192,243185,1,0,0:0:0:0:
192,192,243406,1,0,0:0:0:0:
448,192,243627,1,2,0:0:0:0:
320,192,243737,1,0,0:0:0:0:
64,192,243847,1,0,0:0:0:0:
192,192,243957,1,0,0:0:0:0:
448,192,244068,1,4,0:0:0:0:
64,192,244068,1,8,0:0:0:0:
320,192,244068,1,0,0:0:0:0:
192,192,244178,1,0,0:0:0:0:
448,192,244288,1,0,0:0:0:0:
64,192,244399,1,0,0:0:0:0:
320,192,244509,1,0,0:0:0:0:
192,192,244619,1,0,0:0:0:0:
320,192,244729,1,0,0:0:0:0:
448,192,244840,1,0,0:0:0:0:
64,192,244950,1,8,0:0:0:0:
320,192,245060,1,0,0:0:0:0:
192,192,245171,1,0,0:0:0:0:
448,192,245281,1,0,0:0:0:0:
320,192,245391,1,2,0:0:0:0:
64,192,245502,1,0,0:0:0:0:
192,192,245612,1,0,0:0:0:0:
320,192,245722,1,0,0:0:0:0:
448,192,245832,128,0,246274:0:0:0:0:
64,192,246274,128,8,246494:0:0:0:0:
320,192,246274,1,0,0:0:0:0:
448,192,246494,128,0,246715:0:0:0:0:
64,192,246715,1,0,0:0:0:0:
320,192,246825,1,0,0:0:0:0:
64,192,246935,1,0,0:0:0:0:
320,192,247046,1,0,0:0:0:0:
192,192,247156,1,2,0:0:0:0:
448,192,247266,1,0,0:0:0:0:
192,192,247377,1,0,0:0:0:0:
448,192,247487,1,0,0:0:0:0:
320,192,247597,1,8,0:0:0:0:
64,192,247707,1,0,0:0:0:0:
320,192,247818,1,0,0:0:0:0:
64,192,247928,1,0,0:0:0:0:
192,192,248038,1,0,0:0:0:0:
448,192,248149,1,0,0:0:0:0:
192,192,248259,1,0,0:0:0:0:
320,192,248369,1,0,0:0:0:0:
64,192,248479,1,8,0:0:0:0:
320,192,248590,1,0,0:0:0:0:
192,192,248700,1,0,0:0:0:0:
448,192,248810,1,0,0:0:0:0:
64,192,248921,1,2,0:0:0:0:
448,192,249031,1,0,0:0:0:0:
320,192,249141,128,0,249362:0:0:0:0:
192,192,249362,128,0,249582:0:0:0:0:
64,192,249582,128,0,249803:0:0:0:0:
448,192,249803,128,4,250244:0:0:0:0:
192,192,249803,1,8,0:0:0:0:
320,192,249803,128,0,250244:0:0:0:0:
192,192,250244,1,0,0:0:0:0:
64,192,250465,1,0,0:0:0:0:
448,192,250685,1,0,0:0:0:0:
320,192,250685,1,2,0:0:0:0:
192,192,250796,1,0,0:0:0:0:
448,192,250906,1,0,0:0:0:0:
64,192,251016,1,0,0:0:0:0:
320,192,251127,1,8,0:0:0:0:
64,192,251237,1,0,0:0:0:0:
448,192,251347,1,0,0:0:0:0:
320,192,251457,1,0,0:0:0:0:
192,192,251568,1,0,0:0:0:0:
448,192,251678,1,0,0:0:0:0:
64,192,251788,1,0,0:0:0:0:
192,192,251899,1,0,0:0:0:0:
320,192,252009,1,8,0:0:0:0:
64,192,252119,1,0,0:0:0:0:
448,192,252229,1,0,0:0:0:0:
192,192,252340,1,0,0:0:0:0:
64,192,252450,1,2,0:0:0:0:
448,192,252560,1,0,0:0:0:0:
320,192,252671,1,0,0:0:0:0:
192,192,252781,1,0,0:0:0:0:
64,192,252891,128,0,253332:0:0:0:0:
320,192,253332,128,8,253553:0:0:0:0:
448,192,253332,1,0,0:0:0:0:
192,192,253553,128,0,253774:0:0:0:0:
448,192,253774,1,0,0:0:0:0:
64,192,253884,1,0,0:0:0:0:
448,192,253994,1,0,0:0:0:0:
64,192,254104,1,0,0:0:0:0:
320,192,254215,1,2,0:0:0:0:
192,192,254325,1,0,0:0:0:0:
320,192,254435,1,0,0:0:0:0:
192,192,254546,1,0,0:0:0:0:
448,192,254656,1,8,0:0:0:0:
64,192,254766,1,0,0:0:0:0:
448,192,254877,1,0,0:0:0:0:
64,192,254987,1,0,0:0:0:0:
320,192,255097,1,0,0:0:0:0:
192,192,255207,1,0,0:0:0:0:
448,192,255318,1,0,0:0:0:0:
64,192,255428,1,0,0:0:0:0:
320,192,255538,1,8,0:0:0:0:
448,192,255649,1,0,0:0:0:0:
64,192,255759,5,0,0:0:0:0:
192,192,255869,1,0,0:0:0:0:
448,192,255979,1,2,0:0:0:0:
320,192,256090,1,0,0:0:0:0:
192,192,256200,1,0,0:0:0:0:
64,192,256421,1,8,0:0:0:0:
448,192,256531,1,8,0:0:0:0:
192,192,256641,1,8,0:0:0:0:
320,192,256641,1,0,0:0:0:0:
64,192,256862,128,8,257303:0:0:0:0:
448,192,256862,128,4,257303:0:0:0:0:
192,192,256862,128,0,257303:0:0:0:0:
