osu file format v14

[General]
AudioFilename: audio.mp3
AudioLeadIn: 0
PreviewTime: 38565
Countdown: 0
SampleSet: Soft
StackLeniency: 0.7
Mode: 2
LetterboxInBreaks: 0
WidescreenStoryboard: 1

[Editor]
DistanceSpacing: 0.8
BeatDivisor: 4
GridSize: 8
TimelineZoom: 2.799999

[Metadata]
Title:XINOBIKILL
TitleUnicode:XINOBIKILL
Artist:SOUND HOLIC feat. Nana Takahashi
ArtistUnicode:SOUND HOLIC feat. Nana Takahashi
Creator:Rocma
Version:OVERDOSE
Source:beatmania IIDX 24 SINOBUZ
Tags:サウンドホリック 高橋菜々 GUCCI atabo 709sec. Cyber Jazzstep Video Game Japanese
BeatmapID:1851237
BeatmapSetID:874437

[Difficulty]
HPDrainRate:6
CircleSize:4.2
OverallDifficulty:9.5
ApproachRate:9.5
SliderMultiplier:2.56
SliderTickRate:2

[Events]
//Background and Video events
0,0,"BG.jpg",0,0
//Break Periods
//Storyboard Layer 0 (Background)
//Storyboard Layer 1 (Fail)
//Storyboard Layer 2 (Pass)
//Storyboard Layer 3 (Foreground)
//Storyboard Sound Samples

[TimingPoints]
974,365.853658536585,4,2,2,40,1,0
5364,-100,4,2,2,70,0,0
6827,-100,4,2,2,60,0,0
39022,-100,4,2,2,80,0,1
50730,-100,4,2,2,60,0,0
93169,-100,4,2,2,80,0,1
104876,-100,4,2,2,60,0,0

[Colours]
Combo1 : 242,111,111
Combo2 : 21,234,154
Combo3 : 192,192,192
Combo4 : 102,232,255

[HitObjects]
80,192,973,6,0,L|224:192,2,128,2|0|0,0:0|0:0|0:0,0:0:0:0:
208,144,1522,1,0,0:0:0:0:
336,144,1704,1,0,0:0:0:0:
184,192,1888,2,0,P|104:240|232:320,1,256
256,344,2345,1,0,0:0:0:0:
352,320,2437,6,0,L|368:160,1,128,2|0,0:0|0:0,0:0:0:0:
224,160,2803,1,0,0:0:0:0:
368,112,2986,1,0,0:0:0:0:
224,112,3168,1,0,0:0:0:0:
368,176,3352,2,0,L|496:176,2,128,0|0|0,0:0|0:0|0:0,0:0:0:0:
80,192,3900,6,0,L|64:272,1,64,2|0,0:0|0:0,0:0:0:0:
144,288,4083,1,0,0:0:0:0:
202,265,4174,1,0,0:0:0:0:
226,207,4265,1,0,0:0:0:0:
201,150,4357,1,0,0:0:0:0:
143,127,4448,1,0,0:0:0:0:
288,208,4632,5,2,0:0:0:0:
229,185,4723,1,0,0:0:0:0:
205,127,4814,1,0,0:0:0:0:
230,70,4906,1,0,0:0:0:0:
288,47,4997,1,0,0:0:0:0:
208,48,5181,2,0,L|144:48,1,64,0|0,0:0|0:0,0:0:0:0:
368,288,5364,5,8,0:0:0:0:
448,288,5486,1,0,0:0:0:0:
368,288,5608,1,0,0:0:0:0:
176,256,5730,1,8,0:0:0:0:
256,256,5852,1,0,0:0:0:0:
336,256,5973,1,0,0:0:0:0:
144,288,6095,1,8,0:0:0:0:
64,288,6217,1,0,0:0:0:0:
144,288,6338,1,8,0:0:0:0:
336,256,6461,1,8,0:0:0:0:
256,256,6583,1,0,0:0:0:0:
176,256,6704,1,8,0:0:0:0:
368,288,6827,5,4,0:0:0:0:
432,272,6919,2,0,L|432:192,1,64,0|0,0:0|0:0,0:0:0:0:
272,192,7102,1,4,0:0:0:0:
208,176,7194,2,0,L|208:96,1,64,0|0,0:0|0:0,0:0:0:0:
368,288,7376,2,0,P|429:236|352:176,1,192,4|0,0:0|0:0,0:0:0:0:
208,184,7742,1,8,0:0:0:0:
328,176,7925,2,0,P|367:121|312:80,1,128,8|0,0:0|0:0,0:0:0:0:
272,80,8199,1,0,0:0:0:0:
80,208,8291,6,0,L|80:272,1,64,4|0,0:0|0:0,0:0:0:0:
144,288,8474,1,0,0:0:0:0:
304,112,8566,2,0,L|304:176,1,64,4|0,0:0|0:0,0:0:0:0:
240,192,8749,1,0,0:0:0:0:
64,288,8839,2,0,P|80:224|192:176,1,192,4|0,0:0|0:0,0:0:0:0:
336,176,9206,1,8,0:0:0:0:
184,184,9388,2,0,P|153:258|193:278,1,128,8|0,0:0|0:0,0:0:0:0:
250,279,9663,1,0,0:0:0:0:
448,240,9754,5,4,0:0:0:0:
392,240,9845,1,0,0:0:0:0:
336,240,9936,1,0,0:0:0:0:
144,192,10028,1,4,0:0:0:0:
200,192,10119,1,0,0:0:0:0:
256,192,10210,1,0,0:0:0:0:
448,240,10303,2,0,P|416:144|320:112,1,192,4|0,0:0|0:0,0:0:0:0:
160,120,10669,1,8,0:0:0:0:
312,120,10852,1,8,0:0:0:0:
285,177,10943,1,0,0:0:0:0:
234,215,11034,1,0,0:0:0:0:
172,225,11126,1,0,0:0:0:0:
368,160,11217,6,0,L|432:160,2,64,4|0|0,0:0|0:0|0:0,0:0:0:0:
208,176,11492,2,0,L|144:176,2,64,4|0|0,0:0|0:0|0:0,0:0:0:0:
368,240,11766,2,0,P|426:182|352:112,1,192,4|0,0:0|0:0,0:0:0:0:
160,176,12132,2,0,L|128:240,1,64,8|0,0:0|0:0,0:0:0:0:
352,176,12315,2,0,L|384:240,2,64,8|0|0,0:0|0:0|0:0,0:0:0:0:
288,176,12589,1,0,0:0:0:0:
128,224,12681,6,0,L|112:96,1,128,4|0,0:0|0:0,0:0:0:0:
192,96,12955,1,0,0:0:0:0:
272,112,13047,2,0,L|288:32,1,64,4|8,0:0|0:0,0:0:0:0:
128,32,13321,2,0,L|113:159,1,128,4|0,0:0|0:0,0:0:0:0:
193,143,13595,2,0,L|207:270,1,128,8|0,0:0|0:0,0:0:0:0:
64,288,13961,1,8,0:0:0:0:
368,240,14144,6,0,L|384:112,1,128,4|0,0:0|0:0,0:0:0:0:
224,128,14510,2,0,L|208:48,1,64,4|8,0:0|0:0,0:0:0:0:
368,48,14784,2,0,L|382:175,1,128,4|0,0:0|0:0,0:0:0:0:
303,159,15058,2,0,L|288:240,1,64,4|0,0:0|0:0,0:0:0:0:
384,240,15242,1,8,0:0:0:0:
431,277,15333,1,0,0:0:0:0:
412,334,15424,1,0,0:0:0:0:
351,335,15516,1,0,0:0:0:0:
144,304,15608,6,0,L|80:304,1,64,4|0,0:0|0:0,0:0:0:0:
240,256,15791,1,4,0:0:0:0:
300,245,15882,1,8,0:0:0:0:
329,190,15973,1,0,0:0:0:0:
303,134,16065,1,0,0:0:0:0:
243,120,16156,1,4,0:0:0:0:
368,192,16339,5,0,0:0:0:0:
307,181,16430,1,0,0:0:0:0:
278,126,16521,1,4,0:0:0:0:
304,70,16613,1,0,0:0:0:0:
364,56,16704,1,8,0:0:0:0:
224,48,16888,2,0,L|160:48,1,64,0|0,0:0|0:0,0:0:0:0:
352,144,17071,6,0,L|432:144,1,64,4|0,0:0|0:0,0:0:0:0:
256,192,17254,1,4,0:0:0:0:
192,192,17345,1,8,0:0:0:0:
128,192,17436,1,0,0:0:0:0:
192,192,17528,1,0,0:0:0:0:
256,192,17619,1,4,0:0:0:0:
112,256,17803,1,0,0:0:0:0:
176,256,17894,1,0,0:0:0:0:
240,256,17985,1,4,0:0:0:0:
176,256,18077,1,0,0:0:0:0:
112,256,18168,1,8,0:0:0:0:
288,288,18352,2,0,L|352:288,1,64,0|0,0:0|0:0,0:0:0:0:
176,240,18534,6,0,L|32:240,1,128,4|0,0:0|0:0,0:0:0:0:
112,192,18809,1,0,0:0:0:0:
192,176,18900,2,0,L|256:176,1,64,4|8,0:0|0:0,0:0:0:0:
96,128,19175,2,0,L|240:128,1,128,4|0,0:0|0:0,0:0:0:0:
288,80,19449,2,0,L|144:80,1,128,8|0,0:0|0:0,0:0:0:0:
336,128,19815,1,8,0:0:0:0:
80,272,19998,6,0,L|224:272,1,128,4|0,0:0|0:0,0:0:0:0:
384,224,20364,2,0,L|304:224,1,64,4|8,0:0|0:0,0:0:0:0:
160,160,20638,2,0,L|304:160,1,128,4|0,0:0|0:0,0:0:0:0:
208,112,20913,2,0,L|144:112,1,64,4|0,0:0|0:0,0:0:0:0:
224,64,21095,2,0,L|288:64,1,64,8|0,0:0|0:0,0:0:0:0:
208,32,21278,2,0,L|144:32,1,64,0|0,0:0|0:0,0:0:0:0:
368,192,21461,5,4,0:0:0:0:
432,192,21552,1,4,0:0:0:0:
248,160,21643,1,8,0:0:0:0:
184,160,21736,1,0,0:0:0:0:
248,160,21827,1,0,0:0:0:0:
312,160,21919,1,0,0:0:0:0:
208,120,22010,5,4,0:0:0:0:
144,120,22101,1,0,0:0:0:0:
288,192,22284,1,0,0:0:0:0:
352,192,22376,1,4,0:0:0:0:
288,192,22467,1,0,0:0:0:0:
136,240,22559,2,0,L|72:240,1,64,8|0,0:0|0:0,0:0:0:0:
256,224,22742,2,0,P|319:160|256:112,1,192,8|0,0:0|0:0,0:0:0:0:
176,112,23108,2,0,L|112:112,1,64,0|0,0:0|0:0,0:0:0:0:
191,112,23291,2,0,L|255:112,1,64,8|0,0:0|0:0,0:0:0:0:
176,128,23473,2,0,L|96:128,1,64,8|0,0:0|0:0,0:0:0:0:
320,160,23656,6,4,L|384:288,1,128
320,320,23931,1,0,0:0:0:0:
160,320,24022,2,0,L|128:256,2,64,8|0|8,0:0|0:0|0:0,0:0:0:0:
240,320,24297,1,0,0:0:0:0:
400,256,24388,6,0,P|398:182|301:124,1,192,4|0,0:0|0:0,0:0:0:0:
153,120,24754,2,0,P|111:72|175:56,1,128,8|0,0:0|0:0,0:0:0:0:
304,48,25028,2,0,L|384:48,2,64,8|0|0,0:0|0:0|0:0,0:0:0:0:
144,144,25303,2,0,L|304:144,1,128,4|0,0:0|0:0,0:0:0:0:
432,208,25669,2,8,L|368:208,1,64,8|8,0:0|0:0,0:0:0:0:
160,224,25852,6,0,P|80:192|32:80,1,192,4|0,0:0|0:0,0:0:0:0:
208,80,26217,2,0,P|272:112|288:176,1,128,8|0,0:0|0:0,0:0:0:0:
128,208,26492,2,0,L|48:208,2,64,8|0|0,0:0|0:0|0:0,0:0:0:0:
288,208,26766,2,0,P|336:160|288:128,1,128,4|0,0:0|0:0,0:0:0:0:
160,128,27132,2,0,L|96:128,1,64,4|0,0:0|0:0,0:0:0:0:
304,208,27315,6,0,L|448:208,1,128,8|0,0:0|0:0,0:0:0:0:
256,272,27681,2,0,L|112:272,1,128,8|0,0:0|0:0,0:0:0:0:
192,240,27955,2,0,L|320:240,1,128,8|0,0:0|0:0,0:0:0:0:
256,208,28230,1,4,0:0:0:0:
176,192,28321,1,0,0:0:0:0:
115,183,28412,1,8,0:0:0:0:
88,128,28503,1,0,0:0:0:0:
118,74,28595,1,0,0:0:0:0:
179,69,28687,1,0,0:0:0:0:
352,192,28778,5,4,0:0:0:0:
384,244,28869,1,0,0:0:0:0:
357,299,28960,1,0,0:0:0:0:
296,306,29052,1,8,0:0:0:0:
144,272,29144,1,4,0:0:0:0:
272,224,29327,1,8,0:0:0:0:
336,176,29419,2,0,L|144:176,1,192,4|0,0:0|0:0,0:0:0:0:
320,160,29876,2,0,L|320:240,1,64,4|0,0:0|0:0,0:0:0:0:
240,256,30059,2,8,L|176:256,1,64,8|8,0:0|0:0,0:0:0:0:
384,272,30242,6,0,P|448:224|368:176,1,192,4|0,0:0|0:0,0:0:0:0:
224,176,30608,2,0,L|96:176,1,128,8|0,0:0|0:0,0:0:0:0:
256,128,30882,2,0,L|352:128,2,64,8|0|0,0:0|0:0|0:0,0:0:0:0:
96,224,31156,2,0,L|32:224,1,64,4|0,0:0|0:0,0:0:0:0:
192,208,31339,1,8,0:0:0:0:
252,189,31430,1,0,0:0:0:0:
298,145,31521,1,0,0:0:0:0:
319,85,31613,1,0,0:0:0:0:
64,304,31705,6,0,P|96:224|192:192,1,192,4|0,0:0|0:0,0:0:0:0:
384,160,32071,2,0,L|240:160,1,128,8|0,0:0|0:0,0:0:0:0:
80,160,32345,2,0,L|0:160,2,64,8|0|0,0:0|0:0|0:0,0:0:0:0:
256,192,32620,2,0,L|336:192,1,64,4|0,0:0|0:0,0:0:0:0:
144,224,32803,1,8,0:0:0:0:
112,275,32894,1,0,0:0:0:0:
148,323,32985,1,0,0:0:0:0:
206,306,33077,1,0,0:0:0:0:
384,288,33169,6,0,L|400:160,1,128,4|0,0:0|0:0,0:0:0:0:
304,192,33443,2,0,L|288:64,1,128,8|0,0:0|0:0,0:0:0:0:
384,288,33717,2,0,L|400:224,1,64,8|0,0:0|0:0,0:0:0:0:
176,272,33900,6,0,P|96:240|96:160,1,128,4|0,0:0|0:0,0:0:0:0:
176,208,34175,2,0,P|256:176|256:96,1,128,8|0,0:0|0:0,0:0:0:0:
176,144,34449,2,0,L|96:144,1,64,8|0,0:0|0:0,0:0:0:0:
320,256,34632,6,0,L|448:256,1,128,4|0,0:0|0:0,0:0:0:0:
288,208,34906,2,0,L|160:208,1,128,4|0,0:0|0:0,0:0:0:0:
320,160,35181,2,0,L|384:160,1,64,8|0,0:0|0:0,0:0:0:0:
144,128,35364,6,0,P|96:176|144:208,1,128,4|0,0:0|0:0,0:0:0:0:
288,208,35638,2,0,P|336:256|288:288,1,128,8|0,0:0|0:0,0:0:0:0:
96,304,35913,2,0,L|192:304,1,64,8|8,0:0|0:0,0:0:0:0:
368,320,36095,6,0,L|352:256,1,64,8|0,0:0|0:0,0:0:0:0:
272,256,36278,2,0,L|256:192,1,64,0|0,0:0|0:0,0:0:0:0:
336,176,36461,2,0,L|320:112,1,64,0|0,0:0|0:0,0:0:0:0:
240,112,36644,2,0,L|224:48,1,64,0|0,0:0|0:0,0:0:0:0:
320,48,36827,5,8,0:0:0:0:
380,61,36918,1,0,0:0:0:0:
414,113,37009,1,0,0:0:0:0:
400,174,37101,1,0,0:0:0:0:
324,175,37193,5,8,0:0:0:0:
263,188,37284,1,0,0:0:0:0:
229,240,37375,1,0,0:0:0:0:
243,301,37467,1,0,0:0:0:0:
336,304,37559,2,0,L|400:304,1,64,8|0,0:0|0:0,0:0:0:0:
336,304,37742,2,0,L|256:304,1,64,8|0,0:0|0:0,0:0:0:0:
96,256,37925,2,0,L|32:256,2,64,8|0|8,0:0|0:0|0:0,0:0:0:0:
272,304,38199,2,0,P|352:256|424:160,1,192,8|0,0:0|0:0,0:0:0:0:
240,192,38656,6,0,L|224:112,1,64,0|0,0:0|0:0,0:0:0:0:
304,128,38839,2,0,L|320:48,1,64,0|0,0:0|0:0,0:0:0:0:
144,112,39022,6,0,L|64:112,1,64,4|0,0:0|0:0,0:0:0:0:
144,112,39205,2,0,L|208:112,1,64,8|0,0:0|0:0,0:0:0:0:
368,112,39388,2,0,L|432:112,2,64,8|0|4,0:0|0:0|0:0,0:0:0:0:
208,272,39663,2,0,L|80:272,1,128,8|0,0:0|0:0,0:0:0:0:
256,240,39937,2,0,L|320:240,1,64,4|0,0:0|0:0,0:0:0:0:
384,240,40120,1,8,0:0:0:0:
176,240,40211,2,0,L|48:240,1,128,8|0,0:0|0:0,0:0:0:0:
256,128,40486,6,0,L|320:128,1,64,4|0,0:0|0:0,0:0:0:0:
256,128,40669,2,0,L|192:128,1,64,8|0,0:0|0:0,0:0:0:0:
32,176,40852,1,8,0:0:0:0:
96,176,40943,1,0,0:0:0:0:
160,176,41034,1,4,0:0:0:0:
344,176,41127,2,0,L|472:176,1,128,8|0,0:0|0:0,0:0:0:0:
264,224,41401,2,0,L|248:144,1,64,4|0,0:0|0:0,0:0:0:0:
328,144,41583,1,8,0:0:0:0:
184,96,41766,1,8,0:0:0:0:
464,304,41949,6,0,L|384:304,1,64,4|0,0:0|0:0,0:0:0:0:
336,304,42132,2,0,L|272:304,1,64,8|0,0:0|0:0,0:0:0:0:
80,256,42315,1,8,0:0:0:0:
144,256,42406,1,0,0:0:0:0:
208,256,42497,1,4,0:0:0:0:
368,112,42589,2,0,L|240:112,1,128,8|0,0:0|0:0,0:0:0:0:
48,176,42864,2,0,L|112:176,1,64,4|0,0:0|0:0,0:0:0:0:
176,176,43047,1,8,0:0:0:0:
368,224,43138,2,0,L|224:224,1,128,8|0,0:0|0:0,0:0:0:0:
80,272,43413,6,0,L|48:192,1,64,4|0,0:0|0:0,0:0:0:0:
240,224,43595,2,0,L|272:144,1,64,8|0,0:0|0:0,0:0:0:0:
96,160,43778,1,4,0:0:0:0:
32,128,43870,2,0,L|176:128,1,128,8|4,0:0|0:0,0:0:0:0:
320,128,44144,5,0,0:0:0:0:
352,180,44235,1,0,0:0:0:0:
326,235,44326,1,0,0:0:0:0:
265,244,44418,1,0,0:0:0:0:
112,240,44510,2,0,L|96:160,1,64,8|0,0:0|0:0,0:0:0:0:
272,176,44693,2,0,L|336:176,1,64,8|8,0:0|0:0,0:0:0:0:
144,96,44876,6,0,L|224:96,1,64,4|0,0:0|0:0,0:0:0:0:
272,96,45059,2,0,L|192:96,1,64,8|0,0:0|0:0,0:0:0:0:
48,160,45242,1,8,0:0:0:0:
112,160,45333,1,0,0:0:0:0:
176,160,45424,1,4,0:0:0:0:
368,208,45516,2,0,L|208:208,1,128,8|0,0:0|0:0,0:0:0:0:
80,208,45791,2,0,L|0:208,2,64,4|0|8,0:0|0:0|0:0,0:0:0:0:
240,208,46065,2,0,L|384:208,1,128,8|0,0:0|0:0,0:0:0:0:
192,128,46339,6,0,L|256:128,1,64,4|0,0:0|0:0,0:0:0:0:
320,128,46522,2,0,L|240:128,1,64,8|0,0:0|0:0,0:0:0:0:
80,128,46705,2,0,L|16:128,2,64,8|0|4,0:0|0:0|0:0,0:0:0:0:
256,176,46980,2,0,L|416:176,1,128,8|0,0:0|0:0,0:0:0:0:
216,224,47254,2,0,L|136:224,2,64,4|0|8,0:0|0:0|0:0,0:0:0:0:
376,224,47620,1,8,0:0:0:0:
112,304,47803,6,0,L|32:304,1,64,4|0,0:0|0:0,0:0:0:0:
112,304,47986,2,0,L|192:304,1,64,8|0,0:0|0:0,0:0:0:0:
336,304,48169,2,0,L|416:304,2,64,8|0|4,0:0|0:0|0:0,0:0:0:0:
160,240,48443,2,0,L|304:240,1,128,8|0,0:0|0:0,0:0:0:0:
448,176,48717,2,0,L|416:96,1,64,4|0,0:0|0:0,0:0:0:0:
352,96,48900,1,8,0:0:0:0:
192,64,48992,2,0,L|48:64,1,128,8|0,0:0|0:0,0:0:0:0:
272,160,49266,6,0,L|368:160,1,64,4|0,0:0|0:0,0:0:0:0:
176,208,49449,2,0,L|112:208,1,64,8|0,0:0|0:0,0:0:0:0:
320,256,49632,1,4,0:0:0:0:
384,256,49723,2,0,L|320:256,1,64,8|0,0:0|0:0,0:0:0:0:
128,256,49906,2,0,L|48:256,1,64,8|0,0:0|0:0,0:0:0:0:
256,192,50089,2,0,L|320:192,2,64,0|0|0,0:0|0:0|0:0,0:0:0:0:
32,160,50364,2,0,L|128:160,1,64,8|0,0:0|0:0,0:0:0:0:
288,144,50547,2,0,L|224:144,1,64,8|0,0:0|0:0,0:0:0:0:
64,320,50730,6,0,L|48:176,1,128,4|0,0:0|0:0,0:0:0:0:
240,256,51004,2,0,L|256:112,1,128,8|0,0:0|0:0,0:0:0:0:
64,320,51278,2,0,L|48:176,1,128,8|8,0:0|0:0,0:0:0:0:
112,176,51553,1,0,0:0:0:0:
176,160,51644,2,0,L|192:96,1,64,0|0,0:0|0:0,0:0:0:0:
128,80,51827,1,8,0:0:0:0:
64,96,51919,2,0,L|48:32,1,64,0|0,0:0|0:0,0:0:0:0:
112,16,52102,1,0,0:0:0:0:
368,304,52193,6,0,L|384:160,1,128,4|0,0:0|0:0,0:0:0:0:
205,225,52467,2,0,L|189:81,1,128,8|0,0:0|0:0,0:0:0:0:
368,304,52742,2,0,L|384:160,1,128,8|8,0:0|0:0,0:0:0:0:
304,160,53016,1,0,0:0:0:0:
224,144,53108,2,0,L|208:80,1,64,0|0,0:0|0:0,0:0:0:0:
384,80,53291,1,8,0:0:0:0:
448,96,53383,2,0,L|464:32,1,64,0|0,0:0|0:0,0:0:0:0:
400,16,53566,1,0,0:0:0:0:
208,32,53656,6,0,L|144:32,1,64,4|0,0:0|0:0,0:0:0:0:
304,112,53839,2,0,L|368:112,1,64,8|0,0:0|0:0,0:0:0:0:
304,112,54022,2,0,L|224:112,1,64,8|0,0:0|0:0,0:0:0:0:
64,320,54205,6,0,L|48:176,1,128,4|0,0:0|0:0,0:0:0:0:
128,192,54480,1,0,0:0:0:0:
288,192,54571,2,0,L|304:128,1,64,4|0,0:0|0:0,0:0:0:0:
224,144,54754,2,0,L|208:80,1,64,4|0,0:0|0:0,0:0:0:0:
288,80,54937,2,4,L|368:80,1,64,4|4,0:0|0:0,0:0:0:0:
128,176,55120,6,0,L|112:304,1,128,8|0,0:0|0:0,0:0:0:0:
384,176,55486,2,0,L|400:304,1,128,8|0,0:0|0:0,0:0:0:0:
336,320,55760,1,0,0:0:0:0:
160,320,55852,5,8,0:0:0:0:
118,312,55912,1,0,0:0:0:0:
87,283,55973,1,0,0:0:0:0:
77,242,56034,1,0,0:0:0:0:
91,203,56095,1,0,0:0:0:0:
124,177,56156,1,0,0:0:0:0:
192,176,56217,1,8,0:0:0:0:
234,169,56277,1,0,0:0:0:0:
264,140,56338,1,0,0:0:0:0:
275,99,56399,1,8,0:0:0:0:
261,59,56460,1,0,0:0:0:0:
228,34,56521,1,0,0:0:0:0:
80,48,56583,6,0,L|48:176,1,128,4|0,0:0|0:0,0:0:0:0:
112,176,56858,1,0,0:0:0:0:
264,264,56949,5,8,0:0:0:0:
304,252,57009,1,0,0:0:0:0:
333,222,57070,1,0,0:0:0:0:
344,181,57131,1,0,0:0:0:0:
333,140,57192,1,0,0:0:0:0:
303,110,57253,1,0,0:0:0:0:
240,248,57315,5,8,0:0:0:0:
281,236,57375,1,0,0:0:0:0:
310,206,57436,1,0,0:0:0:0:
321,165,57497,1,0,0:0:0:0:
310,124,57558,1,0,0:0:0:0:
280,94,57619,1,0,0:0:0:0:
224,80,57681,5,8,0:0:0:0:
181,80,57741,1,0,0:0:0:0:
138,80,57802,1,0,0:0:0:0:
200,128,57864,1,8,0:0:0:0:
243,128,57924,1,0,0:0:0:0:
286,128,57985,1,0,0:0:0:0:
224,176,58047,6,0,L|144:176,2,64,8|0|0,0:0|0:0|0:0,0:0:0:0:
96,128,58413,2,0,L|96:192,1,64,8|0,0:0|0:0,0:0:0:0:
160,224,58595,2,0,L|96:224,1,64
16,224,58778,1,8,0:0:0:0:
22,286,58869,1,0,0:0:0:0:
63,335,58960,1,0,0:0:0:0:
123,353,59052,1,0,0:0:0:0:
208,336,59144,2,0,L|272:336,1,64,8|0,0:0|0:0,0:0:0:0:
187,353,59327,2,0,L|182:285,1,64,8|0,0:0|0:0,0:0:0:0:
352,288,59510,6,0,L|352:192,1,64,8|0,0:0|0:0,0:0:0:0:
288,224,59693,2,0,L|176:224,1,64,0|0,0:0|0:0,0:0:0:0:
288,176,59876,2,0,L|352:176,1,64,8|0,0:0|0:0,0:0:0:0:
288,176,60059,2,0,L|288:112,1,64,0|0,0:0|0:0,0:0:0:0:
368,128,60242,2,0,L|368:64,1,64,8|0,0:0|0:0,0:0:0:0:
304,64,60425,2,0,L|224:64,1,64,0|0,0:0|0:0,0:0:0:0:
304,96,60608,2,0,L|368:96,1,64,8|0,0:0|0:0,0:0:0:0:
304,96,60791,2,0,L|240:96,1,64,8|0,0:0|0:0,0:0:0:0:
64,160,60973,6,0,L|32:224,2,64,8|0|0,0:0|0:0|0:0,0:0:0:0:
128,160,61248,1,8,0:0:0:0:
64,160,61339,1,0,0:0:0:0:
32,224,61431,2,0,L|160:224,1,128,8|0,0:0|0:0,0:0:0:0:
320,240,61705,5,8,0:0:0:0:
346,207,61765,1,0,0:0:0:0:
353,165,61826,1,0,0:0:0:0:
338,126,61888,1,8,0:0:0:0:
304,100,61948,1,0,0:0:0:0:
263,94,62009,1,0,0:0:0:0:
176,208,62071,5,8,0:0:0:0:
149,175,62131,1,0,0:0:0:0:
142,133,62192,1,0,0:0:0:0:
157,94,62253,1,8,0:0:0:0:
191,68,62314,1,0,0:0:0:0:
232,62,62375,1,0,0:0:0:0:
368,208,62437,6,0,L|432:208,2,42.6666666666667,8|0|0,0:0|0:0|0:0,0:0:0:0:
320,208,62620,1,8,0:0:0:0:
282,190,62680,1,0,0:0:0:0:
266,151,62741,1,0,0:0:0:0:
336,144,62803,1,8,0:0:0:0:
374,130,62863,1,0,0:0:0:0:
382,90,62924,1,0,0:0:0:0:
351,63,62985,1,8,0:0:0:0:
304,48,63047,2,0,L|352:48,1,42.6666666666667,0|0,0:0|0:0,0:0:0:0:
464,224,63169,6,0,L|432:80,1,128,8|0,0:0|0:0,0:0:0:0:
400,96,63413,2,0,L|352:96,1,42.6666666666667,0|0,0:0|0:0,0:0:0:0:
224,208,63534,2,0,L|192:80,1,128,8|0,0:0|0:0,0:0:0:0:
240,80,63778,2,0,L|283:80,1,42.6666666666667,0|0,0:0|0:0,0:0:0:0:
432,208,63900,2,0,L|464:80,1,128,8|0,0:0|0:0,0:0:0:0:
416,80,64144,2,0,L|373:80,1,42.6666666666667,0|0,0:0|0:0,0:0:0:0:
224,80,64266,5,8,0:0:0:0:
166,104,64357,1,0,0:0:0:0:
140,161,64448,1,0,0:0:0:0:
158,221,64540,1,0,0:0:0:0:
232,206,64632,5,8,0:0:0:0:
290,230,64723,1,0,0:0:0:0:
316,287,64814,1,0,0:0:0:0:
298,347,64906,1,0,0:0:0:0:
112,304,64998,2,0,L|48:304,1,64,8|0,0:0|0:0,0:0:0:0:
112,304,65181,2,0,L|192:304,1,64,8|0,0:0|0:0,0:0:0:0:
368,320,65364,6,0,L|384:240,1,64,8|0,0:0|0:0,0:0:0:0:
224,240,65547,2,0,L|208:160,1,64,0|0,0:0|0:0,0:0:0:0:
304,144,65730,2,0,L|368:144,2,64,8|0|8,0:0|0:0|0:0,0:0:0:0:
144,96,66095,5,8,0:0:0:0:
110,147,66186,1,0,0:0:0:0:
129,206,66277,1,0,0:0:0:0:
187,228,66369,1,0,0:0:0:0:
336,192,66461,5,8,0:0:0:0:
369,243,66552,1,0,0:0:0:0:
350,302,66643,1,0,0:0:0:0:
292,324,66735,1,0,0:0:0:0:
127,177,66827,6,0,L|111:113,1,64,8|0,0:0|0:0,0:0:0:0:
191,97,67010,2,0,L|255:97,1,64,0|0,0:0|0:0,0:0:0:0:
95,97,67193,2,0,L|32:96,1,64,8|0,0:0|0:0,0:0:0:0:
112,80,67376,2,0,L|176:80,1,64,8|0,0:0|0:0,0:0:0:0:
336,96,67559,2,0,L|432:96,1,64,8|0,0:0|0:0,0:0:0:0:
240,144,67742,2,0,L|144:144,1,64,8|0,0:0|0:0,0:0:0:0:
336,176,67925,5,8,0:0:0:0:
368,192,67970,1,0,0:0:0:0:
384,224,68016,1,0,0:0:0:0:
368,256,68062,1,0,0:0:0:0:
336,176,68108,1,0,0:0:0:0:
304,192,68153,1,0,0:0:0:0:
288,224,68199,1,0,0:0:0:0:
304,256,68245,1,0,0:0:0:0:
440,272,68291,5,4,0:0:0:0:
472,176,68473,2,0,L|440:176,1,32,8|0,0:0|0:0,0:0:0:0:
312,176,68656,1,0,0:0:0:0:
344,80,68839,2,0,L|376:80,1,32,8|0,0:0|0:0,0:0:0:0:
112,320,69022,5,4,0:0:0:0:
103,206,69205,2,0,L|134:205,1,32,8|0,0:0|0:0,0:0:0:0:
272,144,69388,1,0,0:0:0:0:
288,64,69571,2,8,L|224:64,1,64,8|8,0:0|0:0,0:0:0:0:
64,128,69754,5,4,0:0:0:0:
48,192,69845,1,0,0:0:0:0:
128,144,69936,1,4,0:0:0:0:
144,208,70028,1,0,0:0:0:0:
64,128,70120,2,0,L|48:96,1,32,8|0,0:0|0:0,0:0:0:0:
32,48,70303,2,0,L|48:16,1,32,4|0,0:0|0:0,0:0:0:0:
320,224,70486,6,0,L|304:192,1,32,8|0,0:0|0:0,0:0:0:0:
208,176,70669,2,0,L|192:144,1,32,4|0,0:0|0:0,0:0:0:0:
304,128,70852,1,8,0:0:0:0:
376,136,70943,2,0,L|392:280,1,128,8|0,0:0|0:0,0:0:0:0:
176,304,71217,6,0,L|144:304,1,32,4|0,0:0|0:0,0:0:0:0:
16,272,71400,1,8,0:0:0:0:
144,240,71583,2,0,L|176:240,1,32,0|0,0:0|0:0,0:0:0:0:
336,272,71766,2,8,L|272:272,1,64,8|8,0:0|0:0,0:0:0:0:
64,160,71949,6,0,L|96:160,1,32,4|0,0:0|0:0,0:0:0:0:
208,160,72132,1,8,0:0:0:0:
352,160,72315,2,0,L|320:160,1,32,0|0,0:0|0:0,0:0:0:0:
192,128,72498,2,8,L|96:128,1,64,8|8,0:0|0:0,0:0:0:0:
320,256,72681,6,0,L|384:256,1,64,4|0,0:0|0:0,0:0:0:0:
304,208,72864,2,0,L|240:208,1,64,0|0,0:0|0:0,0:0:0:0:
320,176,73047,2,0,L|448:176,1,128,8|0,0:0|0:0,0:0:0:0:
256,176,73413,2,0,L|240:48,1,128,8|0,0:0|0:0,0:0:0:0:
416,64,73778,1,8,0:0:0:0:
409,126,73869,1,0,0:0:0:0:
368,175,73960,1,8,0:0:0:0:
308,193,74052,1,8,0:0:0:0:
96,144,74144,6,0,L|80:272,1,128,4|4,0:0|0:0,0:0:0:0:
144,272,74419,1,8,0:0:0:0:
294,273,74510,2,0,L|304:208,1,64,0|0,0:0|0:0,0:0:0:0:
224,208,74693,2,0,L|144:208,2,64,8|0|0,0:0|0:0|0:0,0:0:0:0:
304,176,74967,2,0,L|320:320,1,128,8|0,0:0|0:0,0:0:0:0:
239,303,75242,2,0,L|223:175,1,128,8|0,0:0|0:0,0:0:0:0:
288,176,75516,1,8,0:0:0:0:
448,128,75608,6,0,L|464:256,1,128,4|4,0:0|0:0,0:0:0:0:
400,256,75883,1,8,0:0:0:0:
250,257,75974,2,0,L|240:192,1,64,0|0,0:0|0:0,0:0:0:0:
320,192,76157,2,0,L|400:192,2,64,8|0|0,0:0|0:0|0:0,0:0:0:0:
240,160,76431,2,0,L|224:304,1,128,8|0,0:0|0:0,0:0:0:0:
305,287,76706,2,0,L|321:159,1,128,8|0,0:0|0:0,0:0:0:0:
256,160,76980,1,8,0:0:0:0:
48,128,77071,5,8,0:0:0:0:
45,170,77131,1,0,0:0:0:0:
58,210,77192,1,0,0:0:0:0:
84,244,77253,1,8,0:0:0:0:
120,265,77314,1,0,0:0:0:0:
162,272,77375,1,0,0:0:0:0:
341,288,77437,1,8,0:0:0:0:
346,245,77497,1,0,0:0:0:0:
333,205,77558,1,0,0:0:0:0:
303,175,77619,1,0,0:0:0:0:
264,160,77680,1,0,0:0:0:0:
303,175,77741,1,0,0:0:0:0:
488,289,77803,5,8,0:0:0:0:
493,246,77863,1,0,0:0:0:0:
480,206,77924,1,0,0:0:0:0:
450,176,77985,1,8,0:0:0:0:
411,161,78047,1,0,0:0:0:0:
367,161,78107,1,0,0:0:0:0:
216,352,78169,1,8,0:0:0:0:
224,305,78229,1,0,0:0:0:0:
261,275,78290,1,0,0:0:0:0:
308,262,78351,1,8,0:0:0:0:
259,253,78413,1,0,0:0:0:0:
211,250,78473,1,0,0:0:0:0:
62,288,78534,6,0,L|16:288,2,42.6666666666667,8|0|0,0:0|0:0|0:0,0:0:0:0:
224,240,78717,2,0,L|268:240,2,42.6666666666667,8|0|0,0:0|0:0|0:0,0:0:0:0:
62,288,78900,2,0,L|14:288,2,42.6666666666667,8|0|0,0:0|0:0|0:0,0:0:0:0:
200,288,79083,1,8,0:0:0:0:
256,288,79143,1,0,0:0:0:0:
312,288,79204,1,0,0:0:0:0:
450,288,79266,6,0,L|504:288,2,42.6666666666667,8|0|0,0:0|0:0|0:0,0:0:0:0:
288,240,79449,2,0,L|240:240,2,42.6666666666667,8|0|0,0:0|0:0|0:0,0:0:0:0:
450,288,79632,2,0,L|498:288,2,42.6666666666667,8|0|0,0:0|0:0|0:0,0:0:0:0:
312,288,79815,1,8,0:0:0:0:
256,288,79875,1,0,0:0:0:0:
200,288,79936,1,0,0:0:0:0:
48,304,79998,6,0,L|48:208,1,85.3333333333333,8|8,0:0|0:0,0:0:0:0:
256,192,80242,1,8,0:0:0:0:
464,304,80364,2,0,L|464:208,1,85.3333333333333,8|8,0:0|0:0,0:0:0:0:
256,192,80608,1,8,0:0:0:0:
48,176,80730,1,8,0:0:0:0:
192,144,81095,6,0,B|320:144|320:144|320:80,1,192,0|0,0:0|0:0,0:0:0:0:
256,224,81461,5,4,0:0:0:0:
128,288,81736,1,0,0:0:0:0:
256,352,82010,1,0,0:0:0:0:
384,288,82376,1,0,0:0:0:0:
256,352,82650,1,0,0:0:0:0:
432,208,82925,5,0,0:0:0:0:
304,192,83199,2,0,L|288:128,1,64
416,80,83473,2,0,L|288:80,1,128
224,112,83748,2,0,L|240:192,1,64
304,192,83931,1,0,0:0:0:0:
368,208,84022,1,0,0:0:0:0:
375,144,84113,1,0,0:0:0:0:
383,80,84204,1,0,0:0:0:0:
303,79,84297,1,0,0:0:0:0:
224,256,84388,6,0,P|144:176|288:112,1,256,0|0,0:0|0:0,0:0:0:0:
368,192,84937,2,0,P|336:112|160:64,1,256,0|0,0:0|0:0,0:0:0:0:
80,240,85486,1,0,0:0:0:0:
144,240,85577,2,0,P|219:194|272:96,1,192,0|0,0:0|0:0,0:0:0:0:
128,96,86034,5,0,0:0:0:0:
64,112,86126,2,0,L|80:176,1,64,0|0,0:0|0:0,0:0:0:0:
154,177,86309,1,0,0:0:0:0:
224,176,86400,2,0,L|208:320,1,128,0|0,0:0|0:0,0:0:0:0:
96,304,86766,2,0,L|160:304,1,64,4|0,0:0|0:0,0:0:0:0:
239,257,86949,2,0,L|175:257,1,64,4|0,0:0|0:0,0:0:0:0:
95,241,87132,2,0,L|79:161,1,64,4|8,0:0|0:0,0:0:0:0:
272,192,87315,5,4,0:0:0:0:
331,170,87406,1,0,0:0:0:0:
353,112,87497,1,0,0:0:0:0:
326,56,87589,1,0,0:0:0:0:
266,39,87680,1,4,0:0:0:0:
112,48,87864,6,0,L|48:48,1,64,8|0,0:0|0:0,0:0:0:0:
144,96,88047,1,4,0:0:0:0:
206,90,88138,1,0,0:0:0:0:
261,122,88229,1,0,0:0:0:0:
287,179,88321,1,0,0:0:0:0:
209,193,88413,1,4,0:0:0:0:
146,187,88504,1,0,0:0:0:0:
91,219,88595,1,0,0:0:0:0:
65,276,88687,1,0,0:0:0:0:
272,160,88778,5,4,0:0:0:0:
335,167,88869,1,0,0:0:0:0:
390,199,88960,1,0,0:0:0:0:
429,249,89052,1,0,0:0:0:0:
447,310,89143,1,4,0:0:0:0:
240,320,89327,6,0,L|176:320,1,64,8|0,0:0|0:0,0:0:0:0:
272,272,89510,1,4,0:0:0:0:
288,212,89601,1,0,0:0:0:0:
254,160,89692,1,0,0:0:0:0:
193,152,89784,1,0,0:0:0:0:
112,176,89876,1,4,0:0:0:0:
95,116,89967,1,0,0:0:0:0:
129,64,90058,1,0,0:0:0:0:
191,56,90150,1,0,0:0:0:0:
352,192,90242,6,0,L|352:128,1,64,4|0,0:0|0:0,0:0:0:0:
272,144,90425,2,0,L|272:80,1,64,0|0,0:0|0:0,0:0:0:0:
352,64,90608,1,4,0:0:0:0:
200,192,90791,6,0,L|136:192,1,64,8|0,0:0|0:0,0:0:0:0:
232,144,90973,2,0,L|296:144,1,64,4|0,0:0|0:0,0:0:0:0:
296,144,91156,2,0,L|232:144,1,64
134,143,91339,2,0,L|70:143,1,64,4|0,0:0|0:0,0:0:0:0:
70,143,91522,2,0,L|134:143,1,64,0|0,0:0|0:0,0:0:0:0:
312,208,91705,6,0,L|376:208,2,64,4|0|0,0:0|0:0|0:0,0:0:0:0:
232,208,91980,1,4,0:0:0:0:
72,160,92071,2,0,L|160:160,1,64,8|0,0:0|0:0,0:0:0:0:
384,160,92345,1,8,0:0:0:0:
192,288,92803,1,0,0:0:0:0:
160,286,92848,1,0,0:0:0:0:
139,263,92894,1,0,0:0:0:0:
320,288,92986,1,0,0:0:0:0:
352,288,93031,1,0,0:0:0:0:
372,263,93077,1,0,0:0:0:0:
208,144,93169,6,0,L|128:144,2,64,4|0|4,0:0|0:0|0:0,0:0:0:0:
368,112,93443,2,0,L|448:112,1,64,0|4,0:0|0:0,0:0:0:0:
272,80,93626,2,0,L|192:80,1,64,8|0,0:0|0:0,0:0:0:0:
16,144,93809,2,0,L|176:144,1,128,4|0,0:0|0:0,0:0:0:0:
320,192,94083,2,0,L|384:192,1,64,4|0,0:0|0:0,0:0:0:0:
224,240,94266,2,0,L|160:240,1,64,4|8,0:0|0:0,0:0:0:0:
224,240,94449,2,0,L|320:240,1,64,0|0,0:0|0:0,0:0:0:0:
96,192,94632,6,0,L|16:192,2,64,4|0|4,0:0|0:0|0:0,0:0:0:0:
256,160,94906,2,0,L|336:160,1,64,0|4,0:0|0:0,0:0:0:0:
496,128,95089,2,0,L|416:128,1,64,8|0,0:0|0:0,0:0:0:0:
240,128,95272,2,0,L|112:128,1,128,4|0,0:0|0:0,0:0:0:0:
272,192,95546,2,0,L|192:192,1,64,4|0,0:0|0:0,0:0:0:0:
48,240,95730,2,0,L|112:240,1,64,4|0,0:0|0:0,0:0:0:0:
272,240,95913,2,0,L|336:240,1,64,8|0,0:0|0:0,0:0:0:0:
160,192,96095,6,0,L|80:192,2,64,4|0|4,0:0|0:0|0:0,0:0:0:0:
320,144,96370,2,0,L|256:144,1,64,0|4,0:0|0:0,0:0:0:0:
96,96,96553,2,0,L|176:96,1,64,8|0,0:0|0:0,0:0:0:0:
352,48,96736,2,0,L|208:48,1,128,4|0,0:0|0:0,0:0:0:0:
64,128,97010,2,0,L|128:128,1,64,4|0,0:0|0:0,0:0:0:0:
288,176,97193,2,0,L|192:176,1,64,4|8,0:0|0:0,0:0:0:0:
160,176,97376,2,0,L|240:176,1,64
384,224,97559,6,0,L|400:144,1,64,4|0,0:0|0:0,0:0:0:0:
224,128,97742,2,0,L|208:48,1,64,8|0,0:0|0:0,0:0:0:0:
384,80,97925,1,4,0:0:0:0:
448,32,98016,2,0,L|304:32,1,128,8|4,0:0|0:0,0:0:0:0:
147,97,98291,2,0,L|211:97,1,64,0|0,0:0|0:0,0:0:0:0:
275,97,98473,2,0,L|211:97,1,64,4|0,0:0|0:0,0:0:0:0:
48,176,98656,2,0,L|128:176,1,64,4|0,0:0|0:0,0:0:0:0:
336,208,98839,2,0,L|224:208,1,64,8|0,0:0|0:0,0:0:0:0:
112,288,99022,5,4,0:0:0:0:
176,288,99113,1,0,0:0:0:0:
240,288,99204,1,4,0:0:0:0:
400,288,99296,2,0,L|480:288,1,64,0|4,0:0|0:0,0:0:0:0:
288,224,99480,2,0,L|208:224,1,64,8|0,0:0|0:0,0:0:0:0:
32,176,99663,2,0,L|208:176,1,128,4|0,0:0|0:0,0:0:0:0:
336,272,99937,2,0,L|272:272,1,64,4|0,0:0|0:0,0:0:0:0:
112,272,100120,2,0,L|48:272,1,64,4|8,0:0|0:0,0:0:0:0:
112,272,100303,2,0,L|176:272,1,64,0|0,0:0|0:0,0:0:0:0:
344,208,100486,5,4,0:0:0:0:
280,208,100577,1,0,0:0:0:0:
216,208,100668,1,4,0:0:0:0:
48,176,100760,2,0,L|112:176,1,64,0|4,0:0|0:0,0:0:0:0:
288,128,100943,2,0,L|192:128,1,64,8|0,0:0|0:0,0:0:0:0:
32,96,101126,2,0,L|176:96,1,128,4|0,0:0|0:0,0:0:0:0:
336,128,101400,2,0,L|416:128,1,64,4|0,0:0|0:0,0:0:0:0:
224,176,101583,2,0,L|160:176,1,64,4|0,0:0|0:0,0:0:0:0:
336,256,101766,2,0,L|400:256,1,64,8|0,0:0|0:0,0:0:0:0:
192,272,101949,5,4,0:0:0:0:
128,272,102040,1,0,0:0:0:0:
64,272,102131,1,4,0:0:0:0:
240,208,102223,2,0,L|304:208,1,64,0|4,0:0|0:0,0:0:0:0:
128,160,102406,2,0,L|48:160,1,64,8|0,0:0|0:0,0:0:0:0:
240,96,102589,2,0,L|368:96,1,128,4|0,0:0|0:0,0:0:0:0:
176,192,102863,2,0,L|112:192,1,64,4|0,0:0|0:0,0:0:0:0:
288,240,103047,2,0,L|192:240,1,64,4|8,0:0|0:0,0:0:0:0:
48,272,103230,2,0,L|112:272,1,64,0|0,0:0|0:0,0:0:0:0:
320,224,103413,6,0,L|336:144,1,64,4|0,0:0|0:0,0:0:0:0:
160,160,103595,2,0,L|144:80,1,64,8|0,0:0|0:0,0:0:0:0:
320,80,103778,2,0,L|384:80,2,64,4|8|0,0:0|0:0|0:0,0:0:0:0:
112,160,104053,5,4,0:0:0:0:
64,176,104144,1,0,0:0:0:0:
48,208,104235,1,0,0:0:0:0:
64,240,104326,1,0,0:0:0:0:
112,256,104418,1,0,0:0:0:0:
304,208,104510,2,0,L|368:208,1,64,4|0,0:0|0:0,0:0:0:0:
304,208,104693,2,0,L|240:208,1,64,8|0,0:0|0:0,0:0:0:0:
80,288,104876,6,0,B|80:224|80:224|160:224,1,128,4|0,0:0|0:0,0:0:0:0:
304,208,105150,2,0,B|304:144|304:144|224:144,1,128,8|0,0:0|0:0,0:0:0:0:
80,80,105425,2,8,L|176:80,1,64,8|0,0:0|0:0,0:0:0:0:
320,96,105608,5,4,0:0:0:0:
377,118,105699,1,0,0:0:0:0:
389,178,105790,1,0,0:0:0:0:
346,221,105882,1,0,0:0:0:0:
192,96,105973,1,8,0:0:0:0:
134,118,106064,1,0,0:0:0:0:
122,178,106155,1,0,0:0:0:0:
165,221,106247,1,0,0:0:0:0:
368,224,106339,6,0,B|432:224|432:224|432:288,1,128,4|0,0:0|0:0,0:0:0:0:
272,144,106614,2,0,B|208:144|208:144|208:208,1,128,8|0,0:0|0:0,0:0:0:0:
368,80,106888,2,0,L|432:80,1,64,8|0,0:0|0:0,0:0:0:0:
165,221,107071,5,4,0:0:0:0:
122,178,107163,1,0,0:0:0:0:
134,118,107254,1,0,0:0:0:0:
192,96,107345,1,0,0:0:0:0:
346,221,107437,1,8,0:0:0:0:
389,178,107529,1,0,0:0:0:0:
377,118,107620,1,0,0:0:0:0:
320,96,107711,1,0,0:0:0:0:
80,176,107803,6,0,L|160:176,1,64,4|0,0:0|0:0,0:0:0:0:
320,128,107986,2,0,L|256:128,1,64,8|0,0:0|0:0,0:0:0:0:
192,112,108169,2,0,L|272:112,1,64,8|0,0:0|0:0,0:0:0:0:
432,128,108352,2,0,L|448:256,1,128,4|0,0:0|0:0,0:0:0:0:
384,272,108626,1,0,0:0:0:0:
208,336,108717,2,0,L|192:256,1,64,4|0,0:0|0:0,0:0:0:0:
272,272,108900,2,0,L|288:208,1,64,4|0,0:0|0:0,0:0:0:0:
208,192,109083,2,0,L|144:192,1,64,4|8,0:0|0:0,0:0:0:0:
384,192,109266,6,0,L|400:48,1,128,4|0,0:0|0:0,0:0:0:0:
128,192,109632,2,0,L|112:48,1,128,4|0,0:0|0:0,0:0:0:0:
192,64,109906,1,0,0:0:0:0:
368,64,109998,5,8,0:0:0:0:
401,89,110058,1,0,0:0:0:0:
416,128,110119,1,0,0:0:0:0:
407,170,110180,1,0,0:0:0:0:
378,200,110241,1,0,0:0:0:0:
337,210,110302,1,0,0:0:0:0:
272,208,110364,1,8,0:0:0:0:
238,233,110424,1,0,0:0:0:0:
223,272,110485,1,0,0:0:0:0:
232,314,110546,1,8,0:0:0:0:
261,344,110607,1,0,0:0:0:0:
302,354,110668,1,0,0:0:0:0:
464,320,110730,6,0,L|336:320,1,128,4|0,0:0|0:0,0:0:0:0:
192,208,111095,1,4,0:0:0:0:
128,192,111187,2,0,L|160:32,1,128,8|8,0:0|0:0,0:0:0:0:
320,64,111553,2,0,L|304:128,1,64,8|0,0:0|0:0,0:0:0:0:
144,96,111827,2,0,L|128:160,1,64,8|0,0:0|0:0,0:0:0:0:
208,160,112010,2,0,L|224:224,1,64,8|0,0:0|0:0,0:0:0:0:
48,272,112193,6,0,L|176:272,1,128,4|0,0:0|0:0,0:0:0:0:
320,240,112559,1,4,0:0:0:0:
384,224,112650,2,0,L|416:96,1,128,8|8,0:0|0:0,0:0:0:0:
256,128,113016,2,0,L|240:64,1,64,8|0,0:0|0:0,0:0:0:0:
400,80,113291,2,0,L|384:144,1,64,8|0,0:0|0:0,0:0:0:0:
304,128,113473,2,0,L|288:192,1,64,8|0,0:0|0:0,0:0:0:0:
464,288,113656,6,0,L|336:288,1,128,4|0,0:0|0:0,0:0:0:0:
176,176,114022,1,4,0:0:0:0:
112,176,114114,2,0,L|128:304,1,128,8|0,0:0|0:0,0:0:0:0:
208,336,114388,1,4,0:0:0:0:
265,311,114479,1,0,0:0:0:0:
288,253,114570,1,0,0:0:0:0:
263,196,114662,1,0,0:0:0:0:
204,174,114753,1,8,0:0:0:0:
64,176,114937,1,8,0:0:0:0:
320,128,115120,6,0,L|448:128,1,128,4|0,0:0|0:0,0:0:0:0:
384,128,115394,2,0,L|320:128,1,64,4|8,0:0|0:0,0:0:0:0:
291,233,115577,2,0,L|320:176,1,64,0|0,0:0|0:0,0:0:0:0:
448,192,115852,1,8,0:0:0:0:
433,253,115943,1,0,0:0:0:0:
387,295,116034,1,0,0:0:0:0:
324,304,116126,1,0,0:0:0:0:
240,288,116217,2,0,L|224:208,1,64,8|0,0:0|0:0,0:0:0:0:
320,256,116400,2,0,L|304:176,1,64,0|0,0:0|0:0,0:0:0:0:
112,160,116583,6,0,L|256:160,1,128,4|0,0:0|0:0,0:0:0:0:
112,96,116949,1,4,0:0:0:0:
176,96,117041,2,0,L|320:96,1,128,8|8,0:0|0:0,0:0:0:0:
176,144,117406,2,0,L|96:144,1,64,4|8,0:0|0:0,0:0:0:0:
256,208,117681,1,0,0:0:0:0:
112,208,117864,2,0,L|48:208,1,64,4|8,0:0|0:0,0:0:0:0:
208,224,118047,6,0,L|352:224,1,128,4|0,0:0|0:0,0:0:0:0:
208,160,118413,1,4,0:0:0:0:
144,112,118505,2,0,L|288:112,1,128,8|8,0:0|0:0,0:0:0:0:
432,144,118870,2,0,L|352:144,1,64,4|8,0:0|0:0,0:0:0:0:
224,192,119144,2,0,L|128:192,1,64,4|0,0:0|0:0,0:0:0:0:
224,192,119327,2,0,L|304:192,1,64,0|0,0:0|0:0,0:0:0:0:
128,272,119510,6,0,P|64:224|48:176,1,128,4|0,0:0|0:0,0:0:0:0:
124,177,119784,1,0,0:0:0:0:
197,173,119876,2,0,L|213:93,1,64,8|0,0:0|0:0,0:0:0:0:
129,79,120059,2,0,P|65:127|49:207,1,128,8|0,0:0|0:0,0:0:0:0:
208,208,120425,2,0,L|288:208,1,64,8|0,0:0|0:0,0:0:0:0:
208,208,120608,2,0,L|112:208,1,64,8|0,0:0|0:0,0:0:0:0:
304,256,120791,2,0,L|384:256,1,64,8|0,0:0|0:0,0:0:0:0:
192,288,120973,5,4,0:0:0:0:
128,288,121064,1,0,0:0:0:0:
64,288,121155,1,0,0:0:0:0:
240,192,121248,1,4,0:0:0:0:
176,192,121339,1,0,0:0:0:0:
112,192,121430,1,0,0:0:0:0:
320,288,121522,5,4,0:0:0:0:
384,288,121613,1,0,0:0:0:0:
448,288,121704,1,8,0:0:0:0:
272,192,121797,1,4,0:0:0:0:
336,192,121888,1,0,0:0:0:0:
400,192,121979,1,8,0:0:0:0:
160,176,122071,6,0,L|144:112,1,64,8|0,0:0|0:0,0:0:0:0:
352,176,122254,1,8,0:0:0:0:
