osu file format v14

[General]
AudioFilename: SOUND HOLIC feat. Nana Takahashi - Wakusei_Lollipop.mp3
AudioLeadIn: 0
PreviewTime: 57464
Countdown: 0
SampleSet: Soft
StackLeniency: 0.7
Mode: 3
LetterboxInBreaks: 0
SpecialStyle: 0
WidescreenStoryboard: 0

[Editor]
Bookmarks: 27756
DistanceSpacing: 0.9
BeatDivisor: 16
GridSize: 8
TimelineZoom: 2.5

[Metadata]
Title:Wakusei*Lollipop
TitleUnicode:惑星☆ロリポップ
Artist:SOUND HOLIC feat. Nana Takahashi
ArtistUnicode:SOUND HOLIC feat. Nana Takahashi
Creator:Adot
Version:LIGHT
Source:BeatStream
Tags:アニムトライヴ pharos21 aste- rinzler jubeat prop planet bemani summer diary 2015 コナミオリジナル konami original
BeatmapID:1107352
BeatmapSetID:480769

[Difficulty]
HPDrainRate:7
CircleSize:4
OverallDifficulty:6.5
ApproachRate:5
SliderMultiplier:1.4
SliderTickRate:1

[Events]
//Background and Video events
0,0,"Sarami Minaduki.jpg",0,0
//Break Periods
//Storyboard Layer 0 (Background)
//Storyboard Layer 1 (Fail)
//Storyboard Layer 2 (Pass)
//Storyboard Layer 3 (Foreground)
//Storyboard Sound Samples

[TimingPoints]
1590,333.333333333333,4,2,1,40,1,0
12256,-100,4,2,1,40,0,1
21589,-100,4,2,1,40,0,0
57589,-100,4,2,1,40,0,1
67589,-100,4,2,1,40,0,0
68256,-100,4,2,1,40,0,1
77589,-100,4,2,1,40,0,0
92256,-100,4,2,1,40,0,1
100256,-100,4,2,1,40,0,0

[HitObjects]
448,192,1590,5,0,0:0:0:0:
64,192,1590,128,0,2256:0:0:0:40:F5.wav
192,192,2256,128,0,2923:0:0:0:40:G5.wav
320,192,2923,128,0,3423:0:0:0:40:D#5.wav
448,192,3423,1,0,0:0:0:40:G#5.wav
64,192,3756,1,0,0:0:0:40:WS.wav
192,192,3923,1,0,0:0:0:40:WS.wav
320,192,4089,1,0,0:0:0:40:WS.wav
448,192,4256,128,0,4923:0:0:0:40:C#5.wav
320,192,4923,128,0,5423:0:0:0:40:G5.wav
192,192,5423,128,0,6089:0:0:0:40:D#5.wav
64,192,6089,1,0,0:0:0:40:F#5.wav
320,192,6256,1,0,0:0:0:0:
448,192,6423,1,0,0:0:0:0:
192,192,6589,1,0,0:0:0:40:WS.wav
320,192,6756,1,0,0:0:0:0:
64,192,6923,128,0,7589:0:0:0:40:F5.wav
192,192,7589,128,0,8256:0:0:0:40:G5.wav
320,192,8256,128,0,8756:0:0:0:40:G#5.wav
448,192,8756,1,0,0:0:0:0:
64,192,9089,1,0,0:0:0:40:WS.wav
192,192,9256,1,0,0:0:0:40:WS.wav
320,192,9423,1,0,0:0:0:40:WS.wav
448,192,9589,128,0,10256:0:0:0:40:F5.wav
192,192,10256,128,0,10923:0:0:0:40:G5.wav
64,192,11089,1,8,0:0:0:0:
320,192,11256,1,8,0:0:0:0:
192,192,11423,1,8,0:0:0:0:
448,192,11589,1,8,0:0:0:0:
64,192,11923,128,0,12256:0:0:0:40:WS.wav
320,192,12256,1,8,0:0:0:0:
192,192,12589,1,8,0:0:0:0:
448,192,12923,1,8,0:0:0:0:
64,192,13173,1,0,0:0:0:0:
320,192,13339,1,0,0:0:0:0:
192,192,13589,1,8,0:0:0:0:
448,192,13923,1,8,0:0:0:0:
64,192,14256,1,8,0:0:0:0:
320,192,14589,128,8,14923:0:0:0:0:
192,192,14923,1,8,0:0:0:0:
64,192,15256,1,8,0:0:0:0:
320,192,15589,1,8,0:0:0:0:
64,192,15839,1,0,0:0:0:0:
448,192,16006,1,0,0:0:0:0:
64,192,16256,1,8,0:0:0:0:
320,192,16589,128,8,16923:0:0:0:0:
64,192,16923,128,8,17256:0:0:0:0:
448,192,17256,128,8,17589:0:0:0:0:
192,192,17589,1,8,0:0:0:0:
64,192,17923,1,8,0:0:0:0:
448,192,18256,1,8,0:0:0:0:
64,192,18506,1,0,0:0:0:0:
320,192,18673,1,0,0:0:0:0:
448,192,18923,1,8,0:0:0:0:
192,192,19256,1,8,0:0:0:0:
320,192,19589,1,8,0:0:0:0:
64,192,19923,128,8,20256:0:0:0:0:
448,192,20256,1,8,0:0:0:0:
320,192,20589,1,8,0:0:0:0:
192,192,20923,128,8,21256:0:0:0:0:
64,192,21256,128,8,21589:0:0:0:0:
448,192,21589,1,8,0:0:0:0:
192,192,21756,1,8,0:0:0:0:
320,192,21923,1,8,0:0:0:0:
64,192,22089,1,8,0:0:0:0:
192,192,22423,1,8,0:0:0:0:
448,192,22589,128,8,22923:0:0:0:0:
64,192,22923,1,4,0:0:0:0:
320,192,23256,1,8,0:0:0:0:
192,192,23589,1,8,0:0:0:0:
448,192,23923,1,8,0:0:0:0:
64,192,24256,1,8,0:0:0:0:
192,192,24589,1,8,0:0:0:0:
448,192,24923,1,8,0:0:0:0:
64,192,25089,1,2,0:0:0:0:
320,192,25256,1,8,0:0:0:0:
448,192,25423,1,2,0:0:0:0:
64,192,25589,1,8,0:0:0:0:
192,192,25923,1,8,0:0:0:0:
448,192,26256,1,8,0:0:0:0:
64,192,26589,1,8,0:0:0:0:
320,192,26923,1,8,0:0:0:0:
448,192,27256,1,8,0:0:0:0:
320,192,27589,1,8,0:0:0:0:
64,192,27756,128,8,28256:0:0:0:0:
448,192,28256,1,8,0:0:0:0:
192,192,28589,1,8,0:0:0:0:
448,192,28923,1,8,0:0:0:0:
64,192,29256,1,8,0:0:0:0:
320,192,29589,1,8,0:0:0:0:
192,192,29923,1,8,0:0:0:0:
448,192,30256,1,8,0:0:0:0:
64,192,30589,1,8,0:0:0:0:
448,192,30923,1,8,0:0:0:0:
192,192,31089,1,8,0:0:0:0:
320,192,31256,1,8,0:0:0:0:
64,192,31423,1,8,0:0:0:0:
192,192,31589,128,8,32256:0:0:0:0:
448,192,32423,1,0,0:0:0:40:WS.wav
320,192,32589,1,0,0:0:0:40:WS.wav
64,192,32756,1,0,0:0:0:40:WS.wav
192,192,32923,1,0,0:0:0:40:WS.wav
320,192,33089,128,8,33589:0:0:0:0:
64,192,33589,1,8,0:0:0:0:
448,192,33589,1,4,0:0:0:0:
320,192,33923,1,8,0:0:0:0:
64,192,34256,1,8,0:0:0:0:
448,192,34589,1,8,0:0:0:0:
192,192,34923,1,8,0:0:0:0:
64,192,35256,1,8,0:0:0:0:
192,192,35589,1,0,0:0:0:40:WS.wav
448,192,35756,1,0,0:0:0:40:WS.wav
320,192,35923,1,0,0:0:0:40:WS.wav
64,192,36089,1,0,0:0:0:40:WS.wav
448,192,36256,1,8,0:0:0:0:
192,192,36589,1,8,0:0:0:0:
320,192,36923,1,8,0:0:0:0:
64,192,37256,1,8,0:0:0:0:
448,192,37589,1,8,0:0:0:0:
320,192,37923,1,8,0:0:0:0:
64,192,38256,128,8,38589:0:0:0:0:
192,192,38589,1,8,0:0:0:0:
448,192,38923,1,8,0:0:0:0:
64,192,39256,1,8,0:0:0:0:
320,192,39589,1,8,0:0:0:0:
192,192,39923,1,8,0:0:0:0:
448,192,40256,1,8,0:0:0:0:
320,192,40589,1,8,0:0:0:0:
64,192,40923,1,8,0:0:0:0:
192,192,41256,1,8,0:0:0:0:
448,192,41589,1,8,0:0:0:0:
320,192,41756,1,8,0:0:0:0:
64,192,41923,1,8,0:0:0:0:
192,192,42089,1,8,0:0:0:0:
320,192,42256,128,8,42923:0:0:0:0:
64,192,43089,1,8,0:0:0:0:
448,192,43256,1,8,0:0:0:0:
192,192,43423,1,8,0:0:0:0:
320,192,43589,1,8,0:0:0:0:
64,192,44256,1,8,0:0:0:0:
448,192,44756,1,8,0:0:0:0:
192,192,44923,1,8,0:0:0:0:
320,192,45256,1,2,0:0:0:0:
64,192,45589,1,8,0:0:0:0:
192,192,46089,1,8,0:0:0:0:
448,192,46256,1,8,0:0:0:0:
64,192,46589,1,2,0:0:0:0:
320,192,46923,1,8,0:0:0:0:
448,192,47423,1,8,0:0:0:0:
64,192,47589,1,8,0:0:0:0:
320,192,47923,1,2,0:0:0:0:
192,192,48256,1,8,0:0:0:0:
64,192,48756,1,8,0:0:0:0:
448,192,48923,128,8,49589:0:0:0:0:
64,192,49589,1,8,0:0:0:0:
64,192,49923,1,8,0:0:0:0:
320,192,50256,1,8,0:0:0:0:
320,192,50589,1,8,0:0:0:0:
192,192,50923,1,8,0:0:0:0:
192,192,51256,1,8,0:0:0:0:
448,192,51589,1,8,0:0:0:0:
448,192,51923,1,8,0:0:0:0:
64,192,52256,1,8,0:0:0:0:
64,192,52589,1,8,0:0:0:0:
320,192,52923,1,8,0:0:0:0:
320,192,53256,1,8,0:0:0:0:
64,192,53589,1,8,0:0:0:0:
192,192,53756,1,8,0:0:0:0:
448,192,53923,1,8,0:0:0:0:
320,192,54089,1,8,0:0:0:0:
64,192,54256,1,8,0:0:0:0:
448,192,54423,1,8,0:0:0:0:
192,192,54589,1,8,0:0:0:0:
448,192,54756,1,8,0:0:0:0:
64,192,54923,1,8,0:0:0:0:
320,192,55089,1,8,0:0:0:0:
192,192,55256,128,8,56256:0:0:0:0:
64,192,55589,128,8,56256:0:0:0:0:
448,192,56256,128,8,57256:0:0:0:0:
320,192,57256,1,8,0:0:0:0:
64,192,57589,1,4,0:0:0:0:
192,192,57923,1,8,0:0:0:0:
448,192,57923,1,0,0:0:0:0:
320,192,58256,1,8,0:0:0:0:
64,192,58589,1,8,0:0:0:0:
448,192,58923,1,8,0:0:0:0:
320,192,59256,1,8,0:0:0:0:
64,192,59589,1,8,0:0:0:0:
192,192,59923,1,8,0:0:0:0:
448,192,60256,1,8,0:0:0:0:
64,192,60589,1,8,0:0:0:0:
320,192,60923,1,8,0:0:0:0:
448,192,61256,1,8,0:0:0:0:
192,192,61589,1,8,0:0:0:0:
448,192,61923,1,8,0:0:0:0:
64,192,62256,1,8,0:0:0:0:
320,192,62589,1,8,0:0:0:0:
192,192,62923,1,8,0:0:0:0:
448,192,63256,1,8,0:0:0:0:
320,192,63256,1,0,0:0:0:0:
64,192,63589,1,8,0:0:0:0:
320,192,63923,1,8,0:0:0:0:
192,192,64256,1,8,0:0:0:0:
448,192,64589,1,8,0:0:0:0:
64,192,64923,1,8,0:0:0:0:
320,192,65256,1,8,0:0:0:0:
192,192,65589,1,8,0:0:0:0:
448,192,65923,1,8,0:0:0:0:
320,192,66256,1,8,0:0:0:0:
64,192,66589,1,8,0:0:0:0:
448,192,66923,128,8,67589:0:0:0:0:
64,192,67589,1,8,0:0:0:0:
192,192,67923,1,8,0:0:0:0:
448,192,68256,1,8,0:0:0:0:
64,192,68589,1,8,0:0:0:0:
320,192,68589,1,0,0:0:0:0:
192,192,68923,1,8,0:0:0:0:
448,192,69256,1,8,0:0:0:0:
64,192,69589,1,8,0:0:0:0:
320,192,69923,1,8,0:0:0:0:
192,192,70256,1,8,0:0:0:0:
448,192,70589,1,0,0:0:0:40:WS.wav
320,192,70923,1,8,0:0:0:0:
64,192,71256,1,8,0:0:0:0:
192,192,71589,1,8,0:0:0:0:
448,192,71923,1,8,0:0:0:0:
64,192,72256,1,8,0:0:0:0:
320,192,72589,1,8,0:0:0:0:
192,192,72923,1,8,0:0:0:0:
448,192,73256,1,8,0:0:0:0:
64,192,73589,1,8,0:0:0:0:
320,192,73923,1,8,0:0:0:0:
192,192,73923,1,0,0:0:0:0:
448,192,74256,1,8,0:0:0:0:
192,192,74589,1,8,0:0:0:0:
320,192,74923,1,8,0:0:0:0:
64,192,75256,1,8,0:0:0:0:
192,192,75589,1,8,0:0:0:0:
448,192,75923,1,8,0:0:0:0:
64,192,76256,1,8,0:0:0:0:
192,192,76423,1,8,0:0:0:0:
448,192,76589,1,8,0:0:0:0:
320,192,76756,1,8,0:0:0:0:
192,192,76923,128,8,77589:0:0:0:0:
64,192,77756,1,8,0:0:0:0:
320,192,77923,1,8,0:0:0:0:
192,192,78089,1,8,0:0:0:0:
448,192,78256,1,8,0:0:0:0:
320,192,78589,128,8,78923:0:0:0:0:
64,192,78923,1,8,0:0:0:0:
192,192,79089,1,8,0:0:0:0:
448,192,79256,1,8,0:0:0:0:
64,192,79589,1,8,0:0:0:0:
192,192,79756,1,8,0:0:0:0:
320,192,79923,1,8,0:0:0:0:
448,192,80256,1,8,0:0:0:0:
320,192,80423,1,8,0:0:0:0:
64,192,80589,128,8,80923:0:0:0:0:
192,192,80923,128,8,81256:0:0:0:0:
320,192,81256,128,8,81589:0:0:0:0:
448,192,81589,1,8,0:0:0:0:
64,192,81923,1,8,0:0:0:0:
320,192,82256,1,8,0:0:0:0:
192,192,82589,1,8,0:0:0:0:
448,192,82923,1,8,0:0:0:0:
64,192,83256,1,8,0:0:0:0:
320,192,83589,1,8,0:0:0:0:
448,192,83923,1,8,0:0:0:0:
192,192,84256,1,8,0:0:0:0:
448,192,84589,1,8,0:0:0:0:
64,192,84923,1,8,0:0:0:0:
192,192,85256,1,8,0:0:0:0:
448,192,85589,1,8,0:0:0:0:
320,192,85923,1,8,0:0:0:0:
64,192,86256,128,8,86589:0:0:0:0:
192,192,86589,1,8,0:0:0:0:
320,192,86756,1,8,0:0:0:0:
448,192,86923,1,8,0:0:0:0:
64,192,87256,1,8,0:0:0:0:
320,192,87589,1,8,0:0:0:0:
192,192,87923,1,8,0:0:0:0:
448,192,88256,1,8,0:0:0:0:
320,192,88589,1,8,0:0:0:0:
64,192,88923,1,8,0:0:0:0:
448,192,89256,1,8,0:0:0:0:
192,192,89589,1,8,0:0:0:0:
64,192,89923,1,8,0:0:0:0:
320,192,90256,1,8,0:0:0:0:
448,192,90589,1,8,0:0:0:0:
192,192,90923,128,8,91256:0:0:0:0:
320,192,91256,128,8,91589:0:0:0:0:
64,192,91589,1,8,0:0:0:0:
448,192,91923,128,8,92256:0:0:0:0:
192,192,92256,1,8,0:0:0:0:
64,192,92589,1,8,0:0:0:0:
448,192,92923,1,8,0:0:0:0:
320,192,93173,1,0,0:0:0:0:
64,192,93339,1,0,0:0:0:0:
448,192,93589,1,8,0:0:0:0:
192,192,93923,1,8,0:0:0:0:
64,192,94256,1,8,0:0:0:0:
448,192,94589,128,8,94923:0:0:0:0:
320,192,94923,1,8,0:0:0:0:
192,192,95256,1,8,0:0:0:0:
64,192,95589,1,8,0:0:0:0:
192,192,95839,1,0,0:0:0:0:
448,192,96006,1,0,0:0:0:0:
192,192,96256,1,8,0:0:0:0:
448,192,96589,128,8,96923:0:0:0:0:
320,192,96923,128,8,97256:0:0:0:0:
192,192,97256,128,8,97589:0:0:0:0:
64,192,97589,1,8,0:0:0:0:
320,192,97923,1,8,0:0:0:0:
192,192,98256,1,8,0:0:0:0:
448,192,98506,1,0,0:0:0:0:
64,192,98673,1,0,0:0:0:0:
320,192,98923,1,8,0:0:0:0:
64,192,99256,1,8,0:0:0:0:
320,192,99589,1,8,0:0:0:0:
448,192,99923,128,8,100256:0:0:0:0:
64,192,100256,1,8,0:0:0:0:
192,192,100423,1,2,0:0:0:0:
448,192,100589,1,8,0:0:0:0:
320,192,100756,1,2,0:0:0:0:
64,192,100923,1,8,0:0:0:0:
448,192,101089,1,8,0:0:0:0:
192,192,101256,1,8,0:0:0:0:
64,192,101423,1,8,0:0:0:0:
320,192,101589,1,8,0:0:0:0:
192,192,101756,1,8,0:0:0:0:
448,192,101923,1,8,0:0:0:0:
64,192,102089,1,8,0:0:0:0:
320,192,102256,1,8,0:0:0:0:
448,192,102423,1,8,0:0:0:0:
64,192,102589,1,8,0:0:0:0:
192,192,102756,1,8,0:0:0:0:
320,192,102923,128,8,104256:0:0:0:0:
448,192,104589,1,8,0:0:0:0:
64,192,104589,1,0,0:0:0:0:
320,192,104923,1,8,0:0:0:0:
192,192,105089,1,8,0:0:0:0:
448,192,105256,128,8,105589:0:0:0:0:
64,192,105256,128,0,105589:0:0:0:0:
