osu file format v14

[General]
AudioFilename: SOUND HOLIC feat. Nana Takahashi - Wakusei_Lollipop.mp3
AudioLeadIn: 0
PreviewTime: 57464
Countdown: 0
SampleSet: Soft
StackLeniency: 0.7
Mode: 3
LetterboxInBreaks: 0
SpecialStyle: 0
WidescreenStoryboard: 0

[Editor]
DistanceSpacing: 0.9
BeatDivisor: 4
GridSize: 8
TimelineZoom: 1.6

[Metadata]
Title:Wakusei*Lollipop
TitleUnicode:惑星☆ロリポップ
Artist:SOUND HOLIC feat. Nana Takahashi
ArtistUnicode:SOUND HOLIC feat. Nana Takahashi
Creator:Adot
Version:BEAST
Source:BeatStream
Tags:アニムトライヴ pharos21 aste- rinzler jubeat prop planet bemani summer diary 2015 コナミオリジナル konami original
BeatmapID:1107351
BeatmapSetID:480769

[Difficulty]
HPDrainRate:7.5
CircleSize:4
OverallDifficulty:7.5
ApproachRate:5
SliderMultiplier:1.4
SliderTickRate:1

[Events]
//Background and Video events
0,0,"potofu.jpg",0,0
//Break Periods
//Storyboard Layer 0 (Background)
//Storyboard Layer 1 (Fail)
//Storyboard Layer 2 (Pass)
//Storyboard Layer 3 (Foreground)
//Storyboard Sound Samples

[TimingPoints]
1590,333.333333333333,4,2,1,40,1,0
12256,-100,4,2,1,40,0,1
21589,-100,4,2,1,40,0,0
57589,-100,4,2,1,40,0,1
67589,-100,4,2,1,40,0,0
68256,-100,4,2,1,40,0,1
77589,-100,4,2,1,40,0,0
92256,-100,4,2,1,40,0,1
100256,-100,4,2,1,40,0,0

[HitObjects]
64,192,1590,5,0,0:0:0:40:F5.wav
448,192,1590,1,0,0:0:0:0:
320,192,1756,1,0,0:0:0:0:
192,192,1923,1,0,0:0:0:0:
320,192,2089,1,0,0:0:0:0:
64,192,2256,1,0,0:0:0:40:G5.wav
448,192,2256,1,0,0:0:0:0:
320,192,2423,1,0,0:0:0:0:
192,192,2589,1,0,0:0:0:0:
64,192,2756,1,0,0:0:0:0:
320,192,2923,1,0,0:0:0:40:D#5.wav
448,192,2923,1,0,0:0:0:0:
192,192,3089,1,0,0:0:0:0:
320,192,3256,1,0,0:0:0:0:
64,192,3423,1,0,0:0:0:40:G#5.wav
192,192,3423,1,0,0:0:0:0:
448,192,3589,1,0,0:0:0:0:
320,192,3756,128,0,3923:0:0:0:40:WS.wav
448,192,3923,1,0,0:0:0:40:WS.wav
192,192,3923,128,0,4089:0:0:0:0:
64,192,4089,128,0,4256:0:0:0:40:WS.wav
320,192,4256,1,0,0:0:0:40:C#5.wav
448,192,4256,1,0,0:0:0:0:
192,192,4423,1,0,0:0:0:0:
320,192,4589,1,0,0:0:0:0:
448,192,4756,1,0,0:0:0:0:
192,192,4923,1,0,0:0:0:40:G5.wav
64,192,4923,1,0,0:0:0:0:
320,192,5089,1,0,0:0:0:0:
64,192,5256,1,0,0:0:0:0:
448,192,5423,1,0,0:0:0:40:D#5.wav
192,192,5423,1,0,0:0:0:0:
320,192,5589,1,0,0:0:0:0:
64,192,5756,1,0,0:0:0:0:
192,192,5923,1,0,0:0:0:0:
64,192,6089,1,0,0:0:0:40:F#5.wav
448,192,6089,1,0,0:0:0:0:
320,192,6256,1,0,0:0:0:40:WS.wav
192,192,6423,1,0,0:0:0:0:
320,192,6589,1,0,0:0:0:40:WS.wav
64,192,6756,1,0,0:0:0:0:
320,192,6923,1,0,0:0:0:40:F5.wav
448,192,6923,1,0,0:0:0:0:
64,192,7089,1,2,0:0:0:0:
192,192,7256,1,0,0:0:0:0:
448,192,7423,1,2,0:0:0:0:
320,192,7589,1,0,0:0:0:40:G5.wav
64,192,7589,1,0,0:0:0:0:
192,192,7756,1,2,0:0:0:0:
448,192,7923,1,0,0:0:0:0:
320,192,8089,1,2,0:0:0:0:
64,192,8256,1,0,0:0:0:40:G#5.wav
192,192,8256,1,0,0:0:0:0:
448,192,8423,1,2,0:0:0:0:
320,192,8589,1,0,0:0:0:0:
448,192,8756,1,0,0:0:0:40:C6.wav
64,192,8756,1,2,0:0:0:0:
320,192,8923,1,0,0:0:0:0:
192,192,9089,128,0,9256:0:0:0:40:WS.wav
320,192,9256,128,0,9423:0:0:0:40:WS.wav
64,192,9256,1,0,0:0:0:0:
448,192,9423,128,0,9589:0:0:0:40:WS.wav
64,192,9589,1,0,0:0:0:40:F5.wav
192,192,9589,1,0,0:0:0:0:
320,192,9756,1,2,0:0:0:0:
192,192,9923,1,0,0:0:0:0:
64,192,10089,1,2,0:0:0:0:
192,192,10256,1,0,0:0:0:40:G5.wav
448,192,10256,1,0,0:0:0:0:
320,192,10423,1,2,0:0:0:0:
64,192,10589,1,0,0:0:0:0:
192,192,10756,1,2,0:0:0:0:
320,192,11089,1,8,0:0:0:0:
448,192,11089,1,0,0:0:0:0:
192,192,11256,1,8,0:0:0:0:
64,192,11256,1,0,0:0:0:0:
320,192,11423,1,8,0:0:0:0:
448,192,11423,1,0,0:0:0:0:
192,192,11589,1,8,0:0:0:0:
64,192,11589,1,0,0:0:0:0:
64,192,11923,1,0,0:0:0:40:WS.wav
448,192,11923,1,0,0:0:0:0:
192,192,12006,1,0,0:0:0:40:WS.wav
320,192,12089,1,0,0:0:0:40:WS.wav
192,192,12173,1,0,0:0:0:40:WS.wav
64,192,12256,1,8,0:0:0:0:
448,192,12256,1,0,0:0:0:0:
320,192,12423,1,2,0:0:0:0:
192,192,12589,1,8,0:0:0:0:
448,192,12589,1,0,0:0:0:0:
64,192,12756,1,2,0:0:0:0:
320,192,12923,1,8,0:0:0:0:
448,192,12923,1,0,0:0:0:0:
64,192,13089,1,2,0:0:0:0:
192,192,13173,1,0,0:0:0:0:
448,192,13256,1,8,0:0:0:0:
320,192,13256,1,0,0:0:0:0:
192,192,13339,1,0,0:0:0:0:
320,192,13423,1,2,0:0:0:0:
64,192,13589,1,8,0:0:0:0:
448,192,13589,1,0,0:0:0:0:
320,192,13756,1,2,0:0:0:0:
192,192,13923,1,8,0:0:0:0:
64,192,13923,1,0,0:0:0:0:
448,192,14089,128,2,14256:0:0:0:0:
320,192,14256,1,8,0:0:0:0:
64,192,14256,1,0,0:0:0:0:
192,192,14423,128,2,14589:0:0:0:0:
448,192,14589,1,8,0:0:0:0:
64,192,14589,1,0,0:0:0:40:WS.wav
320,192,14673,1,0,0:0:0:40:WS.wav
192,192,14756,1,2,0:0:0:0:
320,192,14839,1,0,0:0:0:40:WS.wav
448,192,14923,1,8,0:0:0:0:
64,192,14923,1,0,0:0:0:0:
320,192,15089,1,2,0:0:0:0:
192,192,15256,1,8,0:0:0:0:
64,192,15256,1,0,0:0:0:0:
448,192,15423,1,2,0:0:0:0:
320,192,15589,1,8,0:0:0:0:
64,192,15589,1,0,0:0:0:0:
448,192,15756,1,2,0:0:0:0:
320,192,15839,1,0,0:0:0:0:
192,192,15923,1,8,0:0:0:0:
64,192,15923,1,0,0:0:0:0:
448,192,16006,1,0,0:0:0:0:
320,192,16089,1,2,0:0:0:0:
192,192,16173,1,0,0:0:0:0:
64,192,16256,1,8,0:0:0:0:
448,192,16256,1,0,0:0:0:0:
320,192,16423,1,2,0:0:0:0:
192,192,16506,1,0,0:0:0:40:WS.wav
64,192,16589,1,8,0:0:0:0:
320,192,16673,1,0,0:0:0:40:WS.wav
192,192,16756,1,2,0:0:0:0:
320,192,16839,1,0,0:0:0:40:WS.wav
448,192,16923,1,8,0:0:0:0:
64,192,17006,1,0,0:0:0:40:WS.wav
192,192,17089,1,2,0:0:0:0:
448,192,17173,1,0,0:0:0:40:WS.wav
320,192,17256,1,8,0:0:0:0:
64,192,17339,1,0,0:0:0:0:
192,192,17423,1,2,0:0:0:0:
320,192,17506,1,0,0:0:0:0:
448,192,17589,1,8,0:0:0:0:
64,192,17589,1,4,0:0:0:0:
192,192,17756,1,2,0:0:0:0:
320,192,17923,1,8,0:0:0:0:
64,192,17923,1,0,0:0:0:0:
448,192,18089,1,2,0:0:0:0:
192,192,18256,1,8,0:0:0:0:
64,192,18256,1,0,0:0:0:0:
448,192,18423,1,2,0:0:0:0:
320,192,18506,1,0,0:0:0:0:
192,192,18589,1,8,0:0:0:0:
64,192,18589,1,0,0:0:0:0:
448,192,18673,1,0,0:0:0:0:
320,192,18756,1,2,0:0:0:0:
64,192,18923,1,8,0:0:0:0:
448,192,18923,1,0,0:0:0:0:
192,192,19089,1,2,0:0:0:0:
448,192,19256,1,8,0:0:0:0:
320,192,19256,1,0,0:0:0:0:
64,192,19423,128,2,19589:0:0:0:0:
448,192,19589,1,8,0:0:0:0:
192,192,19589,1,0,0:0:0:0:
320,192,19756,128,2,19923:0:0:0:0:
64,192,19923,1,8,0:0:0:0:
448,192,19923,1,0,0:0:0:40:WS.wav
192,192,20006,1,0,0:0:0:40:WS.wav
320,192,20089,1,2,0:0:0:0:
192,192,20173,1,0,0:0:0:40:WS.wav
448,192,20256,1,8,0:0:0:0:
64,192,20256,1,0,0:0:0:0:
192,192,20423,1,2,0:0:0:0:
320,192,20506,1,0,0:0:0:0:
64,192,20589,1,8,0:0:0:0:
448,192,20589,1,0,0:0:0:0:
320,192,20756,1,2,0:0:0:0:
192,192,20839,1,0,0:0:0:0:
64,192,20923,1,8,0:0:0:0:
448,192,20923,1,0,0:0:0:0:
320,192,21006,1,8,0:0:0:0:
192,192,21089,1,8,0:0:0:0:
64,192,21173,1,8,0:0:0:0:
192,192,21256,1,8,0:0:0:0:
320,192,21256,1,0,0:0:0:0:
448,192,21339,1,8,0:0:0:0:
320,192,21423,1,8,0:0:0:0:
192,192,21506,1,8,0:0:0:0:
448,192,21589,1,8,0:0:0:0:
64,192,21589,1,0,0:0:0:0:
320,192,21756,1,8,0:0:0:0:
192,192,21756,1,0,0:0:0:0:
64,192,21923,1,8,0:0:0:0:
448,192,21923,1,0,0:0:0:0:
320,192,22089,1,8,0:0:0:0:
192,192,22089,1,0,0:0:0:0:
64,192,22423,1,8,0:0:0:0:
192,192,22423,1,0,0:0:0:0:
448,192,22589,128,8,22923:0:0:0:0:
320,192,22589,1,0,0:0:0:0:
64,192,22923,1,4,0:0:0:0:
320,192,22923,1,0,0:0:0:0:
192,192,23089,1,2,0:0:0:0:
320,192,23256,1,8,0:0:0:0:
64,192,23256,1,0,0:0:0:0:
448,192,23423,1,2,0:0:0:0:
192,192,23589,1,8,0:0:0:0:
320,192,23589,1,0,0:0:0:0:
64,192,23756,1,2,0:0:0:0:
448,192,23923,1,8,0:0:0:0:
192,192,23923,1,0,0:0:0:0:
320,192,24089,1,2,0:0:0:0:
448,192,24256,1,8,0:0:0:0:
64,192,24256,1,0,0:0:0:0:
192,192,24423,1,2,0:0:0:0:
320,192,24589,1,8,0:0:0:0:
448,192,24589,1,0,0:0:0:0:
64,192,24756,1,2,0:0:0:0:
192,192,24923,1,8,0:0:0:0:
448,192,24923,128,0,25089:0:0:0:40:WS.wav
320,192,25089,128,2,25256:0:0:0:0:
64,192,25256,128,8,25423:0:0:0:0:
192,192,25256,1,0,0:0:0:40:WS.wav
448,192,25423,128,2,25589:0:0:0:0:
320,192,25589,1,8,0:0:0:0:
192,192,25589,1,0,0:0:0:0:
64,192,25756,1,2,0:0:0:0:
192,192,25923,1,8,0:0:0:0:
448,192,25923,1,0,0:0:0:0:
320,192,26089,1,2,0:0:0:0:
64,192,26256,1,8,0:0:0:0:
448,192,26256,1,0,0:0:0:0:
192,192,26423,1,2,0:0:0:0:
448,192,26589,1,8,0:0:0:0:
320,192,26589,1,0,0:0:0:0:
64,192,26756,1,2,0:0:0:0:
192,192,26923,1,8,0:0:0:0:
448,192,26923,1,0,0:0:0:0:
320,192,27089,1,2,0:0:0:0:
448,192,27256,1,8,0:0:0:0:
64,192,27256,1,0,0:0:0:0:
192,192,27423,1,2,0:0:0:0:
320,192,27589,1,8,0:0:0:0:
64,192,27589,1,0,0:0:0:40:WS.wav
448,192,27756,1,2,0:0:0:0:
320,192,27839,1,0,0:0:0:40:WS.wav
192,192,27923,1,8,0:0:0:0:
64,192,27923,1,0,0:0:0:40:WS.wav
320,192,28089,1,2,0:0:0:0:
448,192,28089,1,0,0:0:0:40:WS.wav
192,192,28256,1,8,0:0:0:0:
64,192,28256,1,0,0:0:0:0:
320,192,28423,1,2,0:0:0:0:
64,192,28589,1,8,0:0:0:0:
448,192,28589,1,0,0:0:0:0:
320,192,28756,1,2,0:0:0:0:
192,192,28923,1,8,0:0:0:0:
64,192,28923,1,0,0:0:0:0:
448,192,29089,1,2,0:0:0:0:
64,192,29256,1,8,0:0:0:0:
320,192,29256,1,0,0:0:0:0:
192,192,29423,1,2,0:0:0:0:
448,192,29589,1,8,0:0:0:0:
64,192,29589,1,0,0:0:0:0:
320,192,29756,1,2,0:0:0:0:
448,192,29923,1,8,0:0:0:0:
192,192,29923,1,0,0:0:0:0:
64,192,30089,1,2,0:0:0:0:
320,192,30256,1,8,0:0:0:0:
192,192,30256,1,0,0:0:0:0:
448,192,30423,1,2,0:0:0:0:
320,192,30589,1,8,0:0:0:0:
64,192,30589,1,0,0:0:0:0:
192,192,30756,1,2,0:0:0:0:
448,192,30923,1,8,0:0:0:0:
320,192,30923,1,0,0:0:0:0:
192,192,31089,1,8,0:0:0:0:
64,192,31089,1,0,0:0:0:0:
320,192,31256,1,8,0:0:0:0:
448,192,31256,1,0,0:0:0:0:
192,192,31423,1,8,0:0:0:0:
64,192,31423,1,0,0:0:0:0:
448,192,31589,1,8,0:0:0:0:
320,192,31673,1,8,0:0:0:0:
192,192,31756,1,8,0:0:0:0:
64,192,31839,1,8,0:0:0:0:
192,192,31923,1,8,0:0:0:0:
320,192,32006,1,8,0:0:0:0:
448,192,32089,1,8,0:0:0:0:
320,192,32173,1,8,0:0:0:0:
192,192,32256,1,8,0:0:0:0:
64,192,32256,1,0,0:0:0:0:
448,192,32423,1,0,0:0:0:40:WS.wav
64,192,32589,1,0,0:0:0:40:WS.wav
320,192,32756,1,0,0:0:0:40:WS.wav
64,192,32923,1,0,0:0:0:40:WS.wav
448,192,32923,1,0,0:0:0:0:
192,192,33089,1,8,0:0:0:0:
320,192,33173,1,8,0:0:0:0:
448,192,33256,1,8,0:0:0:0:
320,192,33339,1,8,0:0:0:0:
192,192,33423,1,8,0:0:0:0:
64,192,33506,1,8,0:0:0:0:
320,192,33589,1,8,0:0:0:0:
448,192,33589,128,4,33923:0:0:0:0:
192,192,33756,1,2,0:0:0:0:
64,192,33923,1,8,0:0:0:0:
320,192,33923,1,0,0:0:0:0:
448,192,34089,1,2,0:0:0:0:
192,192,34256,1,8,0:0:0:0:
64,192,34256,1,0,0:0:0:0:
320,192,34423,1,2,0:0:0:0:
448,192,34589,1,8,0:0:0:0:
64,192,34589,1,0,0:0:0:0:
192,192,34756,1,2,0:0:0:0:
320,192,34923,1,8,0:0:0:0:
64,192,34923,1,0,0:0:0:0:
448,192,35089,1,2,0:0:0:0:
320,192,35256,1,8,0:0:0:0:
192,192,35256,1,0,0:0:0:0:
64,192,35423,1,2,0:0:0:0:
448,192,35589,1,0,0:0:0:40:WS.wav
192,192,35589,128,8,35756:0:0:0:0:
320,192,35756,128,0,35923:0:0:0:40:WS.wav
448,192,35923,1,0,0:0:0:40:WS.wav
64,192,35923,128,8,36089:0:0:0:0:
192,192,36089,128,0,36256:0:0:0:40:WS.wav
448,192,36256,1,8,0:0:0:0:
320,192,36256,1,0,0:0:0:0:
64,192,36423,1,2,0:0:0:0:
192,192,36589,1,8,0:0:0:0:
448,192,36589,1,0,0:0:0:0:
320,192,36756,1,2,0:0:0:0:
64,192,36923,1,8,0:0:0:0:
448,192,36923,1,0,0:0:0:0:
192,192,37089,1,2,0:0:0:0:
320,192,37256,1,8,0:0:0:0:
64,192,37256,1,0,0:0:0:0:
448,192,37423,1,2,0:0:0:0:
320,192,37589,1,8,0:0:0:0:
192,192,37589,1,0,0:0:0:0:
64,192,37756,1,2,0:0:0:0:
192,192,37923,1,8,0:0:0:0:
448,192,37923,1,0,0:0:0:0:
320,192,38089,1,2,0:0:0:0:
192,192,38256,1,8,0:0:0:0:
64,192,38256,1,0,0:0:0:0:
320,192,38423,1,2,0:0:0:0:
192,192,38506,1,8,0:0:0:0:
448,192,38589,1,8,0:0:0:0:
64,192,38589,1,0,0:0:0:0:
320,192,38756,1,2,0:0:0:0:
192,192,38756,1,0,0:0:0:0:
448,192,38923,1,8,0:0:0:0:
64,192,38923,1,0,0:0:0:0:
320,192,39089,1,2,0:0:0:0:
192,192,39256,1,8,0:0:0:0:
64,192,39256,1,0,0:0:0:0:
448,192,39423,1,2,0:0:0:0:
320,192,39589,1,8,0:0:0:0:
64,192,39589,1,0,0:0:0:0:
192,192,39756,1,2,0:0:0:0:
448,192,39923,1,8,0:0:0:0:
64,192,39923,1,0,0:0:0:0:
320,192,40089,1,2,0:0:0:0:
448,192,40256,1,8,0:0:0:0:
192,192,40256,1,0,0:0:0:0:
64,192,40423,1,2,0:0:0:0:
320,192,40589,1,8,0:0:0:0:
192,192,40589,1,0,0:0:0:0:
448,192,40756,1,2,0:0:0:0:
192,192,40923,1,8,0:0:0:0:
64,192,40923,1,0,0:0:0:0:
320,192,41089,1,2,0:0:0:0:
448,192,41256,1,8,0:0:0:0:
64,192,41256,1,0,0:0:0:0:
192,192,41423,1,2,0:0:0:0:
448,192,41589,1,8,0:0:0:0:
320,192,41589,1,0,0:0:0:0:
64,192,41756,1,8,0:0:0:0:
192,192,41756,1,0,0:0:0:0:
320,192,41923,1,8,0:0:0:0:
448,192,41923,1,0,0:0:0:0:
64,192,42089,1,8,0:0:0:0:
192,192,42089,1,0,0:0:0:0:
448,192,42256,1,8,0:0:0:0:
320,192,42339,1,8,0:0:0:0:
192,192,42423,1,8,0:0:0:0:
64,192,42506,1,8,0:0:0:0:
448,192,42589,1,8,0:0:0:0:
320,192,42673,1,8,0:0:0:0:
192,192,42756,1,8,0:0:0:0:
64,192,42839,1,8,0:0:0:0:
448,192,43089,1,8,0:0:0:0:
192,192,43089,1,0,0:0:0:0:
64,192,43256,1,8,0:0:0:0:
320,192,43256,1,0,0:0:0:0:
448,192,43423,1,8,0:0:0:0:
192,192,43423,1,0,0:0:0:0:
320,192,43589,1,8,0:0:0:0:
64,192,43589,1,4,0:0:0:0:
64,192,43923,128,0,44256:0:0:0:0:
320,192,44256,1,8,0:0:0:0:
448,192,44256,1,0,0:0:0:0:
192,192,44589,1,2,0:0:0:0:
320,192,44756,1,8,0:0:0:0:
448,192,44756,1,0,0:0:0:0:
192,192,44923,1,8,0:0:0:0:
64,192,44923,1,0,0:0:0:0:
320,192,45256,1,2,0:0:0:0:
64,192,45589,1,8,0:0:0:0:
448,192,45589,1,0,0:0:0:0:
320,192,45923,1,2,0:0:0:0:
192,192,46089,1,8,0:0:0:0:
64,192,46089,1,0,0:0:0:0:
320,192,46256,1,8,0:0:0:0:
448,192,46256,1,0,0:0:0:0:
192,192,46589,1,2,0:0:0:0:
448,192,46923,1,8,0:0:0:0:
64,192,46923,1,0,0:0:0:0:
192,192,47256,1,2,0:0:0:0:
320,192,47423,1,8,0:0:0:0:
448,192,47423,1,0,0:0:0:0:
192,192,47589,1,8,0:0:0:0:
64,192,47589,1,0,0:0:0:0:
320,192,47923,1,2,0:0:0:0:
64,192,48256,1,8,0:0:0:0:
448,192,48256,1,0,0:0:0:0:
320,192,48589,1,2,0:0:0:0:
64,192,48756,1,8,0:0:0:0:
192,192,48756,1,0,0:0:0:0:
448,192,48923,1,8,0:0:0:0:
320,192,48923,1,0,0:0:0:0:
64,192,49006,1,8,0:0:0:0:
192,192,49089,1,8,0:0:0:0:
320,192,49173,1,8,0:0:0:0:
448,192,49256,1,8,0:0:0:0:
320,192,49339,1,8,0:0:0:0:
192,192,49423,1,8,0:0:0:0:
64,192,49506,1,8,0:0:0:0:
320,192,49589,1,8,0:0:0:0:
448,192,49589,1,0,0:0:0:0:
448,192,49923,1,8,0:0:0:0:
320,192,49923,1,0,0:0:0:0:
448,192,50256,1,8,0:0:0:0:
192,192,50256,1,0,0:0:0:0:
192,192,50589,1,8,0:0:0:0:
448,192,50589,1,0,0:0:0:0:
192,192,50923,5,8,0:0:0:0:
320,192,50923,1,4,0:0:0:0:
192,192,51256,1,8,0:0:0:0:
320,192,51256,1,0,0:0:0:0:
64,192,51589,1,8,0:0:0:0:
320,192,51589,1,0,0:0:0:0:
64,192,51923,1,8,0:0:0:0:
320,192,51923,1,0,0:0:0:0:
192,192,52256,1,8,0:0:0:0:
64,192,52256,1,4,0:0:0:0:
192,192,52589,1,8,0:0:0:0:
64,192,52589,1,0,0:0:0:0:
64,192,52923,1,8,0:0:0:0:
448,192,52923,1,0,0:0:0:0:
64,192,53256,1,8,0:0:0:0:
448,192,53256,1,0,0:0:0:0:
64,192,53589,1,8,0:0:0:0:
192,192,53589,1,4,0:0:0:0:
448,192,53756,1,8,0:0:0:0:
320,192,53756,1,0,0:0:0:0:
192,192,53923,1,8,0:0:0:0:
64,192,53923,1,0,0:0:0:0:
448,192,54089,1,8,0:0:0:0:
320,192,54089,1,0,0:0:0:0:
192,192,54256,1,8,0:0:0:0:
64,192,54256,1,0,0:0:0:0:
448,192,54423,1,8,0:0:0:0:
320,192,54506,1,8,0:0:0:0:
64,192,54589,1,8,0:0:0:0:
192,192,54756,1,8,0:0:0:0:
448,192,54756,1,0,0:0:0:0:
320,192,54923,1,8,0:0:0:0:
64,192,54923,1,4,0:0:0:0:
192,192,55089,1,8,0:0:0:0:
448,192,55089,1,0,0:0:0:0:
64,192,55256,1,8,0:0:0:0:
192,192,55256,1,0,0:0:0:0:
320,192,55339,1,8,0:0:0:0:
448,192,55423,1,8,0:0:0:0:
320,192,55506,1,8,0:0:0:0:
192,192,55589,1,8,0:0:0:0:
64,192,55673,1,8,0:0:0:0:
192,192,55756,1,8,0:0:0:0:
320,192,55839,1,8,0:0:0:0:
64,192,55923,1,8,0:0:0:0:
192,192,56006,1,8,0:0:0:0:
448,192,56089,1,8,0:0:0:0:
320,192,56173,1,8,0:0:0:0:
64,192,56256,1,8,0:0:0:0:
192,192,56339,1,8,0:0:0:0:
320,192,56423,1,8,0:0:0:0:
448,192,56506,1,8,0:0:0:0:
192,192,56589,128,8,57256:0:0:0:0:
64,192,56589,1,0,0:0:0:0:
320,192,56923,128,8,57256:0:0:0:0:
448,192,57256,1,8,0:0:0:0:
64,192,57589,1,4,0:0:0:0:
320,192,57589,1,8,0:0:0:0:
192,192,57756,1,2,0:0:0:0:
320,192,57923,1,8,0:0:0:0:
448,192,57923,128,0,58256:0:0:0:0:
64,192,58089,1,2,0:0:0:0:
192,192,58256,1,8,0:0:0:0:
320,192,58256,1,0,0:0:0:0:
448,192,58423,1,2,0:0:0:0:
320,192,58589,1,8,0:0:0:0:
64,192,58589,1,0,0:0:0:0:
192,192,58756,1,2,0:0:0:0:
448,192,58923,1,8,0:0:0:0:
64,192,58923,1,0,0:0:0:0:
320,192,59089,1,2,0:0:0:0:
192,192,59256,1,8,0:0:0:0:
448,192,59256,1,0,0:0:0:0:
64,192,59423,1,2,0:0:0:0:
192,192,59589,1,8,0:0:0:0:
320,192,59589,1,0,0:0:0:0:
448,192,59756,1,2,0:0:0:0:
64,192,59923,1,8,0:0:0:0:
320,192,59923,1,0,0:0:0:40:WS.wav
192,192,60089,1,2,0:0:0:0:
64,192,60256,1,8,0:0:0:0:
448,192,60256,1,0,0:0:0:0:
320,192,60423,1,2,0:0:0:0:
192,192,60589,1,8,0:0:0:0:
448,192,60589,1,0,0:0:0:0:
64,192,60756,1,2,0:0:0:0:
192,192,60923,1,8,0:0:0:0:
320,192,60923,1,0,0:0:0:0:
448,192,61089,1,2,0:0:0:0:
320,192,61256,1,8,0:0:0:0:
64,192,61256,1,0,0:0:0:0:
192,192,61423,1,2,0:0:0:0:
448,192,61589,1,8,0:0:0:0:
320,192,61589,1,0,0:0:0:0:
64,192,61756,1,2,0:0:0:0:
192,192,61923,1,8,0:0:0:0:
320,192,61923,1,0,0:0:0:0:
448,192,62089,128,2,62423:0:0:0:0:
320,192,62256,1,8,0:0:0:0:
64,192,62256,1,0,0:0:0:0:
192,192,62423,128,2,62589:0:0:0:0:
64,192,62589,1,8,0:0:0:0:
320,192,62589,128,0,62756:0:0:0:0:
448,192,62756,128,2,62923:0:0:0:0:
192,192,62923,1,8,0:0:0:0:
64,192,62923,1,4,0:0:0:0:
448,192,63089,1,2,0:0:0:0:
64,192,63256,128,8,63589:0:0:0:0:
320,192,63256,1,0,0:0:0:0:
192,192,63423,1,2,0:0:0:0:
448,192,63589,1,8,0:0:0:0:
320,192,63589,1,0,0:0:0:0:
64,192,63756,1,2,0:0:0:0:
192,192,63923,1,8,0:0:0:0:
448,192,63923,1,0,0:0:0:0:
320,192,64089,1,2,0:0:0:0:
448,192,64256,1,8,0:0:0:0:
64,192,64256,1,0,0:0:0:0:
192,192,64423,1,2,0:0:0:0:
64,192,64589,1,8,0:0:0:0:
320,192,64589,1,0,0:0:0:0:
448,192,64756,1,2,0:0:0:0:
320,192,64923,1,8,0:0:0:0:
192,192,64923,1,0,0:0:0:0:
64,192,65089,1,2,0:0:0:0:
192,192,65256,1,8,0:0:0:0:
448,192,65256,1,0,0:0:0:0:
320,192,65423,1,2,0:0:0:0:
448,192,65589,1,8,0:0:0:0:
64,192,65589,1,0,0:0:0:0:
64,192,65756,1,2,0:0:0:0:
448,192,65923,1,8,0:0:0:0:
192,192,65923,1,0,0:0:0:0:
448,192,66089,1,2,0:0:0:0:
320,192,66256,1,8,0:0:0:0:
192,192,66256,1,0,0:0:0:0:
64,192,66423,1,2,0:0:0:0:
320,192,66589,1,8,0:0:0:0:
448,192,66589,1,0,0:0:0:0:
192,192,66756,1,2,0:0:0:0:
64,192,66923,1,8,0:0:0:0:
448,192,66923,1,0,0:0:0:0:
320,192,67006,1,8,0:0:0:0:
192,192,67089,1,8,0:0:0:0:
64,192,67173,1,8,0:0:0:0:
192,192,67256,1,8,0:0:0:0:
320,192,67339,1,8,0:0:0:0:
448,192,67423,1,8,0:0:0:0:
320,192,67506,1,8,0:0:0:0:
192,192,67589,1,8,0:0:0:0:
64,192,67589,1,0,0:0:0:0:
320,192,67923,1,8,0:0:0:0:
448,192,67923,1,0,0:0:0:40:WS.wav
64,192,68256,1,8,0:0:0:0:
448,192,68256,1,0,0:0:0:0:
192,192,68423,1,0,0:0:0:0:
320,192,68589,1,8,0:0:0:0:
64,192,68589,128,0,68923:0:0:0:0:
448,192,68756,1,2,0:0:0:0:
320,192,68923,1,8,0:0:0:0:
192,192,68923,1,0,0:0:0:0:
448,192,69089,1,2,0:0:0:0:
64,192,69256,1,8,0:0:0:0:
320,192,69256,1,0,0:0:0:0:
192,192,69423,1,2,0:0:0:0:
64,192,69589,1,8,0:0:0:0:
448,192,69589,1,0,0:0:0:0:
320,192,69756,1,2,0:0:0:0:
192,192,69923,1,8,0:0:0:0:
64,192,69923,1,0,0:0:0:0:
448,192,70089,1,2,0:0:0:0:
320,192,70256,1,8,0:0:0:0:
64,192,70256,1,0,0:0:0:0:
192,192,70423,1,2,0:0:0:0:
448,192,70589,1,0,0:0:0:40:WS.wav
64,192,70589,1,8,0:0:0:0:
320,192,70756,1,2,0:0:0:0:
192,192,70923,1,8,0:0:0:0:
448,192,70923,1,0,0:0:0:0:
64,192,71089,1,2,0:0:0:0:
320,192,71256,1,8,0:0:0:0:
448,192,71256,1,0,0:0:0:0:
192,192,71423,1,2,0:0:0:0:
64,192,71589,1,8,0:0:0:0:
448,192,71589,1,0,0:0:0:0:
320,192,71756,1,2,0:0:0:0:
192,192,71923,1,8,0:0:0:0:
64,192,71923,1,0,0:0:0:0:
448,192,72089,1,2,0:0:0:0:
320,192,72256,1,8,0:0:0:0:
64,192,72256,1,0,0:0:0:0:
192,192,72423,1,2,0:0:0:0:
448,192,72589,1,8,0:0:0:0:
320,192,72589,1,0,0:0:0:0:
64,192,72756,128,2,73089:0:0:0:0:
192,192,72923,1,8,0:0:0:0:
448,192,72923,1,0,0:0:0:0:
320,192,73089,128,2,73256:0:0:0:0:
448,192,73256,1,8,0:0:0:0:
192,192,73256,128,0,73423:0:0:0:0:
64,192,73423,128,2,73589:0:0:0:0:
320,192,73589,1,8,0:0:0:0:
448,192,73589,1,0,0:0:0:0:
64,192,73756,1,2,0:0:0:0:
192,192,73923,1,8,0:0:0:0:
448,192,73923,128,0,74256:0:0:0:0:
320,192,74089,1,2,0:0:0:0:
64,192,74256,1,8,0:0:0:0:
192,192,74256,1,0,0:0:0:0:
448,192,74423,1,2,0:0:0:0:
320,192,74589,1,8,0:0:0:0:
64,192,74589,1,0,0:0:0:0:
192,192,74756,1,2,0:0:0:0:
448,192,74923,1,8,0:0:0:0:
64,192,74923,1,0,0:0:0:0:
320,192,75089,1,2,0:0:0:0:
192,192,75256,1,8,0:0:0:0:
448,192,75256,1,0,0:0:0:0:
64,192,75423,1,2,0:0:0:0:
320,192,75589,1,8,0:0:0:0:
192,192,75589,1,0,0:0:0:0:
448,192,75756,1,2,0:0:0:0:
320,192,75923,1,0,0:0:0:40:WS.wav
64,192,75923,1,8,0:0:0:0:
192,192,76089,1,0,0:0:0:40:WS.wav
448,192,76256,1,8,0:0:0:0:
64,192,76256,1,0,0:0:0:0:
320,192,76423,1,8,0:0:0:0:
192,192,76423,1,0,0:0:0:0:
64,192,76589,1,8,0:0:0:0:
448,192,76589,1,0,0:0:0:0:
320,192,76756,1,8,0:0:0:0:
192,192,76756,1,0,0:0:0:0:
64,192,76923,1,8,0:0:0:0:
448,192,76923,1,0,0:0:0:0:
320,192,77006,1,8,0:0:0:0:
192,192,77089,1,8,0:0:0:0:
64,192,77173,1,8,0:0:0:0:
192,192,77256,1,8,0:0:0:0:
320,192,77339,1,8,0:0:0:0:
448,192,77423,1,8,0:0:0:0:
320,192,77506,1,8,0:0:0:0:
64,192,77756,1,8,0:0:0:0:
192,192,77756,1,0,0:0:0:0:
320,192,77923,1,8,0:0:0:0:
448,192,77923,1,0,0:0:0:0:
192,192,78089,1,8,0:0:0:0:
64,192,78089,1,0,0:0:0:0:
320,192,78256,1,8,0:0:0:0:
448,192,78256,1,0,0:0:0:0:
64,192,78589,1,8,0:0:0:0:
448,192,78589,1,0,0:0:0:0:
320,192,78923,1,8,0:0:0:0:
448,192,78923,1,0,0:0:0:0:
192,192,79089,1,8,0:0:0:0:
64,192,79089,1,0,0:0:0:0:
64,192,79256,1,8,0:0:0:0:
448,192,79256,1,0,0:0:0:0:
192,192,79589,1,8,0:0:0:0:
64,192,79589,1,0,0:0:0:0:
320,192,79756,1,8,0:0:0:0:
448,192,79756,1,0,0:0:0:0:
448,192,79923,1,8,0:0:0:0:
64,192,79923,1,0,0:0:0:0:
448,192,80256,1,8,0:0:0:0:
64,192,80256,1,0,0:0:0:0:
192,192,80423,1,8,0:0:0:0:
320,192,80423,1,0,0:0:0:0:
448,192,80589,1,8,0:0:0:0:
64,192,80589,1,0,0:0:0:0:
192,192,80673,1,8,0:0:0:0:
320,192,80756,1,8,0:0:0:0:
448,192,80839,1,8,0:0:0:0:
64,192,80923,1,4,0:0:0:0:
192,192,81006,1,8,0:0:0:0:
448,192,81089,1,8,0:0:0:0:
320,192,81173,1,8,0:0:0:0:
64,192,81256,1,4,0:0:0:0:
192,192,81339,1,8,0:0:0:0:
448,192,81423,1,8,0:0:0:0:
320,192,81506,1,8,0:0:0:0:
192,192,81589,1,8,0:0:0:0:
64,192,81589,1,4,0:0:0:0:
448,192,81756,1,2,0:0:0:0:
320,192,81923,1,8,0:0:0:0:
64,192,81923,1,0,0:0:0:0:
192,192,82089,1,2,0:0:0:0:
64,192,82256,1,8,0:0:0:0:
448,192,82256,1,0,0:0:0:0:
320,192,82423,1,2,0:0:0:0:
192,192,82589,1,8,0:0:0:0:
64,192,82589,1,0,0:0:0:0:
320,192,82756,128,2,82923:0:0:0:0:
64,192,82923,1,8,0:0:0:0:
448,192,82923,1,0,0:0:0:0:
192,192,83089,1,2,0:0:0:0:
448,192,83256,1,8,0:0:0:0:
320,192,83256,1,0,0:0:0:0:
64,192,83423,1,2,0:0:0:0:
192,192,83589,1,8,0:0:0:0:
320,192,83589,1,0,0:0:0:0:
448,192,83756,1,2,0:0:0:0:
320,192,83923,1,8,0:0:0:0:
64,192,83923,1,0,0:0:0:0:
448,192,84089,128,2,84256:0:0:0:0:
64,192,84256,1,8,0:0:0:0:
192,192,84256,1,0,0:0:0:0:
320,192,84423,1,2,0:0:0:0:
448,192,84589,1,8,0:0:0:0:
64,192,84589,1,0,0:0:0:0:
192,192,84756,1,2,0:0:0:0:
320,192,84923,1,8,0:0:0:0:
448,192,84923,1,0,0:0:0:0:
64,192,85089,1,2,0:0:0:0:
320,192,85256,1,8,0:0:0:0:
192,192,85256,1,0,0:0:0:0:
64,192,85423,128,2,85589:0:0:0:0:
448,192,85589,1,8,0:0:0:0:
192,192,85589,1,0,0:0:0:0:
64,192,85756,1,2,0:0:0:0:
448,192,85923,1,8,0:0:0:0:
320,192,85923,1,0,0:0:0:0:
192,192,86089,1,2,0:0:0:0:
64,192,86256,1,8,0:0:0:0:
448,192,86256,1,0,0:0:0:0:
192,192,86339,1,8,0:0:0:0:
320,192,86423,1,8,0:0:0:0:
448,192,86506,1,8,0:0:0:0:
64,192,86589,1,8,0:0:0:0:
192,192,86589,1,0,0:0:0:0:
448,192,86756,1,8,0:0:0:0:
320,192,86756,1,0,0:0:0:0:
64,192,86923,1,8,0:0:0:0:
192,192,86923,1,4,0:0:0:0:
448,192,87089,1,2,0:0:0:0:
320,192,87256,1,8,0:0:0:0:
192,192,87256,1,0,0:0:0:0:
64,192,87423,1,2,0:0:0:0:
320,192,87589,1,8,0:0:0:0:
448,192,87589,1,0,0:0:0:0:
192,192,87756,1,2,0:0:0:0:
448,192,87923,1,8,0:0:0:0:
64,192,87923,1,0,0:0:0:0:
192,192,88089,128,2,88256:0:0:0:0:
320,192,88256,1,8,0:0:0:0:
64,192,88256,1,0,0:0:0:0:
448,192,88423,1,2,0:0:0:0:
192,192,88589,1,8,0:0:0:0:
320,192,88589,1,0,0:0:0:0:
64,192,88756,1,2,0:0:0:0:
448,192,88923,1,8,0:0:0:0:
192,192,88923,1,0,0:0:0:0:
320,192,89089,1,2,0:0:0:0:
64,192,89256,1,8,0:0:0:0:
448,192,89256,1,0,0:0:0:0:
320,192,89423,128,2,89589:0:0:0:0:
64,192,89589,1,8,0:0:0:0:
192,192,89589,1,0,0:0:0:0:
448,192,89756,1,2,0:0:0:0:
320,192,89923,1,8,0:0:0:0:
64,192,89923,1,0,0:0:0:0:
192,192,90089,1,2,0:0:0:0:
320,192,90256,1,8,0:0:0:0:
448,192,90256,1,0,0:0:0:0:
64,192,90423,1,2,0:0:0:0:
192,192,90589,1,8,0:0:0:0:
320,192,90589,1,0,0:0:0:0:
64,192,90756,128,2,90923:0:0:0:0:
448,192,90923,1,8,0:0:0:0:
192,192,90923,1,0,0:0:0:0:
320,192,91006,1,8,0:0:0:0:
448,192,91089,1,8,0:0:0:0:
320,192,91173,1,8,0:0:0:0:
192,192,91256,1,8,0:0:0:0:
64,192,91339,1,8,0:0:0:0:
192,192,91423,1,8,0:0:0:0:
320,192,91506,1,8,0:0:0:0:
64,192,91589,1,8,0:0:0:0:
448,192,91589,1,0,0:0:0:0:
192,192,91756,1,8,0:0:0:0:
448,192,91923,1,8,0:0:0:0:
64,192,91923,1,0,0:0:0:0:
320,192,92006,1,8,0:0:0:0:
192,192,92089,1,8,0:0:0:0:
320,192,92173,1,8,0:0:0:0:
64,192,92256,1,8,0:0:0:0:
448,192,92256,1,4,0:0:0:0:
192,192,92423,1,2,0:0:0:0:
320,192,92589,1,8,0:0:0:0:
448,192,92589,1,0,0:0:0:0:
64,192,92756,1,2,0:0:0:0:
448,192,92923,1,8,0:0:0:0:
192,192,92923,1,0,0:0:0:0:
64,192,93089,1,2,0:0:0:0:
192,192,93173,1,0,0:0:0:0:
320,192,93256,1,8,0:0:0:0:
448,192,93256,1,0,0:0:0:0:
64,192,93339,1,0,0:0:0:0:
192,192,93423,1,2,0:0:0:0:
64,192,93589,1,8,0:0:0:0:
320,192,93589,1,0,0:0:0:0:
448,192,93756,1,2,0:0:0:0:
192,192,93923,1,8,0:0:0:0:
320,192,93923,1,0,0:0:0:0:
64,192,94089,1,2,0:0:0:0:
192,192,94256,1,8,0:0:0:0:
448,192,94256,1,0,0:0:0:0:
320,192,94423,128,2,94589:0:0:0:0:
64,192,94589,1,8,0:0:0:0:
448,192,94589,1,0,0:0:0:0:
192,192,94673,1,0,0:0:0:0:
320,192,94756,1,2,0:0:0:0:
192,192,94839,1,0,0:0:0:0:
448,192,94923,1,8,0:0:0:0:
64,192,94923,1,0,0:0:0:0:
320,192,95089,1,2,0:0:0:0:
64,192,95256,1,8,0:0:0:0:
192,192,95256,1,0,0:0:0:0:
448,192,95423,1,2,0:0:0:0:
192,192,95589,1,8,0:0:0:0:
320,192,95589,1,0,0:0:0:0:
64,192,95756,1,2,0:0:0:0:
192,192,95839,1,0,0:0:0:0:
448,192,95923,1,8,0:0:0:0:
64,192,95923,1,0,0:0:0:0:
320,192,96006,1,0,0:0:0:0:
192,192,96089,1,2,0:0:0:0:
320,192,96173,1,0,0:0:0:0:
64,192,96256,1,8,0:0:0:0:
448,192,96256,1,0,0:0:0:0:
320,192,96423,1,2,0:0:0:0:
192,192,96506,1,0,0:0:0:40:WS.wav
64,192,96589,1,8,0:0:0:0:
448,192,96673,1,0,0:0:0:40:WS.wav
320,192,96756,1,0,0:0:0:0:
64,192,96839,1,0,0:0:0:40:WS.wav
192,192,96923,1,8,0:0:0:0:
320,192,97006,1,0,0:0:0:40:WS.wav
448,192,97089,1,0,0:0:0:0:
64,192,97173,1,0,0:0:0:40:WS.wav
192,192,97256,1,8,0:0:0:0:
448,192,97339,1,0,0:0:0:0:
320,192,97423,1,2,0:0:0:0:
192,192,97506,1,0,0:0:0:0:
448,192,97589,1,8,0:0:0:0:
64,192,97589,1,4,0:0:0:0:
192,192,97756,1,2,0:0:0:0:
448,192,97923,1,8,0:0:0:0:
320,192,97923,1,0,0:0:0:0:
64,192,98089,1,2,0:0:0:0:
448,192,98256,1,8,0:0:0:0:
192,192,98256,1,0,0:0:0:0:
320,192,98423,1,2,0:0:0:0:
192,192,98506,1,0,0:0:0:0:
448,192,98589,1,8,0:0:0:0:
320,192,98589,1,0,0:0:0:0:
192,192,98673,1,0,0:0:0:0:
64,192,98756,1,2,0:0:0:0:
192,192,98923,1,8,0:0:0:0:
448,192,98923,1,0,0:0:0:0:
320,192,99089,1,2,0:0:0:0:
64,192,99256,1,8,0:0:0:0:
448,192,99256,1,0,0:0:0:0:
192,192,99423,1,2,0:0:0:0:
320,192,99589,1,8,0:0:0:0:
448,192,99589,1,0,0:0:0:0:
64,192,99756,1,2,0:0:0:0:
192,192,99839,1,0,0:0:0:0:
448,192,99923,1,8,0:0:0:0:
320,192,100006,1,0,0:0:0:0:
64,192,100089,1,2,0:0:0:0:
192,192,100173,1,0,0:0:0:0:
320,192,100256,1,8,0:0:0:0:
448,192,100256,1,4,0:0:0:0:
64,192,100423,1,2,0:0:0:0:
192,192,100506,1,0,0:0:0:0:
448,192,100589,1,8,0:0:0:0:
320,192,100589,1,4,0:0:0:0:
192,192,100756,1,2,0:0:0:0:
320,192,100839,1,0,0:0:0:0:
64,192,100923,1,8,0:0:0:0:
448,192,100923,1,4,0:0:0:0:
448,192,101089,1,8,0:0:0:0:
320,192,101173,1,0,0:0:0:0:
192,192,101256,1,8,0:0:0:0:
64,192,101256,1,0,0:0:0:0:
320,192,101423,1,8,0:0:0:0:
192,192,101506,1,0,0:0:0:0:
320,192,101589,1,8,0:0:0:0:
448,192,101589,1,0,0:0:0:0:
64,192,101673,1,0,0:0:0:0:
192,192,101756,1,8,0:0:0:0:
320,192,101839,1,8,0:0:0:0:
448,192,101923,1,8,0:0:0:0:
64,192,101923,1,0,0:0:0:0:
192,192,102006,1,8,0:0:0:0:
320,192,102089,1,8,0:0:0:0:
448,192,102173,1,8,0:0:0:0:
64,192,102256,1,8,0:0:0:0:
192,192,102256,1,0,0:0:0:0:
320,192,102339,1,8,0:0:0:0:
448,192,102423,1,8,0:0:0:0:
64,192,102506,1,8,0:0:0:0:
192,192,102589,1,8,0:0:0:0:
320,192,102589,1,0,0:0:0:0:
448,192,102673,1,8,0:0:0:0:
64,192,102756,1,8,0:0:0:0:
192,192,102839,1,8,0:0:0:0:
320,192,102923,1,8,0:0:0:0:
448,192,102923,1,0,0:0:0:0:
192,192,103006,1,0,0:0:0:70:WS.wav
64,192,103089,1,0,0:0:0:40:WS.wav
448,192,103173,1,0,0:0:0:40:WS.wav
192,192,103256,1,0,0:0:0:40:WS.wav
320,192,103339,1,0,0:0:0:40:WS.wav
64,192,103423,1,0,0:0:0:40:WS.wav
448,192,103506,1,0,0:0:0:40:WS.wav
320,192,103589,1,0,0:0:0:40:WS.wav
192,192,103673,1,0,0:0:0:40:WS.wav
64,192,103756,1,0,0:0:0:40:WS.wav
192,192,103839,1,0,0:0:0:40:WS.wav
320,192,103923,1,0,0:0:0:40:WS.wav
64,192,104006,1,0,0:0:0:40:WS.wav
192,192,104089,1,0,0:0:0:40:WS.wav
320,192,104173,1,0,0:0:0:40:WS.wav
448,192,104256,1,0,0:0:0:40:WS.wav
64,192,104589,1,8,0:0:0:0:
448,192,104589,1,0,0:0:0:0:
320,192,104589,1,0,0:0:0:0:
64,192,104923,1,8,0:0:0:0:
192,192,104923,1,0,0:0:0:0:
320,192,105089,1,8,0:0:0:0:
448,192,105089,1,0,0:0:0:0:
64,192,105256,128,8,105589:0:0:0:0:
192,192,105256,128,0,105589:0:0:0:0:
448,192,105256,128,0,105589:0:0:0:0:
