osu file format v14

[General]
AudioFilename: TYCOON(INF).mp3
AudioLeadIn: 0
PreviewTime: 50237
Countdown: 0
SampleSet: None
StackLeniency: 0.7
Mode: 3
LetterboxInBreaks: 0
SpecialStyle: 0
WidescreenStoryboard: 1

[Editor]
DistanceSpacing: 1
BeatDivisor: 4
GridSize: 8
TimelineZoom: 1.6

[Metadata]
Title:TYCOON
TitleUnicode:TYCOON
Artist:SOUND HOLIC feat. Nana Takahashi
ArtistUnicode:SOUND HOLIC feat. Nana Takahashi
Creator:Julio1212-
Version:Normal 7k
Source:Sound Voltex
Tags:SOUND HOLIC feat. Nana Takahashi SDVX Sound Voltex julio1212
BeatmapID:961739
BeatmapSetID:448068

[Difficulty]
HPDrainRate:8
CircleSize:7
OverallDifficulty:8
ApproachRate:5
SliderMultiplier:1.4
SliderTickRate:1

[Events]
//Background and Video events
0,0,"TYCOONFNLBG.jpg",0,0
//Break Periods
//Storyboard Layer 0 (Background)
//Storyboard Layer 1 (Fail)
//Storyboard Layer 2 (Pass)
//Storyboard Layer 3 (Foreground)
//Storyboard Sound Samples

[TimingPoints]
782,352.941176470588,4,1,0,50,1,0

[HitObjects]
256,192,782,128,0,1487:0:0:0:0:
182,192,1487,128,0,2193:0:0:0:0:
329,192,2193,1,0,0:0:0:0:
402,192,2281,1,0,0:0:0:0:
329,192,2370,1,0,0:0:0:0:
402,192,2458,1,0,0:0:0:0:
329,192,2546,1,0,0:0:0:0:
402,192,2634,1,0,0:0:0:0:
329,192,2723,1,0,0:0:0:0:
402,192,2811,1,0,0:0:0:0:
109,192,2899,1,0,0:0:0:0:
36,192,3429,1,0,0:0:0:0:
109,192,3517,1,0,0:0:0:0:
182,192,3605,1,0,0:0:0:0:
182,192,3723,1,0,0:0:0:0:
182,192,3840,1,0,0:0:0:0:
182,192,3958,1,0,0:0:0:0:
182,192,4076,1,0,0:0:0:0:
182,192,4193,1,0,0:0:0:0:
329,192,4311,128,0,5017:0:0:0:0:
182,192,5017,1,0,0:0:0:0:
109,192,5105,1,0,0:0:0:0:
182,192,5193,1,0,0:0:0:0:
109,192,5281,1,0,0:0:0:0:
182,192,5370,1,0,0:0:0:0:
109,192,5458,1,0,0:0:0:0:
182,192,5546,1,0,0:0:0:0:
109,192,5634,1,0,0:0:0:0:
182,192,5723,1,0,0:0:0:0:
256,192,5899,128,0,6429:0:0:0:0:
36,192,6429,1,0,0:0:0:0:
475,192,6429,1,0,0:0:0:0:
475,192,7134,1,0,0:0:0:0:
36,192,7134,1,0,0:0:0:0:
329,192,7311,1,0,0:0:0:0:
329,192,7487,1,0,0:0:0:0:
182,192,7576,1,0,0:0:0:0:
329,192,7664,1,0,0:0:0:0:
182,192,7752,1,0,0:0:0:0:
475,192,7840,1,0,0:0:0:0:
36,192,7840,1,0,0:0:0:0:
256,192,8546,1,0,0:0:0:0:
475,192,8546,1,0,0:0:0:0:
182,192,8634,1,0,0:0:0:0:
109,192,8723,1,0,0:0:0:0:
329,192,8899,1,0,0:0:0:0:
475,192,8987,1,0,0:0:0:0:
329,192,9076,1,0,0:0:0:0:
475,192,9164,1,0,0:0:0:0:
109,192,9252,128,0,9605:0:0:0:0:
36,192,9252,1,0,0:0:0:0:
256,192,9605,1,0,0:0:0:0:
475,192,9605,1,0,0:0:0:0:
402,192,9958,1,0,0:0:0:0:
182,192,10046,1,0,0:0:0:0:
402,192,10134,1,0,0:0:0:0:
182,192,10223,1,0,0:0:0:0:
256,192,10311,1,0,0:0:0:0:
36,192,10311,1,0,0:0:0:0:
329,192,10487,1,0,0:0:0:0:
182,192,10664,1,0,0:0:0:0:
109,192,10781,1,0,0:0:0:0:
182,192,10899,1,0,0:0:0:0:
256,192,11017,1,0,0:0:0:0:
329,192,11370,1,0,0:0:0:0:
475,192,11370,1,0,0:0:0:0:
256,192,11546,1,0,0:0:0:0:
329,192,11723,1,0,0:0:0:0:
109,192,11723,1,0,0:0:0:0:
182,192,12076,1,0,0:0:0:0:
36,192,12076,128,0,12340:0:0:0:0:
256,192,12429,128,0,12693:0:0:0:0:
36,192,12429,1,0,0:0:0:0:
182,192,12781,1,0,0:0:0:0:
329,192,12958,1,0,0:0:0:0:
182,192,13134,1,0,0:0:0:0:
475,192,13311,1,0,0:0:0:0:
182,192,13487,1,0,0:0:0:0:
329,192,13664,1,0,0:0:0:0:
402,192,13840,1,0,0:0:0:0:
182,192,13840,1,0,0:0:0:0:
329,192,14017,1,0,0:0:0:0:
256,192,14105,1,0,0:0:0:0:
109,192,14193,1,0,0:0:0:0:
182,192,14370,1,0,0:0:0:0:
329,192,14546,1,0,0:0:0:0:
182,192,14723,1,0,0:0:0:0:
402,192,14899,128,0,15076:0:0:0:0:
36,192,15076,1,0,0:0:0:0:
109,192,15076,1,0,0:0:0:0:
329,192,15252,128,0,15429:0:0:0:0:
36,192,15429,1,0,0:0:0:0:
109,192,15429,1,0,0:0:0:0:
256,192,15605,128,0,15781:0:0:0:0:
36,192,15781,1,0,0:0:0:0:
109,192,15781,1,0,0:0:0:0:
182,192,15958,128,0,16311:0:0:0:0:
402,192,15958,1,0,0:0:0:0:
329,192,16311,1,0,0:0:0:0:
109,192,16487,1,0,0:0:0:0:
329,192,16664,1,0,0:0:0:0:
109,192,16929,1,0,0:0:0:0:
182,192,17017,1,0,0:0:0:0:
329,192,17017,1,0,0:0:0:0:
256,192,17193,1,0,0:0:0:0:
182,192,17281,1,0,0:0:0:0:
329,192,17370,1,0,0:0:0:0:
109,192,17370,1,0,0:0:0:0:
402,192,17458,1,0,0:0:0:0:
182,192,17546,1,0,0:0:0:0:
256,192,17634,1,0,0:0:0:0:
329,192,17723,1,0,0:0:0:0:
109,192,17723,128,0,18076:0:0:0:0:
402,192,17899,1,0,0:0:0:0:
256,192,17987,1,0,0:0:0:0:
36,192,18076,1,0,0:0:0:0:
475,192,18076,1,0,0:0:0:0:
329,192,18252,1,0,0:0:0:0:
182,192,18429,1,0,0:0:0:0:
109,192,18429,1,0,0:0:0:0:
329,192,18605,1,0,0:0:0:0:
36,192,18781,1,0,0:0:0:0:
182,192,18781,1,0,0:0:0:0:
402,192,18958,1,0,0:0:0:0:
256,192,19134,1,0,0:0:0:0:
109,192,19134,1,0,0:0:0:0:
329,192,19311,1,0,0:0:0:0:
402,192,19487,1,0,0:0:0:0:
36,192,19487,1,0,0:0:0:0:
109,192,19664,1,0,0:0:0:0:
182,192,19752,1,0,0:0:0:0:
329,192,19840,1,0,0:0:0:0:
402,192,20017,1,0,0:0:0:0:
109,192,20193,1,0,0:0:0:0:
256,192,20193,128,0,20546:0:0:0:0:
36,192,20546,1,0,0:0:0:0:
182,192,20546,1,0,0:0:0:0:
109,192,20811,1,0,0:0:0:0:
256,192,20811,1,0,0:0:0:0:
182,192,21076,1,0,0:0:0:0:
329,192,21076,1,0,0:0:0:0:
256,192,21340,1,0,0:0:0:0:
402,192,21340,1,0,0:0:0:0:
329,192,21605,1,0,0:0:0:0:
475,192,21605,1,0,0:0:0:0:
402,192,21870,1,0,0:0:0:0:
256,192,21870,1,0,0:0:0:0:
256,192,22134,128,0,22664:0:0:0:0:
182,192,22840,1,0,0:0:0:0:
36,192,22840,1,0,0:0:0:0:
329,192,23193,1,0,0:0:0:0:
475,192,23193,1,0,0:0:0:0:
182,192,23370,1,0,0:0:0:0:
182,192,23723,1,0,0:0:0:0:
182,192,24076,1,0,0:0:0:0:
182,192,24429,1,0,0:0:0:0:
402,192,24781,1,0,0:0:0:0:
402,192,25134,1,0,0:0:0:0:
402,192,25487,1,0,0:0:0:0:
402,192,25840,1,0,0:0:0:0:
329,192,25929,1,0,0:0:0:0:
256,192,26017,1,0,0:0:0:0:
182,192,26105,1,0,0:0:0:0:
36,192,26193,1,0,0:0:0:0:
36,192,26546,1,0,0:0:0:0:
36,192,26899,1,0,0:0:0:0:
36,192,27252,1,0,0:0:0:0:
109,192,27605,1,0,0:0:0:0:
402,192,27781,1,0,0:0:0:0:
109,192,27958,1,0,0:0:0:0:
402,192,28134,1,0,0:0:0:0:
329,192,28311,1,0,0:0:0:0:
182,192,28399,1,0,0:0:0:0:
329,192,28487,1,0,0:0:0:0:
182,192,28576,1,0,0:0:0:0:
329,192,28664,1,0,0:0:0:0:
329,192,29017,1,0,0:0:0:0:
256,192,29370,1,0,0:0:0:0:
182,192,29546,128,0,30076:0:0:0:0:
36,192,29723,1,0,0:0:0:0:
256,192,29899,1,0,0:0:0:0:
329,192,30076,1,0,0:0:0:0:
109,192,30429,1,0,0:0:0:0:
256,192,30781,1,0,0:0:0:0:
402,192,30958,128,0,31487:0:0:0:0:
475,192,31134,1,0,0:0:0:0:
329,192,31311,1,0,0:0:0:0:
182,192,31487,1,0,0:0:0:0:
109,192,31840,1,0,0:0:0:0:
109,192,32193,1,0,0:0:0:0:
256,192,32546,1,0,0:0:0:0:
256,192,32899,1,0,0:0:0:0:
182,192,33076,1,0,0:0:0:0:
109,192,33164,1,0,0:0:0:0:
256,192,33252,1,0,0:0:0:0:
182,192,33340,1,0,0:0:0:0:
329,192,33429,1,0,0:0:0:0:
256,192,33517,1,0,0:0:0:0:
402,192,33605,1,0,0:0:0:0:
329,192,33693,1,0,0:0:0:0:
475,192,33781,1,0,0:0:0:0:
402,192,33870,1,0,0:0:0:0:
36,192,33958,1,0,0:0:0:0:
329,192,34134,1,0,0:0:0:0:
182,192,34134,1,0,0:0:0:0:
182,192,34487,1,0,0:0:0:0:
329,192,34487,1,0,0:0:0:0:
475,192,34664,1,0,0:0:0:0:
109,192,34840,1,0,0:0:0:0:
36,192,34840,1,0,0:0:0:0:
182,192,35105,1,0,0:0:0:0:
109,192,35105,1,0,0:0:0:0:
256,192,35370,1,0,0:0:0:0:
182,192,35370,1,0,0:0:0:0:
329,192,35634,1,0,0:0:0:0:
256,192,35634,1,0,0:0:0:0:
402,192,35899,1,0,0:0:0:0:
329,192,35899,1,0,0:0:0:0:
402,192,36252,1,0,0:0:0:0:
475,192,36252,1,0,0:0:0:0:
329,192,36517,1,0,0:0:0:0:
402,192,36517,1,0,0:0:0:0:
256,192,36781,1,0,0:0:0:0:
329,192,36781,1,0,0:0:0:0:
182,192,37046,1,0,0:0:0:0:
256,192,37046,1,0,0:0:0:0:
109,192,37311,1,0,0:0:0:0:
36,192,37311,1,0,0:0:0:0:
402,192,37487,1,0,0:0:0:0:
329,192,37576,1,0,0:0:0:0:
256,192,37752,1,0,0:0:0:0:
182,192,37752,1,0,0:0:0:0:
109,192,38017,1,0,0:0:0:0:
36,192,38017,1,0,0:0:0:0:
329,192,38193,1,0,0:0:0:0:
402,192,38193,1,0,0:0:0:0:
182,192,38458,1,0,0:0:0:0:
256,192,38458,1,0,0:0:0:0:
36,192,38723,1,0,0:0:0:0:
109,192,38723,1,0,0:0:0:0:
256,192,38899,128,0,39605:0:0:0:0:
475,192,39252,1,0,0:0:0:0:
402,192,39252,1,0,0:0:0:0:
475,192,39487,1,0,0:0:0:0:
402,192,39487,1,0,0:0:0:0:
109,192,39605,1,0,0:0:0:0:
36,192,39605,1,0,0:0:0:0:
256,192,39870,1,0,0:0:0:0:
329,192,39870,1,0,0:0:0:0:
402,192,40134,1,0,0:0:0:0:
475,192,40134,1,0,0:0:0:0:
36,192,40311,1,0,0:0:0:0:
182,192,40399,1,0,0:0:0:0:
256,192,40487,1,0,0:0:0:0:
329,192,40576,1,0,0:0:0:0:
36,192,40664,1,0,0:0:0:0:
475,192,40664,1,0,0:0:0:0:
402,192,40840,1,0,0:0:0:0:
36,192,41017,1,0,0:0:0:0:
329,192,41193,1,0,0:0:0:0:
36,192,41370,1,0,0:0:0:0:
182,192,41458,1,0,0:0:0:0:
329,192,41546,1,0,0:0:0:0:
402,192,41634,1,0,0:0:0:0:
329,192,41723,1,0,0:0:0:0:
256,192,41811,1,0,0:0:0:0:
182,192,41899,1,0,0:0:0:0:
109,192,41987,1,0,0:0:0:0:
256,192,42076,128,0,42429:0:0:0:0:
475,192,42429,1,0,0:0:0:0:
402,192,42517,1,0,0:0:0:0:
329,192,42605,1,0,0:0:0:0:
256,192,42693,1,0,0:0:0:0:
182,192,42781,1,0,0:0:0:0:
36,192,42958,1,0,0:0:0:0:
109,192,43134,1,0,0:0:0:0:
182,192,43311,1,0,0:0:0:0:
109,192,43487,1,0,0:0:0:0:
182,192,43664,1,0,0:0:0:0:
402,192,43840,1,0,0:0:0:0:
329,192,44017,1,0,0:0:0:0:
402,192,44193,1,0,0:0:0:0:
329,192,44370,1,0,0:0:0:0:
256,192,44546,1,0,0:0:0:0:
109,192,44723,1,0,0:0:0:0:
256,192,44899,1,0,0:0:0:0:
109,192,45076,1,0,0:0:0:0:
329,192,45252,1,0,0:0:0:0:
475,192,45340,1,0,0:0:0:0:
256,192,45429,1,0,0:0:0:0:
402,192,45517,1,0,0:0:0:0:
182,192,45605,1,0,0:0:0:0:
329,192,45693,1,0,0:0:0:0:
109,192,45781,1,0,0:0:0:0:
256,192,45870,1,0,0:0:0:0:
36,192,45958,1,0,0:0:0:0:
182,192,46134,128,0,46311:0:0:0:0:
36,192,46311,1,0,0:0:0:0:
475,192,46311,1,0,0:0:0:0:
256,192,46664,1,0,0:0:0:0:
329,192,46840,128,0,47017:0:0:0:0:
475,192,47017,1,0,0:0:0:0:
36,192,47017,1,0,0:0:0:0:
256,192,47370,128,0,48781:0:0:0:0:
475,192,47546,1,0,0:0:0:0:
109,192,47723,1,0,0:0:0:0:
402,192,47899,1,0,0:0:0:0:
329,192,47899,1,0,0:0:0:0:
36,192,48252,1,0,0:0:0:0:
109,192,48252,1,0,0:0:0:0:
329,192,48429,1,0,0:0:0:0:
109,192,48605,1,0,0:0:0:0:
329,192,48781,1,0,0:0:0:0:
329,192,48870,1,0,0:0:0:0:
475,192,48958,1,0,0:0:0:0:
402,192,48958,1,0,0:0:0:0:
182,192,49134,1,0,0:0:0:0:
182,192,49223,1,0,0:0:0:0:
475,192,49311,1,0,0:0:0:0:
402,192,49311,1,0,0:0:0:0:
36,192,49487,1,0,0:0:0:0:
36,192,49576,1,0,0:0:0:0:
475,192,49664,1,0,0:0:0:0:
402,192,49664,1,0,0:0:0:0:
256,192,49840,1,0,0:0:0:0:
256,192,49958,1,0,0:0:0:0:
256,192,50076,1,0,0:0:0:0:
475,192,50193,1,0,0:0:0:0:
36,192,50193,1,0,0:0:0:0:
182,192,51605,1,0,0:0:0:0:
402,192,51781,1,0,0:0:0:0:
182,192,51958,1,0,0:0:0:0:
329,192,52134,1,0,0:0:0:0:
256,192,52223,1,0,0:0:0:0:
182,192,52311,1,0,0:0:0:0:
256,192,52399,1,0,0:0:0:0:
109,192,52487,1,0,0:0:0:0:
402,192,52664,128,0,52752:0:0:0:0:
329,192,52664,1,0,0:0:0:0:
256,192,52840,128,0,52929:0:0:0:0:
182,192,52840,1,0,0:0:0:0:
36,192,53017,1,0,0:0:0:0:
329,192,53193,1,0,0:0:0:0:
36,192,53370,1,0,0:0:0:0:
329,192,53546,1,0,0:0:0:0:
182,192,53634,1,0,0:0:0:0:
329,192,53723,1,0,0:0:0:0:
182,192,53811,1,0,0:0:0:0:
329,192,53899,1,0,0:0:0:0:
109,192,54076,1,0,0:0:0:0:
329,192,54252,128,0,55134:0:0:0:0:
36,192,54429,1,0,0:0:0:0:
36,192,54781,1,0,0:0:0:0:
182,192,55134,1,0,0:0:0:0:
402,192,55134,1,0,0:0:0:0:
109,192,55311,1,0,0:0:0:0:
329,192,55311,1,0,0:0:0:0:
256,192,55487,1,0,0:0:0:0:
109,192,55664,128,0,56546:0:0:0:0:
475,192,55840,1,0,0:0:0:0:
475,192,56193,1,0,0:0:0:0:
329,192,56546,1,0,0:0:0:0:
36,192,56546,1,0,0:0:0:0:
182,192,56723,1,0,0:0:0:0:
475,192,56723,1,0,0:0:0:0:
402,192,56899,1,0,0:0:0:0:
109,192,57076,1,0,0:0:0:0:
329,192,57252,1,0,0:0:0:0:
256,192,57340,1,0,0:0:0:0:
329,192,57429,1,0,0:0:0:0:
256,192,57517,1,0,0:0:0:0:
109,192,57605,1,0,0:0:0:0:
182,192,57781,1,0,0:0:0:0:
329,192,57958,1,0,0:0:0:0:
36,192,57958,1,0,0:0:0:0:
109,192,58134,1,0,0:0:0:0:
329,192,58311,1,0,0:0:0:0:
256,192,58487,1,0,0:0:0:0:
36,192,58664,1,0,0:0:0:0:
475,192,58664,1,0,0:0:0:0:
329,192,58840,1,0,0:0:0:0:
256,192,59017,128,0,60076:0:0:0:0:
109,192,59370,1,0,0:0:0:0:
402,192,59723,1,0,0:0:0:0:
475,192,60076,1,0,0:0:0:0:
329,192,60252,1,0,0:0:0:0:
402,192,60429,1,0,0:0:0:0:
256,192,60605,1,0,0:0:0:0:
475,192,60781,1,0,0:0:0:0:
329,192,60781,1,0,0:0:0:0:
182,192,60958,1,0,0:0:0:0:
256,192,61134,1,0,0:0:0:0:
402,192,61134,1,0,0:0:0:0:
109,192,61311,1,0,0:0:0:0:
329,192,61487,1,0,0:0:0:0:
329,192,61605,1,0,0:0:0:0:
329,192,61723,1,0,0:0:0:0:
109,192,61840,1,0,0:0:0:0:
36,192,61840,1,0,0:0:0:0:
402,192,62193,1,0,0:0:0:0:
329,192,62281,1,0,0:0:0:0:
402,192,62370,1,0,0:0:0:0:
329,192,62458,1,0,0:0:0:0:
109,192,62546,128,0,62723:0:0:0:0:
329,192,62899,1,0,0:0:0:0:
402,192,63076,1,0,0:0:0:0:
109,192,63252,1,0,0:0:0:0:
256,192,63429,1,0,0:0:0:0:
182,192,63517,1,0,0:0:0:0:
329,192,63605,1,0,0:0:0:0:
256,192,63693,1,0,0:0:0:0:
402,192,63781,1,0,0:0:0:0:
109,192,63958,1,0,0:0:0:0:
36,192,63958,1,0,0:0:0:0:
402,192,64134,1,0,0:0:0:0:
475,192,64134,1,0,0:0:0:0:
256,192,64311,1,0,0:0:0:0:
182,192,64487,1,0,0:0:0:0:
256,192,64664,1,0,0:0:0:0:
402,192,64840,1,0,0:0:0:0:
329,192,64929,1,0,0:0:0:0:
36,192,65017,1,0,0:0:0:0:
475,192,65017,1,0,0:0:0:0:
402,192,65105,1,0,0:0:0:0:
329,192,65193,1,0,0:0:0:0:
109,192,65370,1,0,0:0:0:0:
402,192,65370,1,0,0:0:0:0:
256,192,65546,128,0,66429:0:0:0:0:
36,192,65723,1,0,0:0:0:0:
36,192,66076,1,0,0:0:0:0:
402,192,66429,1,0,0:0:0:0:
36,192,66429,1,0,0:0:0:0:
109,192,66605,1,0,0:0:0:0:
475,192,66605,1,0,0:0:0:0:
256,192,66958,128,0,67840:0:0:0:0:
475,192,67134,1,0,0:0:0:0:
475,192,67487,1,0,0:0:0:0:
36,192,67840,1,0,0:0:0:0:
402,192,67840,1,0,0:0:0:0:
475,192,68017,1,0,0:0:0:0:
109,192,68017,1,0,0:0:0:0:
256,192,68370,1,0,0:0:0:0:
109,192,68546,128,0,69958:0:0:0:0:
182,192,68899,1,0,0:0:0:0:
329,192,69252,1,0,0:0:0:0:
182,192,69605,1,0,0:0:0:0:
402,192,69958,128,0,71281:0:0:0:0:
182,192,70311,128,0,70487:0:0:0:0:
36,192,70664,128,0,71370:0:0:0:0:
182,192,71017,128,0,71193:0:0:0:0:
329,192,71370,1,0,0:0:0:0:
182,192,71458,1,0,0:0:0:0:
329,192,71546,1,0,0:0:0:0:
182,192,71634,1,0,0:0:0:0:
475,192,71723,1,0,0:0:0:0:
402,192,71723,1,0,0:0:0:0:
36,192,71899,1,0,0:0:0:0:
109,192,71899,1,0,0:0:0:0:
329,192,72076,128,0,72781:0:0:0:0:
36,192,72781,128,0,73134:0:0:0:0:
329,192,73134,1,0,0:0:0:0:
109,192,73311,1,0,0:0:0:0:
182,192,73311,1,0,0:0:0:0:
109,192,73664,1,0,0:0:0:0:
256,192,73664,1,0,0:0:0:0:
109,192,74017,1,0,0:0:0:0:
329,192,74017,1,0,0:0:0:0:
475,192,74193,128,0,74458:0:0:0:0:
182,192,74193,1,0,0:0:0:0:
475,192,74546,128,0,74811:0:0:0:0:
256,192,74546,1,0,0:0:0:0:
475,192,74899,128,0,75164:0:0:0:0:
329,192,74899,1,0,0:0:0:0:
475,192,75252,128,0,75517:0:0:0:0:
402,192,75252,1,0,0:0:0:0:
182,192,75605,1,0,0:0:0:0:
402,192,76311,1,0,0:0:0:0:
329,192,76664,1,0,0:0:0:0:
109,192,77017,128,0,78076:0:0:0:0:
329,192,78076,128,0,79840:0:0:0:0:
109,192,78781,128,0,79134:0:0:0:0:
182,192,79134,128,0,79311:0:0:0:0:
182,192,79487,128,0,79840:0:0:0:0:
256,192,79840,128,0,82664:0:0:0:0:
402,192,82311,128,0,82664:0:0:0:0:
109,192,82311,128,0,82664:0:0:0:0:
36,192,82664,128,0,84076:0:0:0:0:
329,192,83370,128,0,83723:0:0:0:0:
475,192,83723,128,0,84076:0:0:0:0:
402,192,84076,128,0,85487:0:0:0:0:
182,192,84958,128,0,85134:0:0:0:0:
36,192,85311,128,0,85487:0:0:0:0:
256,192,85487,128,0,86899:0:0:0:0:
402,192,86546,1,0,0:0:0:0:
109,192,86723,1,0,0:0:0:0:
475,192,86899,1,0,0:0:0:0:
36,192,86899,1,0,0:0:0:0:
475,192,88311,1,0,0:0:0:0:
36,192,88311,1,0,0:0:0:0:
256,192,88664,128,0,89017:0:0:0:0:
402,192,89017,128,0,89193:0:0:0:0:
475,192,89017,1,0,0:0:0:0:
109,192,89281,128,0,89458:0:0:0:0:
36,192,89281,1,0,0:0:0:0:
402,192,89546,128,0,89723:0:0:0:0:
475,192,89546,1,0,0:0:0:0:
182,192,89723,1,0,0:0:0:0:
256,192,89899,1,0,0:0:0:0:
36,192,90076,1,0,0:0:0:0:
182,192,90252,1,0,0:0:0:0:
329,192,90340,1,0,0:0:0:0:
109,192,90429,1,0,0:0:0:0:
256,192,90517,1,0,0:0:0:0:
36,192,90605,1,0,0:0:0:0:
402,192,90781,1,0,0:0:0:0:
475,192,90781,1,0,0:0:0:0:
109,192,90958,1,0,0:0:0:0:
36,192,90958,1,0,0:0:0:0:
182,192,90958,128,0,91840:0:0:0:0:
329,192,91134,1,0,0:0:0:0:
329,192,91487,1,0,0:0:0:0:
402,192,91840,1,0,0:0:0:0:
475,192,91840,1,0,0:0:0:0:
36,192,92017,1,0,0:0:0:0:
109,192,92017,1,0,0:0:0:0:
329,192,92370,128,0,93252:0:0:0:0:
182,192,92546,1,0,0:0:0:0:
182,192,92899,1,0,0:0:0:0:
109,192,93252,1,0,0:0:0:0:
36,192,93252,1,0,0:0:0:0:
402,192,93429,1,0,0:0:0:0:
475,192,93429,1,0,0:0:0:0:
256,192,93605,1,0,0:0:0:0:
329,192,93781,1,0,0:0:0:0:
109,192,93958,1,0,0:0:0:0:
36,192,94046,1,0,0:0:0:0:
182,192,94134,1,0,0:0:0:0:
109,192,94223,1,0,0:0:0:0:
36,192,94311,1,0,0:0:0:0:
256,192,94487,1,0,0:0:0:0:
182,192,94664,1,0,0:0:0:0:
329,192,94840,1,0,0:0:0:0:
36,192,94840,1,0,0:0:0:0:
256,192,95017,1,0,0:0:0:0:
475,192,95017,1,0,0:0:0:0:
329,192,95193,1,0,0:0:0:0:
109,192,95193,1,0,0:0:0:0:
402,192,95370,1,0,0:0:0:0:
182,192,95370,1,0,0:0:0:0:
256,192,95546,1,0,0:0:0:0:
402,192,95723,1,0,0:0:0:0:
256,192,95899,1,0,0:0:0:0:
36,192,96076,128,0,96781:0:0:0:0:
329,192,96429,1,0,0:0:0:0:
475,192,96781,1,0,0:0:0:0:
475,192,97134,1,0,0:0:0:0:
475,192,97487,1,0,0:0:0:0:
475,192,97840,1,0,0:0:0:0:
475,192,98193,1,0,0:0:0:0:
256,192,98546,128,0,98899:0:0:0:0:
36,192,98546,1,0,0:0:0:0:
475,192,98899,1,0,0:0:0:0:
329,192,98899,1,0,0:0:0:0:
402,192,99076,1,0,0:0:0:0:
109,192,99076,1,0,0:0:0:0:
36,192,99252,1,0,0:0:0:0:
182,192,99252,1,0,0:0:0:0:
109,192,99429,1,0,0:0:0:0:
402,192,99429,1,0,0:0:0:0:
329,192,99605,1,0,0:0:0:0:
256,192,99693,1,0,0:0:0:0:
329,192,99781,1,0,0:0:0:0:
402,192,99958,1,0,0:0:0:0:
329,192,100046,1,0,0:0:0:0:
402,192,100134,1,0,0:0:0:0:
182,192,100311,128,0,100664:0:0:0:0:
329,192,100664,1,0,0:0:0:0:
256,192,100840,1,0,0:0:0:0:
36,192,101017,1,0,0:0:0:0:
109,192,101105,1,0,0:0:0:0:
36,192,101193,1,0,0:0:0:0:
109,192,101370,1,0,0:0:0:0:
182,192,101458,1,0,0:0:0:0:
109,192,101546,1,0,0:0:0:0:
329,192,101723,1,0,0:0:0:0:
329,192,101840,1,0,0:0:0:0:
329,192,101958,1,0,0:0:0:0:
36,192,102076,128,0,102429:0:0:0:0:
256,192,102429,1,0,0:0:0:0:
402,192,102781,1,0,0:0:0:0:
475,192,102781,1,0,0:0:0:0:
109,192,102870,1,0,0:0:0:0:
36,192,102870,1,0,0:0:0:0:
402,192,102958,1,0,0:0:0:0:
475,192,102958,1,0,0:0:0:0:
109,192,103046,1,0,0:0:0:0:
36,192,103046,1,0,0:0:0:0:
402,192,103134,128,0,103487:0:0:0:0:
475,192,103134,1,0,0:0:0:0:
109,192,103487,1,0,0:0:0:0:
329,192,103840,1,0,0:0:0:0:
402,192,103840,1,0,0:0:0:0:
182,192,104017,1,0,0:0:0:0:
109,192,104017,1,0,0:0:0:0:
475,192,104193,1,0,0:0:0:0:
402,192,104193,1,0,0:0:0:0:
36,192,104370,1,0,0:0:0:0:
109,192,104370,1,0,0:0:0:0:
