osu file format v14

[General]
AudioFilename: TYCOON(INF).mp3
AudioLeadIn: 0
PreviewTime: 50237
Countdown: 0
SampleSet: None
StackLeniency: 0.7
Mode: 3
LetterboxInBreaks: 0
SpecialStyle: 0
WidescreenStoryboard: 0

[Editor]
DistanceSpacing: 1
BeatDivisor: 8
GridSize: 8
TimelineZoom: 2.1

[Metadata]
Title:TYCOON
TitleUnicode:TYCOON
Artist:SOUND HOLIC feat. Nana Takahashi
ArtistUnicode:SOUND HOLIC feat. Nana Takahashi
Creator:Julio1212-
Version:GRAVITY
Source:Sound Voltex
Tags:SOUND HOLIC feat. Nana Takahashi SDVX Sound Voltex julio1212
BeatmapID:961733
BeatmapSetID:448068

[Difficulty]
HPDrainRate:8
CircleSize:7
OverallDifficulty:7
ApproachRate:5
SliderMultiplier:1.4
SliderTickRate:1

[Events]
//Background and Video events
0,0,"TYCOONFNLBG.jpg",0,0
//Break Periods
//Storyboard Layer 0 (Background)
//Storyboard Layer 1 (Fail)
//Storyboard Layer 2 (Pass)
//Storyboard Layer 3 (Foreground)
//Storyboard Sound Samples

[TimingPoints]
782,352.941176470588,4,1,0,50,1,0
2193,-166.666666666667,4,1,0,50,0,0
2237,-66.6666666666667,4,1,0,50,0,0
2281,-166.666666666667,4,1,0,50,0,0
2326,-66.6666666666667,4,1,0,50,0,0
2370,-166.666666666667,4,1,0,50,0,0
2414,-66.6666666666667,4,1,0,50,0,0
2458,-166.666666666667,4,1,0,50,0,0
2502,-66.6666666666667,4,1,0,50,0,0
2546,-166.666666666667,4,1,0,50,0,0
2590,-66.6666666666667,4,1,0,50,0,0
2634,-166.666666666667,4,1,0,50,0,0
2679,-66.6666666666667,4,1,0,50,0,0
2723,-166.666666666667,4,1,0,50,0,0
2767,-66.6666666666667,4,1,0,50,0,0
2811,-166.666666666667,4,1,0,50,0,0
2855,-66.6666666666667,4,1,0,50,0,0
2899,-100,4,1,0,50,0,0
3429,-133.333333333333,4,1,0,50,0,0
3487,-66.6666666666667,4,1,0,50,0,0
3546,-133.333333333333,4,1,0,50,0,0
3605,-66.6666666666667,4,1,0,50,0,0
3664,-133.333333333333,4,1,0,50,0,0
3723,-66.6666666666667,4,1,0,50,0,0
3781,-133.333333333333,4,1,0,50,0,0
3840,-66.6666666666667,4,1,0,50,0,0
3899,-133.333333333333,4,1,0,50,0,0
3958,-66.6666666666667,4,1,0,50,0,0
4017,-133.333333333333,4,1,0,50,0,0
4076,-66.6666666666667,4,1,0,50,0,0
4134,-133.333333333333,4,1,0,50,0,0
4193,-66.6666666666667,4,1,0,50,0,0
4311,-100,4,1,0,50,0,0
5017,-166.666666666667,4,1,0,50,0,0
5061,-66.6666666666667,4,1,0,50,0,0
5105,-166.666666666667,4,1,0,50,0,0
5149,-66.6666666666667,4,1,0,50,0,0
5193,-166.666666666667,4,1,0,50,0,0
5237,-66.6666666666667,4,1,0,50,0,0
5281,-166.666666666667,4,1,0,50,0,0
5326,-66.6666666666667,4,1,0,50,0,0
5370,-166.666666666667,4,1,0,50,0,0
5414,-66.6666666666667,4,1,0,50,0,0
5458,-166.666666666667,4,1,0,50,0,0
5502,-66.6666666666667,4,1,0,50,0,0
5546,-166.666666666667,4,1,0,50,0,0
5590,-66.6666666666667,4,1,0,50,0,0
5634,-166.666666666667,4,1,0,50,0,0
5679,-66.6666666666667,4,1,0,50,0,0
5723,12,4,1,0,50,1,0
5899,857.142857142857,4,1,0,50,1,0
6011,1000,4,1,0,50,1,0
6198,600,4,1,0,50,1,0
6260,400,4,1,0,50,1,0
6310,300,4,1,0,50,1,0
6372,150,4,1,0,50,1,0
6429,352.941176470588,4,1,0,50,1,0
7487,-166.666666666667,4,1,0,50,0,0
7531,-66.6666666666667,4,1,0,50,0,0
7576,-166.666666666667,4,1,0,50,0,0
7620,-66.6666666666667,4,1,0,50,0,0
7664,-166.666666666667,4,1,0,50,0,0
7708,-66.6666666666667,4,1,0,50,0,0
7752,-166.666666666667,4,1,0,50,0,0
7796,-66.6666666666667,4,1,0,50,0,0
7840,-133.333333333333,4,1,0,50,0,0
8546,-133.333333333333,4,1,0,50,0,0
8590,-66.6666666666667,4,1,0,50,0,0
8634,-133.333333333333,4,1,0,50,0,0
8678,-66.6666666666667,4,1,0,50,0,0
8723,-133.333333333333,4,1,0,50,0,0
8811,-166.666666666667,4,1,0,50,0,0
8855,-66.6666666666667,4,1,0,50,0,0
8899,-166.666666666667,4,1,0,50,0,0
8943,-66.6666666666667,4,1,0,50,0,0
8987,-166.666666666667,4,1,0,50,0,0
9031,-66.6666666666667,4,1,0,50,0,0
9076,-166.666666666667,4,1,0,50,0,0
9120,-66.6666666666667,4,1,0,50,0,0
9164,-166.666666666667,4,1,0,50,0,0
9208,-66.6666666666667,4,1,0,50,0,0
9252,-100,4,1,0,50,0,0
9605,-66.6666666666667,4,1,0,50,0,0
9781,-133.333333333333,4,1,0,50,0,0
9870,-200,4,1,0,50,0,0
9958,-166.666666666667,4,1,0,50,0,0
10002,-66.6666666666667,4,1,0,50,0,0
10046,-166.666666666667,4,1,0,50,0,0
10090,-66.6666666666667,4,1,0,50,0,0
10134,-166.666666666667,4,1,0,50,0,0
10178,-66.6666666666667,4,1,0,50,0,0
10223,-166.666666666667,4,1,0,50,0,0
10267,-66.6666666666667,4,1,0,50,0,0
10311,-133.333333333333,4,1,0,50,0,0
10605,-66.6666666666667,4,1,0,50,0,0
10634,-50,4,1,0,50,0,0
10664,-200,4,1,0,50,0,0
10723,-66.6666666666667,4,1,0,50,0,0
10781,-200,4,1,0,50,0,0
10840,-66.6666666666667,4,1,0,50,0,0
10899,-200,4,1,0,50,0,0
10958,-66.6666666666667,4,1,0,50,0,0
11017,-133.333333333333,4,1,0,50,0,0
11281,-100,4,1,0,50,0,0
11546,-133.333333333333,4,1,0,50,0,0
11634,-66.6666666666667,4,1,0,50,0,0
11723,-66.6666666666667,4,1,0,50,0,0
11899,-125,4,1,0,50,0,0
12076,-66.6666666666667,4,1,0,50,0,0
12164,-100,4,1,0,50,0,0
12428,-66.6666666666667,4,1,0,50,0,0
12517,-100,4,1,0,50,0,0
14899,352.941176470588,4,1,0,50,1,0
15075,352.941176470588,4,1,0,50,1,0
15076,-66.6666666666667,4,1,0,50,0,0
15164,-100,4,1,0,50,0,0
15251,352.941176470588,4,1,0,50,1,0
15428,-66.6666666666667,4,1,0,50,0,0
15517,-100,4,1,0,50,0,0
15603,352.941176470588,4,1,0,50,1,0
15781,-66.6666666666667,4,1,0,50,0,0
15870,-100,4,1,0,50,0,0
15955,352.941176470588,4,1,0,50,1,0
17719,-71.4285714285714,4,1,0,50,0,0
17807,-100,4,1,0,50,0,0
18072,-71.4285714285714,4,1,0,50,0,0
18160,-100,4,1,0,50,0,0
20543,-133.333333333333,4,1,0,50,0,0
20719,-66.6666666666667,4,1,0,50,0,0
20807,-133.333333333333,4,1,0,50,0,0
20984,-66.6666666666667,4,1,0,50,0,0
21072,-133.333333333333,4,1,0,50,0,0
21249,-66.6666666666667,4,1,0,50,0,0
21337,-133.333333333333,4,1,0,50,0,0
21513,-66.6666666666667,4,1,0,50,0,0
21602,-133.333333333333,4,1,0,50,0,0
21778,-66.6666666666667,4,1,0,50,0,0
21866,-133.333333333333,4,1,0,50,0,0
22043,-10,4,1,0,50,0,0
22131,-200,4,1,0,50,0,0
22660,-100,4,1,0,50,0,0
22837,-133.333333333333,4,1,0,50,0,0
23102,-66.6666666666667,4,1,0,50,0,0
23190,-100,4,1,0,50,0,0
34131,-66.6666666666667,4,1,0,50,0,0
34219,-100,4,1,0,50,0,0
34484,-66.6666666666667,4,1,0,50,0,0
34572,-100,4,1,0,50,0,0
34837,-83.3333333333333,4,1,0,50,0,0
34925,-100,4,1,0,50,0,0
35102,-83.3333333333333,4,1,0,50,0,0
35190,-100,4,1,0,50,0,0
35366,-83.3333333333333,4,1,0,50,0,0
35454,-100,4,1,0,50,0,0
35631,-83.3333333333333,4,1,0,50,0,0
35719,-100,4,1,0,50,0,0
36249,-83.3333333333333,4,1,0,50,0,0
36337,-100,4,1,0,50,0,0
36513,-83.3333333333333,4,1,0,50,0,0
36602,-100,4,1,0,50,0,0
36778,-83.3333333333333,4,1,0,50,0,0
36866,-100,4,1,0,50,0,0
37043,-83.3333333333333,4,1,0,50,0,0
37131,-100,4,1,0,50,0,0
37307,-83.3333333333333,4,1,0,50,0,0
37396,-100,4,1,0,50,0,0
37749,-83.3333333333333,4,1,0,50,0,0
37837,-100,4,1,0,50,0,0
38013,-83.3333333333333,4,1,0,50,0,0
38102,-100,4,1,0,50,0,0
38190,-83.3333333333333,4,1,0,50,0,0
38278,-100,4,1,0,50,0,0
38454,-83.3333333333333,4,1,0,50,0,0
38543,-100,4,1,0,50,0,0
38719,-83.3333333333333,4,1,0,50,0,0
38807,-133.333333333333,4,1,0,50,0,0
39160,-66.6666666666667,4,1,0,50,0,0
39249,-100,4,1,0,50,0,0
39602,-133.333333333333,4,1,0,50,0,0
39778,-50,4,1,0,50,0,0
39866,-133.333333333333,4,1,0,50,0,0
40043,-50,4,1,0,50,0,0
40131,-133.333333333333,4,1,0,50,0,0
40219,-66.6666666666667,4,1,0,50,0,0
40307,-100,4,1,0,50,0,0
40660,-66.6666666666667,4,1,0,50,0,0
40749,-100,4,1,0,50,0,0
41190,-66.6666666666667,4,1,0,50,0,0
41278,-100,4,1,0,50,0,0
41366,-66.6666666666667,4,1,0,50,0,0
41454,-100,4,1,0,50,0,0
41543,-66.6666666666667,4,1,0,50,0,0
41587,-133.333333333333,4,1,0,50,0,0
41631,-66.6666666666667,4,1,0,50,0,0
41675,-133.333333333333,4,1,0,50,0,0
41719,-66.6666666666667,4,1,0,50,0,0
41763,-133.333333333333,4,1,0,50,0,0
41807,-66.6666666666667,4,1,0,50,0,0
41852,-133.333333333333,4,1,0,50,0,0
41896,-66.6666666666667,4,1,0,50,0,0
41984,-100,4,1,0,50,0,0
42072,-66.6666666666667,4,1,0,50,0,0
42160,-100,4,1,0,50,0,0
42425,-66.6666666666667,4,1,0,50,0,0
42469,-133.333333333333,4,1,0,50,0,0
42513,-66.6666666666667,4,1,0,50,0,0
42557,-133.333333333333,4,1,0,50,0,0
42602,-66.6666666666667,4,1,0,50,0,0
42646,-133.333333333333,4,1,0,50,0,0
42690,-66.6666666666667,4,1,0,50,0,0
42734,-133.333333333333,4,1,0,50,0,0
42778,-100,4,1,0,50,0,0
45249,-133.333333333333,4,1,0,50,0,0
45293,-66.6666666666667,4,1,0,50,0,0
45337,-133.333333333333,4,1,0,50,0,0
45381,-66.6666666666667,4,1,0,50,0,0
45425,-133.333333333333,4,1,0,50,0,0
45469,-66.6666666666667,4,1,0,50,0,0
45513,-133.333333333333,4,1,0,50,0,0
45557,-66.6666666666667,4,1,0,50,0,0
45602,-133.333333333333,4,1,0,50,0,0
45646,-66.6666666666667,4,1,0,50,0,0
45690,-133.333333333333,4,1,0,50,0,0
45734,-66.6666666666667,4,1,0,50,0,0
45778,-133.333333333333,4,1,0,50,0,0
45822,-66.6666666666667,4,1,0,50,0,0
45866,-133.333333333333,4,1,0,50,0,0
45910,-66.6666666666667,4,1,0,50,0,0
45954,-100,4,1,0,50,0,0
46307,-66.6666666666667,4,1,0,50,0,0
46396,-100,4,1,0,50,0,0
47013,-66.6666666666667,4,1,0,50,0,0
47102,-100,4,1,0,50,0,0
47719,-133.333333333333,4,1,0,50,0,0
47896,-100,4,1,0,50,0,0
48160,-66.6666666666667,4,1,0,50,0,0
48425,-100,4,1,0,50,0,0
48602,-66.6666666666667,4,1,0,50,0,0
48690,-100,4,1,0,50,0,0
48954,-50,4,1,0,50,0,0
49043,-100,4,1,0,50,0,0
49307,-50,4,1,0,50,0,0
49396,-100,4,1,0,50,0,0
49660,-50,4,1,0,50,0,0
49749,-100,4,1,0,50,0,0
49837,-66.6666666666667,4,1,0,50,0,0
49896,-100,4,1,0,50,0,0
49954,-66.6666666666667,4,1,0,50,0,0
50013,-100,4,1,0,50,0,0
50072,-66.6666666666667,4,1,0,50,0,0
50131,-100,4,1,0,50,0,0
50190,-50,4,1,0,50,0,0
50278,-166.666666666667,4,1,0,50,0,0
50896,-166.666666666667,4,1,0,50,0,0
50984,-142.857142857143,4,1,0,50,0,0
51072,-125,4,1,0,50,0,0
51160,-111.111111111111,4,1,0,50,0,0
51249,-100,4,1,0,50,0,0
51337,-90.9090909090909,4,1,0,50,0,0
51425,-83.3333333333333,4,1,0,50,0,0
51513,-76.9230769230769,4,1,0,50,0,0
51602,-66.6666666666667,4,1,0,50,0,1
51690,-100,4,1,0,50,0,0
52307,-66.6666666666667,4,1,0,50,0,0
52352,-166.666666666667,4,1,0,50,0,0
52396,-66.6666666666667,4,1,0,50,0,0
52440,-166.666666666667,4,1,0,50,0,0
52484,-66.6666666666667,4,1,0,50,0,0
52528,-166.666666666667,4,1,0,50,0,0
52572,-66.6666666666667,4,1,0,50,0,0
52616,-133.333333333333,4,1,0,50,0,0
52660,-66.6666666666667,4,1,0,50,0,0
52749,-100,4,1,0,50,0,0
52837,-66.6666666666667,4,1,0,50,0,1
52925,-100,4,1,0,50,0,0
53631,-66.6666666666667,4,1,0,50,0,0
53675,-100,4,1,0,50,0,0
53719,-66.6666666666667,4,1,0,50,0,0
53763,-100,4,1,0,50,0,0
53807,-66.6666666666667,4,1,0,50,0,0
53852,-100,4,1,0,50,0,0
53896,-66.6666666666667,4,1,0,50,0,0
53940,-100,4,1,0,50,0,0
53984,-66.6666666666667,4,1,0,50,0,0
54028,-133.333333333333,4,1,0,50,0,0
54072,-66.6666666666667,4,1,0,50,0,0
54160,-100,4,1,0,50,0,0
54249,-166.666666666667,4,1,0,50,0,0
54778,-142.857142857143,4,1,0,50,0,0
55131,-50,4,1,0,50,0,0
55219,-100,4,1,0,50,0,0
55307,-66.6666666666667,4,1,0,50,0,0
55396,-100,4,1,0,50,0,0
55572,-66.6666666666667,4,1,0,50,0,0
55660,-166.666666666667,4,1,0,50,0,0
56013,-133.333333333333,4,1,0,50,0,0
56190,-125,4,1,0,50,0,0
56278,-100,4,1,0,50,0,0
56454,-90.9090909090909,4,1,0,50,0,0
56543,-50,4,1,0,50,0,0
56631,-100,4,1,0,50,0,0
56719,-66.6666666666667,4,1,0,50,0,0
56807,-100,4,1,0,50,0,0
56896,-133.333333333333,4,1,0,50,0,0
57249,-166.666666666667,4,1,0,50,0,0
57293,-66.6666666666667,4,1,0,50,0,0
57337,-166.666666666667,4,1,0,50,0,0
57381,-66.6666666666667,4,1,0,50,0,0
57425,-166.666666666667,4,1,0,50,0,0
57469,-66.6666666666667,4,1,0,50,0,0
57513,-166.666666666667,4,1,0,50,0,0
57557,-66.6666666666667,4,1,0,50,0,0
57602,-100,4,1,0,50,0,0
59278,-111.111111111111,4,1,0,50,0,0
59631,-125,4,1,0,50,0,0
60072,-111.111111111111,4,1,0,50,0,0
60618,-100,4,1,0,50,0,0
61484,-66.6666666666667,4,1,0,50,0,0
61543,-166.666666666667,4,1,0,50,0,0
61602,-66.6666666666667,4,1,0,50,0,0
61660,-166.666666666667,4,1,0,50,0,0
61719,-66.6666666666667,4,1,0,50,0,0
61778,-166.666666666667,4,1,0,50,0,0
61837,-100,4,1,0,50,0,0
62190,-66.6666666666667,4,1,0,50,0,0
62234,-166.666666666667,4,1,0,50,0,0
62278,-66.6666666666667,4,1,0,50,0,0
62322,-166.666666666667,4,1,0,50,0,0
62366,-66.6666666666667,4,1,0,50,0,0
62410,-166.666666666667,4,1,0,50,0,0
62454,-66.6666666666667,4,1,0,50,0,0
62499,-166.666666666667,4,1,0,50,0,0
62543,-100,4,1,0,50,0,0
62719,-125,4,1,0,50,0,0
62896,-100,4,1,0,50,0,1
63425,-133.333333333333,4,1,0,50,0,0
63469,-66.6666666666667,4,1,0,50,0,0
63513,-133.333333333333,4,1,0,50,0,0
63557,-66.6666666666667,4,1,0,50,0,0
63602,-133.333333333333,4,1,0,50,0,0
63646,-100,4,1,0,50,0,0
63954,-66.6666666666667,4,1,0,50,0,0
64043,-100,4,1,0,50,0,0
64131,-66.6666666666667,4,1,0,50,0,1
64219,-100,4,1,0,50,0,0
64307,-100,4,1,0,50,0,0
64837,-166.666666666667,4,1,0,50,0,0
64881,-66.6666666666667,4,1,0,50,0,0
64925,-166.666666666667,4,1,0,50,0,0
64969,-66.6666666666667,4,1,0,50,0,0
65013,-166.666666666667,4,1,0,50,0,0
65057,-66.6666666666667,4,1,0,50,0,0
65102,-166.666666666667,4,1,0,50,0,0
65146,-66.6666666666667,4,1,0,50,0,0
65190,-100,4,1,0,50,0,0
65366,-66.6666666666667,4,1,0,50,0,0
65454,-100,4,1,0,50,0,0
65543,-133.333333333333,4,1,0,50,0,0
65631,-166.666666666667,4,1,0,50,0,0
66072,-142.857142857143,4,1,0,50,0,0
66425,-66.6666666666667,4,1,0,50,0,0
66513,-100,4,1,0,50,0,0
66602,-66.6666666666667,4,1,0,50,0,0
66690,-100,4,1,0,50,0,0
66954,-166.666666666667,4,1,0,50,0,0
67307,-166.666666666667,4,1,0,50,0,0
67396,-142.857142857143,4,1,0,50,0,0
67484,-125,4,1,0,50,0,0
67572,-111.111111111111,4,1,0,50,0,0
67660,-100,4,1,0,50,0,0
67749,-100,4,1,0,50,0,0
67749,-90.9090909090909,4,1,0,50,0,0
67837,-66.6666666666667,4,1,0,50,0,0
67925,-100,4,1,0,50,0,0
68013,-66.6666666666667,4,1,0,50,0,0
68102,-100,4,1,0,50,0,0
68543,-100,4,1,0,50,0,0
68587,-133.333333333333,4,1,0,50,0,0
68631,-100,4,1,0,50,0,0
68675,-133.333333333333,4,1,0,50,0,0
68719,-100,4,1,0,50,0,0
68763,-133.333333333333,4,1,0,50,0,0
68807,-100,4,1,0,50,0,0
68807,-66.6666666666667,4,1,0,50,0,0
68852,-66.6666666666667,4,1,0,50,0,0
68896,-100,4,1,0,50,0,0
69072,-105.263157894737,4,1,0,50,0,0
69160,-111.111111111111,4,1,0,50,0,0
69249,-117.647058823529,4,1,0,50,0,0
69954,-66.6666666666667,4,1,0,50,0,0
70043,-100,4,1,0,50,0,0
70484,-111.111111111111,4,1,0,50,0,0
71013,-125,4,1,0,50,0,0
71366,-66.6666666666667,4,1,0,50,0,0
71410,-100,4,1,0,50,0,0
71454,-66.6666666666667,4,1,0,50,0,0
71499,-100,4,1,0,50,0,0
71543,-66.6666666666667,4,1,0,50,0,0
71587,-100,4,1,0,50,0,0
71631,-66.6666666666667,4,1,0,50,0,0
71675,-100,4,1,0,50,0,0
71896,-66.6666666666667,4,1,0,50,0,0
71984,-100,4,1,0,50,0,0
72072,-66.6666666666667,4,1,0,50,0,0
72160,-111.111111111111,4,1,0,50,0,0
72337,-125,4,1,0,50,0,0
72425,-111.111111111111,4,1,0,50,0,0
72513,-100,4,1,0,50,0,0
72602,-90.9090909090909,4,1,0,50,0,0
72690,-83.3333333333333,4,1,0,50,0,0
73131,-100,4,1,0,50,0,0
73307,-66.6666666666667,4,1,0,50,0,0
73396,-100,4,1,0,50,0,0
73660,-66.6666666666667,4,1,0,50,0,0
73749,-100,4,1,0,50,0,0
74013,-66.6666666666667,4,1,0,50,0,0
74102,-100,4,1,0,50,0,0
74190,-133.333333333333,4,1,0,50,0,0
74454,-50,4,1,0,50,0,0
74543,-133.333333333333,4,1,0,50,0,0
74807,-50,4,1,0,50,0,0
74896,-133.333333333333,4,1,0,50,0,0
75160,-50,4,1,0,50,0,0
75249,-133.333333333333,4,1,0,50,0,0
75425,-166.666666666667,4,1,0,50,0,0
75602,-100,4,1,0,50,0,0
75954,-105.263157894737,4,1,0,50,0,0
76307,-111.111111111111,4,1,0,50,0,0
76484,-125,4,1,0,50,0,0
76660,-133.333333333333,4,1,0,50,0,0
78072,-100,4,1,0,50,0,0
82337,-133.333333333333,4,1,0,50,0,0
82660,-100,4,1,0,50,0,0
84778,-111.111111111111,4,1,0,50,0,0
85484,-111.111111111111,4,1,0,50,0,0
85837,-125,4,1,0,50,0,0
86190,-142.857142857143,4,1,0,50,0,0
86366,-166.666666666667,4,1,0,50,0,0
86543,-133.333333333333,4,1,0,50,0,0
86675,-50,4,1,0,50,0,0
86719,-133.333333333333,4,1,0,50,0,0
86852,-50,4,1,0,50,0,0
86896,666.666666666667,4,1,0,50,1,0
87425,12,4,1,0,50,1,0
87601,750,4,1,0,50,1,0
88307,352.941176470588,4,1,0,50,1,0
88395,-66.6666666666667,4,1,0,50,0,0
88571,-133.333333333333,4,1,0,50,0,0
88659,-117.647058823529,4,1,0,50,0,0
88748,-105.263157894737,4,1,0,50,0,0
88836,-95.2380952380952,4,1,0,50,0,0
88924,-50,4,1,0,50,0,0
89101,-133.333333333333,4,1,0,50,0,0
89189,-50,4,1,0,50,0,0
89277,-133.333333333333,4,1,0,50,0,0
89454,-66.6666666666667,4,1,0,50,0,0
89542,-133.333333333333,4,1,0,50,0,0
89630,-66.6666666666667,4,1,0,50,0,0
89718,-100,4,1,0,50,0,0
90336,-66.6666666666667,4,1,0,50,0,0
90380,-133.333333333333,4,1,0,50,0,0
90424,-66.6666666666667,4,1,0,50,0,0
90468,-133.333333333333,4,1,0,50,0,0
90512,-66.6666666666667,4,1,0,50,0,0
90557,-133.333333333333,4,1,0,50,0,0
90601,-100,4,1,0,50,0,0
90777,-66.6666666666667,4,1,0,50,0,0
90865,-100,4,1,0,50,0,0
90954,-133.333333333333,4,1,0,50,0,0
91130,-166.666666666667,4,1,0,50,0,0
91483,-133.333333333333,4,1,0,50,0,0
91571,-117.647058823529,4,1,0,50,0,0
91659,-105.263157894737,4,1,0,50,0,0
91748,-100,4,1,0,50,0,0
91836,-66.6666666666667,4,1,0,50,0,0
91880,-133.333333333333,4,1,0,50,0,0
92012,-100,4,1,0,50,0,0
92189,-117.647058823529,4,1,0,50,0,0
92365,-133.333333333333,4,1,0,50,0,0
92718,-166.666666666667,4,1,0,50,0,0
92895,-133.333333333333,4,1,0,50,0,0
92983,-117.647058823529,4,1,0,50,0,0
93071,-105.263157894737,4,1,0,50,0,0
93159,-100,4,1,0,50,0,0
93248,-66.6666666666667,4,1,0,50,0,0
93336,-133.333333333333,4,1,0,50,0,0
93424,-66.6666666666667,4,1,0,50,0,0
93512,-133.333333333333,4,1,0,50,0,0
93954,-100,4,1,0,50,0,0
94483,-125,4,1,0,50,0,0
94659,-133.333333333333,4,1,0,50,0,0
94836,-66.6666666666667,4,1,0,50,0,0
94924,-100,4,1,0,50,0,0
95189,-66.6666666666667,4,1,0,50,0,0
95277,-100,4,1,0,50,0,0
95365,-66.6666666666667,4,1,0,50,0,0
95454,-111.111111111111,4,1,0,50,0,0
96248,-125,4,1,0,50,0,0
96601,-133.333333333333,4,1,0,50,0,0
97130,-125,4,1,0,50,0,0
97571,-83.3333333333333,4,1,0,50,0,0
97659,-133.333333333333,4,1,0,50,0,0
97924,-83.3333333333333,4,1,0,50,0,0
98012,-133.333333333333,4,1,0,50,0,0
98189,-166.666666666667,4,1,0,50,0,0
98365,-200,4,1,0,50,0,0
98542,-66.6666666666667,4,1,0,50,0,0
98630,-166.666666666667,4,1,0,50,0,0
98895,-133.333333333333,4,1,0,50,0,0
99042,-50,4,1,0,50,0,0
99071,-133.333333333333,4,1,0,50,0,0
99218,-50,4,1,0,50,0,0
99248,-133.333333333333,4,1,0,50,0,0
99395,-66.6666666666667,4,1,0,50,0,0
99424,-100,4,1,0,50,0,0
99601,-66.6666666666667,4,1,0,50,0,0
99645,-100,4,1,0,50,0,0
99689,-66.6666666666667,4,1,0,50,0,0
99733,-100,4,1,0,50,0,0
99777,-100,4,1,0,50,0,0
99954,-66.6666666666667,4,1,0,50,0,0
99998,-100,4,1,0,50,0,0
100042,-66.6666666666667,4,1,0,50,0,0
100086,-100,4,1,0,50,0,0
100307,-111.111111111111,4,1,0,50,0,0
100659,-66.6666666666667,4,1,0,50,0,0
100748,-100,4,1,0,50,0,0
101012,-66.6666666666667,4,1,0,50,0,0
101056,-100,4,1,0,50,0,0
101101,-66.6666666666667,4,1,0,50,0,0
101145,-100,4,1,0,50,0,0
101365,-66.6666666666667,4,1,0,50,0,0
101409,-100,4,1,0,50,0,0
101454,-66.6666666666667,4,1,0,50,0,0
101498,-100,4,1,0,50,0,0
101718,-66.6666666666667,4,1,0,50,0,0
101777,-100,4,1,0,50,0,0
101836,-66.6666666666667,4,1,0,50,0,0
101895,-100,4,1,0,50,0,0
101954,-66.6666666666667,4,1,0,50,0,0
102071,-100,4,1,0,50,0,0
102601,-133.333333333333,4,1,0,50,0,0
102777,-66.6666666666667,4,1,0,50,0,0
102821,-100,4,1,0,50,0,0
102865,-66.6666666666667,4,1,0,50,0,0
102909,-100,4,1,0,50,0,0
102954,-66.6666666666667,4,1,0,50,0,0
102998,-100,4,1,0,50,0,0
103042,-66.6666666666667,4,1,0,50,0,0
103086,-100,4,1,0,50,0,0
103130,-66.6666666666667,4,1,0,50,0,0
103174,-100,4,1,0,50,0,0
103306,-133.333333333333,4,1,0,50,0,0
103439,-66.6666666666667,4,1,0,50,0,0
103527,-133.333333333333,4,1,0,50,0,0
103659,-111.111111111111,4,1,0,50,0,0
103704,-100,4,1,0,50,0,0
103748,-90.9090909090909,4,1,0,50,0,0
103792,-83.3333333333333,4,1,0,50,0,0
103836,-66.6666666666667,4,1,0,50,0,0
103924,-133.333333333333,4,1,0,50,0,0
104012,-66.6666666666667,4,1,0,50,0,0
104101,-133.333333333333,4,1,0,50,0,0
104189,-66.6666666666667,4,1,0,50,0,0
104233,-133.333333333333,4,1,0,50,0,0
104321,-50,4,1,0,50,0,0
104365,-100,4,1,0,50,0,0

[HitObjects]
402,192,782,128,0,1840:0:0:0:0:
109,192,782,128,0,1840:0:0:0:0:
256,192,1487,128,0,2193:0:0:0:0:
329,192,2193,1,0,0:0:0:0:
402,192,2193,1,0,0:0:0:0:
182,192,2281,1,0,0:0:0:0:
109,192,2281,1,0,0:0:0:0:
329,192,2370,1,0,0:0:0:0:
402,192,2370,1,0,0:0:0:0:
182,192,2458,1,0,0:0:0:0:
109,192,2458,1,0,0:0:0:0:
329,192,2546,1,0,0:0:0:0:
402,192,2546,1,0,0:0:0:0:
182,192,2634,1,0,0:0:0:0:
109,192,2634,1,0,0:0:0:0:
329,192,2723,1,0,0:0:0:0:
402,192,2723,1,0,0:0:0:0:
182,192,2811,1,0,0:0:0:0:
109,192,2811,1,0,0:0:0:0:
475,192,2899,128,0,3605:0:0:0:0:
36,192,2899,128,0,3605:0:0:0:0:
256,192,2899,128,0,3429:0:0:0:0:
402,192,3429,1,0,0:0:0:0:
109,192,3429,1,0,0:0:0:0:
109,192,3517,1,0,0:0:0:0:
402,192,3517,1,0,0:0:0:0:
182,192,3605,1,0,0:0:0:0:
329,192,3605,1,0,0:0:0:0:
182,192,3723,1,0,0:0:0:0:
329,192,3723,1,0,0:0:0:0:
182,192,3840,1,0,0:0:0:0:
329,192,3840,1,0,0:0:0:0:
329,192,3958,1,0,0:0:0:0:
182,192,3958,1,0,0:0:0:0:
182,192,4076,1,0,0:0:0:0:
329,192,4076,1,0,0:0:0:0:
329,192,4193,1,0,0:0:0:0:
182,192,4193,1,0,0:0:0:0:
475,192,4311,128,0,5017:0:0:0:0:
256,192,4311,128,0,5017:0:0:0:0:
36,192,5017,1,0,0:0:0:0:
109,192,5017,1,0,0:0:0:0:
475,192,5105,1,0,0:0:0:0:
402,192,5105,1,0,0:0:0:0:
36,192,5193,1,0,0:0:0:0:
109,192,5193,1,0,0:0:0:0:
475,192,5281,1,0,0:0:0:0:
402,192,5281,1,0,0:0:0:0:
36,192,5370,1,0,0:0:0:0:
109,192,5370,1,0,0:0:0:0:
475,192,5458,1,0,0:0:0:0:
402,192,5458,1,0,0:0:0:0:
36,192,5546,1,0,0:0:0:0:
109,192,5546,1,0,0:0:0:0:
475,192,5634,1,0,0:0:0:0:
402,192,5634,1,0,0:0:0:0:
182,192,5723,128,0,6429:0:0:0:0:
329,192,5723,128,0,6429:0:0:0:0:
402,192,6429,1,0,0:0:0:0:
475,192,6429,1,0,0:0:0:0:
109,192,6429,1,0,0:0:0:0:
36,192,6429,1,0,0:0:0:0:
402,192,7134,1,0,0:0:0:0:
109,192,7134,1,0,0:0:0:0:
475,192,7134,128,0,7752:0:0:0:0:
182,192,7134,128,0,7487:0:0:0:0:
329,192,7487,1,0,0:0:0:0:
402,192,7487,1,0,0:0:0:0:
256,192,7576,1,0,0:0:0:0:
109,192,7576,1,0,0:0:0:0:
329,192,7664,1,0,0:0:0:0:
402,192,7664,1,0,0:0:0:0:
256,192,7752,1,0,0:0:0:0:
109,192,7752,1,0,0:0:0:0:
402,192,7840,1,0,0:0:0:0:
329,192,7840,1,0,0:0:0:0:
475,192,7840,128,0,8458:0:0:0:0:
36,192,8105,128,0,8281:0:0:0:0:
36,192,8370,128,0,8546:0:0:0:0:
402,192,8546,1,0,0:0:0:0:
182,192,8546,1,0,0:0:0:0:
475,192,8546,1,0,0:0:0:0:
36,192,8634,1,0,0:0:0:0:
329,192,8634,1,0,0:0:0:0:
182,192,8811,1,0,0:0:0:0:
475,192,8811,1,0,0:0:0:0:
36,192,8899,1,0,0:0:0:0:
329,192,8899,1,0,0:0:0:0:
475,192,8987,1,0,0:0:0:0:
182,192,8987,1,0,0:0:0:0:
329,192,9076,1,0,0:0:0:0:
36,192,9076,1,0,0:0:0:0:
182,192,9164,1,0,0:0:0:0:
475,192,9164,1,0,0:0:0:0:
36,192,9252,1,0,0:0:0:0:
256,192,9252,1,0,0:0:0:0:
109,192,9296,1,0,0:0:0:0:
329,192,9296,1,0,0:0:0:0:
182,192,9340,1,0,0:0:0:0:
402,192,9340,1,0,0:0:0:0:
256,192,9384,1,0,0:0:0:0:
475,192,9384,1,0,0:0:0:0:
36,192,9384,1,0,0:0:0:0:
329,192,9428,1,0,0:0:0:0:
109,192,9428,1,0,0:0:0:0:
402,192,9473,1,0,0:0:0:0:
182,192,9473,1,0,0:0:0:0:
475,192,9517,1,0,0:0:0:0:
256,192,9517,1,0,0:0:0:0:
329,192,9561,1,0,0:0:0:0:
36,192,9605,128,0,9958:0:0:0:0:
109,192,9605,1,0,0:0:0:0:
182,192,9605,128,0,9958:0:0:0:0:
402,192,9605,1,0,0:0:0:0:
402,192,9958,1,0,0:0:0:0:
329,192,9958,1,0,0:0:0:0:
256,192,9958,1,0,0:0:0:0:
109,192,10046,1,0,0:0:0:0:
36,192,10046,1,0,0:0:0:0:
402,192,10134,1,0,0:0:0:0:
475,192,10134,1,0,0:0:0:0:
329,192,10134,1,0,0:0:0:0:
109,192,10223,1,0,0:0:0:0:
36,192,10223,1,0,0:0:0:0:
475,192,10311,1,0,0:0:0:0:
182,192,10311,1,0,0:0:0:0:
402,192,10311,1,0,0:0:0:0:
256,192,10311,1,0,0:0:0:0:
256,192,10487,128,0,10664:0:0:0:0:
329,192,10664,1,0,0:0:0:0:
182,192,10664,1,0,0:0:0:0:
402,192,10664,128,0,10723:0:0:0:0:
109,192,10664,128,0,10723:0:0:0:0:
109,192,10781,1,0,0:0:0:0:
402,192,10781,1,0,0:0:0:0:
329,192,10781,128,0,10840:0:0:0:0:
182,192,10781,128,0,10840:0:0:0:0:
329,192,10899,1,0,0:0:0:0:
182,192,10899,1,0,0:0:0:0:
402,192,10899,128,0,10958:0:0:0:0:
109,192,10899,128,0,10958:0:0:0:0:
475,192,11017,128,0,11281:0:0:0:0:
36,192,11017,128,0,11281:0:0:0:0:
329,192,11017,128,0,11193:0:0:0:0:
182,192,11017,128,0,11193:0:0:0:0:
329,192,11281,1,0,0:0:0:0:
182,192,11281,1,0,0:0:0:0:
256,192,11370,1,0,0:0:0:0:
402,192,11370,128,0,11634:0:0:0:0:
109,192,11370,128,0,11634:0:0:0:0:
329,192,11546,128,0,11723:0:0:0:0:
182,192,11546,128,0,11723:0:0:0:0:
402,192,11723,128,0,12076:0:0:0:0:
109,192,11723,128,0,12076:0:0:0:0:
36,192,11723,128,0,11899:0:0:0:0:
475,192,11723,128,0,11899:0:0:0:0:
256,192,11723,128,0,11987:0:0:0:0:
475,192,12076,1,0,0:0:0:0:
329,192,12076,1,0,0:0:0:0:
182,192,12076,1,0,0:0:0:0:
36,192,12076,1,0,0:0:0:0:
402,192,12252,1,0,0:0:0:0:
109,192,12252,1,0,0:0:0:0:
329,192,12340,1,0,0:0:0:0:
182,192,12340,1,0,0:0:0:0:
109,192,12428,128,0,12781:0:0:0:0:
36,192,12428,1,0,0:0:0:0:
402,192,12428,128,0,12781:0:0:0:0:
475,192,12428,1,0,0:0:0:0:
329,192,12605,1,0,0:0:0:0:
256,192,12693,1,0,0:0:0:0:
475,192,12781,1,0,0:0:0:0:
36,192,12781,128,0,13134:0:0:0:0:
329,192,12781,128,0,12958:0:0:0:0:
182,192,12870,128,0,12958:0:0:0:0:
402,192,12958,1,0,0:0:0:0:
256,192,12958,128,0,13134:0:0:0:0:
109,192,13046,128,0,13134:0:0:0:0:
182,192,13134,1,0,0:0:0:0:
329,192,13134,128,0,13223:0:0:0:0:
402,192,13134,128,0,13399:0:0:0:0:
475,192,13134,1,0,0:0:0:0:
109,192,13223,128,0,13311:0:0:0:0:
256,192,13311,1,0,0:0:0:0:
329,192,13311,128,0,13399:0:0:0:0:
182,192,13399,128,0,13487:0:0:0:0:
475,192,13487,1,0,0:0:0:0:
109,192,13487,128,0,13664:0:0:0:0:
36,192,13487,128,0,13840:0:0:0:0:
402,192,13487,128,0,13576:0:0:0:0:
256,192,13576,128,0,13664:0:0:0:0:
402,192,13664,128,0,13752:0:0:0:0:
475,192,13664,1,0,0:0:0:0:
256,192,13752,128,0,13840:0:0:0:0:
475,192,13840,1,0,0:0:0:0:
329,192,13840,128,0,13928:0:0:0:0:
109,192,13840,128,0,14017:0:0:0:0:
182,192,13928,128,0,14017:0:0:0:0:
475,192,14017,1,0,0:0:0:0:
36,192,14017,1,0,0:0:0:0:
329,192,14017,128,0,14105:0:0:0:0:
182,192,14105,128,0,14193:0:0:0:0:
256,192,14105,1,0,0:0:0:0:
109,192,14193,128,0,14281:0:0:0:0:
36,192,14193,128,0,14370:0:0:0:0:
475,192,14193,128,0,14458:0:0:0:0:
329,192,14193,1,0,0:0:0:0:
402,192,14281,128,0,14370:0:0:0:0:
256,192,14370,1,0,0:0:0:0:
109,192,14370,128,0,14458:0:0:0:0:
329,192,14458,128,0,14546:0:0:0:0:
475,192,14546,1,0,0:0:0:0:
182,192,14546,128,0,14723:0:0:0:0:
402,192,14546,128,0,14634:0:0:0:0:
36,192,14546,1,0,0:0:0:0:
329,192,14634,128,0,14723:0:0:0:0:
36,192,14723,1,0,0:0:0:0:
109,192,14723,128,0,14811:0:0:0:0:
256,192,14811,128,0,14899:0:0:0:0:
329,192,14811,1,0,0:0:0:0:
109,192,14899,1,0,0:0:0:0:
402,192,14899,1,0,0:0:0:0:
182,192,14943,1,0,0:0:0:0:
475,192,14943,1,0,0:0:0:0:
256,192,14987,1,0,0:0:0:0:
329,192,15031,1,0,0:0:0:0:
36,192,15031,1,0,0:0:0:0:
109,192,15075,1,0,0:0:0:0:
402,192,15075,1,0,0:0:0:0:
475,192,15075,1,0,0:0:0:0:
402,192,15251,1,0,0:0:0:0:
109,192,15251,1,0,0:0:0:0:
329,192,15295,1,0,0:0:0:0:
36,192,15295,1,0,0:0:0:0:
256,192,15339,1,0,0:0:0:0:
182,192,15383,1,0,0:0:0:0:
475,192,15383,1,0,0:0:0:0:
109,192,15427,1,0,0:0:0:0:
36,192,15427,1,0,0:0:0:0:
329,192,15427,1,0,0:0:0:0:
329,192,15603,1,0,0:0:0:0:
109,192,15603,1,0,0:0:0:0:
402,192,15647,1,0,0:0:0:0:
182,192,15647,1,0,0:0:0:0:
475,192,15691,1,0,0:0:0:0:
256,192,15691,1,0,0:0:0:0:
329,192,15735,1,0,0:0:0:0:
36,192,15735,1,0,0:0:0:0:
182,192,15779,1,0,0:0:0:0:
402,192,15779,1,0,0:0:0:0:
109,192,15779,1,0,0:0:0:0:
182,192,15955,1,0,0:0:0:0:
402,192,15955,128,0,16043:0:0:0:0:
475,192,15955,128,0,16131:0:0:0:0:
109,192,16043,128,0,16131:0:0:0:0:
256,192,16043,1,0,0:0:0:0:
402,192,16131,128,0,16219:0:0:0:0:
329,192,16131,1,0,0:0:0:0:
109,192,16219,128,0,16307:0:0:0:0:
182,192,16219,1,0,0:0:0:0:
475,192,16307,128,0,16396:0:0:0:0:
329,192,16307,1,0,0:0:0:0:
36,192,16307,128,0,16484:0:0:0:0:
256,192,16307,1,0,0:0:0:0:
182,192,16396,128,0,16484:0:0:0:0:
475,192,16484,128,0,16572:0:0:0:0:
329,192,16484,1,0,0:0:0:0:
36,192,16572,128,0,16660:0:0:0:0:
182,192,16572,1,0,0:0:0:0:
109,192,16660,128,0,16925:0:0:0:0:
402,192,16660,128,0,16837:0:0:0:0:
329,192,16660,128,0,16749:0:0:0:0:
182,192,16749,128,0,16837:0:0:0:0:
475,192,16749,1,0,0:0:0:0:
329,192,16837,128,0,16925:0:0:0:0:
256,192,16837,1,0,0:0:0:0:
182,192,16925,128,0,17013:0:0:0:0:
475,192,16925,1,0,0:0:0:0:
402,192,17013,1,0,0:0:0:0:
109,192,17013,128,0,17102:0:0:0:0:
36,192,17013,128,0,17455:0:0:0:0:
329,192,17102,128,0,17190:0:0:0:0:
256,192,17102,128,0,17366:0:0:0:0:
182,192,17190,128,0,17366:0:0:0:0:
109,192,17190,128,0,17278:0:0:0:0:
402,192,17278,128,0,17543:0:0:0:0:
329,192,17278,128,0,17455:0:0:0:0:
109,192,17366,128,0,17631:0:0:0:0:
475,192,17366,1,0,0:0:0:0:
256,192,17455,128,0,17719:0:0:0:0:
182,192,17455,128,0,17543:0:0:0:0:
329,192,17543,128,0,17631:0:0:0:0:
475,192,17543,128,0,17719:0:0:0:0:
182,192,17631,1,0,0:0:0:0:
36,192,17631,128,0,17719:0:0:0:0:
182,192,17719,128,0,17896:0:0:0:0:
329,192,17719,128,0,17896:0:0:0:0:
402,192,17719,1,0,0:0:0:0:
36,192,17896,1,0,0:0:0:0:
475,192,17896,1,0,0:0:0:0:
256,192,17984,1,0,0:0:0:0:
182,192,17984,1,0,0:0:0:0:
36,192,18072,128,0,18425:0:0:0:0:
109,192,18072,128,0,18249:0:0:0:0:
402,192,18072,128,0,18160:0:0:0:0:
475,192,18072,1,0,0:0:0:0:
256,192,18160,128,0,18249:0:0:0:0:
182,192,18249,1,0,0:0:0:0:
475,192,18249,1,0,0:0:0:0:
402,192,18337,128,0,18425:0:0:0:0:
329,192,18337,1,0,0:0:0:0:
256,192,18425,128,0,18513:0:0:0:0:
475,192,18425,128,0,18690:0:0:0:0:
182,192,18425,1,0,0:0:0:0:
36,192,18513,128,0,18602:0:0:0:0:
109,192,18513,1,0,0:0:0:0:
182,192,18602,128,0,18690:0:0:0:0:
402,192,18602,1,0,0:0:0:0:
329,192,18602,1,0,0:0:0:0:
36,192,18690,128,0,18778:0:0:0:0:
402,192,18778,1,0,0:0:0:0:
182,192,18778,128,0,18866:0:0:0:0:
109,192,18778,128,0,19043:0:0:0:0:
329,192,18866,128,0,18955:0:0:0:0:
475,192,18955,1,0,0:0:0:0:
182,192,18955,128,0,19043:0:0:0:0:
329,192,19043,128,0,19131:0:0:0:0:
402,192,19131,128,0,19396:0:0:0:0:
36,192,19131,128,0,19219:0:0:0:0:
109,192,19131,1,0,0:0:0:0:
256,192,19219,128,0,19307:0:0:0:0:
182,192,19219,128,0,19396:0:0:0:0:
36,192,19307,128,0,19396:0:0:0:0:
109,192,19307,1,0,0:0:0:0:
256,192,19396,128,0,19484:0:0:0:0:
475,192,19396,128,0,19660:0:0:0:0:
402,192,19484,128,0,19572:0:0:0:0:
109,192,19484,1,0,0:0:0:0:
329,192,19572,128,0,19660:0:0:0:0:
182,192,19660,128,0,19749:0:0:0:0:
36,192,19660,128,0,19749:0:0:0:0:
256,192,19660,1,0,0:0:0:0:
329,192,19749,128,0,19837:0:0:0:0:
475,192,19749,128,0,19837:0:0:0:0:
109,192,19837,128,0,19925:0:0:0:0:
256,192,19837,1,0,0:0:0:0:
36,192,19837,128,0,20102:0:0:0:0:
402,192,19925,128,0,20013:0:0:0:0:
109,192,20013,128,0,20102:0:0:0:0:
329,192,20013,1,0,0:0:0:0:
402,192,20102,128,0,20190:0:0:0:0:
256,192,20102,1,0,0:0:0:0:
475,192,20190,128,0,20454:0:0:0:0:
36,192,20190,128,0,20366:0:0:0:0:
182,192,20190,128,0,20278:0:0:0:0:
329,192,20278,128,0,20366:0:0:0:0:
182,192,20366,128,0,20454:0:0:0:0:
402,192,20366,1,0,0:0:0:0:
329,192,20454,128,0,20543:0:0:0:0:
256,192,20454,1,0,0:0:0:0:
402,192,20543,128,0,20631:0:0:0:0:
36,192,20543,128,0,20653:0:0:0:0:
475,192,20565,128,0,20675:0:0:0:0:
182,192,20565,128,0,20653:0:0:0:0:
109,192,20565,128,0,20697:0:0:0:0:
475,192,20807,128,0,20962:0:0:0:0:
329,192,20807,128,0,20874:0:0:0:0:
182,192,20807,128,0,20984:0:0:0:0:
402,192,20829,128,0,20918:0:0:0:0:
109,192,20829,128,0,20918:0:0:0:0:
36,192,20829,128,0,20874:0:0:0:0:
402,192,21072,128,0,21160:0:0:0:0:
256,192,21072,128,0,21160:0:0:0:0:
475,192,21094,128,0,21227:0:0:0:0:
182,192,21094,128,0,21249:0:0:0:0:
36,192,21094,128,0,21182:0:0:0:0:
475,192,21337,128,0,21425:0:0:0:0:
182,192,21337,128,0,21425:0:0:0:0:
36,192,21337,128,0,21447:0:0:0:0:
256,192,21359,128,0,21491:0:0:0:0:
402,192,21359,128,0,21447:0:0:0:0:
109,192,21359,128,0,21513:0:0:0:0:
256,192,21602,128,0,21690:0:0:0:0:
36,192,21602,128,0,21668:0:0:0:0:
475,192,21602,128,0,21712:0:0:0:0:
329,192,21624,128,0,21756:0:0:0:0:
402,192,21624,128,0,21778:0:0:0:0:
109,192,21624,128,0,21734:0:0:0:0:
402,192,21866,128,0,22021:0:0:0:0:
182,192,21866,128,0,21932:0:0:0:0:
475,192,21888,128,0,22043:0:0:0:0:
256,192,21888,128,0,21977:0:0:0:0:
36,192,21888,128,0,21932:0:0:0:0:
256,192,22043,128,0,22660:0:0:0:0:
475,192,22660,1,0,0:0:0:0:
182,192,22660,1,0,0:0:0:0:
402,192,22704,1,0,0:0:0:0:
109,192,22704,1,0,0:0:0:0:
329,192,22749,1,0,0:0:0:0:
36,192,22749,1,0,0:0:0:0:
256,192,22793,1,0,0:0:0:0:
475,192,22793,1,0,0:0:0:0:
182,192,22837,1,0,0:0:0:0:
402,192,22837,1,0,0:0:0:0:
36,192,22837,1,0,0:0:0:0:
256,192,23190,128,0,23543:0:0:0:0:
329,192,23190,128,0,23454:0:0:0:0:
36,192,23190,128,0,23896:0:0:0:0:
182,192,23190,128,0,23631:0:0:0:0:
475,192,23190,128,0,23366:0:0:0:0:
109,192,23366,128,0,24425:0:0:0:0:
402,192,23719,1,0,0:0:0:0:
402,192,24072,1,0,0:0:0:0:
402,192,24425,1,0,0:0:0:0:
182,192,24778,1,0,0:0:0:0:
182,192,25131,1,0,0:0:0:0:
182,192,25484,1,0,0:0:0:0:
182,192,25837,1,0,0:0:0:0:
329,192,25925,1,0,0:0:0:0:
109,192,26013,1,0,0:0:0:0:
256,192,26102,1,0,0:0:0:0:
36,192,26190,1,0,0:0:0:0:
36,192,26543,1,0,0:0:0:0:
36,192,26896,1,0,0:0:0:0:
36,192,27249,1,0,0:0:0:0:
402,192,27602,1,0,0:0:0:0:
329,192,27602,1,0,0:0:0:0:
329,192,27778,1,0,0:0:0:0:
256,192,27778,1,0,0:0:0:0:
256,192,27954,1,0,0:0:0:0:
182,192,27954,1,0,0:0:0:0:
182,192,28131,1,0,0:0:0:0:
109,192,28131,1,0,0:0:0:0:
182,192,28307,1,0,0:0:0:0:
256,192,28307,1,0,0:0:0:0:
402,192,28396,1,0,0:0:0:0:
475,192,28396,1,0,0:0:0:0:
256,192,28484,1,0,0:0:0:0:
329,192,28484,1,0,0:0:0:0:
182,192,28572,1,0,0:0:0:0:
109,192,28572,1,0,0:0:0:0:
329,192,28660,1,0,0:0:0:0:
402,192,28660,1,0,0:0:0:0:
182,192,28837,1,0,0:0:0:0:
36,192,29013,1,0,0:0:0:0:
36,192,29366,1,0,0:0:0:0:
475,192,29543,1,0,0:0:0:0:
182,192,29543,1,0,0:0:0:0:
402,192,29602,1,0,0:0:0:0:
109,192,29602,1,0,0:0:0:0:
329,192,29660,1,0,0:0:0:0:
36,192,29660,1,0,0:0:0:0:
182,192,29719,1,0,0:0:0:0:
475,192,29719,1,0,0:0:0:0:
109,192,29778,1,0,0:0:0:0:
329,192,29778,1,0,0:0:0:0:
36,192,29837,1,0,0:0:0:0:
256,192,29837,1,0,0:0:0:0:
475,192,29896,1,0,0:0:0:0:
182,192,29896,1,0,0:0:0:0:
402,192,29954,1,0,0:0:0:0:
109,192,29954,1,0,0:0:0:0:
329,192,30013,1,0,0:0:0:0:
36,192,30013,1,0,0:0:0:0:
256,192,30072,1,0,0:0:0:0:
402,192,30425,1,0,0:0:0:0:
402,192,30778,1,0,0:0:0:0:
256,192,30954,1,0,0:0:0:0:
402,192,31013,1,0,0:0:0:0:
109,192,31013,1,0,0:0:0:0:
475,192,31072,1,0,0:0:0:0:
182,192,31072,1,0,0:0:0:0:
256,192,31131,1,0,0:0:0:0:
36,192,31131,1,0,0:0:0:0:
402,192,31190,1,0,0:0:0:0:
109,192,31190,1,0,0:0:0:0:
475,192,31249,1,0,0:0:0:0:
182,192,31249,1,0,0:0:0:0:
36,192,31307,1,0,0:0:0:0:
256,192,31307,1,0,0:0:0:0:
109,192,31366,1,0,0:0:0:0:
329,192,31366,1,0,0:0:0:0:
475,192,31425,1,0,0:0:0:0:
182,192,31425,1,0,0:0:0:0:
256,192,31484,1,0,0:0:0:0:
402,192,31484,1,0,0:0:0:0:
256,192,31837,1,0,0:0:0:0:
256,192,32190,1,0,0:0:0:0:
256,192,32543,1,0,0:0:0:0:
256,192,32896,1,0,0:0:0:0:
329,192,33160,1,0,0:0:0:0:
256,192,33160,1,0,0:0:0:0:
36,192,33249,1,0,0:0:0:0:
109,192,33249,1,0,0:0:0:0:
256,192,33337,1,0,0:0:0:0:
182,192,33337,1,0,0:0:0:0:
329,192,33425,1,0,0:0:0:0:
402,192,33425,1,0,0:0:0:0:
182,192,33513,1,0,0:0:0:0:
109,192,33513,1,0,0:0:0:0:
402,192,33602,1,0,0:0:0:0:
475,192,33602,1,0,0:0:0:0:
256,192,33690,1,0,0:0:0:0:
182,192,33690,1,0,0:0:0:0:
402,192,33778,1,0,0:0:0:0:
475,192,33778,1,0,0:0:0:0:
329,192,33866,1,0,0:0:0:0:
256,192,33866,1,0,0:0:0:0:
109,192,33954,1,0,0:0:0:0:
182,192,33954,1,0,0:0:0:0:
329,192,34131,128,0,34175:0:0:0:0:
182,192,34131,128,0,34175:0:0:0:0:
36,192,34131,128,0,34175:0:0:0:0:
475,192,34131,128,0,34175:0:0:0:0:
256,192,34307,1,0,0:0:0:0:
329,192,34484,128,0,34528:0:0:0:0:
475,192,34484,128,0,34528:0:0:0:0:
182,192,34484,128,0,34528:0:0:0:0:
36,192,34484,128,0,34528:0:0:0:0:
36,192,34660,1,0,0:0:0:0:
256,192,34660,1,0,0:0:0:0:
475,192,34660,1,0,0:0:0:0:
402,192,34660,128,0,34749:0:0:0:0:
109,192,34660,128,0,34704:0:0:0:0:
329,192,34749,1,0,0:0:0:0:
36,192,34837,128,0,34925:0:0:0:0:
182,192,34837,128,0,34881:0:0:0:0:
402,192,34837,128,0,34881:0:0:0:0:
329,192,34925,1,0,0:0:0:0:
475,192,35013,1,0,0:0:0:0:
182,192,35013,1,0,0:0:0:0:
402,192,35102,128,0,35146:0:0:0:0:
256,192,35102,128,0,35146:0:0:0:0:
36,192,35102,128,0,35190:0:0:0:0:
329,192,35190,1,0,0:0:0:0:
182,192,35278,1,0,0:0:0:0:
256,192,35366,128,0,35410:0:0:0:0:
329,192,35366,128,0,35454:0:0:0:0:
475,192,35366,128,0,35410:0:0:0:0:
109,192,35366,128,0,35410:0:0:0:0:
36,192,35366,128,0,35410:0:0:0:0:
182,192,35454,1,0,0:0:0:0:
475,192,35543,1,0,0:0:0:0:
402,192,35631,128,0,35719:0:0:0:0:
256,192,35631,128,0,35675:0:0:0:0:
109,192,35631,128,0,35675:0:0:0:0:
36,192,35631,128,0,35675:0:0:0:0:
182,192,35719,1,0,0:0:0:0:
329,192,35807,1,0,0:0:0:0:
475,192,35896,1,0,0:0:0:0:
256,192,35896,1,0,0:0:0:0:
402,192,35940,1,0,0:0:0:0:
182,192,35940,1,0,0:0:0:0:
329,192,35984,1,0,0:0:0:0:
109,192,35984,1,0,0:0:0:0:
256,192,36028,1,0,0:0:0:0:
36,192,36028,1,0,0:0:0:0:
182,192,36072,1,0,0:0:0:0:
475,192,36072,1,0,0:0:0:0:
402,192,36160,1,0,0:0:0:0:
256,192,36249,128,0,36293:0:0:0:0:
182,192,36249,128,0,36337:0:0:0:0:
475,192,36249,128,0,36293:0:0:0:0:
36,192,36249,128,0,36293:0:0:0:0:
329,192,36337,1,0,0:0:0:0:
109,192,36425,1,0,0:0:0:0:
329,192,36513,128,0,36557:0:0:0:0:
36,192,36513,128,0,36557:0:0:0:0:
402,192,36513,128,0,36602:0:0:0:0:
182,192,36602,1,0,0:0:0:0:
256,192,36690,1,0,0:0:0:0:
329,192,36778,128,0,36822:0:0:0:0:
182,192,36778,128,0,36866:0:0:0:0:
475,192,36778,128,0,36822:0:0:0:0:
402,192,36866,1,0,0:0:0:0:
256,192,36954,1,0,0:0:0:0:
329,192,37043,128,0,37087:0:0:0:0:
182,192,37043,128,0,37087:0:0:0:0:
36,192,37043,128,0,37131:0:0:0:0:
256,192,37131,1,0,0:0:0:0:
329,192,37219,1,0,0:0:0:0:
182,192,37307,128,0,37352:0:0:0:0:
36,192,37307,128,0,37352:0:0:0:0:
402,192,37307,128,0,37396:0:0:0:0:
256,192,37396,1,0,0:0:0:0:
329,192,37484,1,0,0:0:0:0:
475,192,37484,1,0,0:0:0:0:
182,192,37572,128,0,37660:0:0:0:0:
109,192,37572,128,0,37616:0:0:0:0:
402,192,37572,128,0,37616:0:0:0:0:
329,192,37660,1,0,0:0:0:0:
256,192,37749,128,0,37793:0:0:0:0:
109,192,37749,128,0,37793:0:0:0:0:
36,192,37749,128,0,37837:0:0:0:0:
475,192,37837,1,0,0:0:0:0:
329,192,37925,1,0,0:0:0:0:
402,192,38013,128,0,38102:0:0:0:0:
256,192,38013,128,0,38057:0:0:0:0:
109,192,38013,128,0,38057:0:0:0:0:
182,192,38102,1,0,0:0:0:0:
402,192,38190,128,0,38234:0:0:0:0:
256,192,38190,128,0,38234:0:0:0:0:
36,192,38190,128,0,38234:0:0:0:0:
475,192,38190,128,0,38278:0:0:0:0:
329,192,38278,1,0,0:0:0:0:
182,192,38366,1,0,0:0:0:0:
256,192,38454,128,0,38499:0:0:0:0:
109,192,38454,128,0,38499:0:0:0:0:
475,192,38454,128,0,38543:0:0:0:0:
182,192,38543,1,0,0:0:0:0:
402,192,38631,1,0,0:0:0:0:
475,192,38719,128,0,38763:0:0:0:0:
329,192,38719,128,0,38807:0:0:0:0:
36,192,38719,128,0,38763:0:0:0:0:
182,192,38719,128,0,38807:0:0:0:0:
256,192,38807,128,0,39249:0:0:0:0:
475,192,39249,1,0,0:0:0:0:
329,192,39249,1,0,0:0:0:0:
402,192,39249,1,0,0:0:0:0:
182,192,39249,1,0,0:0:0:0:
36,192,39249,1,0,0:0:0:0:
109,192,39249,1,0,0:0:0:0:
256,192,39425,1,0,0:0:0:0:
329,192,39513,1,0,0:0:0:0:
36,192,39513,1,0,0:0:0:0:
475,192,39602,128,0,39734:0:0:0:0:
402,192,39602,128,0,39690:0:0:0:0:
256,192,39602,128,0,39734:0:0:0:0:
182,192,39602,128,0,39690:0:0:0:0:
109,192,39602,128,0,39646:0:0:0:0:
109,192,39866,128,0,39999:0:0:0:0:
182,192,39866,128,0,39954:0:0:0:0:
36,192,39866,128,0,39910:0:0:0:0:
329,192,39866,128,0,39999:0:0:0:0:
402,192,39866,128,0,39954:0:0:0:0:
36,192,40131,128,0,40160:0:0:0:0:
182,192,40131,128,0,40197:0:0:0:0:
256,192,40131,128,0,40219:0:0:0:0:
329,192,40131,128,0,40241:0:0:0:0:
475,192,40131,128,0,40263:0:0:0:0:
36,192,40307,1,0,0:0:0:0:
182,192,40307,128,0,40484:0:0:0:0:
329,192,40307,128,0,40484:0:0:0:0:
256,192,40396,1,0,0:0:0:0:
402,192,40484,1,0,0:0:0:0:
109,192,40484,1,0,0:0:0:0:
329,192,40572,1,0,0:0:0:0:
182,192,40572,1,0,0:0:0:0:
36,192,40660,128,0,40837:0:0:0:0:
475,192,40660,128,0,40837:0:0:0:0:
256,192,40749,1,0,0:0:0:0:
182,192,40837,1,0,0:0:0:0:
402,192,40837,1,0,0:0:0:0:
256,192,40925,1,0,0:0:0:0:
36,192,41013,1,0,0:0:0:0:
109,192,41013,1,0,0:0:0:0:
402,192,41013,1,0,0:0:0:0:
182,192,41102,1,0,0:0:0:0:
329,192,41190,1,0,0:0:0:0:
475,192,41190,128,0,41543:0:0:0:0:
402,192,41190,128,0,41366:0:0:0:0:
182,192,41278,1,0,0:0:0:0:
109,192,41366,128,0,41543:0:0:0:0:
36,192,41366,128,0,41719:0:0:0:0:
256,192,41366,1,0,0:0:0:0:
329,192,41454,1,0,0:0:0:0:
256,192,41543,128,0,41631:0:0:0:0:
182,192,41543,1,0,0:0:0:0:
329,192,41631,128,0,41719:0:0:0:0:
402,192,41631,1,0,0:0:0:0:
182,192,41719,128,0,41807:0:0:0:0:
109,192,41719,1,0,0:0:0:0:
402,192,41807,128,0,41896:0:0:0:0:
475,192,41807,1,0,0:0:0:0:
36,192,41896,128,0,41984:0:0:0:0:
109,192,41896,128,0,42072:0:0:0:0:
182,192,41896,1,0,0:0:0:0:
256,192,41984,1,0,0:0:0:0:
329,192,42072,128,0,42249:0:0:0:0:
402,192,42072,1,0,0:0:0:0:
36,192,42072,1,0,0:0:0:0:
475,192,42160,1,0,0:0:0:0:
182,192,42249,128,0,42425:0:0:0:0:
36,192,42249,1,0,0:0:0:0:
402,192,42337,1,0,0:0:0:0:
475,192,42425,128,0,42513:0:0:0:0:
329,192,42425,128,0,42469:0:0:0:0:
109,192,42425,1,0,0:0:0:0:
256,192,42513,1,0,0:0:0:0:
36,192,42513,1,0,0:0:0:0:
475,192,42602,128,0,42690:0:0:0:0:
329,192,42602,128,0,42646:0:0:0:0:
109,192,42602,1,0,0:0:0:0:
256,192,42690,1,0,0:0:0:0:
36,192,42690,1,0,0:0:0:0:
329,192,42778,1,0,0:0:0:0:
109,192,42778,1,0,0:0:0:0:
475,192,42778,1,0,0:0:0:0:
329,192,42954,1,0,0:0:0:0:
256,192,42954,1,0,0:0:0:0:
109,192,43131,128,0,43396:0:0:0:0:
182,192,43131,128,0,43219:0:0:0:0:
402,192,43131,1,0,0:0:0:0:
36,192,43131,1,0,0:0:0:0:
402,192,43307,128,0,43572:0:0:0:0:
329,192,43307,1,0,0:0:0:0:
475,192,43307,1,0,0:0:0:0:
109,192,43484,128,0,43749:0:0:0:0:
182,192,43484,128,0,43572:0:0:0:0:
256,192,43484,1,0,0:0:0:0:
36,192,43484,1,0,0:0:0:0:
402,192,43660,128,0,43925:0:0:0:0:
475,192,43660,1,0,0:0:0:0:
329,192,43660,1,0,0:0:0:0:
109,192,43837,128,0,44102:0:0:0:0:
182,192,43837,128,0,43925:0:0:0:0:
36,192,43837,1,0,0:0:0:0:
402,192,44013,128,0,44102:0:0:0:0:
256,192,44013,1,0,0:0:0:0:
475,192,44013,1,0,0:0:0:0:
402,192,44190,128,0,44454:0:0:0:0:
329,192,44190,128,0,44278:0:0:0:0:
182,192,44190,1,0,0:0:0:0:
36,192,44190,1,0,0:0:0:0:
109,192,44366,128,0,44631:0:0:0:0:
36,192,44366,1,0,0:0:0:0:
256,192,44366,1,0,0:0:0:0:
402,192,44543,128,0,44807:0:0:0:0:
329,192,44543,128,0,44631:0:0:0:0:
182,192,44543,1,0,0:0:0:0:
475,192,44543,1,0,0:0:0:0:
109,192,44719,128,0,44984:0:0:0:0:
36,192,44719,1,0,0:0:0:0:
256,192,44719,1,0,0:0:0:0:
402,192,44896,128,0,45160:0:0:0:0:
329,192,44896,128,0,44984:0:0:0:0:
182,192,44896,1,0,0:0:0:0:
475,192,44896,1,0,0:0:0:0:
109,192,45072,128,0,45160:0:0:0:0:
256,192,45072,1,0,0:0:0:0:
182,192,45249,128,0,45337:0:0:0:0:
256,192,45249,1,0,0:0:0:0:
329,192,45337,128,0,45425:0:0:0:0:
402,192,45337,1,0,0:0:0:0:
109,192,45425,128,0,45513:0:0:0:0:
36,192,45425,1,0,0:0:0:0:
402,192,45513,128,0,45602:0:0:0:0:
475,192,45513,1,0,0:0:0:0:
182,192,45602,128,0,45690:0:0:0:0:
256,192,45602,1,0,0:0:0:0:
109,192,45690,128,0,45778:0:0:0:0:
36,192,45690,1,0,0:0:0:0:
402,192,45778,128,0,45866:0:0:0:0:
329,192,45778,1,0,0:0:0:0:
256,192,45866,128,0,45954:0:0:0:0:
182,192,45866,1,0,0:0:0:0:
475,192,45954,128,0,46131:0:0:0:0:
109,192,45954,1,0,0:0:0:0:
36,192,45954,1,0,0:0:0:0:
36,192,46131,1,0,0:0:0:0:
109,192,46175,1,0,0:0:0:0:
182,192,46175,1,0,0:0:0:0:
256,192,46219,1,0,0:0:0:0:
329,192,46263,1,0,0:0:0:0:
402,192,46263,1,0,0:0:0:0:
475,192,46307,1,0,0:0:0:0:
109,192,46307,128,0,46396:0:0:0:0:
36,192,46307,128,0,46396:0:0:0:0:
256,192,46396,1,0,0:0:0:0:
402,192,46484,1,0,0:0:0:0:
36,192,46484,128,0,46572:0:0:0:0:
109,192,46484,128,0,46572:0:0:0:0:
329,192,46572,1,0,0:0:0:0:
475,192,46660,1,0,0:0:0:0:
402,192,46660,1,0,0:0:0:0:
36,192,46660,128,0,46837:0:0:0:0:
475,192,46837,1,0,0:0:0:0:
329,192,46881,1,0,0:0:0:0:
402,192,46881,1,0,0:0:0:0:
256,192,46925,1,0,0:0:0:0:
182,192,46969,1,0,0:0:0:0:
109,192,46969,1,0,0:0:0:0:
475,192,47013,128,0,47102:0:0:0:0:
36,192,47013,128,0,47102:0:0:0:0:
329,192,47013,1,0,0:0:0:0:
402,192,47190,128,0,47278:0:0:0:0:
109,192,47190,128,0,47278:0:0:0:0:
256,192,47190,1,0,0:0:0:0:
329,192,47366,128,0,47454:0:0:0:0:
182,192,47366,128,0,47454:0:0:0:0:
256,192,47543,1,0,0:0:0:0:
402,192,47543,128,0,47631:0:0:0:0:
109,192,47543,128,0,47631:0:0:0:0:
36,192,47719,128,0,48072:0:0:0:0:
475,192,47719,128,0,48072:0:0:0:0:
402,192,47896,128,0,48028:0:0:0:0:
329,192,47896,128,0,47984:0:0:0:0:
256,192,47896,128,0,47940:0:0:0:0:
182,192,47896,128,0,47984:0:0:0:0:
109,192,47896,128,0,48028:0:0:0:0:
329,192,48072,1,0,0:0:0:0:
182,192,48072,1,0,0:0:0:0:
256,192,48249,128,0,48381:0:0:0:0:
329,192,48249,128,0,48337:0:0:0:0:
402,192,48249,128,0,48293:0:0:0:0:
182,192,48249,128,0,48337:0:0:0:0:
109,192,48249,128,0,48293:0:0:0:0:
402,192,48425,128,0,48513:0:0:0:0:
475,192,48425,128,0,48557:0:0:0:0:
36,192,48425,128,0,48557:0:0:0:0:
109,192,48425,128,0,48469:0:0:0:0:
329,192,48602,128,0,48690:0:0:0:0:
182,192,48602,128,0,48690:0:0:0:0:
109,192,48602,128,0,48690:0:0:0:0:
402,192,48602,128,0,48690:0:0:0:0:
475,192,48778,1,0,0:0:0:0:
329,192,48778,1,0,0:0:0:0:
475,192,48866,1,0,0:0:0:0:
329,192,48866,1,0,0:0:0:0:
329,192,48954,128,0,48999:0:0:0:0:
256,192,48954,128,0,48999:0:0:0:0:
475,192,48954,128,0,48999:0:0:0:0:
182,192,48954,128,0,48999:0:0:0:0:
36,192,48954,128,0,48999:0:0:0:0:
36,192,49131,1,0,0:0:0:0:
182,192,49131,1,0,0:0:0:0:
182,192,49219,1,0,0:0:0:0:
36,192,49219,1,0,0:0:0:0:
182,192,49307,128,0,49352:0:0:0:0:
256,192,49307,128,0,49352:0:0:0:0:
402,192,49307,128,0,49352:0:0:0:0:
36,192,49307,128,0,49352:0:0:0:0:
475,192,49307,128,0,49352:0:0:0:0:
182,192,49484,1,0,0:0:0:0:
329,192,49484,1,0,0:0:0:0:
329,192,49572,1,0,0:0:0:0:
182,192,49572,1,0,0:0:0:0:
475,192,49660,128,0,49704:0:0:0:0:
182,192,49660,128,0,49704:0:0:0:0:
329,192,49660,128,0,49704:0:0:0:0:
109,192,49660,128,0,49704:0:0:0:0:
36,192,49660,128,0,49704:0:0:0:0:
402,192,49837,1,0,0:0:0:0:
109,192,49837,1,0,0:0:0:0:
402,192,49954,1,0,0:0:0:0:
109,192,49954,1,0,0:0:0:0:
402,192,50072,1,0,0:0:0:0:
109,192,50072,1,0,0:0:0:0:
36,192,50190,128,0,50278:0:0:0:0:
475,192,50190,128,0,50278:0:0:0:0:
329,192,50190,128,0,50234:0:0:0:0:
256,192,50190,128,0,50234:0:0:0:0:
182,192,50190,128,0,50234:0:0:0:0:
109,192,50190,128,0,50234:0:0:0:0:
402,192,50190,128,0,50234:0:0:0:0:
36,192,50896,1,0,0:0:0:0:
109,192,50954,1,0,0:0:0:0:
182,192,51013,1,0,0:0:0:0:
256,192,51072,1,0,0:0:0:0:
329,192,51131,1,0,0:0:0:0:
402,192,51190,1,0,0:0:0:0:
475,192,51249,1,0,0:0:0:0:
36,192,51249,1,0,0:0:0:0:
109,192,51307,1,0,0:0:0:0:
182,192,51366,1,0,0:0:0:0:
256,192,51425,1,0,0:0:0:0:
329,192,51484,1,0,0:0:0:0:
402,192,51543,1,0,0:0:0:0:
256,192,51602,1,0,0:0:0:0:
36,192,51602,128,0,51954:0:0:0:0:
109,192,51602,128,0,51778:0:0:0:0:
475,192,51602,128,0,51866:0:0:0:0:
329,192,51690,128,0,51778:0:0:0:0:
182,192,51778,128,0,51866:0:0:0:0:
256,192,51778,1,0,0:0:0:0:
329,192,51866,128,0,51954:0:0:0:0:
475,192,51954,128,0,52043:0:0:0:0:
256,192,51954,1,0,0:0:0:0:
109,192,52043,128,0,52131:0:0:0:0:
182,192,52043,1,0,0:0:0:0:
402,192,52131,128,0,52219:0:0:0:0:
329,192,52131,1,0,0:0:0:0:
182,192,52219,1,0,0:0:0:0:
256,192,52219,128,0,52307:0:0:0:0:
329,192,52307,128,0,52396:0:0:0:0:
475,192,52307,128,0,52396:0:0:0:0:
109,192,52307,1,0,0:0:0:0:
182,192,52396,128,0,52484:0:0:0:0:
36,192,52396,128,0,52484:0:0:0:0:
329,192,52484,128,0,52572:0:0:0:0:
475,192,52484,128,0,52572:0:0:0:0:
109,192,52572,1,0,0:0:0:0:
475,192,52660,128,0,52704:0:0:0:0:
36,192,52660,128,0,52704:0:0:0:0:
402,192,52660,128,0,52704:0:0:0:0:
256,192,52660,128,0,52704:0:0:0:0:
329,192,52837,128,0,52925:0:0:0:0:
182,192,52837,128,0,52925:0:0:0:0:
36,192,52837,128,0,53102:0:0:0:0:
402,192,52925,128,0,53013:0:0:0:0:
182,192,53013,128,0,53102:0:0:0:0:
256,192,53013,1,0,0:0:0:0:
329,192,53102,128,0,53190:0:0:0:0:
182,192,53190,128,0,53278:0:0:0:0:
475,192,53190,128,0,53454:0:0:0:0:
109,192,53190,1,0,0:0:0:0:
402,192,53278,128,0,53366:0:0:0:0:
329,192,53278,1,0,0:0:0:0:
109,192,53366,128,0,53454:0:0:0:0:
36,192,53366,1,0,0:0:0:0:
256,192,53366,1,0,0:0:0:0:
329,192,53454,128,0,53543:0:0:0:0:
402,192,53454,1,0,0:0:0:0:
36,192,53543,128,0,53719:0:0:0:0:
182,192,53543,128,0,53631:0:0:0:0:
329,192,53631,128,0,53719:0:0:0:0:
402,192,53631,1,0,0:0:0:0:
475,192,53719,128,0,54072:0:0:0:0:
182,192,53719,128,0,53807:0:0:0:0:
256,192,53719,128,0,53807:0:0:0:0:
329,192,53807,128,0,53896:0:0:0:0:
402,192,53807,128,0,53896:0:0:0:0:
109,192,53896,128,0,53984:0:0:0:0:
182,192,53896,128,0,53984:0:0:0:0:
329,192,53984,128,0,54072:0:0:0:0:
402,192,53984,128,0,54072:0:0:0:0:
182,192,54072,128,0,54116:0:0:0:0:
36,192,54072,128,0,54116:0:0:0:0:
109,192,54072,128,0,54116:0:0:0:0:
256,192,54249,128,0,55131:0:0:0:0:
475,192,54249,1,0,0:0:0:0:
329,192,54425,1,0,0:0:0:0:
182,192,54425,1,0,0:0:0:0:
36,192,54602,1,0,0:0:0:0:
475,192,54602,1,0,0:0:0:0:
402,192,54778,1,0,0:0:0:0:
109,192,54778,1,0,0:0:0:0:
329,192,54954,1,0,0:0:0:0:
182,192,54954,1,0,0:0:0:0:
402,192,55131,128,0,55175:0:0:0:0:
329,192,55131,128,0,55175:0:0:0:0:
182,192,55131,128,0,55175:0:0:0:0:
109,192,55131,128,0,55175:0:0:0:0:
182,192,55307,128,0,55352:0:0:0:0:
36,192,55307,128,0,55352:0:0:0:0:
329,192,55307,128,0,55352:0:0:0:0:
475,192,55307,128,0,55352:0:0:0:0:
402,192,55484,128,0,55572:0:0:0:0:
109,192,55484,128,0,55572:0:0:0:0:
256,192,55660,128,0,56543:0:0:0:0:
329,192,55660,1,0,0:0:0:0:
182,192,55660,1,0,0:0:0:0:
475,192,55837,1,0,0:0:0:0:
36,192,55837,1,0,0:0:0:0:
402,192,56013,1,0,0:0:0:0:
109,192,56013,1,0,0:0:0:0:
475,192,56190,1,0,0:0:0:0:
36,192,56190,1,0,0:0:0:0:
402,192,56366,1,0,0:0:0:0:
109,192,56366,1,0,0:0:0:0:
475,192,56543,128,0,56587:0:0:0:0:
329,192,56543,128,0,56587:0:0:0:0:
182,192,56543,128,0,56587:0:0:0:0:
36,192,56543,128,0,56587:0:0:0:0:
36,192,56719,128,0,56763:0:0:0:0:
109,192,56719,128,0,56763:0:0:0:0:
402,192,56719,128,0,56763:0:0:0:0:
475,192,56719,128,0,56763:0:0:0:0:
329,192,56896,1,0,0:0:0:0:
182,192,56896,1,0,0:0:0:0:
329,192,57072,1,0,0:0:0:0:
182,192,57072,1,0,0:0:0:0:
256,192,57249,1,0,0:0:0:0:
402,192,57249,128,0,57337:0:0:0:0:
475,192,57249,128,0,57337:0:0:0:0:
36,192,57337,128,0,57425:0:0:0:0:
109,192,57337,128,0,57425:0:0:0:0:
329,192,57425,128,0,57513:0:0:0:0:
475,192,57425,128,0,57513:0:0:0:0:
109,192,57513,128,0,57602:0:0:0:0:
36,192,57513,128,0,57602:0:0:0:0:
256,192,57602,1,0,0:0:0:0:
475,192,57602,128,0,57690:0:0:0:0:
402,192,57690,128,0,57778:0:0:0:0:
109,192,57778,1,0,0:0:0:0:
329,192,57778,128,0,57866:0:0:0:0:
256,192,57866,128,0,57954:0:0:0:0:
36,192,57954,1,0,0:0:0:0:
475,192,57954,1,0,0:0:0:0:
182,192,57954,128,0,58043:0:0:0:0:
256,192,58043,128,0,58131:0:0:0:0:
109,192,58131,1,0,0:0:0:0:
329,192,58131,128,0,58219:0:0:0:0:
402,192,58219,128,0,58307:0:0:0:0:
475,192,58307,1,0,0:0:0:0:
36,192,58307,1,0,0:0:0:0:
182,192,58307,1,0,0:0:0:0:
329,192,58396,128,0,58484:0:0:0:0:
109,192,58484,128,0,58572:0:0:0:0:
256,192,58484,1,0,0:0:0:0:
329,192,58572,128,0,58660:0:0:0:0:
182,192,58660,128,0,58749:0:0:0:0:
36,192,58660,128,0,58837:0:0:0:0:
475,192,58660,1,0,0:0:0:0:
329,192,58749,128,0,58837:0:0:0:0:
402,192,58837,128,0,59013:0:0:0:0:
109,192,58837,128,0,59013:0:0:0:0:
256,192,58925,1,0,0:0:0:0:
182,192,59013,1,0,0:0:0:0:
475,192,59013,128,0,59719:0:0:0:0:
256,192,59102,1,0,0:0:0:0:
182,192,59190,1,0,0:0:0:0:
36,192,59190,128,0,60425:0:0:0:0:
329,192,59278,1,0,0:0:0:0:
109,192,59366,1,0,0:0:0:0:
182,192,59410,1,0,0:0:0:0:
256,192,59454,1,0,0:0:0:0:
329,192,59499,1,0,0:0:0:0:
402,192,59543,1,0,0:0:0:0:
256,192,59719,1,0,0:0:0:0:
402,192,59896,1,0,0:0:0:0:
109,192,59896,1,0,0:0:0:0:
329,192,60072,1,0,0:0:0:0:
182,192,60072,1,0,0:0:0:0:
109,192,60072,1,0,0:0:0:0:
475,192,60072,128,0,60131:0:0:0:0:
475,192,60190,128,0,60249:0:0:0:0:
256,192,60249,1,0,0:0:0:0:
475,192,60307,128,0,60366:0:0:0:0:
475,192,60425,128,0,60484:0:0:0:0:
182,192,60425,1,0,0:0:0:0:
109,192,60425,1,0,0:0:0:0:
475,192,60543,128,0,60602:0:0:0:0:
329,192,60602,1,0,0:0:0:0:
256,192,60778,1,0,0:0:0:0:
36,192,60778,1,0,0:0:0:0:
182,192,60778,1,0,0:0:0:0:
402,192,60954,1,0,0:0:0:0:
329,192,61131,1,0,0:0:0:0:
182,192,61131,1,0,0:0:0:0:
36,192,61131,1,0,0:0:0:0:
475,192,61307,1,0,0:0:0:0:
402,192,61484,1,0,0:0:0:0:
36,192,61484,1,0,0:0:0:0:
256,192,61484,1,0,0:0:0:0:
475,192,61484,1,0,0:0:0:0:
182,192,61484,128,0,61543:0:0:0:0:
182,192,61602,1,0,0:0:0:0:
256,192,61602,1,0,0:0:0:0:
36,192,61602,128,0,61660:0:0:0:0:
256,192,61719,1,0,0:0:0:0:
36,192,61719,1,0,0:0:0:0:
182,192,61719,128,0,61778:0:0:0:0:
36,192,61837,1,0,0:0:0:0:
182,192,61837,1,0,0:0:0:0:
256,192,61837,1,0,0:0:0:0:
475,192,61837,128,0,62013:0:0:0:0:
109,192,62013,1,0,0:0:0:0:
402,192,62013,128,0,62190:0:0:0:0:
182,192,62190,128,0,62278:0:0:0:0:
329,192,62190,128,0,62278:0:0:0:0:
475,192,62190,1,0,0:0:0:0:
36,192,62278,128,0,62366:0:0:0:0:
109,192,62278,128,0,62366:0:0:0:0:
329,192,62366,128,0,62454:0:0:0:0:
475,192,62366,128,0,62454:0:0:0:0:
256,192,62366,1,0,0:0:0:0:
182,192,62454,128,0,62543:0:0:0:0:
109,192,62454,128,0,62543:0:0:0:0:
402,192,62543,1,0,0:0:0:0:
475,192,62543,1,0,0:0:0:0:
329,192,62587,1,0,0:0:0:0:
182,192,62631,1,0,0:0:0:0:
256,192,62631,1,0,0:0:0:0:
109,192,62675,1,0,0:0:0:0:
36,192,62719,1,0,0:0:0:0:
402,192,62719,128,0,62896:0:0:0:0:
475,192,62719,128,0,63072:0:0:0:0:
182,192,62896,128,0,62984:0:0:0:0:
36,192,62896,128,0,63160:0:0:0:0:
329,192,62984,128,0,63072:0:0:0:0:
256,192,63072,128,0,63160:0:0:0:0:
109,192,63072,1,0,0:0:0:0:
402,192,63160,128,0,63249:0:0:0:0:
329,192,63249,128,0,63337:0:0:0:0:
36,192,63249,128,0,63337:0:0:0:0:
182,192,63249,128,0,63425:0:0:0:0:
475,192,63337,128,0,63425:0:0:0:0:
256,192,63425,128,0,63513:0:0:0:0:
402,192,63425,128,0,63513:0:0:0:0:
36,192,63513,128,0,63602:0:0:0:0:
182,192,63513,128,0,63602:0:0:0:0:
475,192,63602,128,0,63866:0:0:0:0:
329,192,63602,128,0,63690:0:0:0:0:
109,192,63690,128,0,63778:0:0:0:0:
182,192,63690,128,0,63778:0:0:0:0:
402,192,63778,128,0,63866:0:0:0:0:
109,192,63866,128,0,63954:0:0:0:0:
256,192,63954,128,0,63999:0:0:0:0:
329,192,63954,128,0,63999:0:0:0:0:
475,192,63954,128,0,63999:0:0:0:0:
256,192,64131,128,0,64175:0:0:0:0:
182,192,64131,128,0,64175:0:0:0:0:
36,192,64131,128,0,64175:0:0:0:0:
402,192,64131,128,0,64175:0:0:0:0:
109,192,64307,128,0,64396:0:0:0:0:
256,192,64307,1,0,0:0:0:0:
402,192,64396,128,0,64484:0:0:0:0:
109,192,64484,128,0,64572:0:0:0:0:
182,192,64484,1,0,0:0:0:0:
402,192,64572,128,0,64660:0:0:0:0:
36,192,64660,128,0,64749:0:0:0:0:
256,192,64660,1,0,0:0:0:0:
329,192,64749,128,0,64837:0:0:0:0:
475,192,64749,1,0,0:0:0:0:
36,192,64837,128,0,64925:0:0:0:0:
182,192,64837,128,0,64925:0:0:0:0:
475,192,64925,128,0,65013:0:0:0:0:
402,192,64925,128,0,65013:0:0:0:0:
182,192,65013,128,0,65102:0:0:0:0:
36,192,65013,128,0,65102:0:0:0:0:
256,192,65013,128,0,65102:0:0:0:0:
329,192,65102,128,0,65190:0:0:0:0:
475,192,65102,128,0,65190:0:0:0:0:
109,192,65190,128,0,65278:0:0:0:0:
182,192,65190,1,0,0:0:0:0:
256,192,65278,128,0,65366:0:0:0:0:
475,192,65366,128,0,65410:0:0:0:0:
182,192,65366,128,0,65410:0:0:0:0:
329,192,65366,128,0,65410:0:0:0:0:
36,192,65366,128,0,65410:0:0:0:0:
256,192,65543,128,0,66425:0:0:0:0:
402,192,65543,1,0,0:0:0:0:
109,192,65543,1,0,0:0:0:0:
329,192,65719,1,0,0:0:0:0:
182,192,65719,1,0,0:0:0:0:
475,192,65896,1,0,0:0:0:0:
36,192,65896,1,0,0:0:0:0:
402,192,66072,1,0,0:0:0:0:
109,192,66072,1,0,0:0:0:0:
475,192,66249,1,0,0:0:0:0:
36,192,66249,1,0,0:0:0:0:
329,192,66425,128,0,66469:0:0:0:0:
402,192,66425,128,0,66469:0:0:0:0:
182,192,66425,128,0,66469:0:0:0:0:
109,192,66425,128,0,66469:0:0:0:0:
109,192,66602,128,0,66646:0:0:0:0:
36,192,66602,128,0,66646:0:0:0:0:
402,192,66602,128,0,66646:0:0:0:0:
475,192,66602,128,0,66646:0:0:0:0:
329,192,66778,1,0,0:0:0:0:
182,192,66778,1,0,0:0:0:0:
256,192,66954,128,0,67837:0:0:0:0:
36,192,66954,1,0,0:0:0:0:
475,192,66954,1,0,0:0:0:0:
402,192,67131,1,0,0:0:0:0:
109,192,67131,1,0,0:0:0:0:
329,192,67307,1,0,0:0:0:0:
182,192,67307,1,0,0:0:0:0:
475,192,67484,1,0,0:0:0:0:
36,192,67484,1,0,0:0:0:0:
182,192,67660,1,0,0:0:0:0:
329,192,67660,1,0,0:0:0:0:
109,192,67837,128,0,67881:0:0:0:0:
36,192,67837,128,0,67881:0:0:0:0:
402,192,67837,128,0,67881:0:0:0:0:
475,192,67837,128,0,67881:0:0:0:0:
329,192,68013,128,0,68057:0:0:0:0:
256,192,68013,128,0,68057:0:0:0:0:
182,192,68013,128,0,68057:0:0:0:0:
36,192,68013,128,0,68057:0:0:0:0:
475,192,68013,128,0,68057:0:0:0:0:
402,192,68190,1,0,0:0:0:0:
109,192,68190,1,0,0:0:0:0:
182,192,68366,1,0,0:0:0:0:
329,192,68366,1,0,0:0:0:0:
36,192,68543,128,0,68631:0:0:0:0:
256,192,68543,1,0,0:0:0:0:
109,192,68543,128,0,68631:0:0:0:0:
475,192,68631,128,0,68719:0:0:0:0:
402,192,68631,128,0,68719:0:0:0:0:
36,192,68719,128,0,68807:0:0:0:0:
182,192,68719,128,0,68807:0:0:0:0:
475,192,68807,128,0,68896:0:0:0:0:
402,192,68807,128,0,68896:0:0:0:0:
256,192,68896,1,0,0:0:0:0:
36,192,68896,128,0,68984:0:0:0:0:
109,192,68984,128,0,69072:0:0:0:0:
402,192,69072,1,0,0:0:0:0:
182,192,69072,128,0,69160:0:0:0:0:
256,192,69160,128,0,69249:0:0:0:0:
329,192,69249,128,0,69337:0:0:0:0:
36,192,69249,1,0,0:0:0:0:
475,192,69249,1,0,0:0:0:0:
256,192,69337,128,0,69425:0:0:0:0:
402,192,69425,1,0,0:0:0:0:
182,192,69425,128,0,69513:0:0:0:0:
109,192,69513,128,0,69602:0:0:0:0:
329,192,69602,1,0,0:0:0:0:
475,192,69602,1,0,0:0:0:0:
36,192,69602,1,0,0:0:0:0:
182,192,69690,128,0,69778:0:0:0:0:
256,192,69778,1,0,0:0:0:0:
402,192,69778,128,0,69866:0:0:0:0:
182,192,69866,128,0,69954:0:0:0:0:
329,192,69954,128,0,70043:0:0:0:0:
475,192,69954,128,0,70043:0:0:0:0:
36,192,69954,128,0,70043:0:0:0:0:
256,192,70043,128,0,70131:0:0:0:0:
402,192,70131,128,0,70219:0:0:0:0:
109,192,70131,1,0,0:0:0:0:
182,192,70219,128,0,70307:0:0:0:0:
36,192,70307,128,0,71013:0:0:0:0:
329,192,70307,1,0,0:0:0:0:
329,192,70396,1,0,0:0:0:0:
182,192,70484,128,0,70660:0:0:0:0:
256,192,70484,1,0,0:0:0:0:
402,192,70660,1,0,0:0:0:0:
475,192,70660,128,0,71013:0:0:0:0:
329,192,70704,1,0,0:0:0:0:
256,192,70749,1,0,0:0:0:0:
182,192,70793,1,0,0:0:0:0:
109,192,70837,1,0,0:0:0:0:
256,192,71013,128,0,71190:0:0:0:0:
329,192,71013,1,0,0:0:0:0:
109,192,71190,128,0,71366:0:0:0:0:
182,192,71190,1,0,0:0:0:0:
329,192,71366,1,0,0:0:0:0:
402,192,71366,128,0,71454:0:0:0:0:
36,192,71366,1,0,0:0:0:0:
182,192,71454,128,0,71543:0:0:0:0:
109,192,71454,1,0,0:0:0:0:
329,192,71543,128,0,71631:0:0:0:0:
475,192,71543,1,0,0:0:0:0:
256,192,71631,1,0,0:0:0:0:
109,192,71631,128,0,71719:0:0:0:0:
182,192,71719,1,0,0:0:0:0:
402,192,71719,1,0,0:0:0:0:
329,192,71807,1,0,0:0:0:0:
256,192,71896,128,0,71940:0:0:0:0:
109,192,71896,128,0,71940:0:0:0:0:
475,192,71896,128,0,71940:0:0:0:0:
36,192,71896,128,0,71940:0:0:0:0:
256,192,72072,128,0,72116:0:0:0:0:
402,192,72072,128,0,72116:0:0:0:0:
182,192,72072,128,0,72116:0:0:0:0:
36,192,72072,128,0,72116:0:0:0:0:
256,192,72249,128,0,73131:0:0:0:0:
475,192,72249,1,0,0:0:0:0:
36,192,72249,1,0,0:0:0:0:
329,192,72425,1,0,0:0:0:0:
182,192,72425,1,0,0:0:0:0:
475,192,72602,1,0,0:0:0:0:
36,192,72602,1,0,0:0:0:0:
329,192,72778,1,0,0:0:0:0:
182,192,72778,1,0,0:0:0:0:
402,192,72822,1,0,0:0:0:0:
109,192,72822,1,0,0:0:0:0:
475,192,72866,1,0,0:0:0:0:
36,192,72866,1,0,0:0:0:0:
329,192,72910,1,0,0:0:0:0:
182,192,72910,1,0,0:0:0:0:
402,192,72954,1,0,0:0:0:0:
109,192,72954,1,0,0:0:0:0:
475,192,72999,1,0,0:0:0:0:
36,192,72999,1,0,0:0:0:0:
329,192,73043,1,0,0:0:0:0:
182,192,73043,1,0,0:0:0:0:
402,192,73087,1,0,0:0:0:0:
109,192,73087,1,0,0:0:0:0:
475,192,73131,1,0,0:0:0:0:
36,192,73131,1,0,0:0:0:0:
109,192,73307,128,0,73352:0:0:0:0:
256,192,73307,128,0,73352:0:0:0:0:
402,192,73307,128,0,73352:0:0:0:0:
475,192,73307,128,0,73352:0:0:0:0:
36,192,73307,128,0,73352:0:0:0:0:
329,192,73484,1,0,0:0:0:0:
182,192,73484,1,0,0:0:0:0:
182,192,73660,128,0,73704:0:0:0:0:
256,192,73660,128,0,73704:0:0:0:0:
329,192,73660,128,0,73704:0:0:0:0:
475,192,73660,128,0,73704:0:0:0:0:
36,192,73660,128,0,73704:0:0:0:0:
329,192,73837,1,0,0:0:0:0:
182,192,73837,1,0,0:0:0:0:
402,192,74013,128,0,74057:0:0:0:0:
182,192,74013,128,0,74057:0:0:0:0:
109,192,74013,128,0,74057:0:0:0:0:
256,192,74013,128,0,74057:0:0:0:0:
329,192,74013,128,0,74057:0:0:0:0:
475,192,74190,128,0,74278:0:0:0:0:
329,192,74190,128,0,74278:0:0:0:0:
36,192,74190,1,0,0:0:0:0:
475,192,74543,128,0,74631:0:0:0:0:
329,192,74543,128,0,74631:0:0:0:0:
109,192,74543,1,0,0:0:0:0:
329,192,74896,128,0,74984:0:0:0:0:
475,192,74896,128,0,74984:0:0:0:0:
182,192,74896,1,0,0:0:0:0:
475,192,75249,128,0,75337:0:0:0:0:
329,192,75249,128,0,75337:0:0:0:0:
256,192,75249,1,0,0:0:0:0:
182,192,75602,1,0,0:0:0:0:
329,192,75602,1,0,0:0:0:0:
475,192,75778,128,0,76307:0:0:0:0:
36,192,75778,128,0,76307:0:0:0:0:
329,192,75954,1,0,0:0:0:0:
182,192,75954,1,0,0:0:0:0:
402,192,76131,1,0,0:0:0:0:
329,192,76175,1,0,0:0:0:0:
256,192,76219,1,0,0:0:0:0:
182,192,76263,1,0,0:0:0:0:
109,192,76307,1,0,0:0:0:0:
402,192,76484,1,0,0:0:0:0:
109,192,76660,1,0,0:0:0:0:
402,192,76837,1,0,0:0:0:0:
109,192,77013,1,0,0:0:0:0:
475,192,77013,1,0,0:0:0:0:
402,192,77102,1,0,0:0:0:0:
329,192,77190,1,0,0:0:0:0:
256,192,77278,1,0,0:0:0:0:
402,192,77366,1,0,0:0:0:0:
329,192,77454,1,0,0:0:0:0:
256,192,77543,1,0,0:0:0:0:
182,192,77631,1,0,0:0:0:0:
329,192,77719,1,0,0:0:0:0:
256,192,77807,1,0,0:0:0:0:
182,192,77896,1,0,0:0:0:0:
256,192,77984,1,0,0:0:0:0:
329,192,78072,1,0,0:0:0:0:
36,192,78072,1,0,0:0:0:0:
109,192,78160,1,0,0:0:0:0:
182,192,78249,1,0,0:0:0:0:
256,192,78337,1,0,0:0:0:0:
329,192,78425,1,0,0:0:0:0:
109,192,78513,1,0,0:0:0:0:
182,192,78602,1,0,0:0:0:0:
256,192,78690,1,0,0:0:0:0:
329,192,78778,1,0,0:0:0:0:
329,192,78896,1,0,0:0:0:0:
329,192,79013,1,0,0:0:0:0:
402,192,79131,1,0,0:0:0:0:
475,192,79249,1,0,0:0:0:0:
402,192,79366,1,0,0:0:0:0:
256,192,79484,1,0,0:0:0:0:
36,192,79550,1,0,0:0:0:0:
109,192,79594,1,0,0:0:0:0:
182,192,79638,1,0,0:0:0:0:
36,192,79682,1,0,0:0:0:0:
109,192,79727,1,0,0:0:0:0:
182,192,79771,1,0,0:0:0:0:
36,192,79837,1,0,0:0:0:0:
109,192,79925,1,0,0:0:0:0:
182,192,80013,1,0,0:0:0:0:
329,192,80102,1,0,0:0:0:0:
256,192,80190,1,0,0:0:0:0:
182,192,80278,1,0,0:0:0:0:
109,192,80366,1,0,0:0:0:0:
182,192,80454,1,0,0:0:0:0:
329,192,80543,1,0,0:0:0:0:
402,192,80631,1,0,0:0:0:0:
475,192,80719,1,0,0:0:0:0:
402,192,80807,1,0,0:0:0:0:
475,192,80896,1,0,0:0:0:0:
329,192,80984,1,0,0:0:0:0:
256,192,81072,1,0,0:0:0:0:
182,192,81160,1,0,0:0:0:0:
36,192,81249,1,0,0:0:0:0:
329,192,81337,1,0,0:0:0:0:
182,192,81425,1,0,0:0:0:0:
109,192,81513,1,0,0:0:0:0:
329,192,81602,1,0,0:0:0:0:
256,192,81690,1,0,0:0:0:0:
402,192,81778,1,0,0:0:0:0:
475,192,81866,1,0,0:0:0:0:
329,192,81954,1,0,0:0:0:0:
256,192,82043,1,0,0:0:0:0:
182,192,82131,1,0,0:0:0:0:
109,192,82219,1,0,0:0:0:0:
36,192,82307,1,0,0:0:0:0:
256,192,82337,128,0,82660:0:0:0:0:
402,192,82660,1,0,0:0:0:0:
475,192,82749,1,0,0:0:0:0:
329,192,82837,1,0,0:0:0:0:
402,192,82925,1,0,0:0:0:0:
329,192,83013,1,0,0:0:0:0:
256,192,83102,1,0,0:0:0:0:
182,192,83190,1,0,0:0:0:0:
109,192,83278,1,0,0:0:0:0:
182,192,83366,1,0,0:0:0:0:
182,192,83484,1,0,0:0:0:0:
182,192,83602,1,0,0:0:0:0:
182,192,83719,1,0,0:0:0:0:
402,192,83719,1,0,0:0:0:0:
475,192,83807,1,0,0:0:0:0:
256,192,83807,1,0,0:0:0:0:
402,192,83896,1,0,0:0:0:0:
182,192,83896,1,0,0:0:0:0:
475,192,83984,1,0,0:0:0:0:
256,192,83984,1,0,0:0:0:0:
475,192,84072,1,0,0:0:0:0:
402,192,84160,1,0,0:0:0:0:
329,192,84249,1,0,0:0:0:0:
256,192,84337,1,0,0:0:0:0:
36,192,84425,1,0,0:0:0:0:
109,192,84513,1,0,0:0:0:0:
182,192,84602,1,0,0:0:0:0:
256,192,84690,1,0,0:0:0:0:
329,192,84778,1,0,0:0:0:0:
402,192,84866,1,0,0:0:0:0:
182,192,84866,1,0,0:0:0:0:
475,192,84954,1,0,0:0:0:0:
109,192,84954,1,0,0:0:0:0:
402,192,84999,1,0,0:0:0:0:
329,192,85043,1,0,0:0:0:0:
36,192,85043,1,0,0:0:0:0:
475,192,85087,1,0,0:0:0:0:
402,192,85131,1,0,0:0:0:0:
182,192,85131,1,0,0:0:0:0:
109,192,85219,1,0,0:0:0:0:
402,192,85307,1,0,0:0:0:0:
182,192,85307,1,0,0:0:0:0:
475,192,85352,1,0,0:0:0:0:
329,192,85396,1,0,0:0:0:0:
256,192,85396,1,0,0:0:0:0:
402,192,85440,1,0,0:0:0:0:
475,192,85484,1,0,0:0:0:0:
36,192,85484,1,0,0:0:0:0:
109,192,85572,1,0,0:0:0:0:
182,192,85660,1,0,0:0:0:0:
256,192,85749,1,0,0:0:0:0:
329,192,85837,1,0,0:0:0:0:
402,192,85925,1,0,0:0:0:0:
329,192,86013,1,0,0:0:0:0:
475,192,86102,1,0,0:0:0:0:
329,192,86190,1,0,0:0:0:0:
475,192,86278,1,0,0:0:0:0:
475,192,86366,1,0,0:0:0:0:
402,192,86454,1,0,0:0:0:0:
182,192,86543,128,0,86587:0:0:0:0:
36,192,86543,128,0,86587:0:0:0:0:
329,192,86543,128,0,86587:0:0:0:0:
475,192,86543,128,0,86587:0:0:0:0:
402,192,86719,128,0,86763:0:0:0:0:
256,192,86719,128,0,86763:0:0:0:0:
109,192,86719,128,0,86763:0:0:0:0:
182,192,86896,128,0,86951:0:0:0:0:
36,192,86896,128,0,86951:0:0:0:0:
329,192,86896,128,0,86951:0:0:0:0:
475,192,86896,128,0,86951:0:0:0:0:
402,192,87602,128,0,88307:0:0:0:0:
109,192,87602,128,0,88307:0:0:0:0:
256,192,87631,128,0,87954:0:0:0:0:
475,192,88307,128,0,88395:0:0:0:0:
329,192,88307,128,0,88395:0:0:0:0:
182,192,88307,128,0,88395:0:0:0:0:
36,192,88307,128,0,88395:0:0:0:0:
256,192,88571,1,0,0:0:0:0:
329,192,88659,128,0,88924:0:0:0:0:
182,192,88659,128,0,88924:0:0:0:0:
475,192,89012,128,0,89057:0:0:0:0:
402,192,89012,128,0,89057:0:0:0:0:
329,192,89012,128,0,89057:0:0:0:0:
182,192,89012,128,0,89057:0:0:0:0:
109,192,89012,128,0,89057:0:0:0:0:
36,192,89012,128,0,89057:0:0:0:0:
182,192,89277,128,0,89321:0:0:0:0:
109,192,89277,128,0,89321:0:0:0:0:
36,192,89277,128,0,89321:0:0:0:0:
329,192,89277,128,0,89321:0:0:0:0:
402,192,89277,128,0,89321:0:0:0:0:
475,192,89277,128,0,89321:0:0:0:0:
475,192,89542,128,0,89586:0:0:0:0:
402,192,89542,128,0,89586:0:0:0:0:
329,192,89542,128,0,89586:0:0:0:0:
182,192,89542,128,0,89586:0:0:0:0:
109,192,89542,128,0,89586:0:0:0:0:
36,192,89542,128,0,89586:0:0:0:0:
475,192,89718,1,0,0:0:0:0:
402,192,89718,128,0,89807:0:0:0:0:
109,192,89718,1,0,0:0:0:0:
36,192,89718,1,0,0:0:0:0:
182,192,89807,128,0,89895:0:0:0:0:
256,192,89807,1,0,0:0:0:0:
475,192,89895,128,0,89983:0:0:0:0:
329,192,89895,1,0,0:0:0:0:
256,192,89983,128,0,90071:0:0:0:0:
402,192,90071,1,0,0:0:0:0:
36,192,90071,128,0,90159:0:0:0:0:
182,192,90071,1,0,0:0:0:0:
329,192,90159,128,0,90248:0:0:0:0:
109,192,90248,128,0,90336:0:0:0:0:
182,192,90248,128,0,90336:0:0:0:0:
402,192,90336,128,0,90424:0:0:0:0:
256,192,90336,128,0,90424:0:0:0:0:
475,192,90424,128,0,90512:0:0:0:0:
182,192,90424,128,0,90512:0:0:0:0:
329,192,90512,128,0,90601:0:0:0:0:
36,192,90512,128,0,90601:0:0:0:0:
109,192,90601,128,0,90689:0:0:0:0:
256,192,90601,128,0,90777:0:0:0:0:
402,192,90601,128,0,90689:0:0:0:0:
475,192,90689,1,0,0:0:0:0:
36,192,90689,1,0,0:0:0:0:
329,192,90777,128,0,90821:0:0:0:0:
182,192,90777,128,0,90821:0:0:0:0:
36,192,90777,128,0,90821:0:0:0:0:
475,192,90777,128,0,90821:0:0:0:0:
256,192,90954,128,0,91836:0:0:0:0:
109,192,90954,1,0,0:0:0:0:
402,192,90954,1,0,0:0:0:0:
182,192,91130,1,0,0:0:0:0:
329,192,91130,1,0,0:0:0:0:
475,192,91307,1,0,0:0:0:0:
402,192,91395,1,0,0:0:0:0:
329,192,91483,1,0,0:0:0:0:
36,192,91659,1,0,0:0:0:0:
109,192,91748,1,0,0:0:0:0:
329,192,91836,128,0,91880:0:0:0:0:
402,192,91836,128,0,91880:0:0:0:0:
475,192,91836,128,0,91880:0:0:0:0:
182,192,91836,128,0,91880:0:0:0:0:
402,192,92012,128,0,92057:0:0:0:0:
182,192,92012,128,0,92057:0:0:0:0:
109,192,92012,128,0,92057:0:0:0:0:
36,192,92012,128,0,92057:0:0:0:0:
329,192,92189,1,0,0:0:0:0:
182,192,92189,1,0,0:0:0:0:
256,192,92365,128,0,93248:0:0:0:0:
109,192,92365,1,0,0:0:0:0:
402,192,92365,1,0,0:0:0:0:
329,192,92542,1,0,0:0:0:0:
182,192,92542,1,0,0:0:0:0:
475,192,92718,1,0,0:0:0:0:
36,192,92718,1,0,0:0:0:0:
329,192,92895,1,0,0:0:0:0:
182,192,92895,1,0,0:0:0:0:
402,192,93071,1,0,0:0:0:0:
109,192,93071,1,0,0:0:0:0:
182,192,93248,128,0,93292:0:0:0:0:
109,192,93248,128,0,93292:0:0:0:0:
402,192,93248,128,0,93292:0:0:0:0:
329,192,93248,128,0,93292:0:0:0:0:
402,192,93424,128,0,93468:0:0:0:0:
475,192,93424,128,0,93468:0:0:0:0:
109,192,93424,128,0,93468:0:0:0:0:
36,192,93424,128,0,93468:0:0:0:0:
329,192,93602,1,0,0:0:0:0:
182,192,93602,1,0,0:0:0:0:
329,192,93778,1,0,0:0:0:0:
182,192,93778,1,0,0:0:0:0:
182,192,93954,1,0,0:0:0:0:
329,192,93954,1,0,0:0:0:0:
475,192,93954,1,0,0:0:0:0:
475,192,94043,1,0,0:0:0:0:
256,192,94130,1,0,0:0:0:0:
475,192,94131,1,0,0:0:0:0:
109,192,94131,1,0,0:0:0:0:
475,192,94219,1,0,0:0:0:0:
475,192,94307,1,0,0:0:0:0:
182,192,94307,1,0,0:0:0:0:
36,192,94307,1,0,0:0:0:0:
329,192,94307,1,0,0:0:0:0:
402,192,94484,1,0,0:0:0:0:
109,192,94484,1,0,0:0:0:0:
256,192,94660,1,0,0:0:0:0:
475,192,94660,1,0,0:0:0:0:
36,192,94660,1,0,0:0:0:0:
402,192,94836,128,0,94880:0:0:0:0:
329,192,94836,128,0,94880:0:0:0:0:
182,192,94836,128,0,94880:0:0:0:0:
109,192,94836,128,0,94880:0:0:0:0:
256,192,95013,1,0,0:0:0:0:
329,192,95189,128,0,95233:0:0:0:0:
475,192,95189,128,0,95233:0:0:0:0:
182,192,95189,128,0,95233:0:0:0:0:
36,192,95189,128,0,95233:0:0:0:0:
475,192,95365,128,0,95542:0:0:0:0:
402,192,95365,128,0,95454:0:0:0:0:
256,192,95365,128,0,95454:0:0:0:0:
109,192,95365,128,0,95454:0:0:0:0:
36,192,95365,128,0,95542:0:0:0:0:
329,192,95454,1,0,0:0:0:0:
182,192,95542,1,0,0:0:0:0:
329,192,95630,1,0,0:0:0:0:
182,192,95718,1,0,0:0:0:0:
402,192,95718,128,0,95807:0:0:0:0:
256,192,95807,128,0,95895:0:0:0:0:
109,192,95807,1,0,0:0:0:0:
329,192,95895,1,0,0:0:0:0:
475,192,95895,128,0,95983:0:0:0:0:
182,192,95983,1,0,0:0:0:0:
402,192,95983,128,0,96071:0:0:0:0:
36,192,96071,1,0,0:0:0:0:
475,192,96071,128,0,97130:0:0:0:0:
109,192,96115,1,0,0:0:0:0:
182,192,96159,1,0,0:0:0:0:
329,192,96159,1,0,0:0:0:0:
36,192,96204,1,0,0:0:0:0:
109,192,96248,128,0,96424:0:0:0:0:
402,192,96248,1,0,0:0:0:0:
256,192,96336,1,0,0:0:0:0:
329,192,96424,1,0,0:0:0:0:
36,192,96424,1,0,0:0:0:0:
182,192,96512,1,0,0:0:0:0:
402,192,96601,1,0,0:0:0:0:
109,192,96601,1,0,0:0:0:0:
329,192,96689,1,0,0:0:0:0:
36,192,96777,128,0,97659:0:0:0:0:
256,192,96777,1,0,0:0:0:0:
256,192,97131,1,0,0:0:0:0:
256,192,97307,1,0,0:0:0:0:
402,192,97307,1,0,0:0:0:0:
475,192,97396,1,0,0:0:0:0:
256,192,97484,1,0,0:0:0:0:
402,192,97484,1,0,0:0:0:0:
475,192,97572,1,0,0:0:0:0:
109,192,97660,128,0,98013:0:0:0:0:
256,192,97837,1,0,0:0:0:0:
402,192,98013,128,0,98454:0:0:0:0:
256,192,98190,1,0,0:0:0:0:
475,192,98542,128,0,98630:0:0:0:0:
36,192,98542,128,0,98630:0:0:0:0:
256,192,98543,1,0,0:0:0:0:
329,192,98543,128,0,98631:0:0:0:0:
182,192,98543,128,0,98631:0:0:0:0:
402,192,98895,128,0,98939:0:0:0:0:
109,192,98895,128,0,98939:0:0:0:0:
256,192,98895,128,0,98939:0:0:0:0:
256,192,99071,128,0,99115:0:0:0:0:
329,192,99071,128,0,99115:0:0:0:0:
182,192,99071,128,0,99115:0:0:0:0:
402,192,99248,128,0,99292:0:0:0:0:
475,192,99248,128,0,99292:0:0:0:0:
109,192,99248,128,0,99292:0:0:0:0:
36,192,99248,128,0,99292:0:0:0:0:
256,192,99248,128,0,99292:0:0:0:0:
329,192,99425,1,0,0:0:0:0:
182,192,99425,1,0,0:0:0:0:
402,192,99602,1,0,0:0:0:0:
109,192,99602,1,0,0:0:0:0:
475,192,99602,1,0,0:0:0:0:
182,192,99689,1,0,0:0:0:0:
256,192,99690,1,0,0:0:0:0:
109,192,99778,1,0,0:0:0:0:
402,192,99778,1,0,0:0:0:0:
36,192,99778,1,0,0:0:0:0:
329,192,99866,1,0,0:0:0:0:
36,192,99954,1,0,0:0:0:0:
475,192,99954,1,0,0:0:0:0:
182,192,99954,1,0,0:0:0:0:
402,192,100042,1,0,0:0:0:0:
329,192,100042,1,0,0:0:0:0:
256,192,100130,1,0,0:0:0:0:
475,192,100131,1,0,0:0:0:0:
36,192,100131,1,0,0:0:0:0:
182,192,100219,1,0,0:0:0:0:
475,192,100307,1,0,0:0:0:0:
36,192,100307,1,0,0:0:0:0:
402,192,100352,1,0,0:0:0:0:
329,192,100396,1,0,0:0:0:0:
256,192,100440,1,0,0:0:0:0:
402,192,100484,1,0,0:0:0:0:
329,192,100528,1,0,0:0:0:0:
256,192,100572,1,0,0:0:0:0:
182,192,100616,1,0,0:0:0:0:
36,192,100659,128,0,100748:0:0:0:0:
109,192,100659,128,0,100748:0:0:0:0:
402,192,100659,128,0,100748:0:0:0:0:
475,192,100659,128,0,100748:0:0:0:0:
329,192,100837,1,0,0:0:0:0:
402,192,100837,1,0,0:0:0:0:
182,192,100925,1,0,0:0:0:0:
109,192,100925,1,0,0:0:0:0:
329,192,101013,1,0,0:0:0:0:
475,192,101013,1,0,0:0:0:0:
402,192,101013,1,0,0:0:0:0:
475,192,101102,1,0,0:0:0:0:
256,192,101102,1,0,0:0:0:0:
402,192,101190,1,0,0:0:0:0:
182,192,101190,1,0,0:0:0:0:
109,192,101278,1,0,0:0:0:0:
402,192,101366,1,0,0:0:0:0:
475,192,101366,1,0,0:0:0:0:
182,192,101366,1,0,0:0:0:0:
36,192,101366,1,0,0:0:0:0:
475,192,101454,1,0,0:0:0:0:
329,192,101454,1,0,0:0:0:0:
402,192,101543,1,0,0:0:0:0:
256,192,101543,1,0,0:0:0:0:
182,192,101631,1,0,0:0:0:0:
475,192,101719,1,0,0:0:0:0:
109,192,101719,1,0,0:0:0:0:
329,192,101719,1,0,0:0:0:0:
475,192,101837,1,0,0:0:0:0:
329,192,101837,1,0,0:0:0:0:
109,192,101896,1,0,0:0:0:0:
475,192,101954,1,0,0:0:0:0:
329,192,101954,1,0,0:0:0:0:
329,192,102071,128,0,102159:0:0:0:0:
475,192,102071,128,0,102159:0:0:0:0:
36,192,102071,1,0,0:0:0:0:
109,192,102115,1,0,0:0:0:0:
182,192,102159,1,0,0:0:0:0:
256,192,102204,1,0,0:0:0:0:
109,192,102249,1,0,0:0:0:0:
182,192,102292,1,0,0:0:0:0:
256,192,102336,1,0,0:0:0:0:
329,192,102380,1,0,0:0:0:0:
402,192,102424,1,0,0:0:0:0:
36,192,102424,1,0,0:0:0:0:
182,192,102512,1,0,0:0:0:0:
329,192,102512,1,0,0:0:0:0:
256,192,102601,1,0,0:0:0:0:
475,192,102601,1,0,0:0:0:0:
36,192,102601,1,0,0:0:0:0:
36,192,102777,128,0,102821:0:0:0:0:
109,192,102777,128,0,102821:0:0:0:0:
182,192,102777,128,0,102821:0:0:0:0:
329,192,102865,128,0,102909:0:0:0:0:
402,192,102865,128,0,102909:0:0:0:0:
475,192,102865,128,0,102909:0:0:0:0:
182,192,102954,128,0,102998:0:0:0:0:
256,192,102954,128,0,102998:0:0:0:0:
109,192,102954,128,0,102998:0:0:0:0:
402,192,103042,128,0,103086:0:0:0:0:
475,192,103042,128,0,103086:0:0:0:0:
329,192,103042,128,0,103086:0:0:0:0:
182,192,103130,128,0,103174:0:0:0:0:
109,192,103130,128,0,103174:0:0:0:0:
36,192,103130,128,0,103174:0:0:0:0:
256,192,103306,128,0,103748:0:0:0:0:
329,192,103484,1,0,0:0:0:0:
475,192,103484,1,0,0:0:0:0:
182,192,103484,1,0,0:0:0:0:
36,192,103484,1,0,0:0:0:0:
402,192,103837,128,0,103925:0:0:0:0:
256,192,103837,128,0,103925:0:0:0:0:
109,192,103837,128,0,103925:0:0:0:0:
329,192,104013,128,0,104102:0:0:0:0:
475,192,104013,128,0,104102:0:0:0:0:
182,192,104013,128,0,104102:0:0:0:0:
36,192,104013,128,0,104102:0:0:0:0:
402,192,104190,128,0,104278:0:0:0:0:
109,192,104190,128,0,104278:0:0:0:0:
475,192,104366,128,0,104896:0:0:0:0:
36,192,104366,128,0,104896:0:0:0:0:
256,192,104366,128,0,106307:0:0:0:0:
329,192,104366,128,0,105425:0:0:0:0:
182,192,104366,128,0,105425:0:0:0:0:
