osu file format v14

[General]
AudioFilename: 05. NEON WORLD.mp3
AudioLeadIn: 0
PreviewTime: 61279
Countdown: 0
SampleSet: Soft
StackLeniency: 0.7
Mode: 3
LetterboxInBreaks: 0
SpecialStyle: 0
WidescreenStoryboard: 0

[Editor]
DistanceSpacing: 1.2
BeatDivisor: 4
GridSize: 4
TimelineZoom: 1.4

[Metadata]
Title:NEON WORLD
TitleUnicode:NEON WORLD
Artist:SOUND HOLIC feat. Nana Takahashi
ArtistUnicode:SOUND HOLIC feat. Nana Takahashi
Creator:[Emiria]
Version:8K Lv.12
Source:SOUND VOLTEX III GRAVITY WARS
Tags:Spring roll Kencho SanadaYukimura victorica_db BEMANI×東方Project Ultimate MasterPieces Team Shanghai Alice REFLEC BEAT groovin'!! Upper jubeat prop BeatStream ZZHBOY
BeatmapID:807590
BeatmapSetID:368333

[Difficulty]
HPDrainRate:8
CircleSize:8
OverallDifficulty:8
ApproachRate:5
SliderMultiplier:1.4
SliderTickRate:1

[Events]
//Background and Video events
0,0,"15296081_1359810155.jpg",0,0
//Break Periods
//Storyboard Layer 0 (Background)
//Storyboard Layer 1 (Fail)
//Storyboard Layer 2 (Pass)
//Storyboard Layer 3 (Foreground)
//Storyboard Sound Samples

[TimingPoints]
1252,389.61038961039,4,2,1,30,1,0
13719,365.853658536585,4,2,1,30,1,0
62011,-100,4,2,1,30,0,1
85426,365.853658536585,3,2,1,30,1,0
104084,365.853658536585,4,2,1,30,1,0
104815,365.853658536585,4,2,1,30,1,0
116522,-100,4,2,1,30,0,1
128229,-100,4,2,1,30,0,0

[HitObjects]
416,192,1252,5,0,0:0:0:0:
96,192,1252,1,0,0:0:0:0:
352,192,1446,1,0,0:0:0:0:
288,192,1641,1,0,0:0:0:0:
96,192,1641,1,0,0:0:0:0:
224,192,1836,1,0,0:0:0:0:
160,192,2031,1,0,0:0:0:0:
480,192,2031,1,0,0:0:0:0:
352,192,2226,1,0,0:0:0:0:
96,192,2420,1,0,0:0:0:0:
416,192,2420,1,0,0:0:0:0:
288,192,2615,1,0,0:0:0:0:
160,192,2810,1,0,0:0:0:0:
480,192,2810,1,0,0:0:0:0:
224,192,3005,1,0,0:0:0:0:
288,192,3200,1,0,0:0:0:0:
96,192,3200,1,0,0:0:0:0:
352,192,3394,1,0,0:0:0:0:
416,192,3589,1,0,0:0:0:0:
224,192,3589,1,0,0:0:0:0:
160,192,3784,1,0,0:0:0:0:
96,192,3979,1,0,0:0:0:0:
480,192,3979,1,0,0:0:0:0:
352,192,4174,1,0,0:0:0:0:
224,192,4368,1,0,0:0:0:0:
96,192,4368,1,0,0:0:0:0:
352,192,4563,1,0,0:0:0:0:
480,192,4758,1,0,0:0:0:0:
224,192,4758,1,0,0:0:0:0:
416,192,4953,1,0,0:0:0:0:
288,192,5148,1,0,0:0:0:0:
160,192,5148,1,0,0:0:0:0:
416,192,5342,1,0,0:0:0:0:
288,192,5537,1,0,0:0:0:0:
96,192,5537,1,0,0:0:0:0:
416,192,5732,1,0,0:0:0:0:
96,192,5927,1,0,0:0:0:0:
352,192,5927,1,0,0:0:0:0:
224,192,6122,1,0,0:0:0:0:
352,192,6316,1,0,0:0:0:0:
480,192,6316,1,0,0:0:0:0:
224,192,6511,1,0,0:0:0:0:
96,192,6706,1,0,0:0:0:0:
480,192,6706,1,0,0:0:0:0:
416,192,6901,1,0,0:0:0:0:
96,192,7096,1,0,0:0:0:0:
352,192,7096,1,0,0:0:0:0:
288,192,7290,1,0,0:0:0:0:
224,192,7485,1,0,0:0:0:0:
96,192,7485,1,0,0:0:0:0:
480,192,7485,1,0,0:0:0:0:
288,192,7680,1,0,0:0:0:0:
352,192,7875,1,0,0:0:0:0:
160,192,7875,1,0,0:0:0:0:
416,192,8070,1,0,0:0:0:0:
480,192,8264,1,0,0:0:0:0:
96,192,8264,1,0,0:0:0:0:
352,192,8459,1,0,0:0:0:0:
224,192,8557,1,0,0:0:0:0:
96,192,8654,1,0,0:0:0:0:
480,192,8654,1,0,0:0:0:0:
288,192,8849,1,0,0:0:0:0:
160,192,9044,1,0,0:0:0:0:
480,192,9044,1,0,0:0:0:0:
352,192,9044,1,0,0:0:0:0:
288,192,9239,1,0,0:0:0:0:
160,192,9433,1,0,0:0:0:0:
480,192,9433,1,0,0:0:0:0:
288,192,9628,1,0,0:0:0:0:
416,192,9823,1,0,0:0:0:0:
96,192,9823,1,0,0:0:0:0:
224,192,10018,1,0,0:0:0:0:
352,192,10018,1,0,0:0:0:0:
160,192,10213,1,0,0:0:0:0:
480,192,10213,1,0,0:0:0:0:
96,192,10602,1,0,0:0:0:0:
288,192,10602,1,0,0:0:0:0:
480,192,10602,1,0,0:0:0:0:
224,192,10992,1,0,0:0:0:0:
416,192,10992,1,0,0:0:0:0:
352,192,11381,1,0,0:0:0:0:
160,192,11381,1,0,0:0:0:0:
96,192,11771,1,0,0:0:0:0:
288,192,11771,1,0,0:0:0:0:
160,192,12161,1,0,0:0:0:0:
352,192,12161,1,0,0:0:0:0:
224,192,12550,1,0,0:0:0:0:
416,192,12550,1,0,0:0:0:0:
480,192,12940,1,0,0:0:0:0:
160,192,12940,1,0,0:0:0:0:
288,192,13329,1,0,0:0:0:0:
160,192,13719,1,0,0:0:0:0:
32,192,13719,1,0,0:0:0:0:
352,192,13719,1,0,0:0:0:0:
480,192,13719,1,0,0:0:0:0:
288,192,13810,1,0,0:0:0:0:
160,192,13901,1,0,0:0:0:0:
288,192,13993,1,0,0:0:0:0:
160,192,14084,1,0,0:0:0:0:
288,192,14176,1,0,0:0:0:0:
416,192,14267,1,0,0:0:0:0:
288,192,14359,1,0,0:0:0:0:
160,192,14450,1,0,0:0:0:0:
288,192,14542,1,0,0:0:0:0:
416,192,14633,1,0,0:0:0:0:
96,192,14633,1,0,0:0:0:0:
480,192,14908,1,0,0:0:0:0:
416,192,14999,1,0,0:0:0:0:
352,192,15090,1,0,0:0:0:0:
96,192,15182,1,0,0:0:0:0:
288,192,15182,1,0,0:0:0:0:
96,192,15456,1,0,0:0:0:0:
160,192,15548,1,0,0:0:0:0:
224,192,15639,1,0,0:0:0:0:
288,192,15731,1,0,0:0:0:0:
480,192,15731,1,0,0:0:0:0:
96,192,15914,1,0,0:0:0:0:
288,192,16005,1,0,0:0:0:0:
480,192,16005,1,0,0:0:0:0:
224,192,16371,1,0,0:0:0:0:
352,192,16462,1,0,0:0:0:0:
480,192,16462,1,0,0:0:0:0:
96,192,16645,1,0,0:0:0:0:
224,192,16737,1,0,0:0:0:0:
96,192,16828,1,0,0:0:0:0:
224,192,16920,1,0,0:0:0:0:
96,192,17011,1,0,0:0:0:0:
352,192,17011,1,0,0:0:0:0:
480,192,17194,1,0,0:0:0:0:
352,192,17286,1,0,0:0:0:0:
416,192,17377,1,0,0:0:0:0:
288,192,17468,1,0,0:0:0:0:
224,192,17560,1,0,0:0:0:0:
96,192,17560,1,0,0:0:0:0:
480,192,17743,1,0,0:0:0:0:
352,192,17834,1,0,0:0:0:0:
224,192,17926,1,0,0:0:0:0:
416,192,18017,1,0,0:0:0:0:
96,192,18109,1,0,0:0:0:0:
288,192,18109,1,0,0:0:0:0:
480,192,18292,1,0,0:0:0:0:
352,192,18383,1,0,0:0:0:0:
224,192,18475,1,0,0:0:0:0:
352,192,18566,1,0,0:0:0:0:
480,192,18658,1,0,0:0:0:0:
96,192,18658,1,0,0:0:0:0:
160,192,18840,1,0,0:0:0:0:
416,192,18840,1,0,0:0:0:0:
224,192,18932,1,0,0:0:0:0:
352,192,18932,1,0,0:0:0:0:
160,192,19023,1,0,0:0:0:0:
416,192,19023,1,0,0:0:0:0:
96,192,19115,1,0,0:0:0:0:
480,192,19115,1,0,0:0:0:0:
416,192,19206,1,0,0:0:0:0:
160,192,19206,1,0,0:0:0:0:
352,192,19298,1,0,0:0:0:0:
224,192,19298,1,0,0:0:0:0:
96,192,19389,1,0,0:0:0:0:
480,192,19389,1,0,0:0:0:0:
160,192,19481,1,0,0:0:0:0:
416,192,19481,1,0,0:0:0:0:
32,192,19572,1,4,0:0:0:0:
224,192,19572,1,0,0:0:0:0:
352,192,19572,1,0,0:0:0:0:
288,192,19664,1,0,0:0:0:0:
480,192,19755,1,0,0:0:0:0:
96,192,19755,1,0,0:0:0:0:
224,192,19847,1,0,0:0:0:0:
352,192,19938,1,0,0:0:0:0:
96,192,20121,1,0,0:0:0:0:
480,192,20121,1,0,0:0:0:0:
224,192,20212,1,0,0:0:0:0:
352,192,20304,1,0,0:0:0:0:
224,192,20395,1,0,0:0:0:0:
96,192,20487,1,0,0:0:0:0:
480,192,20487,1,0,0:0:0:0:
480,192,20670,1,0,0:0:0:0:
352,192,20761,1,0,0:0:0:0:
224,192,20853,1,0,0:0:0:0:
416,192,20853,1,0,0:0:0:0:
160,192,20944,1,0,0:0:0:0:
96,192,21036,1,8,0:0:0:0:
288,192,21036,1,8,0:0:0:0:
480,192,21036,1,0,0:0:0:0:
160,192,21218,1,0,0:0:0:0:
480,192,21218,1,0,0:0:0:0:
352,192,21310,1,0,0:0:0:0:
288,192,21401,1,0,0:0:0:0:
160,192,21493,1,0,0:0:0:0:
288,192,21584,1,0,0:0:0:0:
160,192,21676,1,0,0:0:0:0:
32,192,21767,1,4,0:0:0:0:
96,192,21767,1,8,0:0:0:0:
224,192,21767,1,0,0:0:0:0:
352,192,21767,1,0,0:0:0:0:
480,192,21767,1,0,0:0:0:0:
32,192,22042,1,4,0:0:0:0:
480,192,22042,1,8,0:0:0:0:
352,192,22042,1,0,0:0:0:0:
96,192,22042,1,0,0:0:0:0:
224,192,22042,1,0,0:0:0:0:
32,192,22316,1,4,0:0:0:0:
96,192,22316,1,8,0:0:0:0:
224,192,22316,1,0,0:0:0:0:
352,192,22316,1,0,0:0:0:0:
480,192,22316,1,0,0:0:0:0:
96,192,22499,1,4,0:0:0:0:
480,192,22499,1,8,0:0:0:0:
352,192,22590,1,0,0:0:0:0:
224,192,22682,1,0,0:0:0:0:
96,192,22682,1,0,0:0:0:0:
352,192,22773,1,0,0:0:0:0:
224,192,22865,1,0,0:0:0:0:
352,192,23048,1,0,0:0:0:0:
480,192,23048,1,0,0:0:0:0:
96,192,23139,1,0,0:0:0:0:
352,192,23231,1,0,0:0:0:0:
96,192,23322,1,0,0:0:0:0:
352,192,23414,1,0,0:0:0:0:
224,192,23414,1,0,0:0:0:0:
96,192,23597,1,0,0:0:0:0:
160,192,23688,1,0,0:0:0:0:
224,192,23779,1,0,0:0:0:0:
288,192,23871,1,0,0:0:0:0:
352,192,23962,1,12,0:0:0:0:
480,192,23962,1,0,0:0:0:0:
96,192,23962,1,0,0:0:0:0:
32,192,23962,128,0,24694:0:0:0:0:
96,192,24694,1,8,0:0:0:0:
480,192,24694,1,0,0:0:0:0:
160,192,24786,1,8,0:0:0:0:
416,192,24786,1,0,0:0:0:0:
224,192,24877,1,8,0:0:0:0:
352,192,24877,1,0,0:0:0:0:
160,192,24968,1,8,0:0:0:0:
416,192,24968,1,0,0:0:0:0:
96,192,25060,1,8,0:0:0:0:
480,192,25060,1,0,0:0:0:0:
224,192,25151,1,8,0:0:0:0:
352,192,25151,1,0,0:0:0:0:
416,192,25243,1,8,0:0:0:0:
160,192,25243,1,0,0:0:0:0:
32,192,25426,1,4,0:0:0:0:
96,192,25426,1,8,0:0:0:0:
224,192,25426,1,0,0:0:0:0:
480,192,25426,1,0,0:0:0:0:
288,192,25426,1,0,0:0:0:0:
480,192,25609,1,0,0:0:0:0:
352,192,25700,1,0,0:0:0:0:
96,192,25792,1,8,0:0:0:0:
288,192,25792,1,0,0:0:0:0:
160,192,25883,1,0,0:0:0:0:
224,192,25975,1,0,0:0:0:0:
288,192,26066,1,0,0:0:0:0:
96,192,26158,1,8,0:0:0:0:
480,192,26158,1,0,0:0:0:0:
416,192,26249,1,0,0:0:0:0:
352,192,26340,1,0,0:0:0:0:
288,192,26432,1,0,0:0:0:0:
224,192,26523,1,8,0:0:0:0:
96,192,26523,1,0,0:0:0:0:
480,192,26523,1,0,0:0:0:0:
288,192,26615,1,0,0:0:0:0:
352,192,26706,1,0,0:0:0:0:
416,192,26798,1,0,0:0:0:0:
480,192,26889,1,8,0:0:0:0:
288,192,26889,1,0,0:0:0:0:
96,192,26889,1,0,0:0:0:0:
224,192,26981,1,0,0:0:0:0:
96,192,27072,1,0,0:0:0:0:
224,192,27164,1,0,0:0:0:0:
160,192,27255,1,8,0:0:0:0:
480,192,27255,1,0,0:0:0:0:
352,192,27255,1,0,0:0:0:0:
288,192,27347,1,0,0:0:0:0:
160,192,27438,1,0,0:0:0:0:
288,192,27529,1,0,0:0:0:0:
224,192,27621,1,8,0:0:0:0:
480,192,27621,1,0,0:0:0:0:
96,192,27621,1,0,0:0:0:0:
352,192,27712,1,0,0:0:0:0:
224,192,27804,1,0,0:0:0:0:
352,192,27895,1,0,0:0:0:0:
288,192,27987,1,8,0:0:0:0:
96,192,27987,1,0,0:0:0:0:
480,192,27987,1,0,0:0:0:0:
416,192,28078,1,0,0:0:0:0:
288,192,28170,1,8,0:0:0:0:
160,192,28170,1,0,0:0:0:0:
96,192,28170,1,0,0:0:0:0:
416,192,28261,1,0,0:0:0:0:
96,192,28353,1,8,0:0:0:0:
224,192,28353,1,0,0:0:0:0:
480,192,28353,1,0,0:0:0:0:
480,192,28536,1,0,0:0:0:0:
416,192,28627,1,0,0:0:0:0:
352,192,28718,1,8,0:0:0:0:
96,192,28718,1,0,0:0:0:0:
160,192,28718,1,0,0:0:0:0:
224,192,28810,1,0,0:0:0:0:
96,192,28901,1,0,0:0:0:0:
224,192,28993,1,0,0:0:0:0:
96,192,29084,1,8,0:0:0:0:
480,192,29084,1,0,0:0:0:0:
416,192,29176,1,0,0:0:0:0:
352,192,29267,1,0,0:0:0:0:
288,192,29359,1,0,0:0:0:0:
224,192,29450,1,8,0:0:0:0:
96,192,29450,1,0,0:0:0:0:
480,192,29450,1,0,0:0:0:0:
288,192,29542,1,0,0:0:0:0:
352,192,29633,1,0,0:0:0:0:
416,192,29725,1,0,0:0:0:0:
480,192,29816,1,8,0:0:0:0:
96,192,29816,1,0,0:0:0:0:
288,192,29816,1,0,0:0:0:0:
160,192,29908,1,0,0:0:0:0:
224,192,29999,1,0,0:0:0:0:
288,192,30090,1,0,0:0:0:0:
224,192,30182,1,8,0:0:0:0:
480,192,30182,1,0,0:0:0:0:
96,192,30182,1,0,0:0:0:0:
352,192,30273,1,0,0:0:0:0:
288,192,30365,1,0,0:0:0:0:
416,192,30456,1,0,0:0:0:0:
224,192,30548,1,8,0:0:0:0:
480,192,30548,1,0,0:0:0:0:
96,192,30548,1,0,0:0:0:0:
416,192,30639,1,0,0:0:0:0:
160,192,30639,1,0,0:0:0:0:
352,192,30731,1,0,0:0:0:0:
96,192,30731,1,0,0:0:0:0:
288,192,30822,1,8,0:0:0:0:
480,192,30914,1,8,0:0:0:0:
224,192,30914,1,0,0:0:0:0:
160,192,31005,1,8,0:0:0:0:
416,192,31005,1,0,0:0:0:0:
352,192,31097,1,8,0:0:0:0:
96,192,31097,1,0,0:0:0:0:
288,192,31188,1,0,0:0:0:0:
224,192,31279,1,8,0:0:0:0:
96,192,31279,1,4,0:0:0:0:
480,192,31279,1,0,0:0:0:0:
32,192,31279,1,0,0:0:0:0:
416,192,31462,1,0,0:0:0:0:
288,192,31554,1,0,0:0:0:0:
96,192,31645,1,8,0:0:0:0:
480,192,31645,1,0,0:0:0:0:
352,192,31645,1,0,0:0:0:0:
224,192,31737,1,0,0:0:0:0:
96,192,31828,1,0,0:0:0:0:
224,192,31920,1,0,0:0:0:0:
96,192,32011,1,8,0:0:0:0:
288,192,32011,1,0,0:0:0:0:
480,192,32103,1,0,0:0:0:0:
416,192,32194,1,0,0:0:0:0:
352,192,32286,1,0,0:0:0:0:
96,192,32377,1,8,0:0:0:0:
288,192,32377,1,0,0:0:0:0:
480,192,32377,1,0,0:0:0:0:
160,192,32468,1,0,0:0:0:0:
224,192,32560,1,0,0:0:0:0:
288,192,32651,1,0,0:0:0:0:
352,192,32743,1,8,0:0:0:0:
480,192,32743,1,0,0:0:0:0:
96,192,32743,1,0,0:0:0:0:
160,192,32834,1,0,0:0:0:0:
224,192,32926,1,0,0:0:0:0:
288,192,33017,1,0,0:0:0:0:
96,192,33109,1,8,0:0:0:0:
480,192,33109,1,0,0:0:0:0:
352,192,33109,1,0,0:0:0:0:
224,192,33200,1,0,0:0:0:0:
160,192,33292,1,0,0:0:0:0:
288,192,33383,1,0,0:0:0:0:
96,192,33475,1,8,0:0:0:0:
224,192,33475,1,0,0:0:0:0:
480,192,33475,1,0,0:0:0:0:
416,192,33566,1,0,0:0:0:0:
352,192,33658,1,0,0:0:0:0:
288,192,33749,1,0,0:0:0:0:
224,192,33840,1,8,0:0:0:0:
96,192,33840,1,0,0:0:0:0:
480,192,33840,1,0,0:0:0:0:
352,192,33932,1,0,0:0:0:0:
224,192,34023,1,8,0:0:0:0:
96,192,34023,1,0,0:0:0:0:
352,192,34115,1,0,0:0:0:0:
480,192,34206,1,8,0:0:0:0:
96,192,34206,1,0,0:0:0:0:
224,192,34206,1,0,0:0:0:0:
32,192,34206,1,0,0:0:0:0:
416,192,34389,1,0,0:0:0:0:
352,192,34481,1,0,0:0:0:0:
288,192,34572,1,8,0:0:0:0:
96,192,34572,1,0,0:0:0:0:
224,192,34664,1,0,0:0:0:0:
96,192,34755,1,0,0:0:0:0:
224,192,34847,1,0,0:0:0:0:
96,192,34938,1,8,0:0:0:0:
288,192,34938,1,0,0:0:0:0:
416,192,35029,1,0,0:0:0:0:
288,192,35121,1,0,0:0:0:0:
416,192,35212,1,0,0:0:0:0:
96,192,35304,1,8,0:0:0:0:
288,192,35304,1,0,0:0:0:0:
480,192,35304,1,0,0:0:0:0:
160,192,35395,1,0,0:0:0:0:
224,192,35487,1,0,0:0:0:0:
288,192,35578,1,0,0:0:0:0:
352,192,35670,1,8,0:0:0:0:
480,192,35670,1,0,0:0:0:0:
96,192,35670,1,0,0:0:0:0:
160,192,35761,1,0,0:0:0:0:
224,192,35853,1,0,0:0:0:0:
288,192,35944,1,0,0:0:0:0:
352,192,36036,1,8,0:0:0:0:
96,192,36036,1,0,0:0:0:0:
480,192,36036,1,0,0:0:0:0:
160,192,36127,1,0,0:0:0:0:
288,192,36218,1,0,0:0:0:0:
160,192,36310,1,0,0:0:0:0:
288,192,36401,1,8,0:0:0:0:
96,192,36401,1,0,0:0:0:0:
480,192,36401,1,0,0:0:0:0:
352,192,36493,1,0,0:0:0:0:
224,192,36584,1,0,0:0:0:0:
96,192,36676,1,8,0:0:0:0:
480,192,36676,1,0,0:0:0:0:
416,192,36767,1,8,0:0:0:0:
160,192,36767,1,0,0:0:0:0:
224,192,36859,1,8,0:0:0:0:
352,192,36859,1,0,0:0:0:0:
96,192,36950,1,8,0:0:0:0:
480,192,36950,1,0,0:0:0:0:
288,192,37042,1,0,0:0:0:0:
160,192,37133,1,4,0:0:0:0:
416,192,37133,1,8,0:0:0:0:
32,192,37133,1,0,0:0:0:0:
224,192,37133,1,0,0:0:0:0:
352,192,37133,1,0,0:0:0:0:
352,192,37865,128,0,38597:0:0:0:0:
32,192,38597,1,4,0:0:0:0:
96,192,38597,1,8,0:0:0:0:
480,192,38597,1,0,0:0:0:0:
224,192,38779,1,0,0:0:0:0:
416,192,38779,1,0,0:0:0:0:
352,192,38962,1,8,0:0:0:0:
96,192,38962,1,0,0:0:0:0:
224,192,39145,1,0,0:0:0:0:
480,192,39145,1,0,0:0:0:0:
96,192,39328,1,8,0:0:0:0:
352,192,39328,1,0,0:0:0:0:
288,192,39511,1,0,0:0:0:0:
416,192,39511,1,0,0:0:0:0:
96,192,39694,1,8,0:0:0:0:
224,192,39694,1,0,0:0:0:0:
288,192,39877,1,0,0:0:0:0:
416,192,39877,1,0,0:0:0:0:
352,192,40060,1,8,0:0:0:0:
480,192,40060,1,0,0:0:0:0:
96,192,40243,1,0,0:0:0:0:
288,192,40243,1,0,0:0:0:0:
352,192,40426,1,8,0:0:0:0:
480,192,40426,1,0,0:0:0:0:
96,192,40609,1,0,0:0:0:0:
288,192,40609,1,0,0:0:0:0:
352,192,40792,1,8,0:0:0:0:
480,192,40792,1,0,0:0:0:0:
160,192,40975,1,0,0:0:0:0:
416,192,40975,1,0,0:0:0:0:
288,192,41158,1,8,0:0:0:0:
480,192,41158,1,0,0:0:0:0:
352,192,41340,1,0,0:0:0:0:
160,192,41340,1,0,0:0:0:0:
96,192,41523,1,8,0:0:0:0:
224,192,41523,1,0,0:0:0:0:
352,192,41706,1,0,0:0:0:0:
480,192,41706,1,0,0:0:0:0:
96,192,41889,1,8,0:0:0:0:
224,192,41889,1,0,0:0:0:0:
352,192,42072,1,0,0:0:0:0:
480,192,42072,1,0,0:0:0:0:
96,192,42255,1,8,0:0:0:0:
224,192,42255,1,0,0:0:0:0:
288,192,42438,1,0,0:0:0:0:
416,192,42438,1,0,0:0:0:0:
96,192,42621,1,8,0:0:0:0:
224,192,42621,1,0,0:0:0:0:
288,192,42804,1,0,0:0:0:0:
416,192,42804,1,0,0:0:0:0:
224,192,42987,1,8,0:0:0:0:
480,192,42987,1,0,0:0:0:0:
352,192,43170,1,0,0:0:0:0:
160,192,43170,1,0,0:0:0:0:
288,192,43353,1,8,0:0:0:0:
480,192,43353,1,0,0:0:0:0:
160,192,43536,1,0,0:0:0:0:
352,192,43536,1,0,0:0:0:0:
288,192,43718,1,8,0:0:0:0:
480,192,43718,1,0,0:0:0:0:
416,192,43901,1,0,0:0:0:0:
160,192,43901,1,0,0:0:0:0:
224,192,44084,1,8,0:0:0:0:
96,192,44084,1,0,0:0:0:0:
224,192,44267,1,8,0:0:0:0:
96,192,44267,1,0,0:0:0:0:
416,192,44267,1,0,0:0:0:0:
96,192,44450,1,8,0:0:0:0:
224,192,44450,1,0,0:0:0:0:
288,192,44633,1,0,0:0:0:0:
480,192,44633,1,0,0:0:0:0:
96,192,44816,1,8,0:0:0:0:
224,192,44816,1,0,0:0:0:0:
352,192,44999,1,0,0:0:0:0:
480,192,44999,1,0,0:0:0:0:
96,192,45182,1,8,0:0:0:0:
224,192,45182,1,0,0:0:0:0:
288,192,45365,1,0,0:0:0:0:
416,192,45365,1,0,0:0:0:0:
96,192,45548,1,8,0:0:0:0:
224,192,45548,1,0,0:0:0:0:
288,192,45731,1,0,0:0:0:0:
480,192,45731,1,0,0:0:0:0:
224,192,45914,1,8,0:0:0:0:
96,192,45914,1,0,0:0:0:0:
288,192,46097,1,0,0:0:0:0:
416,192,46097,1,0,0:0:0:0:
96,192,46279,1,8,0:0:0:0:
224,192,46279,1,0,0:0:0:0:
288,192,46462,1,0,0:0:0:0:
416,192,46462,1,0,0:0:0:0:
96,192,46645,1,8,0:0:0:0:
224,192,46645,1,0,0:0:0:0:
416,192,46828,1,0,0:0:0:0:
288,192,46828,1,0,0:0:0:0:
96,192,47011,1,8,0:0:0:0:
224,192,47011,1,0,0:0:0:0:
288,192,47194,1,0,0:0:0:0:
416,192,47194,1,0,0:0:0:0:
352,192,47377,1,8,0:0:0:0:
480,192,47377,1,0,0:0:0:0:
160,192,47560,1,0,0:0:0:0:
288,192,47560,1,0,0:0:0:0:
352,192,47743,1,8,0:0:0:0:
480,192,47743,1,0,0:0:0:0:
224,192,47926,1,0,0:0:0:0:
96,192,47926,1,0,0:0:0:0:
352,192,48109,1,8,0:0:0:0:
480,192,48109,1,0,0:0:0:0:
96,192,48292,1,0,0:0:0:0:
288,192,48292,1,0,0:0:0:0:
352,192,48475,1,8,0:0:0:0:
480,192,48475,1,0,0:0:0:0:
416,192,48658,1,0,0:0:0:0:
288,192,48658,1,0,0:0:0:0:
96,192,48840,1,8,0:0:0:0:
480,192,48840,1,0,0:0:0:0:
224,192,48840,1,0,0:0:0:0:
416,192,48932,1,0,0:0:0:0:
352,192,49023,1,0,0:0:0:0:
160,192,49023,1,0,0:0:0:0:
288,192,49115,1,0,0:0:0:0:
96,192,49206,1,8,0:0:0:0:
224,192,49206,1,0,0:0:0:0:
480,192,49206,1,0,0:0:0:0:
416,192,49298,1,0,0:0:0:0:
160,192,49389,1,0,0:0:0:0:
352,192,49389,1,0,0:0:0:0:
288,192,49481,1,0,0:0:0:0:
224,192,49572,1,8,0:0:0:0:
96,192,49572,1,0,0:0:0:0:
480,192,49572,1,0,0:0:0:0:
288,192,49664,1,0,0:0:0:0:
160,192,49755,1,0,0:0:0:0:
352,192,49755,1,0,0:0:0:0:
288,192,49847,1,8,0:0:0:0:
480,192,49847,1,0,0:0:0:0:
96,192,49938,1,8,0:0:0:0:
352,192,49938,1,0,0:0:0:0:
224,192,49938,1,0,0:0:0:0:
160,192,50029,1,8,0:0:0:0:
416,192,50029,1,0,0:0:0:0:
224,192,50121,1,8,0:0:0:0:
480,192,50121,1,0,0:0:0:0:
288,192,50212,1,0,0:0:0:0:
32,192,50304,1,4,0:0:0:0:
96,192,50304,1,8,0:0:0:0:
352,192,50304,1,0,0:0:0:0:
224,192,50304,1,0,0:0:0:0:
480,192,50304,1,0,0:0:0:0:
288,192,50487,1,0,0:0:0:0:
96,192,50670,1,8,0:0:0:0:
224,192,50670,1,0,0:0:0:0:
352,192,50670,1,0,0:0:0:0:
160,192,50853,1,0,0:0:0:0:
96,192,51036,1,8,0:0:0:0:
288,192,51036,1,0,0:0:0:0:
416,192,51036,1,0,0:0:0:0:
224,192,51218,1,0,0:0:0:0:
480,192,51401,1,8,0:0:0:0:
288,192,51401,1,0,0:0:0:0:
96,192,51401,1,0,0:0:0:0:
352,192,51584,1,0,0:0:0:0:
224,192,51767,1,8,0:0:0:0:
96,192,51767,1,0,0:0:0:0:
416,192,51767,1,0,0:0:0:0:
160,192,51950,1,0,0:0:0:0:
224,192,52133,1,8,0:0:0:0:
352,192,52133,1,0,0:0:0:0:
480,192,52133,1,0,0:0:0:0:
160,192,52316,1,0,0:0:0:0:
352,192,52499,1,8,0:0:0:0:
224,192,52499,1,0,0:0:0:0:
96,192,52499,1,0,0:0:0:0:
288,192,52682,1,0,0:0:0:0:
96,192,52865,1,8,0:0:0:0:
480,192,52865,1,0,0:0:0:0:
352,192,52865,1,0,0:0:0:0:
160,192,53048,1,8,0:0:0:0:
288,192,53048,1,0,0:0:0:0:
416,192,53048,1,0,0:0:0:0:
352,192,53231,1,4,0:0:0:0:
480,192,53231,1,8,0:0:0:0:
224,192,53231,1,0,0:0:0:0:
96,192,53231,1,0,0:0:0:0:
32,192,53231,1,0,0:0:0:0:
288,192,53414,1,0,0:0:0:0:
224,192,53597,1,8,0:0:0:0:
96,192,53597,1,0,0:0:0:0:
352,192,53779,1,0,0:0:0:0:
96,192,53962,1,8,0:0:0:0:
224,192,53962,1,0,0:0:0:0:
352,192,54054,1,0,0:0:0:0:
480,192,54145,1,0,0:0:0:0:
160,192,54145,1,0,0:0:0:0:
224,192,54328,1,8,0:0:0:0:
96,192,54328,1,0,0:0:0:0:
352,192,54328,1,0,0:0:0:0:
480,192,54511,1,0,0:0:0:0:
96,192,54694,1,8,0:0:0:0:
224,192,54694,1,0,0:0:0:0:
416,192,54694,1,0,0:0:0:0:
160,192,54877,1,0,0:0:0:0:
288,192,54877,1,0,0:0:0:0:
224,192,55060,1,8,0:0:0:0:
352,192,55060,1,0,0:0:0:0:
96,192,55060,1,0,0:0:0:0:
288,192,55243,1,0,0:0:0:0:
416,192,55243,1,0,0:0:0:0:
160,192,55243,1,0,0:0:0:0:
224,192,55426,1,8,0:0:0:0:
352,192,55426,1,0,0:0:0:0:
480,192,55426,1,0,0:0:0:0:
416,192,55609,1,0,0:0:0:0:
288,192,55700,1,8,0:0:0:0:
480,192,55792,1,8,0:0:0:0:
96,192,55792,1,0,0:0:0:0:
160,192,55792,1,0,0:0:0:0:
352,192,55883,1,8,0:0:0:0:
96,192,55975,1,8,0:0:0:0:
224,192,55975,1,0,0:0:0:0:
160,192,56158,1,4,0:0:0:0:
288,192,56158,1,8,0:0:0:0:
32,192,56158,1,0,0:0:0:0:
480,192,56158,1,0,0:0:0:0:
352,192,56340,1,0,0:0:0:0:
96,192,56523,1,8,0:0:0:0:
288,192,56523,1,0,0:0:0:0:
480,192,56706,1,0,0:0:0:0:
224,192,56706,1,0,0:0:0:0:
416,192,56767,1,0,0:0:0:0:
352,192,56828,1,0,0:0:0:0:
288,192,56889,1,8,0:0:0:0:
160,192,56889,1,0,0:0:0:0:
96,192,57072,1,0,0:0:0:0:
480,192,57072,1,0,0:0:0:0:
160,192,57133,1,0,0:0:0:0:
224,192,57194,1,0,0:0:0:0:
288,192,57255,1,8,0:0:0:0:
416,192,57255,1,0,0:0:0:0:
352,192,57438,1,0,0:0:0:0:
96,192,57621,1,8,0:0:0:0:
224,192,57621,1,0,0:0:0:0:
416,192,57621,1,0,0:0:0:0:
288,192,57621,1,0,0:0:0:0:
352,192,57804,1,0,0:0:0:0:
288,192,57987,1,8,0:0:0:0:
96,192,57987,1,0,0:0:0:0:
224,192,58170,1,0,0:0:0:0:
96,192,58353,1,8,0:0:0:0:
480,192,58353,1,0,0:0:0:0:
416,192,58353,1,0,0:0:0:0:
224,192,58536,1,0,0:0:0:0:
352,192,58718,1,8,0:0:0:0:
96,192,58718,1,0,0:0:0:0:
224,192,58901,1,0,0:0:0:0:
416,192,58901,1,0,0:0:0:0:
32,192,59084,1,4,0:0:0:0:
96,192,59084,1,8,0:0:0:0:
288,192,59084,1,0,0:0:0:0:
352,192,59084,1,0,0:0:0:0:
480,192,59084,1,0,0:0:0:0:
416,192,59267,1,8,0:0:0:0:
224,192,59267,1,0,0:0:0:0:
160,192,59359,1,0,0:0:0:0:
480,192,59450,1,8,0:0:0:0:
288,192,59450,1,0,0:0:0:0:
96,192,59450,1,0,0:0:0:0:
416,192,59542,1,0,0:0:0:0:
288,192,59633,1,8,0:0:0:0:
160,192,59633,1,0,0:0:0:0:
480,192,59633,1,0,0:0:0:0:
416,192,59725,1,0,0:0:0:0:
96,192,59816,1,8,0:0:0:0:
224,192,59816,1,0,0:0:0:0:
352,192,59816,1,0,0:0:0:0:
288,192,59908,1,8,0:0:0:0:
352,192,59999,1,8,0:0:0:0:
416,192,60090,1,8,0:0:0:0:
480,192,60182,1,8,0:0:0:0:
96,192,60182,1,0,0:0:0:0:
288,192,60182,1,0,0:0:0:0:
416,192,60273,1,8,0:0:0:0:
224,192,60273,1,0,0:0:0:0:
352,192,60365,1,8,0:0:0:0:
160,192,60365,1,0,0:0:0:0:
96,192,60456,1,8,0:0:0:0:
288,192,60456,1,0,0:0:0:0:
480,192,60548,1,8,0:0:0:0:
32,192,60548,1,4,0:0:0:0:
224,192,60548,1,0,0:0:0:0:
352,192,60548,1,0,0:0:0:0:
32,192,60822,1,4,0:0:0:0:
160,192,60822,1,8,0:0:0:0:
288,192,60822,1,0,0:0:0:0:
416,192,60822,1,0,0:0:0:0:
32,192,61097,1,4,0:0:0:0:
96,192,61097,1,8,0:0:0:0:
224,192,61097,1,0,0:0:0:0:
352,192,61097,1,0,0:0:0:0:
480,192,61279,1,0,0:0:0:0:
352,192,61462,1,0,0:0:0:0:
224,192,61645,1,0,0:0:0:0:
32,192,62011,1,4,0:0:0:0:
96,192,62011,1,8,0:0:0:0:
288,192,62011,1,0,0:0:0:0:
480,192,62011,1,0,0:0:0:0:
224,192,62194,1,0,0:0:0:0:
416,192,62194,1,0,0:0:0:0:
96,192,62377,1,8,0:0:0:0:
288,192,62377,1,0,0:0:0:0:
480,192,62377,1,0,0:0:0:0:
160,192,62560,1,0,0:0:0:0:
416,192,62560,1,0,0:0:0:0:
224,192,62743,1,8,0:0:0:0:
96,192,62743,1,0,0:0:0:0:
352,192,62743,1,0,0:0:0:0:
288,192,62926,1,0,0:0:0:0:
224,192,63109,1,8,0:0:0:0:
96,192,63109,1,0,0:0:0:0:
352,192,63292,1,0,0:0:0:0:
224,192,63475,1,8,0:0:0:0:
96,192,63475,1,0,0:0:0:0:
480,192,63475,1,0,0:0:0:0:
160,192,63658,1,0,0:0:0:0:
416,192,63658,1,0,0:0:0:0:
352,192,63749,1,0,0:0:0:0:
288,192,63840,1,8,0:0:0:0:
96,192,63840,1,0,0:0:0:0:
160,192,64023,1,0,0:0:0:0:
352,192,64023,1,0,0:0:0:0:
288,192,64115,1,0,0:0:0:0:
480,192,64115,1,0,0:0:0:0:
96,192,64206,1,8,0:0:0:0:
224,192,64206,1,0,0:0:0:0:
352,192,64389,1,0,0:0:0:0:
288,192,64572,1,8,0:0:0:0:
96,192,64572,1,0,0:0:0:0:
224,192,64755,1,0,0:0:0:0:
96,192,64938,1,8,0:0:0:0:
288,192,64938,1,0,0:0:0:0:
416,192,64938,1,0,0:0:0:0:
224,192,65121,1,0,0:0:0:0:
352,192,65121,1,0,0:0:0:0:
160,192,65212,1,0,0:0:0:0:
96,192,65304,1,8,0:0:0:0:
288,192,65304,1,0,0:0:0:0:
480,192,65304,1,0,0:0:0:0:
352,192,65487,1,0,0:0:0:0:
224,192,65487,1,0,0:0:0:0:
160,192,65578,1,0,0:0:0:0:
288,192,65578,1,0,0:0:0:0:
96,192,65670,1,8,0:0:0:0:
224,192,65670,1,0,0:0:0:0:
416,192,65853,1,0,0:0:0:0:
224,192,66036,1,8,0:0:0:0:
96,192,66036,1,8,0:0:0:0:
288,192,66218,1,0,0:0:0:0:
96,192,66401,1,8,0:0:0:0:
352,192,66401,1,0,0:0:0:0:
480,192,66401,1,0,0:0:0:0:
160,192,66493,1,0,0:0:0:0:
224,192,66584,1,0,0:0:0:0:
288,192,66676,1,0,0:0:0:0:
352,192,66767,1,8,0:0:0:0:
480,192,66767,1,0,0:0:0:0:
288,192,66859,1,0,0:0:0:0:
224,192,66950,1,0,0:0:0:0:
160,192,67042,1,0,0:0:0:0:
96,192,67133,1,8,0:0:0:0:
352,192,67133,1,0,0:0:0:0:
480,192,67133,1,0,0:0:0:0:
416,192,67316,1,0,0:0:0:0:
224,192,67316,1,0,0:0:0:0:
96,192,67316,1,0,0:0:0:0:
352,192,67408,1,8,0:0:0:0:
288,192,67499,1,8,0:0:0:0:
480,192,67499,1,8,0:0:0:0:
160,192,67499,1,0,0:0:0:0:
416,192,67590,1,8,0:0:0:0:
224,192,67682,1,8,0:0:0:0:
352,192,67682,1,0,0:0:0:0:
96,192,67682,1,0,0:0:0:0:
160,192,67865,1,8,0:0:0:0:
288,192,67865,1,4,0:0:0:0:
416,192,67865,1,0,0:0:0:0:
32,192,67865,1,0,0:0:0:0:
224,192,68048,1,0,0:0:0:0:
480,192,68231,1,8,0:0:0:0:
96,192,68231,1,0,0:0:0:0:
352,192,68231,1,0,0:0:0:0:
224,192,68322,1,0,0:0:0:0:
96,192,68414,1,0,0:0:0:0:
224,192,68505,1,0,0:0:0:0:
416,192,68597,1,8,0:0:0:0:
96,192,68597,1,0,0:0:0:0:
288,192,68597,1,0,0:0:0:0:
480,192,68779,1,0,0:0:0:0:
224,192,68779,1,0,0:0:0:0:
96,192,68962,1,8,0:0:0:0:
288,192,68962,1,0,0:0:0:0:
416,192,68962,1,0,0:0:0:0:
160,192,69145,1,0,0:0:0:0:
352,192,69145,1,0,0:0:0:0:
96,192,69328,1,8,0:0:0:0:
224,192,69328,1,0,0:0:0:0:
480,192,69328,1,0,0:0:0:0:
288,192,69328,1,0,0:0:0:0:
160,192,69511,1,0,0:0:0:0:
416,192,69511,1,0,0:0:0:0:
352,192,69511,1,0,0:0:0:0:
96,192,69694,1,8,0:0:0:0:
480,192,69694,1,0,0:0:0:0:
288,192,69786,1,0,0:0:0:0:
224,192,69877,1,0,0:0:0:0:
160,192,69968,1,0,0:0:0:0:
416,192,69968,1,0,0:0:0:0:
96,192,70060,1,8,0:0:0:0:
480,192,70060,1,0,0:0:0:0:
288,192,70060,1,0,0:0:0:0:
352,192,70151,1,0,0:0:0:0:
224,192,70243,1,0,0:0:0:0:
416,192,70243,1,0,0:0:0:0:
160,192,70426,1,8,0:0:0:0:
480,192,70426,1,0,0:0:0:0:
288,192,70426,1,0,0:0:0:0:
96,192,70609,1,0,0:0:0:0:
224,192,70609,1,0,0:0:0:0:
352,192,70609,1,0,0:0:0:0:
480,192,70792,1,8,0:0:0:0:
96,192,70792,1,0,0:0:0:0:
224,192,70792,1,0,0:0:0:0:
352,192,70792,1,0,0:0:0:0:
160,192,70975,1,0,0:0:0:0:
288,192,70975,1,0,0:0:0:0:
416,192,70975,1,0,0:0:0:0:
416,192,71158,1,8,0:0:0:0:
96,192,71158,1,0,0:0:0:0:
288,192,71158,1,0,0:0:0:0:
224,192,71158,1,0,0:0:0:0:
352,192,71340,1,0,0:0:0:0:
160,192,71340,1,0,0:0:0:0:
480,192,71340,1,0,0:0:0:0:
96,192,71523,1,8,0:0:0:0:
224,192,71523,1,0,0:0:0:0:
352,192,71523,1,0,0:0:0:0:
416,192,71523,1,0,0:0:0:0:
160,192,71706,1,0,0:0:0:0:
288,192,71706,1,0,0:0:0:0:
480,192,71706,1,0,0:0:0:0:
416,192,71889,1,8,0:0:0:0:
96,192,71889,1,0,0:0:0:0:
224,192,71889,1,0,0:0:0:0:
352,192,71889,1,0,0:0:0:0:
160,192,72072,1,0,0:0:0:0:
288,192,72072,1,0,0:0:0:0:
480,192,72072,1,0,0:0:0:0:
416,192,72164,1,0,0:0:0:0:
96,192,72255,1,8,0:0:0:0:
224,192,72255,1,0,0:0:0:0:
352,192,72255,1,0,0:0:0:0:
480,192,72347,1,0,0:0:0:0:
416,192,72438,1,8,0:0:0:0:
288,192,72438,1,0,0:0:0:0:
160,192,72438,1,0,0:0:0:0:
352,192,72529,1,0,0:0:0:0:
96,192,72529,1,0,0:0:0:0:
224,192,72621,1,8,0:0:0:0:
416,192,72621,1,0,0:0:0:0:
288,192,72621,1,0,0:0:0:0:
160,192,72712,1,0,0:0:0:0:
96,192,72804,1,8,0:0:0:0:
352,192,72804,1,0,0:0:0:0:
480,192,72804,1,0,0:0:0:0:
288,192,72987,1,0,0:0:0:0:
224,192,73048,1,0,0:0:0:0:
160,192,73109,1,0,0:0:0:0:
96,192,73170,1,8,0:0:0:0:
352,192,73170,1,0,0:0:0:0:
480,192,73170,1,0,0:0:0:0:
288,192,73261,1,0,0:0:0:0:
224,192,73353,1,8,0:0:0:0:
96,192,73353,1,0,0:0:0:0:
352,192,73444,1,8,0:0:0:0:
480,192,73444,1,0,0:0:0:0:
224,192,73536,1,8,0:0:0:0:
96,192,73536,1,0,0:0:0:0:
352,192,73627,1,8,0:0:0:0:
480,192,73627,1,0,0:0:0:0:
224,192,73718,1,4,0:0:0:0:
96,192,73718,1,8,0:0:0:0:
32,192,73718,1,0,0:0:0:0:
352,192,73901,1,0,0:0:0:0:
224,192,74084,1,8,0:0:0:0:
96,192,74084,1,0,0:0:0:0:
352,192,74267,1,0,0:0:0:0:
96,192,74450,1,8,0:0:0:0:
480,192,74450,1,0,0:0:0:0:
288,192,74633,1,0,0:0:0:0:
96,192,74816,1,8,0:0:0:0:
224,192,74816,1,0,0:0:0:0:
352,192,74999,1,0,0:0:0:0:
224,192,75182,1,8,0:0:0:0:
96,192,75182,1,0,0:0:0:0:
480,192,75182,1,0,0:0:0:0:
32,192,75182,1,0,0:0:0:0:
352,192,75273,1,0,0:0:0:0:
480,192,75365,1,0,0:0:0:0:
352,192,75456,1,0,0:0:0:0:
480,192,75548,1,8,0:0:0:0:
96,192,75548,1,0,0:0:0:0:
288,192,75548,1,0,0:0:0:0:
160,192,75639,1,0,0:0:0:0:
224,192,75731,1,0,0:0:0:0:
288,192,75822,1,0,0:0:0:0:
352,192,75914,1,8,0:0:0:0:
480,192,75914,1,0,0:0:0:0:
96,192,75914,1,0,0:0:0:0:
160,192,76005,1,0,0:0:0:0:
224,192,76097,1,0,0:0:0:0:
288,192,76188,1,0,0:0:0:0:
352,192,76279,1,8,0:0:0:0:
480,192,76279,1,0,0:0:0:0:
96,192,76279,1,0,0:0:0:0:
160,192,76462,1,0,0:0:0:0:
416,192,76462,1,0,0:0:0:0:
224,192,76645,1,8,0:0:0:0:
480,192,76645,1,0,0:0:0:0:
96,192,76645,1,0,0:0:0:0:
160,192,76828,1,8,0:0:0:0:
288,192,76828,1,0,0:0:0:0:
416,192,76828,1,0,0:0:0:0:
352,192,77011,1,0,0:0:0:0:
96,192,77194,1,8,0:0:0:0:
224,192,77194,1,0,0:0:0:0:
480,192,77194,1,0,0:0:0:0:
96,192,77560,1,8,0:0:0:0:
288,192,77560,1,0,0:0:0:0:
416,192,77560,1,0,0:0:0:0:
224,192,77651,1,8,0:0:0:0:
352,192,77743,1,8,0:0:0:0:
480,192,77743,1,0,0:0:0:0:
160,192,77743,1,0,0:0:0:0:
416,192,77926,1,8,0:0:0:0:
96,192,77926,1,0,0:0:0:0:
224,192,77926,1,0,0:0:0:0:
96,192,78292,1,8,0:0:0:0:
224,192,78292,1,0,0:0:0:0:
352,192,78292,1,0,0:0:0:0:
160,192,78475,1,8,0:0:0:0:
288,192,78475,1,0,0:0:0:0:
416,192,78475,1,0,0:0:0:0:
224,192,78658,1,8,0:0:0:0:
352,192,78658,1,0,0:0:0:0:
480,192,78658,1,0,0:0:0:0:
288,192,79023,1,8,0:0:0:0:
96,192,79023,1,0,0:0:0:0:
480,192,79023,1,0,0:0:0:0:
160,192,79206,1,8,0:0:0:0:
416,192,79206,1,0,0:0:0:0:
352,192,79298,1,8,0:0:0:0:
224,192,79298,1,0,0:0:0:0:
160,192,79389,1,8,0:0:0:0:
416,192,79389,1,0,0:0:0:0:
288,192,79481,1,8,0:0:0:0:
32,192,79572,1,4,0:0:0:0:
96,192,79572,1,8,0:0:0:0:
224,192,79572,1,0,0:0:0:0:
352,192,79572,1,0,0:0:0:0:
480,192,79572,1,0,0:0:0:0:
288,192,79755,1,0,0:0:0:0:
224,192,79938,1,8,0:0:0:0:
96,192,79938,1,0,0:0:0:0:
352,192,80121,1,0,0:0:0:0:
96,192,80304,1,8,0:0:0:0:
224,192,80304,1,0,0:0:0:0:
480,192,80304,1,0,0:0:0:0:
288,192,80487,1,0,0:0:0:0:
96,192,80670,1,8,0:0:0:0:
352,192,80670,1,0,0:0:0:0:
416,192,80853,1,0,0:0:0:0:
96,192,81036,1,8,0:0:0:0:
480,192,81036,1,0,0:0:0:0:
288,192,81036,1,0,0:0:0:0:
352,192,81036,1,0,0:0:0:0:
224,192,81127,1,0,0:0:0:0:
96,192,81218,1,0,0:0:0:0:
224,192,81310,1,0,0:0:0:0:
96,192,81401,1,8,0:0:0:0:
416,192,81401,1,0,0:0:0:0:
224,192,81493,1,0,0:0:0:0:
96,192,81584,1,0,0:0:0:0:
224,192,81676,1,0,0:0:0:0:
96,192,81767,1,8,0:0:0:0:
352,192,81767,1,0,0:0:0:0:
480,192,81767,1,0,0:0:0:0:
288,192,81950,1,0,0:0:0:0:
96,192,82133,1,8,0:0:0:0:
224,192,82133,1,0,0:0:0:0:
416,192,82133,1,0,0:0:0:0:
288,192,82316,1,0,0:0:0:0:
96,192,82499,1,8,0:0:0:0:
480,192,82499,1,0,0:0:0:0:
224,192,82590,1,0,0:0:0:0:
352,192,82682,1,8,0:0:0:0:
96,192,82682,1,0,0:0:0:0:
224,192,82773,1,0,0:0:0:0:
480,192,82865,1,8,0:0:0:0:
96,192,82865,1,0,0:0:0:0:
352,192,82956,1,0,0:0:0:0:
224,192,83048,1,8,0:0:0:0:
96,192,83048,1,0,0:0:0:0:
352,192,83139,1,0,0:0:0:0:
480,192,83231,1,8,0:0:0:0:
96,192,83231,1,0,0:0:0:0:
224,192,83322,1,0,0:0:0:0:
352,192,83414,1,8,0:0:0:0:
224,192,83505,1,0,0:0:0:0:
96,192,83597,1,8,0:0:0:0:
480,192,83597,1,0,0:0:0:0:
352,192,83597,1,0,0:0:0:0:
288,192,83688,1,0,0:0:0:0:
224,192,83779,1,8,0:0:0:0:
416,192,83779,1,0,0:0:0:0:
160,192,83871,1,0,0:0:0:0:
96,192,83962,1,8,0:0:0:0:
480,192,83962,1,0,0:0:0:0:
160,192,84054,1,8,0:0:0:0:
416,192,84054,1,0,0:0:0:0:
224,192,84145,1,8,0:0:0:0:
352,192,84145,1,0,0:0:0:0:
160,192,84237,1,8,0:0:0:0:
416,192,84237,1,0,0:0:0:0:
96,192,84328,1,8,0:0:0:0:
480,192,84328,1,0,0:0:0:0:
224,192,84420,1,8,0:0:0:0:
352,192,84420,1,0,0:0:0:0:
160,192,84511,1,8,0:0:0:0:
416,192,84511,1,0,0:0:0:0:
96,192,84603,1,8,0:0:0:0:
480,192,84603,1,0,0:0:0:0:
416,192,84694,1,8,0:0:0:0:
288,192,84694,1,0,0:0:0:0:
160,192,84694,1,0,0:0:0:0:
96,192,84786,1,8,0:0:0:0:
224,192,84786,1,0,0:0:0:0:
352,192,84786,1,0,0:0:0:0:
288,192,84877,1,8,0:0:0:0:
416,192,84877,1,0,0:0:0:0:
160,192,84877,1,0,0:0:0:0:
224,192,84968,1,8,0:0:0:0:
352,192,84968,1,0,0:0:0:0:
96,192,85060,1,8,0:0:0:0:
480,192,85060,1,0,0:0:0:0:
224,192,85151,1,8,0:0:0:0:
352,192,85151,1,0,0:0:0:0:
96,192,85243,1,8,0:0:0:0:
480,192,85243,1,0,0:0:0:0:
352,192,85334,1,8,0:0:0:0:
224,192,85334,1,0,0:0:0:0:
96,192,85426,1,12,0:0:0:0:
480,192,85426,1,0,0:0:0:0:
32,192,85426,1,0,0:0:0:0:
288,192,85426,1,0,0:0:0:0:
416,192,85517,1,0,0:0:0:0:
288,192,85608,1,0,0:0:0:0:
160,192,85700,1,0,0:0:0:0:
352,192,85791,1,8,0:0:0:0:
480,192,85791,1,0,0:0:0:0:
224,192,85883,1,0,0:0:0:0:
96,192,85974,1,8,0:0:0:0:
32,192,85974,1,4,0:0:0:0:
352,192,85974,1,0,0:0:0:0:
480,192,85974,1,0,0:0:0:0:
160,192,86066,1,0,0:0:0:0:
288,192,86157,1,0,0:0:0:0:
416,192,86249,1,0,0:0:0:0:
224,192,86340,1,8,0:0:0:0:
96,192,86340,1,0,0:0:0:0:
352,192,86432,1,0,0:0:0:0:
480,192,86523,1,8,0:0:0:0:
32,192,86523,1,4,0:0:0:0:
96,192,86523,1,0,0:0:0:0:
288,192,86523,1,0,0:0:0:0:
160,192,86615,1,0,0:0:0:0:
288,192,86706,1,0,0:0:0:0:
416,192,86797,1,0,0:0:0:0:
96,192,86889,1,8,0:0:0:0:
352,192,86889,1,0,0:0:0:0:
224,192,86980,1,0,0:0:0:0:
32,192,87072,1,4,0:0:0:0:
96,192,87072,1,8,0:0:0:0:
480,192,87072,1,0,0:0:0:0:
288,192,87072,1,0,0:0:0:0:
416,192,87163,1,0,0:0:0:0:
288,192,87255,1,0,0:0:0:0:
224,192,87346,1,0,0:0:0:0:
160,192,87438,1,8,0:0:0:0:
416,192,87438,1,0,0:0:0:0:
96,192,87529,1,0,0:0:0:0:
32,192,87621,1,4,0:0:0:0:
480,192,87621,1,8,0:0:0:0:
352,192,87621,1,0,0:0:0:0:
224,192,87621,1,0,0:0:0:0:
160,192,87712,1,0,0:0:0:0:
288,192,87804,1,0,0:0:0:0:
416,192,87895,1,0,0:0:0:0:
224,192,87986,1,8,0:0:0:0:
96,192,87986,1,0,0:0:0:0:
352,192,88078,1,0,0:0:0:0:
480,192,88169,1,8,0:0:0:0:
32,192,88169,1,4,0:0:0:0:
96,192,88169,1,0,0:0:0:0:
224,192,88169,1,0,0:0:0:0:
352,192,88261,1,0,0:0:0:0:
224,192,88352,1,0,0:0:0:0:
416,192,88444,1,0,0:0:0:0:
288,192,88535,1,8,0:0:0:0:
96,192,88535,1,0,0:0:0:0:
160,192,88627,1,0,0:0:0:0:
32,192,88718,1,4,0:0:0:0:
480,192,88718,1,8,0:0:0:0:
352,192,88718,1,0,0:0:0:0:
224,192,88718,1,0,0:0:0:0:
416,192,88810,1,0,0:0:0:0:
288,192,88901,1,0,0:0:0:0:
224,192,88993,1,0,0:0:0:0:
160,192,89084,1,8,0:0:0:0:
480,192,89084,1,0,0:0:0:0:
352,192,89084,1,0,0:0:0:0:
96,192,89176,1,0,0:0:0:0:
32,192,89267,1,4,0:0:0:0:
480,192,89267,1,8,0:0:0:0:
352,192,89267,1,0,0:0:0:0:
224,192,89267,1,0,0:0:0:0:
288,192,89358,1,0,0:0:0:0:
416,192,89450,1,0,0:0:0:0:
288,192,89541,1,8,0:0:0:0:
416,192,89633,1,8,0:0:0:0:
160,192,89633,1,0,0:0:0:0:
288,192,89724,1,0,0:0:0:0:
32,192,89816,1,4,0:0:0:0:
96,192,89816,1,8,0:0:0:0:
224,192,89816,1,0,0:0:0:0:
480,192,89816,1,0,0:0:0:0:
352,192,89907,1,0,0:0:0:0:
480,192,89999,1,0,0:0:0:0:
96,192,90090,1,8,0:0:0:0:
352,192,90090,1,0,0:0:0:0:
480,192,90182,1,8,0:0:0:0:
224,192,90182,1,0,0:0:0:0:
352,192,90273,1,0,0:0:0:0:
32,192,90365,1,4,0:0:0:0:
96,192,90365,1,8,0:0:0:0:
480,192,90365,1,0,0:0:0:0:
288,192,90365,1,0,0:0:0:0:
160,192,90456,1,0,0:0:0:0:
224,192,90547,1,8,0:0:0:0:
480,192,90547,1,0,0:0:0:0:
416,192,90639,1,0,0:0:0:0:
352,192,90730,1,8,0:0:0:0:
160,192,90730,1,0,0:0:0:0:
288,192,90822,1,0,0:0:0:0:
96,192,90913,1,8,0:0:0:0:
32,192,90913,1,4,0:0:0:0:
480,192,90913,1,0,0:0:0:0:
224,192,90913,1,0,0:0:0:0:
160,192,91005,1,0,0:0:0:0:
288,192,91096,1,0,0:0:0:0:
160,192,91188,1,8,0:0:0:0:
416,192,91188,1,0,0:0:0:0:
480,192,91279,1,8,0:0:0:0:
96,192,91279,1,0,0:0:0:0:
224,192,91371,1,0,0:0:0:0:
96,192,91462,1,8,0:0:0:0:
32,192,91462,1,4,0:0:0:0:
352,192,91462,1,0,0:0:0:0:
480,192,91462,1,0,0:0:0:0:
160,192,91554,1,0,0:0:0:0:
224,192,91645,1,8,0:0:0:0:
480,192,91645,1,0,0:0:0:0:
352,192,91736,1,0,0:0:0:0:
96,192,91828,1,8,0:0:0:0:
288,192,91828,1,0,0:0:0:0:
224,192,91919,1,8,0:0:0:0:
96,192,92011,1,8,0:0:0:0:
32,192,92011,1,4,0:0:0:0:
352,192,92011,1,0,0:0:0:0:
480,192,92011,1,0,0:0:0:0:
160,192,92011,1,0,0:0:0:0:
416,192,92102,1,0,0:0:0:0:
352,192,92194,1,0,0:0:0:0:
288,192,92285,1,8,0:0:0:0:
160,192,92285,1,0,0:0:0:0:
224,192,92377,1,8,0:0:0:0:
96,192,92377,1,0,0:0:0:0:
352,192,92468,1,0,0:0:0:0:
32,192,92560,1,4,0:0:0:0:
288,192,92560,1,8,0:0:0:0:
480,192,92560,1,0,0:0:0:0:
160,192,92560,1,0,0:0:0:0:
416,192,92651,1,0,0:0:0:0:
288,192,92743,1,8,0:0:0:0:
96,192,92743,1,0,0:0:0:0:
160,192,92834,1,0,0:0:0:0:
352,192,92925,1,8,0:0:0:0:
480,192,92925,1,0,0:0:0:0:
224,192,93017,1,0,0:0:0:0:
96,192,93108,1,4,0:0:0:0:
480,192,93108,1,8,0:0:0:0:
32,192,93108,1,0,0:0:0:0:
288,192,93108,1,0,0:0:0:0:
160,192,93200,1,0,0:0:0:0:
224,192,93291,1,0,0:0:0:0:
288,192,93383,1,0,0:0:0:0:
352,192,93474,1,0,0:0:0:0:
224,192,93566,1,0,0:0:0:0:
32,192,93657,1,0,0:0:0:0:
352,192,93657,1,0,0:0:0:0:
96,192,93657,1,0,0:0:0:0:
160,192,93749,1,0,0:0:0:0:
416,192,93749,1,0,0:0:0:0:
224,192,93840,1,0,0:0:0:0:
480,192,93840,1,0,0:0:0:0:
416,192,93932,1,0,0:0:0:0:
160,192,93932,1,0,0:0:0:0:
352,192,94023,1,0,0:0:0:0:
96,192,94023,1,0,0:0:0:0:
224,192,94115,1,0,0:0:0:0:
96,192,94206,1,8,0:0:0:0:
32,192,94206,1,4,0:0:0:0:
480,192,94206,1,0,0:0:0:0:
352,192,94206,1,0,0:0:0:0:
416,192,94389,1,8,0:0:0:0:
160,192,94389,1,0,0:0:0:0:
288,192,94389,1,0,0:0:0:0:
352,192,94480,1,8,0:0:0:0:
96,192,94572,1,8,0:0:0:0:
480,192,94572,1,0,0:0:0:0:
288,192,94572,1,0,0:0:0:0:
224,192,94663,1,8,0:0:0:0:
416,192,94755,1,8,0:0:0:0:
160,192,94755,1,8,0:0:0:0:
288,192,94755,1,0,0:0:0:0:
352,192,94846,1,8,0:0:0:0:
480,192,94938,1,8,0:0:0:0:
224,192,94938,1,0,0:0:0:0:
96,192,94938,1,0,0:0:0:0:
352,192,95029,1,8,0:0:0:0:
96,192,95121,1,8,0:0:0:0:
288,192,95121,1,0,0:0:0:0:
480,192,95121,1,0,0:0:0:0:
224,192,95212,1,8,0:0:0:0:
352,192,95304,1,8,0:0:0:0:
32,192,95304,1,0,0:0:0:0:
224,192,95395,1,8,0:0:0:0:
96,192,95486,1,8,0:0:0:0:
352,192,95486,1,0,0:0:0:0:
480,192,95486,1,0,0:0:0:0:
416,192,95578,1,8,0:0:0:0:
224,192,95669,1,8,0:0:0:0:
352,192,95669,1,8,0:0:0:0:
160,192,95669,1,0,0:0:0:0:
288,192,95761,1,8,0:0:0:0:
96,192,95852,1,8,0:0:0:0:
352,192,95852,1,8,0:0:0:0:
480,192,95852,1,0,0:0:0:0:
224,192,95944,1,8,0:0:0:0:
160,192,96035,1,8,0:0:0:0:
288,192,96035,1,8,0:0:0:0:
416,192,96035,1,0,0:0:0:0:
352,192,96127,1,8,0:0:0:0:
224,192,96218,1,8,0:0:0:0:
96,192,96218,1,0,0:0:0:0:
480,192,96218,1,0,0:0:0:0:
352,192,96310,1,8,0:0:0:0:
96,192,96401,1,8,0:0:0:0:
32,192,96401,1,4,0:0:0:0:
160,192,96493,1,8,0:0:0:0:
224,192,96584,1,8,0:0:0:0:
352,192,96584,1,0,0:0:0:0:
480,192,96584,1,0,0:0:0:0:
160,192,96675,1,8,0:0:0:0:
288,192,96767,1,8,0:0:0:0:
480,192,96767,1,0,0:0:0:0:
96,192,96767,1,0,0:0:0:0:
160,192,96858,1,8,0:0:0:0:
224,192,96950,1,8,0:0:0:0:
480,192,96950,1,0,0:0:0:0:
352,192,96950,1,0,0:0:0:0:
288,192,97041,1,8,0:0:0:0:
96,192,97133,1,8,0:0:0:0:
224,192,97133,1,0,0:0:0:0:
352,192,97133,1,0,0:0:0:0:
416,192,97224,1,8,0:0:0:0:
160,192,97316,1,8,0:0:0:0:
288,192,97316,1,0,0:0:0:0:
480,192,97316,1,0,0:0:0:0:
416,192,97407,1,8,0:0:0:0:
352,192,97499,1,8,0:0:0:0:
96,192,97499,1,0,0:0:0:0:
224,192,97499,1,0,0:0:0:0:
32,192,97499,1,0,0:0:0:0:
288,192,97590,1,8,0:0:0:0:
352,192,97682,1,8,0:0:0:0:
480,192,97682,1,0,0:0:0:0:
160,192,97682,1,0,0:0:0:0:
224,192,97773,1,8,0:0:0:0:
96,192,97865,1,8,0:0:0:0:
288,192,97865,1,0,0:0:0:0:
416,192,97865,1,0,0:0:0:0:
160,192,97956,1,8,0:0:0:0:
224,192,98047,1,8,0:0:0:0:
480,192,98047,1,0,0:0:0:0:
352,192,98047,1,0,0:0:0:0:
288,192,98139,1,8,0:0:0:0:
160,192,98230,1,8,0:0:0:0:
416,192,98322,1,8,0:0:0:0:
224,192,98413,1,8,0:0:0:0:
352,192,98505,1,8,0:0:0:0:
96,192,98596,1,8,0:0:0:0:
32,192,98596,1,0,0:0:0:0:
224,192,98642,1,8,0:0:0:0:
352,192,98688,1,8,0:0:0:0:
288,192,98779,1,8,0:0:0:0:
480,192,98779,1,0,0:0:0:0:
96,192,98779,1,0,0:0:0:0:
224,192,98871,1,8,0:0:0:0:
160,192,98962,1,8,0:0:0:0:
416,192,98962,1,0,0:0:0:0:
352,192,98962,1,0,0:0:0:0:
96,192,99054,1,8,0:0:0:0:
224,192,99145,1,8,0:0:0:0:
352,192,99145,1,0,0:0:0:0:
480,192,99145,1,0,0:0:0:0:
160,192,99236,1,8,0:0:0:0:
96,192,99328,1,8,0:0:0:0:
288,192,99328,1,0,0:0:0:0:
480,192,99328,1,0,0:0:0:0:
416,192,99419,1,8,0:0:0:0:
352,192,99511,1,8,0:0:0:0:
480,192,99511,1,0,0:0:0:0:
160,192,99511,1,0,0:0:0:0:
288,192,99602,1,8,0:0:0:0:
96,192,99694,1,8,0:0:0:0:
32,192,99694,1,0,0:0:0:0:
224,192,99740,1,8,0:0:0:0:
352,192,99785,1,8,0:0:0:0:
480,192,99877,1,8,0:0:0:0:
96,192,99877,1,0,0:0:0:0:
288,192,99877,1,0,0:0:0:0:
224,192,99968,1,8,0:0:0:0:
416,192,100060,1,8,0:0:0:0:
352,192,100060,1,0,0:0:0:0:
160,192,100060,1,0,0:0:0:0:
224,192,100151,1,8,0:0:0:0:
480,192,100243,1,8,0:0:0:0:
288,192,100243,1,0,0:0:0:0:
96,192,100243,1,0,0:0:0:0:
352,192,100334,1,8,0:0:0:0:
96,192,100425,1,8,0:0:0:0:
288,192,100425,1,0,0:0:0:0:
416,192,100425,1,0,0:0:0:0:
224,192,100517,1,8,0:0:0:0:
352,192,100608,1,8,0:0:0:0:
480,192,100608,1,0,0:0:0:0:
224,192,100700,1,8,0:0:0:0:
416,192,100791,1,8,0:0:0:0:
32,192,100791,1,0,0:0:0:0:
160,192,100837,1,8,0:0:0:0:
288,192,100883,1,8,0:0:0:0:
96,192,100974,1,8,0:0:0:0:
480,192,100974,1,0,0:0:0:0:
416,192,100974,1,0,0:0:0:0:
160,192,101066,1,8,0:0:0:0:
352,192,101157,1,8,0:0:0:0:
480,192,101157,1,0,0:0:0:0:
224,192,101157,1,0,0:0:0:0:
160,192,101249,1,8,0:0:0:0:
96,192,101340,1,8,0:0:0:0:
352,192,101340,1,0,0:0:0:0:
224,192,101340,1,0,0:0:0:0:
416,192,101386,1,0,0:0:0:0:
480,192,101432,1,8,0:0:0:0:
352,192,101523,1,8,0:0:0:0:
96,192,101523,1,0,0:0:0:0:
288,192,101523,1,0,0:0:0:0:
224,192,101615,1,8,0:0:0:0:
160,192,101706,1,8,0:0:0:0:
352,192,101706,1,0,0:0:0:0:
480,192,101706,1,0,0:0:0:0:
96,192,101797,1,8,0:0:0:0:
288,192,101889,1,8,0:0:0:0:
416,192,101889,1,0,0:0:0:0:
160,192,101889,1,0,0:0:0:0:
32,192,101889,1,0,0:0:0:0:
416,192,102072,1,8,0:0:0:0:
288,192,102072,1,0,0:0:0:0:
160,192,102072,1,0,0:0:0:0:
160,192,102255,1,8,0:0:0:0:
288,192,102255,1,0,0:0:0:0:
416,192,102255,1,0,0:0:0:0:
160,192,102438,1,8,0:0:0:0:
288,192,102438,1,0,0:0:0:0:
416,192,102438,1,0,0:0:0:0:
96,192,102621,1,8,0:0:0:0:
480,192,102621,1,0,0:0:0:0:
288,192,102621,1,0,0:0:0:0:
480,192,102804,1,8,0:0:0:0:
96,192,102804,1,0,0:0:0:0:
288,192,102804,1,0,0:0:0:0:
96,192,102986,1,8,0:0:0:0:
480,192,102986,1,0,0:0:0:0:
288,192,102986,1,0,0:0:0:0:
96,192,103169,1,8,0:0:0:0:
480,192,103169,1,0,0:0:0:0:
288,192,103169,1,0,0:0:0:0:
96,192,103352,1,8,0:0:0:0:
480,192,103352,1,0,0:0:0:0:
288,192,103352,1,0,0:0:0:0:
224,192,103444,1,8,0:0:0:0:
352,192,103444,1,0,0:0:0:0:
96,192,103535,1,8,0:0:0:0:
480,192,103535,1,0,0:0:0:0:
224,192,103627,1,8,0:0:0:0:
352,192,103627,1,0,0:0:0:0:
480,192,103718,1,8,0:0:0:0:
96,192,103718,1,0,0:0:0:0:
224,192,103810,1,8,0:0:0:0:
352,192,103810,1,0,0:0:0:0:
96,192,103901,1,8,0:0:0:0:
480,192,103901,1,0,0:0:0:0:
224,192,103993,1,8,0:0:0:0:
352,192,103993,1,0,0:0:0:0:
32,192,104084,1,4,0:0:0:0:
96,192,104084,1,8,0:0:0:0:
480,192,104084,1,0,0:0:0:0:
32,192,104815,1,4,0:0:0:0:
288,192,104815,1,8,0:0:0:0:
96,192,104815,1,0,0:0:0:0:
480,192,104815,1,0,0:0:0:0:
224,192,105180,1,0,0:0:0:0:
480,192,105363,1,0,0:0:0:0:
352,192,105546,1,0,0:0:0:0:
96,192,105546,1,0,0:0:0:0:
224,192,105729,1,0,0:0:0:0:
480,192,105912,1,0,0:0:0:0:
96,192,105912,1,0,0:0:0:0:
288,192,106095,1,0,0:0:0:0:
96,192,106278,1,0,0:0:0:0:
480,192,106278,1,0,0:0:0:0:
224,192,106461,1,0,0:0:0:0:
352,192,106644,1,0,0:0:0:0:
160,192,106644,1,0,0:0:0:0:
416,192,106827,1,0,0:0:0:0:
288,192,107010,1,0,0:0:0:0:
96,192,107010,1,0,0:0:0:0:
160,192,107193,1,0,0:0:0:0:
352,192,107375,1,0,0:0:0:0:
480,192,107375,1,0,0:0:0:0:
224,192,107558,1,0,0:0:0:0:
416,192,107741,1,0,0:0:0:0:
96,192,107741,1,0,0:0:0:0:
224,192,107924,1,0,0:0:0:0:
288,192,108107,1,0,0:0:0:0:
96,192,108107,1,0,0:0:0:0:
352,192,108290,1,0,0:0:0:0:
416,192,108473,1,0,0:0:0:0:
160,192,108473,1,0,0:0:0:0:
288,192,108656,1,0,0:0:0:0:
96,192,108839,1,0,0:0:0:0:
224,192,108839,1,0,0:0:0:0:
352,192,109022,1,0,0:0:0:0:
160,192,109205,1,0,0:0:0:0:
480,192,109205,1,0,0:0:0:0:
288,192,109388,1,0,0:0:0:0:
96,192,109571,1,0,0:0:0:0:
352,192,109571,1,0,0:0:0:0:
224,192,109754,1,0,0:0:0:0:
352,192,109936,1,0,0:0:0:0:
480,192,109936,1,0,0:0:0:0:
288,192,110119,1,0,0:0:0:0:
224,192,110302,1,0,0:0:0:0:
416,192,110302,1,0,0:0:0:0:
160,192,110485,1,0,0:0:0:0:
96,192,110668,1,8,0:0:0:0:
32,192,110668,1,4,0:0:0:0:
480,192,110668,1,0,0:0:0:0:
288,192,110668,1,0,0:0:0:0:
224,192,110851,1,0,0:0:0:0:
352,192,111034,1,0,0:0:0:0:
96,192,111034,1,0,0:0:0:0:
224,192,111217,1,0,0:0:0:0:
352,192,111400,1,0,0:0:0:0:
480,192,111400,1,0,0:0:0:0:
224,192,111583,1,0,0:0:0:0:
96,192,111766,1,0,0:0:0:0:
416,192,111766,1,0,0:0:0:0:
224,192,111949,1,0,0:0:0:0:
96,192,112132,1,8,0:0:0:0:
352,192,112132,1,0,0:0:0:0:
480,192,112314,1,0,0:0:0:0:
352,192,112497,1,0,0:0:0:0:
96,192,112497,1,0,0:0:0:0:
224,192,112680,1,0,0:0:0:0:
96,192,112863,1,0,0:0:0:0:
416,192,112863,1,0,0:0:0:0:
224,192,113046,1,0,0:0:0:0:
352,192,113229,1,0,0:0:0:0:
160,192,113229,1,0,0:0:0:0:
288,192,113412,1,0,0:0:0:0:
96,192,113595,1,8,0:0:0:0:
480,192,113595,1,0,0:0:0:0:
224,192,113595,1,0,0:0:0:0:
352,192,113595,1,0,0:0:0:0:
160,192,113778,1,0,0:0:0:0:
288,192,113778,1,0,0:0:0:0:
416,192,113778,1,0,0:0:0:0:
352,192,113961,1,8,0:0:0:0:
480,192,113961,1,0,0:0:0:0:
96,192,113961,1,0,0:0:0:0:
96,192,114144,1,8,0:0:0:0:
224,192,114144,1,0,0:0:0:0:
416,192,114144,1,0,0:0:0:0:
352,192,114327,1,8,0:0:0:0:
480,192,114327,1,0,0:0:0:0:
224,192,114327,1,0,0:0:0:0:
96,192,114510,1,8,0:0:0:0:
416,192,114510,1,0,0:0:0:0:
224,192,114510,1,0,0:0:0:0:
96,192,114693,1,8,0:0:0:0:
480,192,114693,1,0,0:0:0:0:
32,192,114693,1,0,0:0:0:0:
224,192,114693,1,0,0:0:0:0:
352,192,114693,1,0,0:0:0:0:
288,192,114875,1,0,0:0:0:0:
96,192,115058,1,8,0:0:0:0:
352,192,115058,1,0,0:0:0:0:
480,192,115058,1,0,0:0:0:0:
224,192,115150,1,0,0:0:0:0:
160,192,115241,1,8,0:0:0:0:
416,192,115241,1,0,0:0:0:0:
288,192,115241,1,0,0:0:0:0:
352,192,115333,1,0,0:0:0:0:
96,192,115424,1,8,0:0:0:0:
416,192,115424,1,0,0:0:0:0:
224,192,115424,1,0,0:0:0:0:
288,192,115516,1,0,0:0:0:0:
96,192,115607,1,8,0:0:0:0:
480,192,115607,1,0,0:0:0:0:
352,192,115607,1,0,0:0:0:0:
480,192,115790,1,0,0:0:0:0:
416,192,115851,1,0,0:0:0:0:
352,192,115912,1,0,0:0:0:0:
288,192,115973,1,8,0:0:0:0:
96,192,115973,1,0,0:0:0:0:
352,192,116064,1,0,0:0:0:0:
160,192,116064,1,0,0:0:0:0:
416,192,116156,1,8,0:0:0:0:
224,192,116156,1,0,0:0:0:0:
480,192,116247,1,8,0:0:0:0:
288,192,116247,1,0,0:0:0:0:
416,192,116339,1,8,0:0:0:0:
224,192,116339,1,0,0:0:0:0:
352,192,116430,1,8,0:0:0:0:
160,192,116430,1,0,0:0:0:0:
32,192,116522,1,12,0:0:0:0:
288,192,116522,1,0,0:0:0:0:
96,192,116522,1,0,0:0:0:0:
480,192,116522,1,0,0:0:0:0:
352,192,116705,1,0,0:0:0:0:
96,192,116888,1,8,0:0:0:0:
224,192,116888,1,0,0:0:0:0:
352,192,117071,1,0,0:0:0:0:
224,192,117254,1,8,0:0:0:0:
96,192,117254,1,0,0:0:0:0:
416,192,117436,1,0,0:0:0:0:
224,192,117619,1,8,0:0:0:0:
96,192,117619,1,0,0:0:0:0:
352,192,117802,1,0,0:0:0:0:
96,192,117985,1,8,0:0:0:0:
224,192,117985,1,0,0:0:0:0:
480,192,117985,1,0,0:0:0:0:
416,192,118077,1,0,0:0:0:0:
352,192,118168,1,0,0:0:0:0:
288,192,118260,1,0,0:0:0:0:
224,192,118351,1,8,0:0:0:0:
96,192,118351,1,0,0:0:0:0:
480,192,118351,1,0,0:0:0:0:
416,192,118443,1,0,0:0:0:0:
352,192,118534,1,0,0:0:0:0:
96,192,118534,1,0,0:0:0:0:
288,192,118625,1,0,0:0:0:0:
160,192,118625,1,0,0:0:0:0:
96,192,118717,1,8,0:0:0:0:
352,192,118717,1,0,0:0:0:0:
480,192,118717,1,0,0:0:0:0:
160,192,118808,1,0,0:0:0:0:
224,192,118900,1,0,0:0:0:0:
288,192,118991,1,0,0:0:0:0:
352,192,119083,1,8,0:0:0:0:
480,192,119083,1,0,0:0:0:0:
96,192,119083,1,0,0:0:0:0:
160,192,119266,1,0,0:0:0:0:
416,192,119266,1,0,0:0:0:0:
224,192,119449,1,8,0:0:0:0:
352,192,119449,1,0,0:0:0:0:
96,192,119449,1,0,0:0:0:0:
480,192,119449,1,0,0:0:0:0:
160,192,119632,1,8,0:0:0:0:
288,192,119632,1,0,0:0:0:0:
416,192,119632,1,0,0:0:0:0:
96,192,119632,1,0,0:0:0:0:
352,192,119814,1,0,0:0:0:0:
96,192,119997,1,8,0:0:0:0:
224,192,119997,1,0,0:0:0:0:
416,192,119997,1,0,0:0:0:0:
288,192,119997,1,0,0:0:0:0:
224,192,120363,1,8,0:0:0:0:
352,192,120363,1,8,0:0:0:0:
480,192,120363,1,0,0:0:0:0:
96,192,120363,1,0,0:0:0:0:
416,192,120546,1,8,0:0:0:0:
288,192,120546,1,0,0:0:0:0:
160,192,120546,1,0,0:0:0:0:
480,192,120546,1,0,0:0:0:0:
224,192,120729,1,8,0:0:0:0:
96,192,120729,1,0,0:0:0:0:
288,192,120729,1,0,0:0:0:0:
416,192,120729,1,0,0:0:0:0:
96,192,121095,1,8,0:0:0:0:
224,192,121095,1,0,0:0:0:0:
352,192,121095,1,0,0:0:0:0:
480,192,121095,1,0,0:0:0:0:
288,192,121186,1,0,0:0:0:0:
352,192,121278,1,8,0:0:0:0:
480,192,121278,1,0,0:0:0:0:
160,192,121278,1,0,0:0:0:0:
96,192,121278,1,0,0:0:0:0:
96,192,121461,1,8,0:0:0:0:
224,192,121461,1,0,0:0:0:0:
288,192,121461,1,0,0:0:0:0:
416,192,121461,1,0,0:0:0:0:
96,192,121827,1,8,0:0:0:0:
224,192,121827,1,0,0:0:0:0:
352,192,121827,1,0,0:0:0:0:
480,192,121827,1,0,0:0:0:0:
96,192,122010,1,8,0:0:0:0:
224,192,122010,1,0,0:0:0:0:
288,192,122010,1,0,0:0:0:0:
480,192,122010,1,0,0:0:0:0:
416,192,122101,1,0,0:0:0:0:
352,192,122193,1,0,0:0:0:0:
288,192,122284,1,0,0:0:0:0:
224,192,122375,1,4,0:0:0:0:
96,192,122375,1,8,0:0:0:0:
32,192,122375,1,0,0:0:0:0:
416,192,122375,1,0,0:0:0:0:
288,192,122558,1,0,0:0:0:0:
224,192,122741,1,8,0:0:0:0:
96,192,122741,1,0,0:0:0:0:
288,192,122924,1,0,0:0:0:0:
96,192,123107,1,8,0:0:0:0:
224,192,123107,1,0,0:0:0:0:
352,192,123107,1,0,0:0:0:0:
416,192,123290,1,0,0:0:0:0:
480,192,123473,1,8,0:0:0:0:
96,192,123473,1,0,0:0:0:0:
288,192,123656,1,0,0:0:0:0:
96,192,123839,1,8,0:0:0:0:
224,192,123839,1,0,0:0:0:0:
480,192,123839,1,0,0:0:0:0:
352,192,123930,1,0,0:0:0:0:
480,192,124022,1,0,0:0:0:0:
352,192,124113,1,0,0:0:0:0:
480,192,124205,1,8,0:0:0:0:
96,192,124205,1,0,0:0:0:0:
224,192,124205,1,0,0:0:0:0:
352,192,124296,1,0,0:0:0:0:
480,192,124388,1,0,0:0:0:0:
352,192,124479,1,0,0:0:0:0:
480,192,124571,1,8,0:0:0:0:
224,192,124571,1,0,0:0:0:0:
96,192,124571,1,0,0:0:0:0:
160,192,124754,1,0,0:0:0:0:
224,192,124936,1,8,0:0:0:0:
352,192,124936,1,0,0:0:0:0:
480,192,124936,1,0,0:0:0:0:
160,192,125119,1,0,0:0:0:0:
224,192,125302,1,8,0:0:0:0:
352,192,125302,1,4,0:0:0:0:
96,192,125302,1,0,0:0:0:0:
32,192,125302,1,0,0:0:0:0:
480,192,125302,1,0,0:0:0:0:
416,192,125394,1,0,0:0:0:0:
352,192,125485,1,8,0:0:0:0:
288,192,125577,1,0,0:0:0:0:
224,192,125668,1,8,0:0:0:0:
96,192,125668,1,0,0:0:0:0:
288,192,125760,1,0,0:0:0:0:
352,192,125851,1,8,0:0:0:0:
416,192,125943,1,0,0:0:0:0:
480,192,126034,1,8,0:0:0:0:
96,192,126034,1,0,0:0:0:0:
288,192,126034,1,0,0:0:0:0:
352,192,126125,1,0,0:0:0:0:
224,192,126217,1,8,0:0:0:0:
96,192,126217,1,0,0:0:0:0:
416,192,126217,1,0,0:0:0:0:
352,192,126308,1,0,0:0:0:0:
480,192,126400,1,8,0:0:0:0:
288,192,126400,1,0,0:0:0:0:
96,192,126400,1,0,0:0:0:0:
160,192,126491,1,0,0:0:0:0:
416,192,126583,1,8,0:0:0:0:
224,192,126583,1,0,0:0:0:0:
96,192,126583,1,0,0:0:0:0:
288,192,126674,1,0,0:0:0:0:
352,192,126766,1,8,0:0:0:0:
480,192,126766,1,0,0:0:0:0:
96,192,126857,1,8,0:0:0:0:
224,192,126857,1,0,0:0:0:0:
160,192,126949,1,8,0:0:0:0:
416,192,126949,1,0,0:0:0:0:
224,192,127040,1,8,0:0:0:0:
352,192,127040,1,0,0:0:0:0:
96,192,127132,1,8,0:0:0:0:
288,192,127132,1,0,0:0:0:0:
160,192,127223,1,8,0:0:0:0:
480,192,127223,1,0,0:0:0:0:
96,192,127314,1,8,0:0:0:0:
288,192,127314,1,0,0:0:0:0:
416,192,127314,1,0,0:0:0:0:
160,192,127406,1,8,0:0:0:0:
480,192,127497,1,8,0:0:0:0:
224,192,127497,1,0,0:0:0:0:
288,192,127589,1,8,0:0:0:0:
416,192,127589,1,0,0:0:0:0:
224,192,127680,1,8,0:0:0:0:
352,192,127680,1,0,0:0:0:0:
160,192,127772,1,8,0:0:0:0:
288,192,127772,1,0,0:0:0:0:
96,192,127863,1,8,0:0:0:0:
224,192,127863,1,0,0:0:0:0:
352,192,127955,1,8,0:0:0:0:
480,192,127955,1,0,0:0:0:0:
224,192,128046,1,8,0:0:0:0:
96,192,128046,1,0,0:0:0:0:
352,192,128138,1,8,0:0:0:0:
480,192,128138,1,0,0:0:0:0:
224,192,128229,1,8,0:0:0:0:
96,192,128229,1,4,0:0:0:0:
416,192,128229,1,0,0:0:0:0:
32,192,128229,1,0,0:0:0:0:
288,192,128321,1,0,0:0:0:0:
416,192,128412,1,0,0:0:0:0:
288,192,128504,1,0,0:0:0:0:
160,192,128595,1,0,0:0:0:0:
352,192,128686,1,0,0:0:0:0:
224,192,128778,1,0,0:0:0:0:
96,192,128869,1,0,0:0:0:0:
480,192,128961,1,0,0:0:0:0:
352,192,129052,1,0,0:0:0:0:
224,192,129144,1,0,0:0:0:0:
352,192,129235,1,0,0:0:0:0:
480,192,129327,1,0,0:0:0:0:
352,192,129418,1,0,0:0:0:0:
224,192,129510,1,0,0:0:0:0:
160,192,129601,1,0,0:0:0:0:
480,192,129693,1,8,0:0:0:0:
96,192,129693,1,0,0:0:0:0:
224,192,129784,1,0,0:0:0:0:
352,192,129875,1,0,0:0:0:0:
224,192,129967,1,0,0:0:0:0:
96,192,130058,1,8,0:0:0:0:
480,192,130058,1,0,0:0:0:0:
32,192,130058,1,0,0:0:0:0:
160,192,130119,1,0,0:0:0:0:
224,192,130180,1,0,0:0:0:0:
288,192,130241,1,0,0:0:0:0:
352,192,130302,1,0,0:0:0:0:
416,192,130363,1,0,0:0:0:0:
480,192,130424,1,8,0:0:0:0:
96,192,130424,1,8,0:0:0:0:
32,192,130424,1,0,0:0:0:0:
160,192,130485,1,0,0:0:0:0:
224,192,130546,1,0,0:0:0:0:
288,192,130607,1,0,0:0:0:0:
352,192,130668,1,0,0:0:0:0:
416,192,130729,1,0,0:0:0:0:
480,192,130790,1,8,0:0:0:0:
96,192,130790,1,0,0:0:0:0:
32,192,130790,1,0,0:0:0:0:
160,192,130851,1,0,0:0:0:0:
224,192,130912,1,0,0:0:0:0:
288,192,130973,1,0,0:0:0:0:
352,192,131034,1,0,0:0:0:0:
416,192,131095,1,0,0:0:0:0:
480,192,131156,1,8,0:0:0:0:
96,192,131156,1,4,0:0:0:0:
224,192,131156,1,0,0:0:0:0:
32,192,131156,1,0,0:0:0:0:
480,192,131522,1,0,0:0:0:0:
416,192,131568,1,0,0:0:0:0:
352,192,131613,1,0,0:0:0:0:
224,192,131705,1,0,0:0:0:0:
96,192,131796,1,0,0:0:0:0:
224,192,131888,1,0,0:0:0:0:
352,192,131979,1,0,0:0:0:0:
224,192,132071,1,0,0:0:0:0:
352,192,132162,1,0,0:0:0:0:
224,192,132254,1,8,0:0:0:0:
96,192,132254,1,0,0:0:0:0:
32,192,132254,1,0,0:0:0:0:
480,192,132254,1,0,0:0:0:0:
32,192,132619,1,4,0:0:0:0:
160,192,132619,1,8,0:0:0:0:
288,192,132619,1,0,0:0:0:0:
480,192,132619,1,0,0:0:0:0:
352,192,132802,1,0,0:0:0:0:
224,192,132894,1,0,0:0:0:0:
352,192,132985,1,0,0:0:0:0:
224,192,133168,1,0,0:0:0:0:
32,192,133351,1,4,0:0:0:0:
160,192,133351,1,8,0:0:0:0:
352,192,133351,1,0,0:0:0:0:
480,192,133351,1,0,0:0:0:0:
