osu file format v14

[General]
AudioFilename: audio.mp3
AudioLeadIn: 0
PreviewTime: 74205
Countdown: 0
SampleSet: Soft
StackLeniency: 0.7
Mode: 3
LetterboxInBreaks: 0
SpecialStyle: 0
WidescreenStoryboard: 0

[Editor]
DistanceSpacing: 0.8
BeatDivisor: 4
GridSize: 4
TimelineZoom: 2.799999

[Metadata]
Title:Help me, ERINNNNNN!! - SH Style -
TitleUnicode:Help me, ERINNNNNN!! - SH Style -
Artist:SOUND HOLIC feat. Nana Takahashi
ArtistUnicode:SOUND HOLIC feat. Nana Takahashi
Creator:Reuju-
Version:ADVANCED
Source:SOUND VOLTEX III GRAVITY WARS
Tags:SDVX Touhou beatMARIO COOL&CREATE 東方Project×SOUND VOLTEX 超激レアCD 2016 III GRAVITY WARS 竹取飛翔 ~ Lunatic Princess 東方永夜抄 ~ Imperishable Night Eirin Yagokoro Kaguya Houraisan 蓬莱山 輝夜 Eiyashou Eternal Night Vignette TH08 ZUN Team Shanghai Alice Toho Erin video game japanese electronic
BeatmapID:1079286
BeatmapSetID:507416

[Difficulty]
HPDrainRate:7.5
CircleSize:4
OverallDifficulty:7.5
ApproachRate:5
SliderMultiplier:1.4
SliderTickRate:1

[Events]
//Background and Video events
0,0,"bg.jpg",0,0
//Break Periods
//Storyboard Layer 0 (Background)
//Storyboard Layer 1 (Fail)
//Storyboard Layer 2 (Pass)
//Storyboard Layer 3 (Foreground)
//Storyboard Layer 4 (Overlay)
//Storyboard Sound Samples

[TimingPoints]
1258,315.789473684211,4,2,1,40,1,0
74521,-100,4,2,1,40,0,1
94731,-100,4,2,1,40,0,0

[HitObjects]
64,192,3784,128,0,4100:0:0:0:0:
192,192,3784,1,0,0:0:0:0:
448,192,4100,1,0,0:0:0:0:
64,192,4415,128,0,4731:0:0:0:0:
448,192,4731,1,0,0:0:0:0:
192,192,5047,1,0,0:0:0:0:
320,192,5205,1,0,0:0:0:0:
64,192,5363,1,0,0:0:0:0:
448,192,5521,1,0,0:0:0:0:
192,192,5679,1,0,0:0:0:0:
320,192,5836,1,0,0:0:0:0:
64,192,5994,1,0,0:0:0:0:
448,192,6152,1,0,0:0:0:0:
320,192,6152,1,0,0:0:0:0:
64,192,6310,128,0,6626:0:0:0:0:
192,192,6310,1,0,0:0:0:0:
448,192,6626,1,0,0:0:0:0:
64,192,6942,128,0,7258:0:0:0:0:
448,192,7258,1,0,0:0:0:0:
64,192,7573,1,0,0:0:0:0:
320,192,7731,1,0,0:0:0:0:
192,192,7889,1,0,0:0:0:0:
448,192,8047,1,0,0:0:0:0:
64,192,8205,1,0,0:0:0:0:
320,192,8363,1,0,0:0:0:0:
192,192,8521,1,0,0:0:0:0:
448,192,8679,1,0,0:0:0:0:
320,192,8679,1,0,0:0:0:0:
192,192,8836,1,0,0:0:0:0:
64,192,8836,128,0,9152:0:0:0:0:
448,192,9152,1,0,0:0:0:0:
64,192,9468,128,0,9784:0:0:0:0:
448,192,9784,1,0,0:0:0:0:
192,192,9942,1,0,0:0:0:0:
64,192,9942,1,0,0:0:0:0:
320,192,10100,1,0,0:0:0:0:
448,192,10100,1,0,0:0:0:0:
64,192,10258,1,0,0:0:0:0:
448,192,10415,1,0,0:0:0:0:
192,192,10573,1,0,0:0:0:0:
320,192,10731,1,0,0:0:0:0:
64,192,10889,1,0,0:0:0:0:
448,192,11047,1,0,0:0:0:0:
192,192,11205,1,0,0:0:0:0:
64,192,11205,1,0,0:0:0:0:
448,192,11363,128,0,11679:0:0:0:0:
320,192,11363,1,0,0:0:0:0:
64,192,11679,1,0,0:0:0:0:
320,192,11836,1,0,0:0:0:0:
448,192,11836,1,0,0:0:0:0:
64,192,11994,128,0,12310:0:0:0:0:
192,192,11994,1,0,0:0:0:0:
448,192,12310,1,0,0:0:0:0:
192,192,12468,1,0,0:0:0:0:
64,192,12468,1,0,0:0:0:0:
448,192,12626,1,0,0:0:0:0:
320,192,12626,1,0,0:0:0:0:
64,192,12784,1,0,0:0:0:0:
448,192,12942,1,0,0:0:0:0:
192,192,12942,1,0,0:0:0:0:
320,192,13100,1,0,0:0:0:0:
192,192,13258,1,0,0:0:0:0:
64,192,13258,1,0,0:0:0:0:
320,192,13415,1,0,0:0:0:0:
448,192,13415,1,0,0:0:0:0:
64,192,13573,1,0,0:0:0:0:
192,192,13652,1,0,0:0:0:0:
320,192,13731,1,0,0:0:0:0:
448,192,13731,1,0,0:0:0:0:
64,192,13889,1,0,0:0:0:0:
192,192,13889,1,0,0:0:0:0:
320,192,14047,1,0,0:0:0:0:
448,192,14205,1,0,0:0:0:0:
192,192,14205,1,0,0:0:0:0:
64,192,14363,1,0,0:0:0:0:
192,192,14521,1,0,0:0:0:0:
320,192,14521,1,0,0:0:0:0:
448,192,14679,1,0,0:0:0:0:
64,192,14836,1,0,0:0:0:0:
320,192,14836,1,0,0:0:0:0:
192,192,14994,1,0,0:0:0:0:
448,192,15152,1,0,0:0:0:0:
64,192,15152,1,0,0:0:0:0:
320,192,15310,1,0,0:0:0:0:
192,192,15468,1,0,0:0:0:0:
448,192,15468,1,0,0:0:0:0:
64,192,15626,1,0,0:0:0:0:
192,192,15784,1,0,0:0:0:0:
320,192,15784,1,0,0:0:0:0:
448,192,15942,1,0,0:0:0:0:
192,192,16100,1,0,0:0:0:0:
64,192,16100,1,0,0:0:0:0:
320,192,16258,1,0,0:0:0:0:
64,192,16415,1,0,0:0:0:0:
448,192,16415,1,0,0:0:0:0:
192,192,16573,1,0,0:0:0:0:
320,192,16731,1,0,0:0:0:0:
448,192,16731,1,0,0:0:0:0:
64,192,16889,1,0,0:0:0:0:
192,192,17047,1,0,0:0:0:0:
320,192,17047,1,0,0:0:0:0:
448,192,17205,1,0,0:0:0:0:
64,192,17363,1,0,0:0:0:0:
320,192,17363,1,0,0:0:0:0:
192,192,17521,1,0,0:0:0:0:
448,192,17679,1,0,0:0:0:0:
64,192,17679,1,0,0:0:0:0:
320,192,17836,1,0,0:0:0:0:
192,192,17994,1,0,0:0:0:0:
448,192,17994,1,0,0:0:0:0:
320,192,18152,1,0,0:0:0:0:
64,192,18310,1,0,0:0:0:0:
192,192,18310,1,0,0:0:0:0:
448,192,18468,1,0,0:0:0:0:
64,192,18626,1,0,0:0:0:0:
320,192,18626,1,0,0:0:0:0:
448,192,18784,1,0,0:0:0:0:
64,192,18942,1,0,0:0:0:0:
192,192,18942,1,0,0:0:0:0:
448,192,19100,1,0,0:0:0:0:
320,192,19100,1,0,0:0:0:0:
64,192,19258,1,0,0:0:0:0:
192,192,19258,1,0,0:0:0:0:
320,192,19415,1,0,0:0:0:0:
448,192,19415,1,0,0:0:0:0:
192,192,19573,1,0,0:0:0:0:
64,192,19573,1,0,0:0:0:0:
448,192,19731,1,0,0:0:0:0:
320,192,19731,1,0,0:0:0:0:
64,192,19889,1,0,0:0:0:0:
192,192,19889,1,0,0:0:0:0:
320,192,20047,1,0,0:0:0:0:
448,192,20047,1,0,0:0:0:0:
64,192,20205,1,0,0:0:0:0:
192,192,20284,1,0,0:0:0:0:
320,192,20363,1,0,0:0:0:0:
448,192,20442,1,0,0:0:0:0:
64,192,20521,1,0,0:0:0:0:
192,192,20600,1,0,0:0:0:0:
320,192,20679,1,0,0:0:0:0:
448,192,20758,1,0,0:0:0:0:
64,192,20836,1,0,0:0:0:0:
192,192,20915,1,0,0:0:0:0:
320,192,20994,1,0,0:0:0:0:
448,192,21073,1,0,0:0:0:0:
64,192,21152,1,0,0:0:0:0:
192,192,21231,1,0,0:0:0:0:
320,192,21310,1,0,0:0:0:0:
448,192,21389,1,0,0:0:0:0:
64,192,21468,128,0,22731:0:0:0:0:
192,192,21468,128,0,22731:0:0:0:0:
320,192,22731,1,0,0:0:0:0:
448,192,22731,1,0,0:0:0:0:
64,192,22942,1,0,0:0:0:0:
192,192,22942,1,0,0:0:0:0:
192,192,23152,1,0,0:0:0:0:
320,192,23152,1,0,0:0:0:0:
448,192,23363,1,0,0:0:0:0:
320,192,23363,1,0,0:0:0:0:
448,192,23994,128,0,24468:0:0:0:0:
320,192,23994,128,0,24468:0:0:0:0:
448,192,24626,128,0,24942:0:0:0:0:
192,192,24626,128,0,24942:0:0:0:0:
64,192,25100,128,0,25415:0:0:0:0:
192,192,25100,128,0,25415:0:0:0:0:
64,192,25573,128,0,25731:0:0:0:0:
192,192,25573,128,0,25731:0:0:0:0:
320,192,25731,128,0,25889:0:0:0:0:
192,192,25889,128,0,26205:0:0:0:0:
448,192,25889,128,0,26205:0:0:0:0:
64,192,26205,128,0,26363:0:0:0:0:
448,192,26363,128,0,26521:0:0:0:0:
192,192,26521,128,0,26836:0:0:0:0:
320,192,26521,128,0,26836:0:0:0:0:
64,192,26836,128,0,26994:0:0:0:0:
320,192,26994,128,0,27152:0:0:0:0:
64,192,27152,128,0,27626:0:0:0:0:
448,192,27152,128,0,27310:0:0:0:0:
320,192,27310,128,0,27468:0:0:0:0:
192,192,27468,128,0,27626:0:0:0:0:
448,192,27626,128,0,27784:0:0:0:0:
320,192,27626,128,0,27942:0:0:0:0:
192,192,27784,128,0,28100:0:0:0:0:
64,192,27784,128,0,27942:0:0:0:0:
448,192,28100,128,0,28415:0:0:0:0:
64,192,28100,128,0,28258:0:0:0:0:
320,192,28415,128,0,28731:0:0:0:0:
192,192,28415,128,0,28573:0:0:0:0:
448,192,28731,1,0,0:0:0:0:
64,192,28731,128,0,28889:0:0:0:0:
192,192,28889,128,0,29047:0:0:0:0:
448,192,29047,128,0,29679:0:0:0:0:
320,192,29047,1,0,0:0:0:0:
64,192,29205,1,0,0:0:0:0:
192,192,29363,1,0,0:0:0:0:
320,192,29363,1,0,0:0:0:0:
64,192,29521,1,0,0:0:0:0:
320,192,29679,128,0,29994:0:0:0:0:
192,192,29679,1,0,0:0:0:0:
448,192,29836,1,0,0:0:0:0:
192,192,29994,1,0,0:0:0:0:
64,192,29994,1,0,0:0:0:0:
320,192,30152,128,0,30468:0:0:0:0:
192,192,30310,1,0,0:0:0:0:
448,192,30468,128,0,30626:0:0:0:0:
64,192,30468,1,0,0:0:0:0:
320,192,30626,128,0,30784:0:0:0:0:
192,192,30626,1,0,0:0:0:0:
64,192,30784,128,0,30942:0:0:0:0:
448,192,30942,1,0,0:0:0:0:
192,192,30942,128,0,31258:0:0:0:0:
320,192,31100,1,0,0:0:0:0:
64,192,31258,128,0,31415:0:0:0:0:
448,192,31258,1,0,0:0:0:0:
192,192,31415,128,0,31573:0:0:0:0:
320,192,31573,128,0,31889:0:0:0:0:
448,192,31573,1,0,0:0:0:0:
64,192,31731,1,0,0:0:0:0:
192,192,31889,128,0,32047:0:0:0:0:
448,192,31889,1,0,0:0:0:0:
320,192,32047,128,0,32205:0:0:0:0:
448,192,32205,128,0,32363:0:0:0:0:
192,192,32205,1,0,0:0:0:0:
320,192,32363,128,0,32521:0:0:0:0:
192,192,32521,128,0,32679:0:0:0:0:
64,192,32521,1,0,0:0:0:0:
448,192,32679,128,0,32836:0:0:0:0:
64,192,32836,1,0,0:0:0:0:
192,192,32915,1,0,0:0:0:0:
320,192,32994,1,0,0:0:0:0:
448,192,33073,1,0,0:0:0:0:
64,192,33152,1,0,0:0:0:0:
192,192,33231,1,0,0:0:0:0:
320,192,33310,1,0,0:0:0:0:
448,192,33389,1,0,0:0:0:0:
64,192,33468,1,0,0:0:0:0:
448,192,33626,1,0,0:0:0:0:
320,192,33626,1,0,0:0:0:0:
448,192,33784,1,0,0:0:0:0:
320,192,33784,1,0,0:0:0:0:
64,192,34100,1,0,0:0:0:0:
192,192,34100,128,0,34415:0:0:0:0:
320,192,34258,1,0,0:0:0:0:
64,192,34415,1,0,0:0:0:0:
448,192,34415,1,0,0:0:0:0:
192,192,34573,1,0,0:0:0:0:
64,192,34731,128,0,34810:0:0:0:0:
320,192,34731,128,0,34810:0:0:0:0:
192,192,34968,128,0,35047:0:0:0:0:
448,192,34968,128,0,35047:0:0:0:0:
320,192,35047,1,0,0:0:0:0:
64,192,35205,128,0,35521:0:0:0:0:
192,192,35205,128,0,35521:0:0:0:0:
448,192,35521,128,0,35679:0:0:0:0:
192,192,35679,1,0,0:0:0:0:
320,192,35679,128,0,35836:0:0:0:0:
64,192,35836,128,0,35994:0:0:0:0:
320,192,35994,1,0,0:0:0:0:
448,192,35994,1,0,0:0:0:0:
192,192,36073,1,0,0:0:0:0:
320,192,36152,128,0,36310:0:0:0:0:
448,192,36310,1,0,0:0:0:0:
192,192,36310,128,0,36468:0:0:0:0:
64,192,36468,128,0,36626:0:0:0:0:
448,192,36626,128,0,36942:0:0:0:0:
192,192,36626,1,0,0:0:0:0:
320,192,36784,1,0,0:0:0:0:
192,192,36942,1,0,0:0:0:0:
64,192,36942,1,0,0:0:0:0:
320,192,37100,1,0,0:0:0:0:
448,192,37258,128,0,37336:0:0:0:0:
192,192,37258,128,0,37336:0:0:0:0:
320,192,37494,128,0,37573:0:0:0:0:
64,192,37494,128,0,37573:0:0:0:0:
448,192,37573,1,0,0:0:0:0:
320,192,37731,128,0,38047:0:0:0:0:
192,192,37731,128,0,38047:0:0:0:0:
448,192,38047,128,0,38205:0:0:0:0:
64,192,38205,128,0,38363:0:0:0:0:
320,192,38205,1,0,0:0:0:0:
192,192,38363,128,0,38521:0:0:0:0:
320,192,38521,1,0,0:0:0:0:
448,192,38521,1,0,0:0:0:0:
64,192,38600,1,0,0:0:0:0:
448,192,38679,128,0,38836:0:0:0:0:
320,192,38836,1,0,0:0:0:0:
64,192,38836,128,0,38994:0:0:0:0:
192,192,38994,128,0,39152:0:0:0:0:
448,192,39152,1,0,0:0:0:0:
64,192,39152,128,0,39468:0:0:0:0:
192,192,39310,1,0,0:0:0:0:
448,192,39468,1,0,0:0:0:0:
320,192,39468,1,0,0:0:0:0:
64,192,39626,1,0,0:0:0:0:
448,192,39784,128,0,39863:0:0:0:0:
192,192,39784,128,0,39863:0:0:0:0:
320,192,40021,128,0,40100:0:0:0:0:
64,192,40021,128,0,40100:0:0:0:0:
192,192,40100,1,0,0:0:0:0:
448,192,40258,128,0,40573:0:0:0:0:
320,192,40258,128,0,40573:0:0:0:0:
64,192,40573,128,0,40731:0:0:0:0:
320,192,40731,1,0,0:0:0:0:
192,192,40731,128,0,40889:0:0:0:0:
448,192,40889,128,0,41047:0:0:0:0:
192,192,41047,1,0,0:0:0:0:
64,192,41047,1,0,0:0:0:0:
320,192,41126,1,0,0:0:0:0:
192,192,41205,128,0,41363:0:0:0:0:
64,192,41363,1,0,0:0:0:0:
320,192,41363,128,0,41521:0:0:0:0:
448,192,41521,128,0,41679:0:0:0:0:
64,192,41679,1,0,0:0:0:0:
192,192,41679,1,0,0:0:0:0:
192,192,41836,1,0,0:0:0:0:
64,192,41836,1,0,0:0:0:0:
448,192,41994,1,0,0:0:0:0:
320,192,41994,1,0,0:0:0:0:
448,192,42152,1,0,0:0:0:0:
320,192,42152,1,0,0:0:0:0:
64,192,42310,1,0,0:0:0:0:
192,192,42310,1,0,0:0:0:0:
64,192,42468,1,0,0:0:0:0:
192,192,42468,1,0,0:0:0:0:
320,192,42626,1,0,0:0:0:0:
448,192,42626,1,0,0:0:0:0:
320,192,42784,1,0,0:0:0:0:
448,192,42784,1,0,0:0:0:0:
192,192,42942,1,0,0:0:0:0:
64,192,43021,1,0,0:0:0:0:
320,192,43100,1,0,0:0:0:0:
448,192,43179,1,0,0:0:0:0:
192,192,43258,1,0,0:0:0:0:
64,192,43336,1,0,0:0:0:0:
320,192,43415,1,0,0:0:0:0:
448,192,43494,1,0,0:0:0:0:
64,192,43573,1,0,0:0:0:0:
448,192,43731,1,0,0:0:0:0:
320,192,43731,1,0,0:0:0:0:
320,192,43889,1,0,0:0:0:0:
448,192,43889,1,0,0:0:0:0:
192,192,44205,1,0,0:0:0:0:
64,192,44205,1,0,0:0:0:0:
320,192,44363,1,0,0:0:0:0:
448,192,44521,1,0,0:0:0:0:
320,192,44679,1,0,0:0:0:0:
192,192,44836,1,0,0:0:0:0:
64,192,44836,1,0,0:0:0:0:
320,192,44994,1,0,0:0:0:0:
192,192,45152,1,0,0:0:0:0:
320,192,45310,1,0,0:0:0:0:
64,192,45468,1,0,0:0:0:0:
448,192,45468,1,0,0:0:0:0:
320,192,45626,1,0,0:0:0:0:
192,192,45784,1,0,0:0:0:0:
320,192,45942,1,0,0:0:0:0:
64,192,46100,1,0,0:0:0:0:
448,192,46100,1,0,0:0:0:0:
192,192,46258,1,0,0:0:0:0:
320,192,46415,1,0,0:0:0:0:
192,192,46573,1,0,0:0:0:0:
64,192,46731,1,0,0:0:0:0:
320,192,46731,1,0,0:0:0:0:
192,192,46889,1,0,0:0:0:0:
320,192,47047,1,0,0:0:0:0:
448,192,47205,1,0,0:0:0:0:
320,192,47363,1,0,0:0:0:0:
64,192,47363,1,0,0:0:0:0:
448,192,47521,1,0,0:0:0:0:
320,192,47679,1,0,0:0:0:0:
192,192,47836,1,0,0:0:0:0:
448,192,47994,1,0,0:0:0:0:
320,192,47994,1,0,0:0:0:0:
64,192,48152,128,0,48310:0:0:0:0:
448,192,48310,1,0,0:0:0:0:
192,192,48468,128,0,48626:0:0:0:0:
320,192,48626,1,0,0:0:0:0:
448,192,48626,1,0,0:0:0:0:
192,192,48784,128,0,48942:0:0:0:0:
448,192,48942,1,0,0:0:0:0:
64,192,49100,128,0,49258:0:0:0:0:
192,192,49258,1,0,0:0:0:0:
320,192,49258,1,0,0:0:0:0:
64,192,49415,1,0,0:0:0:0:
320,192,49573,1,0,0:0:0:0:
448,192,49731,1,0,0:0:0:0:
192,192,49889,1,0,0:0:0:0:
320,192,49889,1,0,0:0:0:0:
64,192,50047,1,0,0:0:0:0:
448,192,50205,1,0,0:0:0:0:
320,192,50363,1,0,0:0:0:0:
192,192,50521,1,0,0:0:0:0:
448,192,50521,1,0,0:0:0:0:
64,192,50679,1,0,0:0:0:0:
192,192,50836,1,0,0:0:0:0:
320,192,50994,1,0,0:0:0:0:
448,192,51152,1,0,0:0:0:0:
192,192,51152,1,0,0:0:0:0:
320,192,51310,1,0,0:0:0:0:
64,192,51468,1,0,0:0:0:0:
192,192,51626,1,0,0:0:0:0:
320,192,51784,1,0,0:0:0:0:
64,192,51784,1,0,0:0:0:0:
448,192,51942,1,0,0:0:0:0:
64,192,52100,1,0,0:0:0:0:
192,192,52100,1,0,0:0:0:0:
320,192,52258,1,0,0:0:0:0:
448,192,52415,1,0,0:0:0:0:
192,192,52415,1,0,0:0:0:0:
64,192,52573,1,0,0:0:0:0:
320,192,52731,1,0,0:0:0:0:
448,192,52731,1,0,0:0:0:0:
64,192,52889,1,0,0:0:0:0:
192,192,52968,1,0,0:0:0:0:
448,192,53047,1,0,0:0:0:0:
320,192,53126,1,0,0:0:0:0:
192,192,53205,1,0,0:0:0:0:
64,192,53284,1,0,0:0:0:0:
448,192,53363,1,0,0:0:0:0:
320,192,53442,1,0,0:0:0:0:
192,192,53521,1,0,0:0:0:0:
64,192,53600,1,0,0:0:0:0:
448,192,53679,1,0,0:0:0:0:
192,192,53758,1,0,0:0:0:0:
320,192,53836,1,0,0:0:0:0:
64,192,53915,1,0,0:0:0:0:
192,192,53994,1,0,0:0:0:0:
448,192,53994,128,0,54310:0:0:0:0:
64,192,54310,1,0,0:0:0:0:
320,192,54310,1,0,0:0:0:0:
192,192,54468,1,0,0:0:0:0:
320,192,54626,1,0,0:0:0:0:
448,192,54626,1,0,0:0:0:0:
192,192,54784,1,0,0:0:0:0:
448,192,54942,1,0,0:0:0:0:
64,192,54942,1,0,0:0:0:0:
320,192,55100,1,0,0:0:0:0:
192,192,55258,1,0,0:0:0:0:
64,192,55258,1,0,0:0:0:0:
448,192,55415,1,0,0:0:0:0:
192,192,55573,1,0,0:0:0:0:
320,192,55573,1,0,0:0:0:0:
64,192,55731,1,0,0:0:0:0:
192,192,55889,1,0,0:0:0:0:
448,192,55889,1,0,0:0:0:0:
64,192,56047,1,0,0:0:0:0:
320,192,56205,1,0,0:0:0:0:
448,192,56205,1,0,0:0:0:0:
192,192,56363,1,0,0:0:0:0:
64,192,56521,1,0,0:0:0:0:
320,192,56521,1,0,0:0:0:0:
448,192,56679,1,0,0:0:0:0:
192,192,56836,1,0,0:0:0:0:
64,192,56836,1,0,0:0:0:0:
320,192,56994,1,0,0:0:0:0:
448,192,57152,1,0,0:0:0:0:
192,192,57152,1,0,0:0:0:0:
64,192,57310,1,0,0:0:0:0:
192,192,57468,1,0,0:0:0:0:
320,192,57468,1,0,0:0:0:0:
448,192,57626,1,0,0:0:0:0:
64,192,57784,1,0,0:0:0:0:
320,192,57784,1,0,0:0:0:0:
192,192,57942,1,0,0:0:0:0:
320,192,58100,1,0,0:0:0:0:
448,192,58100,128,0,58258:0:0:0:0:
64,192,58258,1,0,0:0:0:0:
64,192,58415,1,0,0:0:0:0:
192,192,58415,128,0,58573:0:0:0:0:
448,192,58573,1,0,0:0:0:0:
448,192,58731,1,0,0:0:0:0:
320,192,58731,128,0,58889:0:0:0:0:
192,192,58889,1,0,0:0:0:0:
192,192,59047,1,0,0:0:0:0:
64,192,59047,128,0,59205:0:0:0:0:
320,192,59205,1,0,0:0:0:0:
448,192,59363,1,0,0:0:0:0:
64,192,59363,1,0,0:0:0:0:
192,192,59521,1,0,0:0:0:0:
320,192,59679,1,0,0:0:0:0:
448,192,59679,1,0,0:0:0:0:
192,192,59836,1,0,0:0:0:0:
64,192,59994,1,0,0:0:0:0:
320,192,59994,1,0,0:0:0:0:
448,192,60152,1,0,0:0:0:0:
320,192,60310,1,0,0:0:0:0:
192,192,60310,1,0,0:0:0:0:
64,192,60468,1,0,0:0:0:0:
192,192,60626,1,0,0:0:0:0:
448,192,60626,1,0,0:0:0:0:
320,192,60784,1,0,0:0:0:0:
192,192,60942,1,0,0:0:0:0:
64,192,60942,1,0,0:0:0:0:
320,192,61100,1,0,0:0:0:0:
64,192,61258,1,0,0:0:0:0:
448,192,61258,1,0,0:0:0:0:
192,192,61415,1,0,0:0:0:0:
64,192,61573,1,0,0:0:0:0:
320,192,61573,1,0,0:0:0:0:
192,192,61731,1,0,0:0:0:0:
448,192,61889,1,0,0:0:0:0:
320,192,61889,1,0,0:0:0:0:
64,192,62047,1,0,0:0:0:0:
192,192,62205,1,0,0:0:0:0:
320,192,62205,1,0,0:0:0:0:
448,192,62363,1,0,0:0:0:0:
64,192,62521,1,0,0:0:0:0:
192,192,62521,1,0,0:0:0:0:
320,192,62679,1,0,0:0:0:0:
448,192,62836,1,0,0:0:0:0:
64,192,62836,1,0,0:0:0:0:
192,192,62994,1,0,0:0:0:0:
320,192,63073,1,0,0:0:0:0:
448,192,63152,1,0,0:0:0:0:
320,192,63231,1,0,0:0:0:0:
192,192,63310,1,0,0:0:0:0:
64,192,63389,1,0,0:0:0:0:
448,192,63468,1,0,0:0:0:0:
192,192,63547,1,0,0:0:0:0:
320,192,63626,1,0,0:0:0:0:
64,192,63705,1,0,0:0:0:0:
448,192,63784,1,0,0:0:0:0:
320,192,63863,1,0,0:0:0:0:
64,192,63942,1,0,0:0:0:0:
192,192,64021,1,0,0:0:0:0:
448,192,64100,1,0,0:0:0:0:
320,192,64179,1,0,0:0:0:0:
192,192,64258,1,0,0:0:0:0:
64,192,64336,1,0,0:0:0:0:
320,192,64415,128,0,64731:0:0:0:0:
448,192,64415,128,0,64731:0:0:0:0:
192,192,64731,1,0,0:0:0:0:
320,192,64889,1,0,0:0:0:0:
448,192,64889,1,0,0:0:0:0:
448,192,65047,128,0,65363:0:0:0:0:
320,192,65047,128,0,65363:0:0:0:0:
64,192,65363,1,0,0:0:0:0:
192,192,65679,128,0,65994:0:0:0:0:
448,192,65679,128,0,65994:0:0:0:0:
64,192,65994,1,0,0:0:0:0:
192,192,66152,1,0,0:0:0:0:
448,192,66152,1,0,0:0:0:0:
192,192,66310,128,0,66626:0:0:0:0:
448,192,66310,128,0,66626:0:0:0:0:
320,192,66626,1,0,0:0:0:0:
448,192,66942,128,0,67258:0:0:0:0:
64,192,66942,128,0,67258:0:0:0:0:
320,192,67258,1,0,0:0:0:0:
448,192,67415,1,0,0:0:0:0:
64,192,67415,1,0,0:0:0:0:
64,192,67573,128,0,67889:0:0:0:0:
448,192,67573,128,0,67889:0:0:0:0:
192,192,67889,1,0,0:0:0:0:
64,192,68205,128,0,68521:0:0:0:0:
320,192,68205,128,0,68521:0:0:0:0:
448,192,68521,1,0,0:0:0:0:
64,192,68679,1,0,0:0:0:0:
320,192,68679,1,0,0:0:0:0:
320,192,68836,128,0,69152:0:0:0:0:
64,192,68836,128,0,69152:0:0:0:0:
192,192,69152,1,0,0:0:0:0:
320,192,69468,1,0,0:0:0:0:
448,192,69468,1,0,0:0:0:0:
192,192,69626,1,0,0:0:0:0:
64,192,69784,1,0,0:0:0:0:
320,192,69784,1,0,0:0:0:0:
448,192,69942,1,0,0:0:0:0:
320,192,70100,1,0,0:0:0:0:
192,192,70100,1,0,0:0:0:0:
64,192,70258,1,0,0:0:0:0:
320,192,70415,1,0,0:0:0:0:
448,192,70415,1,0,0:0:0:0:
192,192,70573,1,0,0:0:0:0:
320,192,70731,1,0,0:0:0:0:
64,192,70731,1,0,0:0:0:0:
192,192,70889,1,0,0:0:0:0:
64,192,71047,1,0,0:0:0:0:
448,192,71047,1,0,0:0:0:0:
192,192,71205,1,0,0:0:0:0:
320,192,71363,1,0,0:0:0:0:
448,192,71363,1,0,0:0:0:0:
64,192,71521,1,0,0:0:0:0:
192,192,71679,1,0,0:0:0:0:
448,192,71679,1,0,0:0:0:0:
320,192,71836,1,0,0:0:0:0:
64,192,71994,1,0,0:0:0:0:
192,192,71994,1,0,0:0:0:0:
320,192,72152,1,0,0:0:0:0:
448,192,72152,1,0,0:0:0:0:
64,192,72310,1,0,0:0:0:0:
192,192,72310,1,0,0:0:0:0:
320,192,72468,1,0,0:0:0:0:
448,192,72468,1,0,0:0:0:0:
64,192,72626,1,0,0:0:0:0:
448,192,72705,1,0,0:0:0:0:
192,192,72784,1,0,0:0:0:0:
320,192,72863,1,0,0:0:0:0:
64,192,72942,1,0,0:0:0:0:
448,192,73021,1,0,0:0:0:0:
320,192,73100,1,0,0:0:0:0:
192,192,73179,1,0,0:0:0:0:
64,192,73258,1,0,0:0:0:0:
448,192,73258,1,0,0:0:0:0:
64,192,73468,1,0,0:0:0:0:
192,192,73468,1,0,0:0:0:0:
192,192,73679,1,0,0:0:0:0:
320,192,73679,1,0,0:0:0:0:
320,192,73889,1,0,0:0:0:0:
448,192,73889,1,0,0:0:0:0:
64,192,74205,128,0,74521:0:0:0:0:
448,192,74521,128,0,75152:0:0:0:0:
320,192,74521,1,0,0:0:0:0:
192,192,74679,1,0,0:0:0:0:
320,192,74836,1,0,0:0:0:0:
64,192,74836,1,0,0:0:0:0:
192,192,74994,1,0,0:0:0:0:
320,192,75152,128,0,75468:0:0:0:0:
64,192,75152,1,0,0:0:0:0:
192,192,75310,1,0,0:0:0:0:
448,192,75468,1,0,0:0:0:0:
64,192,75468,1,0,0:0:0:0:
192,192,75626,128,0,75942:0:0:0:0:
320,192,75784,1,0,0:0:0:0:
448,192,75784,1,0,0:0:0:0:
64,192,75942,128,0,76100:0:0:0:0:
448,192,76100,1,0,0:0:0:0:
192,192,76100,128,0,76258:0:0:0:0:
320,192,76258,128,0,76415:0:0:0:0:
448,192,76415,128,0,76731:0:0:0:0:
64,192,76415,1,0,0:0:0:0:
192,192,76573,1,0,0:0:0:0:
64,192,76731,128,0,76889:0:0:0:0:
320,192,76731,1,0,0:0:0:0:
192,192,76889,128,0,77047:0:0:0:0:
320,192,77047,128,0,77363:0:0:0:0:
448,192,77047,1,0,0:0:0:0:
64,192,77205,1,0,0:0:0:0:
192,192,77363,128,0,77521:0:0:0:0:
448,192,77363,1,0,0:0:0:0:
320,192,77521,128,0,77679:0:0:0:0:
448,192,77679,128,0,77836:0:0:0:0:
64,192,77679,1,0,0:0:0:0:
320,192,77836,128,0,77994:0:0:0:0:
192,192,77994,128,0,78152:0:0:0:0:
64,192,77994,1,0,0:0:0:0:
320,192,78152,128,0,78310:0:0:0:0:
192,192,78310,128,0,78626:0:0:0:0:
448,192,78310,1,0,0:0:0:0:
64,192,78468,1,0,0:0:0:0:
448,192,78626,128,0,78942:0:0:0:0:
320,192,78626,1,0,0:0:0:0:
64,192,78784,1,0,0:0:0:0:
320,192,78942,1,0,0:0:0:0:
192,192,78942,128,0,79258:0:0:0:0:
448,192,79100,1,0,0:0:0:0:
64,192,79258,128,0,79415:0:0:0:0:
320,192,79258,1,0,0:0:0:0:
192,192,79415,128,0,79573:0:0:0:0:
320,192,79573,128,0,80205:0:0:0:0:
64,192,79573,1,0,0:0:0:0:
448,192,79731,1,0,0:0:0:0:
64,192,79889,1,0,0:0:0:0:
192,192,79889,1,0,0:0:0:0:
448,192,80047,1,0,0:0:0:0:
192,192,80205,128,0,80521:0:0:0:0:
64,192,80205,1,0,0:0:0:0:
320,192,80363,1,0,0:0:0:0:
64,192,80521,1,0,0:0:0:0:
448,192,80521,1,0,0:0:0:0:
320,192,80679,128,0,80994:0:0:0:0:
192,192,80836,1,0,0:0:0:0:
64,192,80836,1,0,0:0:0:0:
448,192,80994,128,0,81152:0:0:0:0:
192,192,81152,1,0,0:0:0:0:
320,192,81152,128,0,81310:0:0:0:0:
64,192,81310,128,0,81468:0:0:0:0:
448,192,81468,1,0,0:0:0:0:
192,192,81468,128,0,81626:0:0:0:0:
320,192,81626,1,0,0:0:0:0:
64,192,81784,128,0,81942:0:0:0:0:
448,192,81784,1,0,0:0:0:0:
320,192,81942,128,0,82100:0:0:0:0:
448,192,82100,128,0,82258:0:0:0:0:
192,192,82100,1,0,0:0:0:0:
64,192,82258,1,0,0:0:0:0:
192,192,82415,128,0,82573:0:0:0:0:
448,192,82415,1,0,0:0:0:0:
320,192,82573,128,0,82731:0:0:0:0:
448,192,82731,128,0,82889:0:0:0:0:
192,192,82731,1,0,0:0:0:0:
320,192,82889,128,0,83047:0:0:0:0:
448,192,83047,1,0,0:0:0:0:
192,192,83047,128,0,83205:0:0:0:0:
64,192,83205,128,0,83363:0:0:0:0:
448,192,83363,1,0,0:0:0:0:
320,192,83442,1,0,0:0:0:0:
192,192,83521,1,0,0:0:0:0:
320,192,83600,1,0,0:0:0:0:
64,192,83679,1,0,0:0:0:0:
192,192,83758,1,0,0:0:0:0:
320,192,83836,1,0,0:0:0:0:
448,192,83915,1,0,0:0:0:0:
64,192,83994,1,0,0:0:0:0:
192,192,84073,1,0,0:0:0:0:
320,192,84152,1,0,0:0:0:0:
192,192,84231,1,0,0:0:0:0:
448,192,84310,1,0,0:0:0:0:
320,192,84389,1,0,0:0:0:0:
192,192,84468,1,0,0:0:0:0:
64,192,84547,1,0,0:0:0:0:
320,192,84626,1,0,0:0:0:0:
448,192,84626,128,0,85258:0:0:0:0:
192,192,84784,1,0,0:0:0:0:
320,192,84942,1,0,0:0:0:0:
64,192,84942,1,0,0:0:0:0:
192,192,85100,1,0,0:0:0:0:
320,192,85258,128,0,85573:0:0:0:0:
64,192,85258,1,0,0:0:0:0:
192,192,85415,1,0,0:0:0:0:
448,192,85573,1,0,0:0:0:0:
64,192,85573,1,0,0:0:0:0:
192,192,85731,128,0,86047:0:0:0:0:
448,192,85889,1,0,0:0:0:0:
320,192,85889,1,0,0:0:0:0:
64,192,86047,128,0,86205:0:0:0:0:
448,192,86205,1,0,0:0:0:0:
192,192,86205,128,0,86363:0:0:0:0:
320,192,86363,128,0,86521:0:0:0:0:
448,192,86521,128,0,86836:0:0:0:0:
64,192,86521,1,0,0:0:0:0:
192,192,86679,1,0,0:0:0:0:
64,192,86836,128,0,86994:0:0:0:0:
320,192,86836,1,0,0:0:0:0:
192,192,86994,128,0,87152:0:0:0:0:
320,192,87152,128,0,87310:0:0:0:0:
448,192,87152,1,0,0:0:0:0:
64,192,87310,1,0,0:0:0:0:
192,192,87468,128,0,87626:0:0:0:0:
448,192,87468,1,0,0:0:0:0:
320,192,87626,128,0,87784:0:0:0:0:
448,192,87784,128,0,87942:0:0:0:0:
192,192,87784,1,0,0:0:0:0:
320,192,87942,128,0,88100:0:0:0:0:
64,192,88100,128,0,88258:0:0:0:0:
192,192,88100,1,0,0:0:0:0:
448,192,88258,128,0,88415:0:0:0:0:
320,192,88415,1,0,0:0:0:0:
192,192,88415,128,0,88731:0:0:0:0:
64,192,88573,1,0,0:0:0:0:
448,192,88731,128,0,89047:0:0:0:0:
320,192,88731,1,0,0:0:0:0:
192,192,88889,1,0,0:0:0:0:
64,192,89047,1,0,0:0:0:0:
320,192,89047,128,0,89363:0:0:0:0:
192,192,89205,1,0,0:0:0:0:
64,192,89363,128,0,89521:0:0:0:0:
448,192,89363,1,0,0:0:0:0:
192,192,89521,128,0,89679:0:0:0:0:
448,192,89679,128,0,90310:0:0:0:0:
64,192,89679,1,0,0:0:0:0:
192,192,89836,1,0,0:0:0:0:
64,192,89994,1,0,0:0:0:0:
320,192,89994,1,0,0:0:0:0:
192,192,90152,1,0,0:0:0:0:
320,192,90310,128,0,90626:0:0:0:0:
64,192,90310,1,0,0:0:0:0:
192,192,90468,1,0,0:0:0:0:
448,192,90626,1,0,0:0:0:0:
64,192,90626,1,0,0:0:0:0:
320,192,90784,128,0,91100:0:0:0:0:
64,192,90942,1,0,0:0:0:0:
192,192,90942,1,0,0:0:0:0:
448,192,91100,128,0,91258:0:0:0:0:
192,192,91258,1,0,0:0:0:0:
320,192,91258,128,0,91415:0:0:0:0:
64,192,91415,128,0,91573:0:0:0:0:
192,192,91573,128,0,91731:0:0:0:0:
320,192,91573,1,0,0:0:0:0:
448,192,91731,1,0,0:0:0:0:
192,192,91889,1,0,0:0:0:0:
320,192,91889,128,0,92205:0:0:0:0:
64,192,92047,1,0,0:0:0:0:
192,192,92205,1,0,0:0:0:0:
448,192,92205,128,0,92836:0:0:0:0:
64,192,92363,1,0,0:0:0:0:
320,192,92521,1,0,0:0:0:0:
192,192,92521,1,0,0:0:0:0:
64,192,92679,1,0,0:0:0:0:
320,192,92836,1,0,0:0:0:0:
192,192,92836,1,0,0:0:0:0:
448,192,92994,1,0,0:0:0:0:
320,192,93152,1,0,0:0:0:0:
64,192,93152,1,0,0:0:0:0:
192,192,93310,1,0,0:0:0:0:
448,192,93468,1,0,0:0:0:0:
320,192,93468,1,0,0:0:0:0:
192,192,93626,1,0,0:0:0:0:
448,192,93784,1,0,0:0:0:0:
64,192,93784,1,0,0:0:0:0:
320,192,93942,1,0,0:0:0:0:
448,192,94100,1,0,0:0:0:0:
320,192,94179,1,0,0:0:0:0:
192,192,94258,1,0,0:0:0:0:
64,192,94336,1,0,0:0:0:0:
448,192,94415,1,0,0:0:0:0:
320,192,94494,1,0,0:0:0:0:
192,192,94573,1,0,0:0:0:0:
64,192,94652,1,0,0:0:0:0:
448,192,94731,1,0,0:0:0:0:
64,192,94810,1,0,0:0:0:0:
320,192,94889,1,0,0:0:0:0:
192,192,94968,1,0,0:0:0:0:
448,192,95047,1,0,0:0:0:0:
64,192,95126,1,0,0:0:0:0:
320,192,95205,1,0,0:0:0:0:
192,192,95284,1,0,0:0:0:0:
448,192,95363,1,0,0:0:0:0:
64,192,95442,1,0,0:0:0:0:
320,192,95521,1,0,0:0:0:0:
192,192,95600,1,0,0:0:0:0:
448,192,95679,1,0,0:0:0:0:
64,192,95758,1,0,0:0:0:0:
320,192,95836,1,0,0:0:0:0:
192,192,95915,1,0,0:0:0:0:
448,192,95994,1,0,0:0:0:0:
192,192,96073,1,0,0:0:0:0:
320,192,96152,1,0,0:0:0:0:
64,192,96231,1,0,0:0:0:0:
448,192,96310,1,0,0:0:0:0:
192,192,96389,1,0,0:0:0:0:
320,192,96468,1,0,0:0:0:0:
64,192,96547,1,0,0:0:0:0:
448,192,96626,1,0,0:0:0:0:
192,192,96705,1,0,0:0:0:0:
320,192,96784,1,0,0:0:0:0:
64,192,96863,1,0,0:0:0:0:
448,192,96942,1,0,0:0:0:0:
192,192,97021,1,0,0:0:0:0:
320,192,97100,1,0,0:0:0:0:
192,192,97179,1,0,0:0:0:0:
64,192,97258,1,0,0:0:0:0:
448,192,97336,1,0,0:0:0:0:
192,192,97415,1,0,0:0:0:0:
320,192,97494,1,0,0:0:0:0:
64,192,97573,1,0,0:0:0:0:
448,192,97652,1,0,0:0:0:0:
192,192,97731,1,0,0:0:0:0:
320,192,97810,1,0,0:0:0:0:
64,192,97889,1,0,0:0:0:0:
448,192,97968,1,0,0:0:0:0:
192,192,98047,1,0,0:0:0:0:
320,192,98126,1,0,0:0:0:0:
64,192,98205,1,0,0:0:0:0:
448,192,98284,1,0,0:0:0:0:
192,192,98363,1,0,0:0:0:0:
320,192,98442,1,0,0:0:0:0:
64,192,98521,1,0,0:0:0:0:
320,192,98600,1,0,0:0:0:0:
192,192,98679,1,0,0:0:0:0:
448,192,98758,1,0,0:0:0:0:
64,192,98836,1,0,0:0:0:0:
320,192,98915,1,0,0:0:0:0:
192,192,98994,1,0,0:0:0:0:
448,192,99073,1,0,0:0:0:0:
64,192,99152,1,0,0:0:0:0:
320,192,99231,1,0,0:0:0:0:
192,192,99310,1,0,0:0:0:0:
448,192,99389,1,0,0:0:0:0:
64,192,99468,1,0,0:0:0:0:
320,192,99547,1,0,0:0:0:0:
192,192,99626,1,0,0:0:0:0:
320,192,99705,1,0,0:0:0:0:
448,192,99784,1,0,0:0:0:0:
64,192,99863,1,0,0:0:0:0:
320,192,99942,1,0,0:0:0:0:
192,192,100021,1,0,0:0:0:0:
448,192,100100,1,0,0:0:0:0:
64,192,100179,1,0,0:0:0:0:
320,192,100258,1,0,0:0:0:0:
192,192,100336,1,0,0:0:0:0:
448,192,100415,1,0,0:0:0:0:
64,192,100494,1,0,0:0:0:0:
320,192,100573,1,0,0:0:0:0:
192,192,100652,1,0,0:0:0:0:
448,192,100731,1,0,0:0:0:0:
64,192,100810,1,0,0:0:0:0:
320,192,100889,1,0,0:0:0:0:
192,192,100968,1,0,0:0:0:0:
448,192,101047,1,0,0:0:0:0:
192,192,101126,1,0,0:0:0:0:
320,192,101205,1,0,0:0:0:0:
64,192,101284,1,0,0:0:0:0:
448,192,101363,1,0,0:0:0:0:
192,192,101442,1,0,0:0:0:0:
320,192,101521,1,0,0:0:0:0:
64,192,101600,1,0,0:0:0:0:
448,192,101679,1,0,0:0:0:0:
192,192,101758,1,0,0:0:0:0:
320,192,101836,1,0,0:0:0:0:
64,192,101915,1,0,0:0:0:0:
448,192,101994,1,0,0:0:0:0:
192,192,102073,1,0,0:0:0:0:
320,192,102152,1,0,0:0:0:0:
64,192,102231,1,0,0:0:0:0:
448,192,102310,1,0,0:0:0:0:
320,192,102310,1,0,0:0:0:0:
448,192,102468,1,0,0:0:0:0:
320,192,102468,1,0,0:0:0:0:
192,192,102626,1,0,0:0:0:0:
64,192,102626,1,0,0:0:0:0:
192,192,102784,1,0,0:0:0:0:
64,192,102784,1,0,0:0:0:0:
448,192,102942,1,0,0:0:0:0:
320,192,102942,1,0,0:0:0:0:
448,192,103100,1,0,0:0:0:0:
320,192,103100,1,0,0:0:0:0:
192,192,103258,1,0,0:0:0:0:
64,192,103258,1,0,0:0:0:0:
192,192,103415,1,0,0:0:0:0:
64,192,103415,1,0,0:0:0:0:
448,192,103573,1,0,0:0:0:0:
320,192,103652,1,0,0:0:0:0:
192,192,103731,1,0,0:0:0:0:
64,192,103810,1,0,0:0:0:0:
448,192,103889,1,0,0:0:0:0:
320,192,103968,1,0,0:0:0:0:
192,192,104047,1,0,0:0:0:0:
64,192,104126,1,0,0:0:0:0:
448,192,104205,1,0,0:0:0:0:
192,192,104363,1,0,0:0:0:0:
64,192,104363,1,0,0:0:0:0:
64,192,104521,1,0,0:0:0:0:
192,192,104521,1,0,0:0:0:0:
448,192,104836,128,0,105152:0:0:0:0:
64,192,104836,128,0,104994:0:0:0:0:
320,192,104994,1,0,0:0:0:0:
64,192,105152,1,0,0:0:0:0:
192,192,105152,128,0,105310:0:0:0:0:
448,192,105310,1,0,0:0:0:0:
64,192,105468,128,0,105547:0:0:0:0:
320,192,105468,128,0,105547:0:0:0:0:
192,192,105705,128,0,105784:0:0:0:0:
448,192,105705,128,0,105784:0:0:0:0:
320,192,105784,1,0,0:0:0:0:
64,192,105942,128,0,106258:0:0:0:0:
192,192,105942,128,0,106258:0:0:0:0:
448,192,106258,128,0,106415:0:0:0:0:
192,192,106415,1,0,0:0:0:0:
320,192,106415,128,0,106573:0:0:0:0:
64,192,106573,128,0,106731:0:0:0:0:
320,192,106731,1,0,0:0:0:0:
448,192,106731,128,0,106810:0:0:0:0:
192,192,106810,128,0,106889:0:0:0:0:
320,192,106889,128,0,107047:0:0:0:0:
448,192,107047,1,0,0:0:0:0:
192,192,107047,128,0,107205:0:0:0:0:
64,192,107205,128,0,107363:0:0:0:0:
448,192,107363,128,0,107679:0:0:0:0:
192,192,107363,128,0,107521:0:0:0:0:
320,192,107521,1,0,0:0:0:0:
192,192,107679,1,0,0:0:0:0:
64,192,107679,128,0,107836:0:0:0:0:
320,192,107836,1,0,0:0:0:0:
448,192,107994,128,0,108073:0:0:0:0:
192,192,107994,128,0,108073:0:0:0:0:
320,192,108231,128,0,108310:0:0:0:0:
64,192,108231,128,0,108310:0:0:0:0:
448,192,108310,1,0,0:0:0:0:
320,192,108468,128,0,108784:0:0:0:0:
192,192,108468,128,0,108784:0:0:0:0:
448,192,108784,128,0,108942:0:0:0:0:
64,192,108942,128,0,109100:0:0:0:0:
320,192,108942,1,0,0:0:0:0:
192,192,109100,128,0,109258:0:0:0:0:
448,192,109258,1,0,0:0:0:0:
320,192,109258,128,0,109336:0:0:0:0:
64,192,109336,128,0,109415:0:0:0:0:
448,192,109415,128,0,109573:0:0:0:0:
320,192,109573,1,0,0:0:0:0:
64,192,109573,128,0,109731:0:0:0:0:
192,192,109731,128,0,109889:0:0:0:0:
64,192,109889,128,0,110205:0:0:0:0:
448,192,109889,128,0,110047:0:0:0:0:
192,192,110047,1,0,0:0:0:0:
448,192,110205,1,0,0:0:0:0:
320,192,110205,128,0,110363:0:0:0:0:
64,192,110363,1,0,0:0:0:0:
448,192,110521,128,0,110600:0:0:0:0:
192,192,110521,128,0,110600:0:0:0:0:
320,192,110758,128,0,110836:0:0:0:0:
64,192,110758,128,0,110836:0:0:0:0:
192,192,110836,1,0,0:0:0:0:
448,192,110994,128,0,111310:0:0:0:0:
320,192,110994,128,0,111310:0:0:0:0:
64,192,111310,128,0,111468:0:0:0:0:
320,192,111468,1,0,0:0:0:0:
192,192,111468,128,0,111626:0:0:0:0:
448,192,111626,128,0,111784:0:0:0:0:
192,192,111784,1,0,0:0:0:0:
64,192,111784,128,0,111863:0:0:0:0:
320,192,111863,128,0,111942:0:0:0:0:
192,192,111942,128,0,112100:0:0:0:0:
64,192,112100,1,0,0:0:0:0:
320,192,112100,128,0,112258:0:0:0:0:
448,192,112258,128,0,112415:0:0:0:0:
64,192,112415,1,0,0:0:0:0:
192,192,112415,1,0,0:0:0:0:
64,192,112573,1,0,0:0:0:0:
192,192,112573,1,0,0:0:0:0:
448,192,112731,1,0,0:0:0:0:
320,192,112731,1,0,0:0:0:0:
320,192,112889,1,0,0:0:0:0:
448,192,112889,1,0,0:0:0:0:
64,192,113047,1,0,0:0:0:0:
192,192,113047,1,0,0:0:0:0:
192,192,113205,1,0,0:0:0:0:
64,192,113205,1,0,0:0:0:0:
448,192,113363,1,0,0:0:0:0:
320,192,113363,1,0,0:0:0:0:
320,192,113521,1,0,0:0:0:0:
448,192,113521,1,0,0:0:0:0:
64,192,113679,1,0,0:0:0:0:
192,192,113758,1,0,0:0:0:0:
320,192,113836,1,0,0:0:0:0:
448,192,113915,1,0,0:0:0:0:
64,192,113994,1,0,0:0:0:0:
192,192,114073,1,0,0:0:0:0:
320,192,114152,1,0,0:0:0:0:
448,192,114231,1,0,0:0:0:0:
64,192,114310,1,0,0:0:0:0:
192,192,114389,1,0,0:0:0:0:
448,192,114468,1,0,0:0:0:0:
320,192,114547,1,0,0:0:0:0:
64,192,114626,1,0,0:0:0:0:
192,192,114705,1,0,0:0:0:0:
448,192,114784,1,0,0:0:0:0:
320,192,114863,1,0,0:0:0:0:
64,192,114942,1,0,0:0:0:0:
448,192,115021,1,0,0:0:0:0:
64,192,115100,1,0,0:0:0:0:
448,192,115179,1,0,0:0:0:0:
192,192,115258,1,0,0:0:0:0:
320,192,115336,1,0,0:0:0:0:
192,192,115415,1,0,0:0:0:0:
320,192,115494,1,0,0:0:0:0:
448,192,115573,1,0,0:0:0:0:
64,192,115573,1,0,0:0:0:0:
192,192,115731,1,0,0:0:0:0:
320,192,115731,1,0,0:0:0:0:
448,192,115889,1,0,0:0:0:0:
64,192,115889,1,0,0:0:0:0:
192,192,116047,1,0,0:0:0:0:
448,192,116126,128,0,116442:0:0:0:0:
320,192,116126,128,0,116442:0:0:0:0:
