osu file format v14

[General]
AudioFilename: audio.mp3
AudioLeadIn: 0
PreviewTime: -1
Countdown: 1
SampleSet: Soft
StackLeniency: 0.7
Mode: 0
LetterboxInBreaks: 0
WidescreenStoryboard: 0

[Editor]
Bookmarks: 23900
DistanceSpacing: 1.5
BeatDivisor: 8
GridSize: 4
TimelineZoom: 2

[Metadata]
Title:Ha lle lu jah
TitleUnicode:Ha・lle・lu・jah
Artist:SOUND HOLIC feat. Nana Takahashi
ArtistUnicode:SOUND HOLIC feat. Nana Takahashi
Creator:Ayachi Meme
Version:
Source:
Tags:
BeatmapID:1624322
BeatmapSetID:772753

[Difficulty]
HPDrainRate:5
CircleSize:4.2
OverallDifficulty:5
ApproachRate:9.2
SliderMultiplier:1.8
SliderTickRate:1

[Events]
//Background and Video events
//Break Periods
2,34899,46330
2,73099,79130
//Storyboard Layer 0 (Background)
//Storyboard Layer 1 (Fail)
//Storyboard Layer 2 (Pass)
//Storyboard Layer 3 (Foreground)
//Storyboard Sound Samples

[TimingPoints]
500,400,4,2,1,50,1,0
46900,-200,4,2,1,50,0,0
58100,-133.333333333333,4,2,1,50,0,0
61300,-66.6666666666667,4,2,1,50,0,0
67700,-57.1428571428571,4,2,1,50,0,0
69300,-50,4,2,1,50,0,0
79700,-80,4,2,1,50,0,0
85300,-133.333333333333,4,2,1,50,0,0
86100,-80,4,2,1,50,0,0
86300,-74.0740740740741,4,2,1,50,0,0
86500,-71.4285714285714,4,2,1,50,0,0
86700,-68.9655172413793,4,2,1,50,0,0
86900,-58.8235294117647,4,2,1,50,0,0
87700,-55.5555555555556,4,2,1,50,0,0
94100,-54.054054054054,4,2,1,50,0,0
94300,-52.6315789473684,4,2,1,50,0,0
94500,-51.2820512820513,4,2,1,50,0,0
94900,-50,4,2,1,50,0,0

[HitObjects]
128,192,500,6,0,P|144:256|176:288,1,90
144,104,900,2,0,P|80:120|48:152,1,90,0|0,3:0|3:0,3:0:0:0:
216,208,1300,2,0,P|260:201|297:177,1,90,0|0,3:0|3:0,3:0:0:0:
280,60,1600,1,0,0:0:0:0:
196,40,1700,2,0,P|202:84|226:121,1,90
400,96,2100,6,0,P|340:184|352:268,1,180
112,96,2900,2,0,P|172:184|160:268,1,180
256,156,3500,1,0,0:0:0:0:
218,21,3700,6,0,P|218:65|290:17,1,180
152,104,4300,1,0,0:0:0:0:
214,181,4500,2,0,P|258:193|318:161,1,90
336,112,4800,1,0,0:0:0:0:
320,256,4900,2,0,P|359:233|379:168,1,90,0|0,3:0|3:0,3:0:0:0:
104,272,5300,5,0,0:0:0:0:
172,108,5500,1,0,0:0:0:0:
184,228,5700,1,0,0:0:0:0:
96,36,5900,1,0,0:0:0:0:
256,192,6100,12,0,6800,0:0:0:0:
308,120,6900,5,0,0:0:0:0:
264,128,7000,1,0,0:0:0:0:
220,136,7100,1,0,0:0:0:0:
176,144,7200,1,0,0:0:0:0:
140,220,7300,2,0,L|88:228,3,45
204,264,7700,5,0,0:0:0:0:
248,256,7800,1,0,0:0:0:0:
292,248,7900,1,0,0:0:0:0:
336,240,8000,1,0,0:0:0:0:
372,164,8100,2,0,L|416:157,3,45
331,171,8500,6,0,P|271:170|206:74,1,180
86,336,9300,6,0,B|107:284|100:250|100:250|144:248|213:220,1,180
431,297,10100,6,0,L|249:292,1,180
362,71,10900,5,0,0:0:0:0:
334,247,11100,1,0,0:0:0:0:
362,71,11300,1,0,0:0:0:0:
355,115,11400,1,0,0:0:0:0:
348,159,11500,1,0,0:0:0:0:
341,203,11600,1,0,0:0:0:0:
334,247,11700,6,0,B|311:196|311:196|253:208|214:281,1,180
149,213,12200,1,0,0:0:0:0:
146,123,12300,1,0,0:0:0:0:
177,38,12400,1,0,0:0:0:0:
259,1,12500,5,0,0:0:0:0:
225,64,12600,1,0,0:0:0:0:
217,135,12700,1,0,0:0:0:0:
232,205,12800,1,0,0:0:0:0:
278,259,12900,5,0,0:0:0:0:
276,200,13000,1,0,0:0:0:0:
288,142,13100,1,0,0:0:0:0:
317,91,13200,1,0,0:0:0:0:
356,48,13300,5,0,0:0:0:0:
350,92,13400,1,0,0:0:0:0:
352,136,13500,1,0,0:0:0:0:
360,180,13600,1,0,0:0:0:0:
380,219,13700,5,0,0:0:0:0:
385,183,13800,1,0,0:0:0:0:
390,147,13900,1,0,0:0:0:0:
396,111,14000,1,0,0:0:0:0:
402,75,14100,5,0,0:0:0:0:
402,75,14500,5,0,0:0:0:0:
87,304,14900,5,0,0:0:0:0:
286,276,15100,1,0,0:0:0:0:
121,130,15300,2,0,B|159:194|159:194|192:137|283:123,1,180
226,276,15900,1,0,0:0:0:0:
391,130,16100,6,0,B|353:194|353:194|320:137|229:123,1,180
118,147,16700,1,0,0:0:0:0:
199,299,16900,6,0,L|291:224,1,90
191,89,17300,2,8,L|210:206,1,90
377,187,17700,2,8,L|266:145,1,90
166,255,18100,5,0,0:0:0:0:
321,32,18300,1,0,0:0:0:0:
108,64,18500,6,0,P|167:112|156:236,1,180
193,32,19100,1,0,0:0:0:0:
404,63,19301,6,0,P|339:122|339:210,1,180
426,308,19900,1,0,0:0:0:0:
277,282,20100,6,0,P|220:254|168:263,1,90
323,128,20500,2,0,P|327:192|361:232,2,90,0|0|0,3:0|3:0|3:0,3:0:0:0:
167,165,21100,2,0,P|220:129|238:80,1,90,0|0,3:0|3:0,3:0:0:0:
71,70,21500,5,0,0:0:0:0:
71,70,21700,2,0,L|70:185,1,90
142,308,22100,2,0,L|142:218,1,90
296,84,22500,5,0,0:0:0:0:
296,84,22700,2,0,P|252:131|209:132,1,90
340,0,23100,1,0,3:0:0:0:
340,0,23300,2,0,P|387:44|387:87,1,90,0|0,3:0|3:0,3:0:0:0:
262,292,23700,6,0,L|303:267,1,45
345,91,23900,2,0,L|304:116,1,45
330,258,24100,6,0,L|342:211,1,45
247,57,24300,2,0,L|236:104,1,45
356,186,24500,6,0,P|297:120|261:110,1,90
155,197,24900,1,0,0:0:0:0:
155,197,25100,2,0,P|178:236|214:263,1,90
237,70,25500,2,0,L|126:96,1,90
304,164,25900,2,0,L|406:141,1,90
149,90,26300,1,0,0:0:0:0:
149,90,26500,2,0,L|38:116,1,90
304,164,26900,5,0,0:0:0:0:
196,200,27200,1,0,0:0:0:0:
196,200,27300,2,8,L|216:287,1,90
304,104,27700,6,8,L|283:16,1,90
216,287,28100,2,0,P|254:328|319:333,1,90
331,162,28500,5,0,0:0:0:0:
290,180,28600,1,0,0:0:0:0:
210,137,28700,5,0,0:0:0:0:
169,155,28800,1,0,0:0:0:0:
89,112,28900,5,0,0:0:0:0:
246,58,29100,5,0,0:0:0:0:
215,212,29300,1,0,0:0:0:0:
153,163,29500,1,0,0:0:0:0:
310,109,29700,1,0,0:0:0:0:
279,263,29900,1,0,0:0:0:0:
224,108,30100,5,0,0:0:0:0:
214,151,30200,1,0,0:0:0:0:
258,229,30300,5,0,0:0:0:0:
268,272,30400,1,0,0:0:0:0:
226,352,30500,5,0,0:0:0:0:
391,268,30700,1,0,0:0:0:0:
318,142,30900,5,0,0:0:0:0:
265,256,31100,1,0,0:0:0:0:
430,172,31300,1,0,0:0:0:0:
357,46,31500,1,0,0:0:0:0:
402,307,31700,5,0,3:0:0:0:
192,215,31900,1,0,3:0:0:0:
318,142,32100,1,0,3:0:0:0:
265,256,32300,1,0,0:0:0:0:
191,57,32500,5,0,0:0:0:0:
167,208,32700,1,0,0:0:0:0:
251,83,32900,1,0,0:0:0:0:
256,213,33100,5,0,3:0:0:0:
257,267,33200,1,0,3:0:0:0:
259,321,33300,1,0,3:0:0:0:
333,118,33500,1,0,0:0:0:0:
347,338,33700,5,0,0:0:0:0:
357,285,33800,1,0,0:0:0:0:
367,232,33900,1,0,0:0:0:0:
378,179,34000,1,0,0:0:0:0:
389,126,34100,2,0,P|424:84|424:40,1,90
240,88,34500,2,0,P|209:119|202:163,1,90
64,324,46900,6,0,B|208:268|340:316|340:316|452:200|340:72|208:144|208:144|208:224,1,697.5
304,213,50100,6,0,B|304:144|304:144|172:72|60:200|172:316|172:316|304:268|448:324,1,697.5
460,236,53300,6,0,L|444:172,1,45
364,244,53700,2,0,L|360:200,1,45
264,248,54100,2,0,L|268:192,1,45
180,272,54500,2,0,L|172:216,1,45
56,176,54900,6,0,L|128:152,1,67.5
132,72,55300,2,0,L|208:88,1,67.5
220,152,55700,2,0,L|308:144,1,67.5
304,68,56100,2,0,L|376:96,1,67.5
424,164,56500,6,0,P|364:184|340:272,1,157.5
173,268,57300,2,0,P|157:193|88:164,1,157.5
184,72,58100,6,0,L|220:132,1,67.5000025749208
328,72,58400,2,0,L|292:132,1,67.5000025749208
147,103,58700,2,0,L|201:147,1,67.5000025749208
364,103,59100,2,0,L|310:147,1,67.5000025749208
244,208,59700,5,0,0:0:0:0:
272,184,59800,5,0,0:0:0:0:
236,194,59900,5,0,0:0:0:0:
272,197,60000,5,0,0:0:0:0:
240,180,60100,5,0,3:0:0:0:
264,208,60200,5,0,3:0:0:0:
253,172,60300,5,0,3:3:0:0:
250,208,60400,5,0,3:3:0:0:
268,176,60500,5,0,3:3:0:0:
128,272,60700,1,0,0:0:0:0:
200,120,60900,1,0,0:0:0:0:
256,340,61100,1,0,0:0:0:0:
324,136,61300,6,0,P|308:192|316:240,1,101.250003862381
416,216,61500,2,0,P|388:184|428:192,1,101.250003862381
484,264,61700,2,0,P|424:296|352:280,1,135.000005149842
188,136,62100,6,0,P|204:192|196:240,1,101.250003862381
96,216,62300,2,0,P|124:184|84:192,1,101.250003862381
28,264,62500,2,0,P|88:296|160:280,1,135.000005149842
328,120,62900,6,0,P|276:164|220:156,1,101.250003862381
164,128,63100,2,0,P|216:84|272:92,1,101.250003862381
348,228,63300,2,0,P|339:255|296:223,1,101.250003862381
388,156,63500,2,0,P|412:284|308:336,1,236.250009012223
264,256,63900,1,0,0:0:0:0:
352,72,64100,1,0,0:0:0:0:
340,236,64300,1,0,0:0:0:0:
216,88,64500,5,0,0:0:0:0:
188,68,64600,1,0,0:0:0:0:
176,172,64700,5,0,3:0:0:0:
142,174,64800,1,0,3:0:0:0:
200,261,64900,5,0,3:0:0:0:
176,285,65000,1,0,3:0:0:0:
276,315,65100,5,0,3:0:0:0:
273,349,65200,1,0,3:0:0:0:
369,307,65300,6,0,P|424:280|428:188,1,135.000005149842
312,96,65700,2,0,L|360:232,2,135.000005149842
312,96,66400,5,0,0:0:0:0:
312,96,66500,2,0,P|264:132|192:120,1,135.000005149842
308,204,66900,5,0,0:0:0:0:
244,60,67100,1,0,0:0:0:0:
168,232,67300,1,0,0:0:0:0:
396,128,67500,1,0,0:0:0:0:
248,276,67700,6,0,P|308:252|320:172,1,118.125001126528
236,104,67900,2,0,P|220:145|275:114,1,118.125001126528,0|0,3:0|3:0,3:0:0:0:
238,25,68100,2,0,P|186:39|137:140,1,157.500001502037,0|0,3:0|3:0,3:0:0:0:
368,224,68500,6,0,P|360:160|316:136,1,118.125001126528
384,48,68700,2,0,P|404:92|448:52,1,118.125001126528
304,52,68900,2,0,P|244:88|256:188,1,157.500001502037
128,324,69300,6,0,P|156:240|124:240,1,135
113,138,69500,2,0,P|101:194|189:234,1,135
204,124,69700,2,0,P|160:60|80:60,1,135
188,84,69900,2,0,B|324:136|356:48|320:8|292:0|252:4|228:24|228:76|256:112|284:136|268:188,1,360
424,84,70500,5,0,0:0:0:0:
340,248,70700,1,0,0:0:0:0:
324,84,70900,1,0,0:0:0:0:
464,304,71100,1,0,0:0:0:0:
268,188,71300,1,0,0:0:0:0:
344,100,71500,6,0,B|344:140|344:92|344:144|344:96|344:136|344:104|344:148|344:84|344:152|344:88|344:132|344:76|344:128|344:80|344:124|344:72|344:156|344:68|344:68|344:160|344:160|344:112,1,180
256,176,71900,1,0,0:0:0:0:
168,100,72100,2,0,B|168:140|168:92|168:144|168:96|168:136|168:104|168:148|168:84|168:152|168:88|168:132|168:76|168:128|168:80|168:124|168:72|168:156|168:68|168:68|168:160|168:160|168:112,1,180
92,228,72500,2,0,B|260:300|456:224|456:224,1,360
200,272,79700,5,0,0:0:0:0:
160,60,79900,1,0,0:0:0:0:
120,224,80100,1,0,0:0:0:0:
348,184,80300,1,0,0:0:0:0:
260,44,80500,5,0,0:0:0:0:
288,272,80700,1,0,0:0:0:0:
292,276,80800,1,0,0:0:0:0:
292,276,80900,2,0,P|384:280|416:228,1,112.5
380,96,81300,5,0,0:0:0:0:
328,64,81400,1,0,0:0:0:0:
324,124,81500,1,0,0:0:0:0:
376,156,81600,1,0,0:0:0:0:
400,92,81700,5,8,0:0:0:0:
308,48,81800,1,8,0:0:0:0:
316,148,81900,1,8,0:0:0:0:
408,188,82000,1,8,0:0:0:0:
412,88,82100,6,0,L|352:64,1,56.25
203,108,82300,2,0,L|256:88,1,56.25
368,188,82500,6,0,L|308:164,1,56.25
159,208,82700,2,0,L|212:188,1,56.25
324,288,82900,5,0,0:0:0:0:
280,96,83100,1,0,0:0:0:0:
180,228,83300,1,0,0:0:0:0:
380,52,83500,1,0,0:0:0:0:
400,264,83700,5,0,0:0:0:0:
260,72,83900,1,0,0:0:0:0:
260,72,84000,1,0,0:0:0:0:
216,312,84300,5,0,0:0:0:0:
296,252,84500,1,0,0:0:0:0:
148,200,84700,1,0,0:0:0:0:
340,128,84900,1,0,0:0:0:0:
104,64,85100,1,0,0:0:0:0:
468,76,85300,2,0,P|424:100|344:80,1,135.000005149842
220,244,86100,6,0,P|216:184|196:160,1,84.375
208,16,86300,2,0,P|192:44|248:68,1,91.1250003476143
136,96,86500,2,0,P|84:116|52:160,1,94.499997116089
32,232,86700,2,0,P|69:207|96:243,1,97.8750029869081
128,324,86900,6,0,P|176:260|232:276,1,114.750002188683
316,244,87100,2,8,P|259:226|217:158,1,114.750002188683
228,100,87300,2,0,P|324:124|400:232,1,229.500004377365,0|0,3:0|3:0,3:0:0:0:
356,328,87700,6,0,P|252:328|220:296,1,121.499996292114
180,248,87900,2,0,P|236:271|190:311,1,121.499996292114,0|0,3:0|3:0,3:0:0:0:
88,288,88100,2,8,P|100:212|296:212,1,283.499991348267
320,76,88500,6,0,P|288:144|220:148,1,121.499996292114
216,208,88700,2,0,P|169:185|205:148,1,121.499996292114
368,168,88900,6,0,P|352:236|304:276,1,121.499996292114
232,288,89100,2,0,P|316:228|212:244,1,283.499991348267
132,216,89500,6,0,P|185:239|233:206,1,121.499996292114
264,116,89700,2,0,P|258:64|213:88,1,121.499996292114,0|0,3:0|3:0,3:0:0:0:
233,205,89900,2,0,P|280:238|334:215,1,121.499996292114
360,136,90100,6,0,P|315:77|276:117,1,121.499996292114,0|0,3:0|3:0,3:0:0:0:
236,272,90300,2,0,P|292:324|364:316,1,121.499996292114
476,324,90500,2,0,P|422:336|409:283,1,121.499996292114
416,188,90700,2,0,P|312:232|320:108,1,283.499991348267
376,116,91100,6,0,P|308:100|280:56,1,121.499996292114
164,64,91300,2,0,P|219:127|249:101,1,121.499996292114,0|0,3:0|3:0,3:0:0:0:
272,44,91500,2,0,P|196:0|140:24,1,121.499996292114
64,152,91700,2,0,P|96:204|85:110,1,283.499991348267,0|0,3:0|3:0,3:0:0:0:
7,143,92100,5,0,3:0:0:0:
7,143,92300,1,0,3:0:0:0:
324,316,92500,6,0,P|336:268|424:264,1,121.499996292114
448,168,92700,2,0,P|360:152|308:168,1,121.499996292114
263,208,92900,2,0,P|232:259|228:320,1,121.499996292114,0|0,3:0|3:0,3:0:0:0:
200,384,93100,2,0,P|200:327|127:333,1,121.499996292114
48,272,93300,6,8,P|104:297|153:242,1,121.499996292114,0|0,0:0|0:0,0:0:0:0:
164,184,93500,2,0,P|217:220|223:152,1,121.499996292114,8|0,0:0|0:0,0:0:0:0:
168,80,93700,2,0,P|72:192|132:292,1,283.499991348267
272,312,94100,6,0,P|228:284|244:208,1,124.87499952364
272,120,94300,2,0,P|204:168|184:112,1,128.249996575356
360,88,94500,2,0,P|320:248|192:264,1,307.125001171589
192,108,94900,6,0,P|184:160|264:184,1,135
244,48,95100,2,0,P|192:28|120:76,1,135
92,200,95300,2,0,P|32:208|60:144,1,135
192,108,95500,2,0,P|286:189|206:363,1,315,0|0,3:0|3:0,3:0:0:0:
196,232,95900,6,0,P|264:232|260:152,1,135
248,44,96100,2,0,P|280:112|340:144,1,135
460,224,96300,2,0,P|477:167|403:183,1,135,0|0,3:0|3:0,3:0:0:0:
316,320,96500,6,0,P|376:248|352:192,1,135,0|0,0:0|3:0,0:0:0:0:
184,128,96700,2,0,P|284:164|300:148,1,135
216,40,96900,2,0,P|128:52|88:116,1,135
188,272,97100,2,0,P|268:180|148:228,1,315
270,344,97500,6,0,P|206:332|190:264,1,135
380,103,97700,2,0,P|402:164|358:211,1,135,0|0,3:0|3:0,3:0:0:0:
117,128,97900,2,0,P|158:79|221:93,1,135,0|0,3:0|3:0,3:0:0:0:
256,192,98100,12,0,98800,0:0:0:0:
396,28,98900,5,0,0:0:0:0:
392,72,99000,1,0,0:0:0:0:
376,112,99100,1,0,0:0:0:0:
344,144,99200,1,0,0:0:0:0:
304,164,99300,5,0,0:0:0:0:
268,128,99400,1,0,0:0:0:0:
220,112,99500,1,0,0:0:0:0:
172,116,99600,1,0,0:0:0:0:
132,148,99700,5,0,0:0:0:0:
156,196,99800,1,0,0:0:0:0:
168,248,99900,1,0,0:0:0:0:
152,300,100000,1,0,0:0:0:0:
116,340,100100,5,0,0:0:0:0:
164,300,100200,1,0,0:0:0:0:
224,276,100300,1,0,0:0:0:0:
288,276,100400,1,0,0:0:0:0:
344,304,100500,5,0,0:0:0:0:
288,260,100600,1,0,0:0:0:0:
240,208,100700,1,0,0:0:0:0:
212,140,100800,1,0,0:0:0:0:
204,68,100900,5,0,0:0:0:0:
276,108,101000,1,0,0:0:0:0:
316,180,101100,1,0,0:0:0:0:
308,260,101200,1,0,0:0:0:0:
256,320,101300,1,0,0:0:0:0:
344,312,101400,1,0,0:0:0:0:
420,264,101500,1,0,0:0:0:0:
464,184,101600,1,0,0:0:0:0:
484,96,101700,5,0,0:0:0:0:
350,109,101800,1,0,0:0:0:0:
216,122,101900,1,0,0:0:0:0:
