osu file format v14

[General]
AudioFilename: audio.mp3
AudioLeadIn: 0
PreviewTime: -1
Countdown: 1
SampleSet: None
StackLeniency: 0.7
Mode: 3
LetterboxInBreaks: 0
SpecialStyle: 0
WidescreenStoryboard: 0

[Editor]
DistanceSpacing: 1
BeatDivisor: 4
GridSize: 32
TimelineZoom: 1.8

[Metadata]
Title:Grisaille
TitleUnicode:Grisaille
Artist:SOUND HOLIC feat. Nana Takahashi
ArtistUnicode:SOUND HOLIC feat. Nana Takahashi
Creator:KhoalaBear
Version:hitsound
Source:SOUND VOLTEX III GRAVITY WARS
Tags:NANA HOLIC (2016)
BeatmapID:1432680
BeatmapSetID:675202

[Difficulty]
HPDrainRate:5
CircleSize:7
OverallDifficulty:5
ApproachRate:5
SliderMultiplier:1.4
SliderTickRate:1

[Events]
//Background and Video events
0,0,"grisaille pic.jpg",0,0
//Break Periods
2,20691,24572
2,39900,44164
2,88880,95133
//Storyboard Layer 0 (Background)
//Storyboard Layer 1 (Fail)
//Storyboard Layer 2 (Pass)
//Storyboard Layer 3 (Foreground)
//Storyboard Sound Samples

[TimingPoints]
-248,306.122448979592,4,1,0,100,1,0

[HitObjects]
448,192,1282,5,0,0:0:0:70:LR_Clap Drum hit.wav
448,192,1588,1,0,0:0:0:70:LR_Clap Drum hit.wav
64,192,1741,1,0,0:0:0:70:LR_Kick Drop Wet Fast.wav
448,192,1894,1,0,0:0:0:70:LR_Clap Drum hit.wav
64,192,2047,1,0,0:0:0:70:LR_Kick Drop Wet Fast.wav
448,192,2200,1,0,0:0:0:70:LR_Clap Drum hit.wav
448,192,2507,1,0,0:0:0:70:LR_Clap Drum hit.wav
448,192,2813,1,0,0:0:0:70:LR_Clap Drum hit.wav
64,192,2966,1,0,0:0:0:70:LR_Kick Drop Wet Fast.wav
448,192,3119,1,0,0:0:0:70:LR_Clap Drum hit.wav
64,192,3272,1,0,0:0:0:70:LR_Kick Drop Wet Fast.wav
448,192,3425,1,0,0:0:0:70:LR_Clap Drum hit.wav
448,192,3731,1,0,0:0:0:70:LR_Clap Drum hit.wav
448,192,4037,1,0,0:0:0:70:LR_Clap Drum hit.wav
64,192,4190,1,0,0:0:0:70:LR_Kick Drop Wet Fast.wav
448,192,4343,1,0,0:0:0:70:LR_Clap Drum hit.wav
64,192,4496,1,0,0:0:0:70:LR_Kick Drop Wet Fast.wav
448,192,4649,1,0,0:0:0:70:LR_Clap Drum hit.wav
448,192,4956,1,0,0:0:0:70:LR_Clap Drum hit.wav
64,192,5109,1,0,0:0:0:70:LR_Kick Drop Wet Fast.wav
448,192,5262,1,0,0:0:0:70:LR_Clap Drum hit.wav
448,192,5338,1,0,0:0:0:70:LR_Clap Drum hit.wav
448,192,5415,1,0,0:0:0:70:LR_Clap Drum hit.wav
448,192,5491,1,0,0:0:0:70:LR_Clap Drum hit.wav
448,192,5568,1,0,0:0:0:70:LR_Clap Drum hit.wav
448,192,5644,1,0,0:0:0:70:LR_Clap Drum hit.wav
64,192,5721,1,0,0:0:0:70:LR_Kick Drop Wet Fast.wav
475,192,6180,1,0,0:0:0:70:LR_Clap Drum hit.wav
475,192,6486,1,0,0:0:0:70:LR_Clap Drum hit.wav
475,192,6792,1,0,0:0:0:70:LR_Clap Drum hit.wav
475,192,7098,1,0,0:0:0:70:LR_Clap Drum hit.wav
475,192,7405,1,0,0:0:0:70:LR_Clap Drum hit.wav
475,192,7711,1,0,0:0:0:70:LR_Clap Drum hit.wav
475,192,8017,1,0,0:0:0:70:LR_Clap Drum hit.wav
475,192,8323,1,0,0:0:0:70:LR_Clap Drum hit.wav
475,192,8629,1,0,0:0:0:70:LR_Clap Drum hit.wav
475,192,9088,1,0,0:0:0:70:LR_Clap Drum hit.wav
475,192,9165,1,0,0:0:0:70:LR_Clap Drum hit.wav
475,192,9241,1,0,0:0:0:70:LR_Clap Drum hit.wav
475,192,9318,1,0,0:0:0:70:LR_Clap Drum hit.wav
475,192,9700,1,0,0:0:0:70:LR_Clap Drum hit.wav
475,192,9854,1,0,0:0:0:70:LR_Clap Drum hit.wav
475,192,10160,1,0,0:0:0:70:LR_Clap Drum hit.wav
475,192,10313,1,0,0:0:0:70:LR_Clap Drum hit.wav
475,192,11078,1,0,0:0:0:70:LR_Clap Drum hit.wav
475,192,12303,1,0,0:0:0:70:LR_Clap Drum hit.wav
475,192,12915,1,0,0:0:0:70:LR_Clap Drum hit.wav
475,192,13527,1,0,0:0:0:70:LR_Clap Drum hit.wav
475,192,14139,1,0,0:0:0:70:LR_Clap Drum hit.wav
475,192,14752,1,0,0:0:0:70:LR_Clap Drum hit.wav
475,192,15211,1,0,0:0:0:70:LR_Clap Drum hit.wav
475,192,15287,1,0,0:0:0:70:LR_Clap Drum hit.wav
475,192,15364,1,0,0:0:0:70:LR_Clap Drum hit.wav
475,192,15440,1,0,0:0:0:70:LR_Clap Drum hit.wav
475,192,15976,1,0,0:0:0:70:LR_Clap Drum hit.wav
475,192,16588,1,0,0:0:0:70:LR_Clap Drum hit.wav
475,192,17200,1,0,0:0:0:70:LR_Clap Drum hit.wav
475,192,17813,1,0,0:0:0:70:LR_Clap Drum hit.wav
475,192,18425,1,0,0:0:0:70:LR_Clap Drum hit.wav
475,192,18884,1,0,0:0:0:70:LR_Clap Drum hit.wav
475,192,18961,1,0,0:0:0:70:LR_Clap Drum hit.wav
475,192,19037,1,0,0:0:0:70:LR_Clap Drum hit.wav
475,192,19114,1,0,0:0:0:70:LR_Clap Drum hit.wav
475,192,20415,1,0,0:0:0:70:LR_Clap Drum hit.wav
475,192,20491,1,0,0:0:0:70:LR_Clap Drum hit.wav
475,192,25772,5,0,0:0:0:70:LR_Clap Drum hit.wav
475,192,26384,1,0,0:0:0:70:LR_Clap Drum hit.wav
475,192,26996,1,0,0:0:0:70:LR_Clap Drum hit.wav
475,192,27609,1,0,0:0:0:70:LR_Clap Drum hit.wav
475,192,28221,1,0,0:0:0:70:LR_Clap Drum hit.wav
475,192,28680,1,0,0:0:0:70:LR_Clap Drum hit.wav
475,192,28757,1,0,0:0:0:70:LR_Clap Drum hit.wav
475,192,28833,1,0,0:0:0:70:LR_Clap Drum hit.wav
475,192,28910,1,0,0:0:0:70:LR_Clap Drum hit.wav
475,192,30211,1,0,0:0:0:70:LR_Clap Drum hit.wav
475,192,30287,1,0,0:0:0:70:LR_Clap Drum hit.wav
475,192,34037,1,0,0:0:0:70:LR_Clap Drum hit.wav
475,192,34343,1,0,0:0:0:70:LR_Clap Drum hit.wav
475,192,34649,1,0,0:0:0:70:LR_Clap Drum hit.wav
475,192,34956,1,0,0:0:0:70:LR_Clap Drum hit.wav
475,192,35568,1,0,0:0:0:70:LR_Clap Drum hit.wav
475,192,36180,1,0,0:0:0:70:LR_Clap Drum hit.wav
475,192,36792,1,0,0:0:0:70:LR_Clap Drum hit.wav
475,192,37405,1,0,0:0:0:70:LR_Clap Drum hit.wav
475,192,38017,1,0,0:0:0:70:LR_Clap Drum hit.wav
475,192,38629,1,0,0:0:0:70:LR_Clap Drum hit.wav
475,192,39241,1,0,0:0:0:70:LR_Clap Drum hit.wav
475,192,39700,1,0,0:0:0:70:LR_Clap Drum hit.wav
475,192,45364,5,0,0:0:0:70:LR_Clap Drum hit.wav
475,192,45670,1,0,0:0:0:70:LR_Clap Drum hit.wav
475,192,45976,1,0,0:0:0:70:LR_Clap Drum hit.wav
475,192,46282,1,0,0:0:0:70:LR_Clap Drum hit.wav
475,192,46588,1,0,0:0:0:70:LR_Clap Drum hit.wav
475,192,46894,1,0,0:0:0:70:LR_Clap Drum hit.wav
475,192,47200,1,0,0:0:0:70:LR_Clap Drum hit.wav
475,192,47813,1,0,0:0:0:70:LR_Clap Drum hit.wav
475,192,47966,1,0,0:0:0:70:LR_Clap Drum hit.wav
475,192,48272,1,0,0:0:0:70:LR_Clap Drum hit.wav
475,192,48655,1,0,0:0:0:70:LR_Clap Drum hit.wav
475,192,48961,1,0,0:0:0:70:LR_Clap Drum hit.wav
475,192,49114,1,0,0:0:0:70:LR_Clap Drum hit.wav
475,192,50262,1,0,0:0:0:70:LR_Clap Drum hit.wav
475,192,50874,1,0,0:0:0:70:LR_Clap Drum hit.wav
475,192,51486,1,0,0:0:0:70:LR_Clap Drum hit.wav
475,192,52098,1,0,0:0:0:70:LR_Clap Drum hit.wav
475,192,52711,1,0,0:0:0:70:LR_Clap Drum hit.wav
475,192,53323,1,0,0:0:0:70:LR_Clap Drum hit.wav
475,192,53935,1,0,0:0:0:70:LR_Clap Drum hit.wav
475,192,54547,1,0,0:0:0:70:LR_Clap Drum hit.wav
475,192,55160,1,0,0:0:0:70:LR_Clap Drum hit.wav
475,192,55772,1,0,0:0:0:70:LR_Clap Drum hit.wav
475,192,56384,1,0,0:0:0:70:LR_Clap Drum hit.wav
475,192,56996,1,0,0:0:0:70:LR_Clap Drum hit.wav
475,192,57609,1,0,0:0:0:70:LR_Clap Drum hit.wav
475,192,58221,1,0,0:0:0:70:LR_Clap Drum hit.wav
475,192,58833,1,0,0:0:0:70:LR_Clap Drum hit.wav
475,192,58910,1,0,0:0:0:70:LR_Clap Drum hit.wav
475,192,58986,1,0,0:0:0:70:LR_Clap Drum hit.wav
475,192,59063,1,0,0:0:0:70:LR_Clap Drum hit.wav
475,192,60058,1,0,0:0:0:70:LR_Clap Drum hit.wav
475,192,60670,1,0,0:0:0:70:LR_Clap Drum hit.wav
475,192,61282,1,0,0:0:0:70:LR_Clap Drum hit.wav
475,192,61894,1,0,0:0:0:70:LR_Clap Drum hit.wav
475,192,62507,1,0,0:0:0:70:LR_Clap Drum hit.wav
475,192,63119,1,0,0:0:0:70:LR_Clap Drum hit.wav
475,192,63731,1,0,0:0:0:70:LR_Clap Drum hit.wav
475,192,64343,1,0,0:0:0:70:LR_Clap Drum hit.wav
475,192,64420,1,0,0:0:0:70:LR_Clap Drum hit.wav
475,192,64496,1,0,0:0:0:70:LR_Clap Drum hit.wav
475,192,64573,1,0,0:0:0:70:LR_Clap Drum hit.wav
475,192,65568,1,0,0:0:0:70:LR_Clap Drum hit.wav
475,192,66180,1,0,0:0:0:70:LR_Clap Drum hit.wav
475,192,66792,1,0,0:0:0:70:LR_Clap Drum hit.wav
475,192,67405,1,0,0:0:0:70:LR_Clap Drum hit.wav
475,192,68017,1,0,0:0:0:70:LR_Clap Drum hit.wav
475,192,68629,1,0,0:0:0:70:LR_Clap Drum hit.wav
475,192,68935,1,0,0:0:0:70:LR_Clap Drum hit.wav
475,192,69012,1,0,0:0:0:70:LR_Clap Drum hit.wav
475,192,69088,1,0,0:0:0:70:LR_Clap Drum hit.wav
475,192,69165,1,0,0:0:0:70:LR_Clap Drum hit.wav
475,192,69241,1,0,0:0:0:70:LR_Clap Drum hit.wav
475,192,69318,1,0,0:0:0:70:LR_Clap Drum hit.wav
475,192,70160,1,0,0:0:0:70:LR_Clap Drum hit.wav
475,192,71384,1,0,0:0:0:70:LR_Clap Drum hit.wav
475,192,72609,1,0,0:0:0:70:LR_Clap Drum hit.wav
475,192,73833,1,0,0:0:0:70:LR_Clap Drum hit.wav
475,192,75058,1,0,0:0:0:70:LR_Clap Drum hit.wav
475,192,76282,1,0,0:0:0:70:LR_Clap Drum hit.wav
475,192,77507,1,0,0:0:0:70:LR_Clap Drum hit.wav
475,192,77736,1,0,0:0:0:70:LR_Clap Drum hit.wav
475,192,77813,1,0,0:0:0:70:LR_Clap Drum hit.wav
475,192,77889,1,0,0:0:0:70:LR_Clap Drum hit.wav
475,192,77966,1,0,0:0:0:70:LR_Clap Drum hit.wav
475,192,79190,1,0,0:0:0:70:LR_Clap Drum hit.wav
475,192,79267,1,0,0:0:0:70:LR_Clap Drum hit.wav
475,192,79649,1,0,0:0:0:70:LR_Clap Drum hit.wav
475,192,80262,1,0,0:0:0:70:LR_Clap Drum hit.wav
475,192,80874,1,0,0:0:0:70:LR_Clap Drum hit.wav
475,192,81486,1,0,0:0:0:70:LR_Clap Drum hit.wav
475,192,82098,1,0,0:0:0:70:LR_Clap Drum hit.wav
475,192,82711,1,0,0:0:0:70:LR_Clap Drum hit.wav
475,192,83323,1,0,0:0:0:70:LR_Clap Drum hit.wav
475,192,83782,1,0,0:0:0:70:LR_Clap Drum hit.wav
475,192,83859,1,0,0:0:0:70:LR_Clap Drum hit.wav
475,192,83935,1,0,0:0:0:70:LR_Clap Drum hit.wav
475,192,84012,1,0,0:0:0:70:LR_Clap Drum hit.wav
475,192,84547,1,0,0:0:0:70:LR_Clap Drum hit.wav
475,192,85160,1,0,0:0:0:70:LR_Clap Drum hit.wav
475,192,85772,1,0,0:0:0:70:LR_Clap Drum hit.wav
475,192,86384,1,0,0:0:0:70:LR_Clap Drum hit.wav
475,192,86996,1,0,0:0:0:70:LR_Clap Drum hit.wav
475,192,87609,1,0,0:0:0:70:LR_Clap Drum hit.wav
475,192,88221,1,0,0:0:0:70:LR_Clap Drum hit.wav
475,192,88527,1,0,0:0:0:70:LR_Clap Drum hit.wav
475,192,88680,1,0,0:0:0:70:LR_Clap Drum hit.wav
475,192,96333,5,0,0:0:0:70:LR_Clap Drum hit.wav
475,192,98017,1,0,0:0:0:70:LR_Clap Drum hit.wav
475,192,98093,1,0,0:0:0:70:LR_Clap Drum hit.wav
475,192,98170,1,0,0:0:0:70:LR_Clap Drum hit.wav
475,192,98246,1,0,0:0:0:70:LR_Clap Drum hit.wav
475,192,99241,1,0,0:0:0:70:LR_Clap Drum hit.wav
475,192,99854,1,0,0:0:0:70:LR_Clap Drum hit.wav
475,192,100466,1,0,0:0:0:70:LR_Clap Drum hit.wav
475,192,101078,1,0,0:0:0:70:LR_Clap Drum hit.wav
475,192,101690,1,0,0:0:0:70:LR_Clap Drum hit.wav
475,192,102303,1,0,0:0:0:70:LR_Clap Drum hit.wav
475,192,102915,1,0,0:0:0:70:LR_Clap Drum hit.wav
475,192,103527,1,0,0:0:0:70:LR_Clap Drum hit.wav
475,192,103604,1,0,0:0:0:70:LR_Clap Drum hit.wav
475,192,103680,1,0,0:0:0:70:LR_Clap Drum hit.wav
475,192,103757,1,0,0:0:0:70:LR_Clap Drum hit.wav
475,192,104139,1,0,0:0:0:70:LR_Clap Drum hit.wav
475,192,104752,1,0,0:0:0:70:LR_Clap Drum hit.wav
475,192,105364,1,0,0:0:0:70:LR_Clap Drum hit.wav
475,192,105976,1,0,0:0:0:70:LR_Clap Drum hit.wav
475,192,106588,1,0,0:0:0:70:LR_Clap Drum hit.wav
475,192,107200,1,0,0:0:0:70:LR_Clap Drum hit.wav
475,192,107813,1,0,0:0:0:70:LR_Clap Drum hit.wav
475,192,108119,1,0,0:0:0:70:LR_Clap Drum hit.wav
475,192,108195,1,0,0:0:0:70:LR_Clap Drum hit.wav
475,192,108272,1,0,0:0:0:70:LR_Clap Drum hit.wav
475,192,108348,1,0,0:0:0:70:LR_Clap Drum hit.wav
475,192,109343,1,0,0:0:0:70:LR_Clap Drum hit.wav
475,192,110568,1,0,0:0:0:70:LR_Clap Drum hit.wav
475,192,111792,1,0,0:0:0:70:LR_Clap Drum hit.wav
475,192,113017,1,0,0:0:0:70:LR_Clap Drum hit.wav
475,192,113170,1,0,0:0:0:70:LR_Clap Drum hit.wav
475,192,113246,1,0,0:0:0:70:LR_Clap Drum hit.wav
475,192,113323,1,0,0:0:0:70:LR_Clap Drum hit.wav
475,192,113399,1,0,0:0:0:70:LR_Clap Drum hit.wav
475,192,113935,1,0,0:0:0:70:LR_Clap Drum hit.wav
475,192,114547,1,0,0:0:0:70:LR_Clap Drum hit.wav
475,192,115160,1,0,0:0:0:70:LR_Clap Drum hit.wav
475,192,115772,1,0,0:0:0:70:LR_Clap Drum hit.wav
475,192,116384,1,0,0:0:0:70:LR_Clap Drum hit.wav
475,192,116843,1,0,0:0:0:70:LR_Clap Drum hit.wav
475,192,116920,1,0,0:0:0:70:LR_Clap Drum hit.wav
475,192,116996,1,0,0:0:0:70:LR_Clap Drum hit.wav
475,192,117073,1,0,0:0:0:70:LR_Clap Drum hit.wav
475,192,118374,1,0,0:0:0:70:LR_Clap Drum hit.wav
475,192,118450,1,0,0:0:0:70:LR_Clap Drum hit.wav
475,192,120670,1,0,0:0:0:70:LR_Clap Drum hit.wav
475,192,120823,1,0,0:0:0:70:LR_Clap Drum hit.wav
