osu file format v14

[General]
AudioFilename: audio.mp3
AudioLeadIn: 0
PreviewTime: -1
Countdown: 1
SampleSet: Normal
StackLeniency: 0.7
Mode: 3
LetterboxInBreaks: 0
SpecialStyle: 0
WidescreenStoryboard: 0

[Editor]
DistanceSpacing: 1
BeatDivisor: 4
GridSize: 32
TimelineZoom: 1.2

[Metadata]
Title:Grisaille
TitleUnicode:Grisaille
Artist:SOUND HOLIC feat. Nana Takahashi
ArtistUnicode:SOUND HOLIC feat. Nana Takahashi
Creator:KhoalaBear
Version:Hard
Source:SOUND VOLTEX III GRAVITY WARS
Tags:NANA HOLIC (2016)
BeatmapID:1428433
BeatmapSetID:675202

[Difficulty]
HPDrainRate:5
CircleSize:4
OverallDifficulty:5
ApproachRate:5
SliderMultiplier:1.4
SliderTickRate:1

[Events]
//Background and Video events
0,0,"grisaille pic.jpg",0,0
//Break Periods
//Storyboard Layer 0 (Background)
//Storyboard Layer 1 (Fail)
//Storyboard Layer 2 (Pass)
//Storyboard Layer 3 (Foreground)
//Storyboard Sound Samples

[TimingPoints]
-248,306.122448979592,4,1,0,100,1,0

[HitObjects]
448,192,670,5,0,0:0:0:0:
64,192,670,1,0,0:0:0:0:
320,192,823,128,0,4037:0:0:0:0:
192,192,823,128,0,4037:0:0:0:0:
64,192,1282,1,0,0:0:0:0:
448,192,1588,1,0,0:0:0:0:
64,192,1894,1,0,0:0:0:0:
448,192,2200,1,0,0:0:0:0:
64,192,2507,1,0,0:0:0:0:
448,192,2813,1,0,0:0:0:0:
64,192,3119,1,0,0:0:0:0:
448,192,3425,1,0,0:0:0:0:
64,192,3731,1,0,0:0:0:0:
448,192,4037,1,0,0:0:0:0:
192,192,4343,1,0,0:0:0:0:
192,192,4573,128,0,4879:0:0:0:0:
320,192,4879,128,0,5185:0:0:0:0:
448,192,5185,128,0,5491:0:0:0:0:
320,192,5491,128,0,5721:0:0:0:0:
64,192,5721,128,0,6563:0:0:0:0:
192,192,6104,1,0,0:0:0:0:
320,192,6257,1,0,0:0:0:0:
448,192,6410,1,0,0:0:0:0:
192,192,6563,1,0,0:0:0:0:
192,192,6792,1,0,0:0:0:0:
320,192,6792,1,0,0:0:0:0:
448,192,7022,128,0,7787:0:0:0:0:
320,192,7328,1,0,0:0:0:0:
192,192,7481,1,0,0:0:0:0:
64,192,7634,1,0,0:0:0:0:
320,192,7787,1,0,0:0:0:0:
192,192,8017,1,0,0:0:0:0:
320,192,8017,1,0,0:0:0:0:
192,192,8246,128,0,8399:0:0:0:0:
64,192,8399,128,0,8553:0:0:0:0:
320,192,8553,128,0,8706:0:0:0:0:
192,192,8706,128,0,8859:0:0:0:0:
64,192,8859,128,0,9012:0:0:0:0:
460,192,9088,1,0,0:0:0:0:
358,192,9165,1,0,0:0:0:0:
153,192,9241,1,0,0:0:0:0:
320,192,9318,1,0,0:0:0:0:
64,192,9394,128,0,9624:0:0:0:0:
192,192,9700,1,0,0:0:0:0:
320,192,9700,1,0,0:0:0:0:
448,192,9854,128,0,10083:0:0:0:0:
192,192,10160,1,0,0:0:0:0:
64,192,10160,1,0,0:0:0:0:
320,192,10313,1,0,0:0:0:0:
448,192,10313,1,0,0:0:0:0:
64,192,10619,1,0,0:0:0:0:
192,192,10619,1,0,0:0:0:0:
320,192,10619,1,0,0:0:0:0:
448,192,10619,1,0,0:0:0:0:
320,192,10925,1,0,0:0:0:0:
192,192,11078,1,0,0:0:0:0:
64,192,11231,1,0,0:0:0:0:
448,192,11384,1,0,0:0:0:0:
320,192,11537,1,0,0:0:0:0:
192,192,11690,1,0,0:0:0:0:
320,192,11843,1,0,0:0:0:0:
64,192,11996,1,0,0:0:0:0:
448,192,12149,1,0,0:0:0:0:
192,192,12303,1,0,0:0:0:0:
320,192,12456,1,0,0:0:0:0:
448,192,12609,1,0,0:0:0:0:
192,192,12762,1,0,0:0:0:0:
64,192,12915,1,0,0:0:0:0:
448,192,12915,1,0,0:0:0:0:
64,192,13068,1,0,0:0:0:0:
448,192,13068,1,0,0:0:0:0:
320,192,13374,1,0,0:0:0:0:
192,192,13527,1,0,0:0:0:0:
64,192,13680,1,0,0:0:0:0:
448,192,13833,1,0,0:0:0:0:
320,192,13986,1,0,0:0:0:0:
192,192,14139,1,0,0:0:0:0:
320,192,14292,1,0,0:0:0:0:
64,192,14445,1,0,0:0:0:0:
448,192,14598,1,0,0:0:0:0:
192,192,14752,1,0,0:0:0:0:
320,192,14905,1,0,0:0:0:0:
448,192,15058,1,0,0:0:0:0:
192,192,15211,1,0,0:0:0:0:
64,192,15364,1,0,0:0:0:0:
448,192,15364,1,0,0:0:0:0:
448,192,15517,1,0,0:0:0:0:
64,192,15517,1,0,0:0:0:0:
448,192,15823,1,0,0:0:0:0:
192,192,15976,1,0,0:0:0:0:
320,192,16129,1,0,0:0:0:0:
192,192,16282,1,0,0:0:0:0:
448,192,16435,1,0,0:0:0:0:
192,192,16588,1,0,0:0:0:0:
64,192,16741,1,0,0:0:0:0:
320,192,16894,1,0,0:0:0:0:
64,192,17047,1,0,0:0:0:0:
320,192,17200,1,0,0:0:0:0:
64,192,17354,1,0,0:0:0:0:
448,192,17507,1,0,0:0:0:0:
320,192,17583,1,0,0:0:0:0:
448,192,17660,1,0,0:0:0:0:
320,192,17736,1,0,0:0:0:0:
448,192,17813,1,0,0:0:0:0:
320,192,17966,128,0,18195:0:0:0:0:
448,192,17966,128,0,18195:0:0:0:0:
64,192,18272,1,0,0:0:0:0:
64,192,18425,1,0,0:0:0:0:
192,192,18578,1,0,0:0:0:0:
320,192,18731,1,0,0:0:0:0:
448,192,18884,1,0,0:0:0:0:
320,192,18961,1,0,0:0:0:0:
192,192,19037,1,0,0:0:0:0:
64,192,19190,1,0,0:0:0:0:
448,192,19190,1,0,0:0:0:0:
192,192,19496,1,0,0:0:0:0:
64,192,19496,1,0,0:0:0:0:
320,192,19803,1,0,0:0:0:0:
64,192,19803,1,0,0:0:0:0:
448,192,20109,1,0,0:0:0:0:
64,192,20109,1,0,0:0:0:0:
192,192,20415,1,0,0:0:0:0:
320,192,20491,1,0,0:0:0:0:
448,192,20568,1,0,0:0:0:0:
64,192,20568,128,0,21486:0:0:0:0:
448,192,20874,1,0,0:0:0:0:
448,192,21180,1,0,0:0:0:0:
448,192,21486,1,0,0:0:0:0:
320,192,21792,1,0,0:0:0:0:
448,192,21792,1,0,0:0:0:0:
192,192,22098,1,0,0:0:0:0:
320,192,22098,1,0,0:0:0:0:
320,192,22405,1,0,0:0:0:0:
64,192,22405,1,0,0:0:0:0:
192,192,22558,1,0,0:0:0:0:
320,192,23017,128,0,23323:0:0:0:0:
448,192,23017,128,0,23323:0:0:0:0:
192,192,23476,1,0,0:0:0:0:
64,192,23629,128,0,24241:0:0:0:0:
448,192,24241,1,0,0:0:0:0:
64,192,24547,1,0,0:0:0:0:
192,192,24547,128,0,24854:0:0:0:0:
320,192,24854,1,0,0:0:0:0:
448,192,24854,128,0,25160:0:0:0:0:
320,192,25160,1,0,0:0:0:0:
192,192,25313,128,0,27609:0:0:0:0:
64,192,25619,1,0,0:0:0:0:
320,192,25772,1,0,0:0:0:0:
448,192,25925,1,0,0:0:0:0:
320,192,26078,1,0,0:0:0:0:
64,192,26231,1,0,0:0:0:0:
320,192,26384,1,0,0:0:0:0:
448,192,26537,1,0,0:0:0:0:
320,192,26690,1,0,0:0:0:0:
64,192,26843,1,0,0:0:0:0:
448,192,26996,1,0,0:0:0:0:
320,192,27149,1,0,0:0:0:0:
448,192,27303,1,0,0:0:0:0:
320,192,27456,1,0,0:0:0:0:
64,192,27609,1,0,0:0:0:0:
448,192,27762,128,0,28527:0:0:0:0:
64,192,27762,128,0,28527:0:0:0:0:
320,192,28068,1,0,0:0:0:0:
192,192,28221,1,0,0:0:0:0:
320,192,28374,1,0,0:0:0:0:
192,192,28527,1,0,0:0:0:0:
320,192,28680,1,0,0:0:0:0:
192,192,28757,1,0,0:0:0:0:
320,192,28833,1,0,0:0:0:0:
192,192,28986,1,0,0:0:0:0:
448,192,28986,1,0,0:0:0:0:
64,192,29292,1,0,0:0:0:0:
320,192,29292,1,0,0:0:0:0:
320,192,29598,1,0,0:0:0:0:
64,192,29752,1,0,0:0:0:0:
320,192,29905,1,0,0:0:0:0:
320,192,30211,1,0,0:0:0:0:
192,192,30287,1,0,0:0:0:0:
64,192,30364,1,0,0:0:0:0:
448,192,30364,128,0,31282:0:0:0:0:
64,192,30670,1,0,0:0:0:0:
64,192,30976,1,0,0:0:0:0:
64,192,31282,1,0,0:0:0:0:
64,192,31588,1,0,0:0:0:0:
192,192,31588,1,0,0:0:0:0:
192,192,31894,1,0,0:0:0:0:
320,192,31894,1,0,0:0:0:0:
192,192,32200,1,0,0:0:0:0:
448,192,32200,1,0,0:0:0:0:
320,192,32354,1,0,0:0:0:0:
192,192,32813,128,0,33195:0:0:0:0:
64,192,32813,128,0,33195:0:0:0:0:
320,192,33272,1,0,0:0:0:0:
448,192,33425,128,0,33884:0:0:0:0:
320,192,34037,1,0,0:0:0:0:
192,192,34037,1,0,0:0:0:0:
64,192,34037,1,0,0:0:0:0:
192,192,34343,1,0,0:0:0:0:
320,192,34343,1,0,0:0:0:0:
448,192,34343,1,0,0:0:0:0:
64,192,34649,1,0,0:0:0:0:
192,192,34649,1,0,0:0:0:0:
320,192,34956,1,0,0:0:0:0:
448,192,34956,1,0,0:0:0:0:
320,192,35109,128,0,37098:0:0:0:0:
448,192,35415,1,0,0:0:0:0:
192,192,35568,1,0,0:0:0:0:
64,192,35721,1,0,0:0:0:0:
192,192,35874,1,0,0:0:0:0:
448,192,36027,1,0,0:0:0:0:
192,192,36180,1,0,0:0:0:0:
64,192,36333,1,0,0:0:0:0:
192,192,36486,1,0,0:0:0:0:
448,192,36639,1,0,0:0:0:0:
64,192,36792,1,0,0:0:0:0:
192,192,36945,1,0,0:0:0:0:
64,192,37098,1,0,0:0:0:0:
448,192,37252,1,0,0:0:0:0:
192,192,37405,1,0,0:0:0:0:
64,192,37558,128,0,38017:0:0:0:0:
320,192,37558,128,0,38017:0:0:0:0:
192,192,38017,1,0,0:0:0:0:
448,192,38170,1,0,0:0:0:0:
64,192,38476,1,0,0:0:0:0:
192,192,38476,128,0,38782:0:0:0:0:
320,192,38782,128,0,39700:0:0:0:0:
448,192,38782,128,0,39700:0:0:0:0:
64,192,38935,1,0,0:0:0:0:
64,192,39088,1,0,0:0:0:0:
192,192,39241,1,0,0:0:0:0:
192,192,39394,1,0,0:0:0:0:
64,192,39547,1,0,0:0:0:0:
64,192,39700,1,0,0:0:0:0:
320,192,40160,1,0,0:0:0:0:
448,192,40160,1,0,0:0:0:0:
320,192,40313,1,0,0:0:0:0:
448,192,40313,1,0,0:0:0:0:
64,192,40619,1,0,0:0:0:0:
192,192,40619,1,0,0:0:0:0:
64,192,40772,1,0,0:0:0:0:
192,192,40772,1,0,0:0:0:0:
192,192,41078,1,0,0:0:0:0:
448,192,41078,1,0,0:0:0:0:
64,192,41231,1,0,0:0:0:0:
320,192,41231,1,0,0:0:0:0:
64,192,41537,1,0,0:0:0:0:
320,192,41537,1,0,0:0:0:0:
192,192,41690,1,0,0:0:0:0:
448,192,41690,1,0,0:0:0:0:
448,192,41996,128,0,42456:0:0:0:0:
320,192,41996,128,0,42456:0:0:0:0:
64,192,41996,128,0,42456:0:0:0:0:
192,192,41996,128,0,42456:0:0:0:0:
192,192,42609,1,0,0:0:0:0:
448,192,42609,1,0,0:0:0:0:
192,192,42762,1,0,0:0:0:0:
448,192,42762,1,0,0:0:0:0:
64,192,43068,1,0,0:0:0:0:
320,192,43068,1,0,0:0:0:0:
64,192,43221,1,0,0:0:0:0:
320,192,43221,1,0,0:0:0:0:
192,192,43527,1,0,0:0:0:0:
320,192,43527,1,0,0:0:0:0:
64,192,43680,1,0,0:0:0:0:
448,192,43680,1,0,0:0:0:0:
64,192,43986,1,0,0:0:0:0:
448,192,43986,1,0,0:0:0:0:
192,192,44139,1,0,0:0:0:0:
320,192,44139,1,0,0:0:0:0:
64,192,44445,128,0,44905:0:0:0:0:
192,192,44445,128,0,44905:0:0:0:0:
320,192,44445,128,0,44905:0:0:0:0:
448,192,44445,128,0,44905:0:0:0:0:
192,192,45364,1,0,0:0:0:0:
448,192,45364,1,0,0:0:0:0:
320,192,45670,1,0,0:0:0:0:
64,192,45670,1,0,0:0:0:0:
192,192,45976,1,0,0:0:0:0:
448,192,45976,1,0,0:0:0:0:
64,192,46282,1,0,0:0:0:0:
320,192,46282,1,0,0:0:0:0:
192,192,46588,1,0,0:0:0:0:
448,192,46588,1,0,0:0:0:0:
64,192,46894,1,0,0:0:0:0:
320,192,46894,1,0,0:0:0:0:
192,192,47200,1,0,0:0:0:0:
448,192,47200,1,0,0:0:0:0:
192,192,47507,1,0,0:0:0:0:
320,192,47507,1,0,0:0:0:0:
64,192,47813,1,0,0:0:0:0:
192,192,47813,1,0,0:0:0:0:
320,192,47966,1,0,0:0:0:0:
448,192,47966,1,0,0:0:0:0:
192,192,48272,1,0,0:0:0:0:
320,192,48272,1,0,0:0:0:0:
64,192,48578,128,0,49037:0:0:0:0:
448,192,48578,128,0,49037:0:0:0:0:
192,192,48884,1,0,0:0:0:0:
320,192,49037,1,0,0:0:0:0:
192,192,49190,1,0,0:0:0:0:
64,192,49343,1,0,0:0:0:0:
320,192,49496,1,0,0:0:0:0:
448,192,49496,1,0,0:0:0:0:
64,192,49803,1,0,0:0:0:0:
320,192,49803,128,0,50262:0:0:0:0:
448,192,50262,1,0,0:0:0:0:
192,192,50415,1,0,0:0:0:0:
320,192,50568,1,0,0:0:0:0:
64,192,50797,1,0,0:0:0:0:
192,192,50797,1,0,0:0:0:0:
320,192,51180,1,0,0:0:0:0:
64,192,51333,1,0,0:0:0:0:
192,192,51486,1,0,0:0:0:0:
448,192,51486,1,0,0:0:0:0:
320,192,51639,1,0,0:0:0:0:
320,192,51945,1,0,0:0:0:0:
192,192,52098,1,0,0:0:0:0:
448,192,52098,1,0,0:0:0:0:
64,192,52405,1,0,0:0:0:0:
64,192,52711,1,0,0:0:0:0:
192,192,52711,1,0,0:0:0:0:
448,192,53017,1,0,0:0:0:0:
320,192,53323,1,0,0:0:0:0:
448,192,53323,1,0,0:0:0:0:
192,192,53629,1,0,0:0:0:0:
320,192,53782,1,0,0:0:0:0:
64,192,53935,1,0,0:0:0:0:
448,192,53935,1,0,0:0:0:0:
192,192,54088,1,0,0:0:0:0:
320,192,54088,1,0,0:0:0:0:
192,192,54394,1,0,0:0:0:0:
320,192,54394,1,0,0:0:0:0:
64,192,54547,1,0,0:0:0:0:
448,192,54547,1,0,0:0:0:0:
192,192,54854,1,0,0:0:0:0:
64,192,55160,1,0,0:0:0:0:
192,192,55160,1,0,0:0:0:0:
320,192,55466,1,0,0:0:0:0:
320,192,55772,1,0,0:0:0:0:
448,192,55772,1,0,0:0:0:0:
192,192,56078,1,0,0:0:0:0:
448,192,56231,1,0,0:0:0:0:
320,192,56384,1,0,0:0:0:0:
64,192,56384,1,0,0:0:0:0:
320,192,56690,128,0,56996:0:0:0:0:
448,192,56996,1,0,0:0:0:0:
64,192,57149,128,0,58068:0:0:0:0:
192,192,57303,1,0,0:0:0:0:
192,192,57456,1,0,0:0:0:0:
320,192,57609,1,0,0:0:0:0:
320,192,57762,1,0,0:0:0:0:
448,192,57915,1,0,0:0:0:0:
448,192,58068,1,0,0:0:0:0:
192,192,58221,1,0,0:0:0:0:
320,192,58374,128,0,58757:0:0:0:0:
448,192,58374,128,0,58757:0:0:0:0:
64,192,58833,1,0,0:0:0:0:
448,192,58910,1,0,0:0:0:0:
64,192,58986,1,0,0:0:0:0:
448,192,59063,1,0,0:0:0:0:
64,192,59139,128,0,60058:0:0:0:0:
192,192,59292,128,0,60058:0:0:0:0:
320,192,59598,128,0,60058:0:0:0:0:
448,192,60058,1,0,0:0:0:0:
192,192,60364,1,0,0:0:0:0:
64,192,60364,1,0,0:0:0:0:
192,192,60593,1,0,0:0:0:0:
320,192,60593,1,0,0:0:0:0:
320,192,60823,1,0,0:0:0:0:
448,192,60823,1,0,0:0:0:0:
320,192,60976,128,0,61435:0:0:0:0:
448,192,60976,128,0,61435:0:0:0:0:
64,192,61282,1,0,0:0:0:0:
192,192,61435,1,0,0:0:0:0:
448,192,61741,128,0,62507:0:0:0:0:
320,192,61894,128,0,62507:0:0:0:0:
192,192,62200,128,0,62507:0:0:0:0:
64,192,62507,1,0,0:0:0:0:
192,192,62813,1,0,0:0:0:0:
320,192,62813,1,0,0:0:0:0:
64,192,63081,1,0,0:0:0:0:
320,192,63081,1,0,0:0:0:0:
192,192,63272,1,0,0:0:0:0:
320,192,63425,128,0,63731:0:0:0:0:
64,192,63425,128,0,63731:0:0:0:0:
448,192,63731,1,0,0:0:0:0:
192,192,63884,1,0,0:0:0:0:
320,192,64037,128,0,64267:0:0:0:0:
64,192,64343,1,0,0:0:0:0:
448,192,64420,1,0,0:0:0:0:
192,192,64496,1,0,0:0:0:0:
320,192,64573,1,0,0:0:0:0:
64,192,64649,128,0,64956:0:0:0:0:
448,192,64956,1,0,0:0:0:0:
192,192,65109,1,0,0:0:0:0:
320,192,65262,128,0,65568:0:0:0:0:
64,192,65568,1,0,0:0:0:0:
448,192,65721,1,0,0:0:0:0:
192,192,65874,128,0,66180:0:0:0:0:
320,192,66180,1,0,0:0:0:0:
64,192,66333,1,0,0:0:0:0:
448,192,66486,128,0,66792:0:0:0:0:
192,192,66792,1,0,0:0:0:0:
320,192,66945,1,0,0:0:0:0:
64,192,67098,128,0,67405:0:0:0:0:
448,192,67405,1,0,0:0:0:0:
192,192,67558,1,0,0:0:0:0:
320,192,67711,128,0,68017:0:0:0:0:
64,192,68017,1,0,0:0:0:0:
448,192,68170,1,0,0:0:0:0:
320,192,68323,128,0,68629:0:0:0:0:
64,192,68323,128,0,68629:0:0:0:0:
192,192,68782,1,0,0:0:0:0:
320,192,68935,1,0,0:0:0:0:
448,192,68935,1,0,0:0:0:0:
192,192,69012,1,0,0:0:0:0:
64,192,69088,1,0,0:0:0:0:
320,192,69241,1,0,0:0:0:0:
448,192,69241,1,0,0:0:0:0:
192,192,69318,1,0,0:0:0:0:
64,192,69394,1,0,0:0:0:0:
320,192,69700,1,0,0:0:0:0:
192,192,69854,1,0,0:0:0:0:
64,192,70007,1,0,0:0:0:0:
448,192,70160,1,0,0:0:0:0:
320,192,70313,1,0,0:0:0:0:
192,192,70466,1,0,0:0:0:0:
320,192,70619,1,0,0:0:0:0:
64,192,70772,1,0,0:0:0:0:
448,192,70925,1,0,0:0:0:0:
192,192,71078,1,0,0:0:0:0:
320,192,71231,1,0,0:0:0:0:
448,192,71384,1,0,0:0:0:0:
192,192,71537,1,0,0:0:0:0:
64,192,71690,1,0,0:0:0:0:
448,192,71690,1,0,0:0:0:0:
64,192,71843,1,0,0:0:0:0:
448,192,71843,1,0,0:0:0:0:
320,192,72149,1,0,0:0:0:0:
192,192,72303,1,0,0:0:0:0:
64,192,72456,1,0,0:0:0:0:
448,192,72609,1,0,0:0:0:0:
320,192,72762,1,0,0:0:0:0:
192,192,72915,1,0,0:0:0:0:
320,192,73068,1,0,0:0:0:0:
64,192,73221,1,0,0:0:0:0:
448,192,73374,1,0,0:0:0:0:
192,192,73527,1,0,0:0:0:0:
320,192,73680,1,0,0:0:0:0:
448,192,73833,1,0,0:0:0:0:
192,192,73986,1,0,0:0:0:0:
64,192,74139,1,0,0:0:0:0:
448,192,74139,1,0,0:0:0:0:
64,192,74292,1,0,0:0:0:0:
448,192,74292,1,0,0:0:0:0:
192,192,74598,1,0,0:0:0:0:
320,192,74598,1,0,0:0:0:0:
64,192,74752,1,0,0:0:0:0:
448,192,74752,1,0,0:0:0:0:
192,192,74905,1,0,0:0:0:0:
320,192,74905,1,0,0:0:0:0:
64,192,75058,1,0,0:0:0:0:
320,192,75211,1,0,0:0:0:0:
448,192,75211,1,0,0:0:0:0:
64,192,75364,1,0,0:0:0:0:
448,192,75517,1,0,0:0:0:0:
64,192,75670,1,0,0:0:0:0:
320,192,75823,1,0,0:0:0:0:
448,192,75823,1,0,0:0:0:0:
64,192,75976,1,0,0:0:0:0:
320,192,76129,1,0,0:0:0:0:
64,192,76282,1,0,0:0:0:0:
192,192,76282,1,0,0:0:0:0:
320,192,76435,1,0,0:0:0:0:
448,192,76435,1,0,0:0:0:0:
64,192,76588,1,0,0:0:0:0:
192,192,76588,1,0,0:0:0:0:
320,192,76741,1,0,0:0:0:0:
448,192,76741,1,0,0:0:0:0:
448,192,77047,1,0,0:0:0:0:
320,192,77200,1,0,0:0:0:0:
192,192,77354,1,0,0:0:0:0:
64,192,77507,1,0,0:0:0:0:
320,192,77660,1,0,0:0:0:0:
448,192,77736,1,0,0:0:0:0:
320,192,77813,1,0,0:0:0:0:
192,192,77889,1,0,0:0:0:0:
64,192,77966,1,0,0:0:0:0:
320,192,77966,1,0,0:0:0:0:
192,192,78272,1,0,0:0:0:0:
448,192,78272,1,0,0:0:0:0:
192,192,78578,1,0,0:0:0:0:
320,192,78578,1,0,0:0:0:0:
64,192,78884,1,0,0:0:0:0:
448,192,78884,1,0,0:0:0:0:
448,192,79190,1,0,0:0:0:0:
320,192,79267,1,0,0:0:0:0:
64,192,79343,1,0,0:0:0:0:
192,192,79420,1,0,0:0:0:0:
448,192,79496,1,0,0:0:0:0:
448,192,79803,1,0,0:0:0:0:
320,192,79879,1,0,0:0:0:0:
64,192,79956,1,0,0:0:0:0:
64,192,80262,1,0,0:0:0:0:
192,192,80338,1,0,0:0:0:0:
448,192,80415,1,0,0:0:0:0:
192,192,80721,1,0,0:0:0:0:
320,192,80797,1,0,0:0:0:0:
448,192,80874,1,0,0:0:0:0:
320,192,81180,1,0,0:0:0:0:
192,192,81257,1,0,0:0:0:0:
64,192,81333,1,0,0:0:0:0:
64,192,81639,1,0,0:0:0:0:
192,192,81716,1,0,0:0:0:0:
320,192,81792,1,0,0:0:0:0:
448,192,81869,1,0,0:0:0:0:
448,192,82098,1,0,0:0:0:0:
320,192,82175,1,0,0:0:0:0:
448,192,82252,1,0,0:0:0:0:
64,192,82405,1,0,0:0:0:0:
192,192,82481,1,0,0:0:0:0:
64,192,82558,1,0,0:0:0:0:
448,192,82711,1,0,0:0:0:0:
320,192,82787,1,0,0:0:0:0:
448,192,82864,1,0,0:0:0:0:
320,192,83017,1,0,0:0:0:0:
192,192,83093,1,0,0:0:0:0:
64,192,83170,1,0,0:0:0:0:
320,192,83246,1,0,0:0:0:0:
192,192,83323,1,0,0:0:0:0:
64,192,83399,1,0,0:0:0:0:
320,192,83629,128,0,84012:0:0:0:0:
448,192,83629,128,0,84012:0:0:0:0:
64,192,84088,128,0,84318:0:0:0:0:
192,192,84318,1,0,0:0:0:0:
320,192,84394,1,0,0:0:0:0:
448,192,84471,1,0,0:0:0:0:
320,192,84547,1,0,0:0:0:0:
192,192,84624,1,0,0:0:0:0:
64,192,84700,1,0,0:0:0:0:
192,192,84777,1,0,0:0:0:0:
320,192,84854,1,0,0:0:0:0:
448,192,84930,1,0,0:0:0:0:
64,192,85007,1,0,0:0:0:0:
192,192,85083,1,0,0:0:0:0:
320,192,85160,1,0,0:0:0:0:
192,192,85236,1,0,0:0:0:0:
64,192,85313,1,0,0:0:0:0:
448,192,85389,1,0,0:0:0:0:
320,192,85466,1,0,0:0:0:0:
192,192,85542,1,0,0:0:0:0:
64,192,85619,1,0,0:0:0:0:
192,192,85695,1,0,0:0:0:0:
320,192,85772,1,0,0:0:0:0:
448,192,85848,1,0,0:0:0:0:
320,192,85925,1,0,0:0:0:0:
192,192,86002,1,0,0:0:0:0:
64,192,86078,1,0,0:0:0:0:
448,192,86155,1,0,0:0:0:0:
320,192,86231,1,0,0:0:0:0:
192,192,86308,1,0,0:0:0:0:
320,192,86384,1,0,0:0:0:0:
448,192,86461,1,0,0:0:0:0:
192,192,86614,1,0,0:0:0:0:
320,192,86690,1,0,0:0:0:0:
192,192,86767,1,0,0:0:0:0:
320,192,86843,1,0,0:0:0:0:
64,192,86920,1,0,0:0:0:0:
448,192,86996,1,0,0:0:0:0:
64,192,87073,1,0,0:0:0:0:
448,192,87149,1,0,0:0:0:0:
192,192,87226,1,0,0:0:0:0:
320,192,87303,1,0,0:0:0:0:
192,192,87379,1,0,0:0:0:0:
320,192,87456,1,0,0:0:0:0:
64,192,87532,1,0,0:0:0:0:
448,192,87609,1,0,0:0:0:0:
64,192,87685,1,0,0:0:0:0:
448,192,87762,1,0,0:0:0:0:
192,192,87915,128,0,88680:0:0:0:0:
320,192,87915,128,0,88680:0:0:0:0:
64,192,88527,1,0,0:0:0:0:
448,192,88680,1,0,0:0:0:0:
64,192,88986,128,0,89445:0:0:0:0:
320,192,89752,1,0,0:0:0:0:
192,192,89905,1,0,0:0:0:0:
448,192,90058,1,0,0:0:0:0:
320,192,90211,1,0,0:0:0:0:
192,192,90364,128,0,90823:0:0:0:0:
320,192,90976,1,0,0:0:0:0:
64,192,91129,1,0,0:0:0:0:
192,192,91282,1,0,0:0:0:0:
320,192,91435,1,0,0:0:0:0:
448,192,91588,128,0,92047:0:0:0:0:
64,192,92200,1,0,0:0:0:0:
320,192,92354,1,0,0:0:0:0:
448,192,92507,1,0,0:0:0:0:
320,192,92660,1,0,0:0:0:0:
64,192,92813,128,0,93272:0:0:0:0:
448,192,93425,1,0,0:0:0:0:
192,192,93578,1,0,0:0:0:0:
448,192,93731,1,0,0:0:0:0:
64,192,93884,1,0,0:0:0:0:
192,192,94037,1,0,0:0:0:0:
320,192,94037,1,0,0:0:0:0:
192,192,94343,1,0,0:0:0:0:
320,192,94343,1,0,0:0:0:0:
448,192,94343,1,0,0:0:0:0:
64,192,94649,1,0,0:0:0:0:
448,192,94649,1,0,0:0:0:0:
64,192,94956,1,0,0:0:0:0:
192,192,94956,1,0,0:0:0:0:
320,192,94956,1,0,0:0:0:0:
64,192,95262,1,0,0:0:0:0:
320,192,95262,1,0,0:0:0:0:
64,192,95568,1,0,0:0:0:0:
192,192,95568,1,0,0:0:0:0:
448,192,95568,1,0,0:0:0:0:
192,192,95874,1,0,0:0:0:0:
448,192,95874,1,0,0:0:0:0:
64,192,96180,1,0,0:0:0:0:
320,192,96180,1,0,0:0:0:0:
448,192,96180,1,0,0:0:0:0:
192,192,96333,128,0,97098:0:0:0:0:
64,192,96333,128,0,97098:0:0:0:0:
320,192,96639,1,0,0:0:0:0:
448,192,96639,1,0,0:0:0:0:
320,192,96792,1,0,0:0:0:0:
448,192,96792,1,0,0:0:0:0:
320,192,96945,1,0,0:0:0:0:
448,192,96945,1,0,0:0:0:0:
320,192,97098,1,0,0:0:0:0:
448,192,97098,1,0,0:0:0:0:
320,192,97252,1,0,0:0:0:0:
64,192,97405,1,0,0:0:0:0:
448,192,97558,128,0,97940:0:0:0:0:
64,192,98017,1,0,0:0:0:0:
320,192,98093,1,0,0:0:0:0:
64,192,98170,1,0,0:0:0:0:
320,192,98246,1,0,0:0:0:0:
64,192,98323,1,0,0:0:0:0:
192,192,98323,1,0,0:0:0:0:
320,192,98476,1,0,0:0:0:0:
448,192,98476,1,0,0:0:0:0:
320,192,98782,128,0,99241:0:0:0:0:
448,192,98782,128,0,99241:0:0:0:0:
64,192,99241,1,0,0:0:0:0:
320,192,99547,1,0,0:0:0:0:
64,192,99854,1,0,0:0:0:0:
448,192,99854,1,0,0:0:0:0:
192,192,100160,1,0,0:0:0:0:
320,192,100313,1,0,0:0:0:0:
64,192,100466,1,0,0:0:0:0:
192,192,100466,1,0,0:0:0:0:
320,192,100619,1,0,0:0:0:0:
320,192,100925,1,0,0:0:0:0:
64,192,101078,1,0,0:0:0:0:
192,192,101078,1,0,0:0:0:0:
320,192,101384,1,0,0:0:0:0:
448,192,101690,1,0,0:0:0:0:
64,192,101690,1,0,0:0:0:0:
192,192,101996,1,0,0:0:0:0:
64,192,102303,1,0,0:0:0:0:
448,192,102303,1,0,0:0:0:0:
320,192,102609,1,0,0:0:0:0:
192,192,102762,1,0,0:0:0:0:
320,192,102915,1,0,0:0:0:0:
448,192,102915,1,0,0:0:0:0:
192,192,103068,1,0,0:0:0:0:
192,192,103374,1,0,0:0:0:0:
320,192,103527,1,0,0:0:0:0:
192,192,103604,1,0,0:0:0:0:
448,192,103680,1,0,0:0:0:0:
64,192,103757,1,0,0:0:0:0:
320,192,103833,128,0,104139:0:0:0:0:
192,192,104139,1,0,0:0:0:0:
448,192,104292,1,0,0:0:0:0:
64,192,104445,128,0,104752:0:0:0:0:
320,192,104752,1,0,0:0:0:0:
448,192,104905,1,0,0:0:0:0:
192,192,105058,128,0,105364:0:0:0:0:
320,192,105364,1,0,0:0:0:0:
64,192,105517,1,0,0:0:0:0:
448,192,105670,128,0,105976:0:0:0:0:
192,192,105976,1,0,0:0:0:0:
320,192,106129,1,0,0:0:0:0:
64,192,106282,128,0,106588:0:0:0:0:
448,192,106588,1,0,0:0:0:0:
192,192,106741,1,0,0:0:0:0:
320,192,106894,128,0,107200:0:0:0:0:
64,192,107200,1,0,0:0:0:0:
448,192,107354,1,0,0:0:0:0:
192,192,107507,128,0,107813:0:0:0:0:
448,192,107813,1,0,0:0:0:0:
320,192,107966,1,0,0:0:0:0:
192,192,108119,1,0,0:0:0:0:
64,192,108272,1,0,0:0:0:0:
320,192,108425,1,0,0:0:0:0:
64,192,108578,128,0,108884:0:0:0:0:
192,192,108884,1,0,0:0:0:0:
320,192,109037,1,0,0:0:0:0:
448,192,109190,1,0,0:0:0:0:
64,192,109343,1,0,0:0:0:0:
192,192,109496,1,0,0:0:0:0:
320,192,109649,1,0,0:0:0:0:
192,192,109803,1,0,0:0:0:0:
448,192,109956,1,0,0:0:0:0:
64,192,110109,1,0,0:0:0:0:
320,192,110262,1,0,0:0:0:0:
192,192,110415,1,0,0:0:0:0:
64,192,110568,1,0,0:0:0:0:
320,192,110721,1,0,0:0:0:0:
64,192,110874,1,0,0:0:0:0:
448,192,110874,1,0,0:0:0:0:
64,192,111027,1,0,0:0:0:0:
448,192,111027,1,0,0:0:0:0:
192,192,111333,1,0,0:0:0:0:
320,192,111486,1,0,0:0:0:0:
448,192,111639,1,0,0:0:0:0:
64,192,111792,1,0,0:0:0:0:
192,192,111945,1,0,0:0:0:0:
320,192,112098,1,0,0:0:0:0:
192,192,112252,1,0,0:0:0:0:
448,192,112405,1,0,0:0:0:0:
64,192,112558,1,0,0:0:0:0:
320,192,112711,1,0,0:0:0:0:
192,192,112864,1,0,0:0:0:0:
64,192,113017,1,0,0:0:0:0:
320,192,113170,1,0,0:0:0:0:
64,192,113323,1,0,0:0:0:0:
448,192,113323,1,0,0:0:0:0:
64,192,113476,1,0,0:0:0:0:
448,192,113476,1,0,0:0:0:0:
64,192,113782,1,0,0:0:0:0:
320,192,113935,1,0,0:0:0:0:
192,192,114088,1,0,0:0:0:0:
320,192,114241,1,0,0:0:0:0:
64,192,114394,1,0,0:0:0:0:
320,192,114547,1,0,0:0:0:0:
448,192,114700,1,0,0:0:0:0:
192,192,114854,1,0,0:0:0:0:
448,192,115007,1,0,0:0:0:0:
192,192,115160,1,0,0:0:0:0:
448,192,115313,1,0,0:0:0:0:
192,192,115466,1,0,0:0:0:0:
64,192,115542,1,0,0:0:0:0:
192,192,115619,1,0,0:0:0:0:
64,192,115695,1,0,0:0:0:0:
192,192,115772,1,0,0:0:0:0:
64,192,115925,128,0,116155:0:0:0:0:
192,192,115925,128,0,116155:0:0:0:0:
448,192,116231,1,0,0:0:0:0:
448,192,116384,1,0,0:0:0:0:
320,192,116537,1,0,0:0:0:0:
192,192,116690,1,0,0:0:0:0:
64,192,116843,1,0,0:0:0:0:
192,192,116920,1,0,0:0:0:0:
320,192,116996,1,0,0:0:0:0:
448,192,117073,1,0,0:0:0:0:
192,192,117149,1,0,0:0:0:0:
320,192,117149,1,0,0:0:0:0:
320,192,117456,1,0,0:0:0:0:
448,192,117456,1,0,0:0:0:0:
64,192,117762,1,0,0:0:0:0:
192,192,117762,1,0,0:0:0:0:
448,192,118068,1,0,0:0:0:0:
64,192,118068,1,0,0:0:0:0:
448,192,118374,1,0,0:0:0:0:
320,192,118450,1,0,0:0:0:0:
192,192,118527,1,0,0:0:0:0:
64,192,118680,1,0,0:0:0:0:
192,192,118833,1,0,0:0:0:0:
448,192,118986,1,0,0:0:0:0:
192,192,119139,1,0,0:0:0:0:
320,192,119292,1,0,0:0:0:0:
64,192,119445,1,0,0:0:0:0:
192,192,119598,1,0,0:0:0:0:
448,192,119752,1,0,0:0:0:0:
192,192,119905,1,0,0:0:0:0:
320,192,120058,1,0,0:0:0:0:
64,192,120211,1,0,0:0:0:0:
320,192,120364,1,0,0:0:0:0:
448,192,120517,1,0,0:0:0:0:
64,192,120670,1,0,0:0:0:0:
192,192,120670,1,0,0:0:0:0:
320,192,120823,1,0,0:0:0:0:
448,192,120823,1,0,0:0:0:0:
