osu file format v14

[General]
AudioFilename: audio.mp3
AudioLeadIn: 0
PreviewTime: 99999
Countdown: 0
SampleSet: Normal
StackLeniency: 0.7
Mode: 1
LetterboxInBreaks: 0
WidescreenStoryboard: 0

[Editor]
Bookmarks: 14083,20613,27144,33675,40205,46736
DistanceSpacing: 1.4
BeatDivisor: 4
GridSize: 32
TimelineZoom: 1.2

[Metadata]
Title:1001 -ESCAPE-
TitleUnicode:1001 -ESCAPE-
Artist:SOUND HOLIC feat. Nana Takahashi
ArtistUnicode:SOUND HOLIC feat. Nana Takahashi
Creator:Charlotte
Version:Nardo's Oni
Source:beatmania IIDX 25 CANNON BALLERS
Tags:chaica Renka iloveyou4ever Nardoxyribonucleic Kqrth electronic japanese ost original soundtrack JAZZ ROCK 高橋菜々 gucci 709sec
BeatmapID:2020165
BeatmapSetID:857208

[Difficulty]
HPDrainRate:6
CircleSize:5
OverallDifficulty:5.5
ApproachRate:5
SliderMultiplier:1.4
SliderTickRate:1

[Events]
//Background and Video events
0,0,"BG.jpg",0,0
//Break Periods
//Storyboard Layer 0 (Background)
//Storyboard Layer 1 (Fail)
//Storyboard Layer 2 (Pass)
//Storyboard Layer 3 (Foreground)
//Storyboard Layer 4 (Overlay)
//Storyboard Sound Samples

[TimingPoints]
1022,408.163265306122,4,1,0,45,1,0
1022,-111.111111111111,4,1,0,45,0,0
4083,-100,4,1,0,75,0,0
7042,-83.3333333333333,4,1,0,75,0,0
7246,-100,4,1,0,75,0,0
51634,-98.0392156862745,4,1,0,75,0,0
51770,-96.1538461538461,4,1,0,75,0,0
51916,-94.3396226415094,4,1,0,75,0,0
52042,-92.5925925925926,4,1,0,75,0,0
52178,-90.9090909090909,4,1,0,75,0,0
52314,-89.2857142857143,4,1,0,75,0,0
52450,-87.719298245614,4,1,0,75,0,0
53266,-95.2380952380952,4,1,0,85,0,1
71226,-95.2380952380952,4,1,0,75,0,0
72450,-105.263157894737,4,1,0,75,0,0
72858,-100,4,1,0,75,0,0
74083,-97.5609756097561,4,1,0,75,0,0
74287,408.163265306122,4,1,0,75,1,0
74287,-95.2380952380952,4,1,0,75,0,0
75511,-93.0232558139535,4,1,0,75,0,0
75715,408.163265306122,4,1,0,75,1,0
75715,-90.9090909090909,4,1,0,75,0,0
77143,408.163265306122,4,1,0,75,1,0
77143,-86.9565217391304,4,1,0,75,0,0
77449,-88.8888888888889,4,1,0,75,0,0
77755,-90.9090909090909,4,1,0,75,0,0
78061,-93.0232558139535,4,1,0,75,0,0
78367,-95.2380952380952,4,1,0,75,0,0
78571,-97.5609756097561,4,1,0,75,0,0
78775,408.163265306122,4,1,0,75,1,0
86530,-101.010101010101,4,1,0,75,0,0
86734,-103.092783505155,4,1,0,75,0,0
86836,-104.166666666667,4,1,0,75,0,0
86938,-105.263157894737,4,1,0,45,0,0
87754,-117.647058823529,4,1,0,45,0,0
92652,-112.994350282486,4,1,0,45,0,0
92958,-111.111111111111,4,1,0,45,0,0
93264,-109.289617486339,4,1,0,45,0,0
93468,-108.108108108108,4,1,0,60,0,0
96734,-100,4,1,0,75,0,0
97550,-95.2380952380952,4,1,0,75,0,0
98366,-90.9090909090909,4,1,0,75,0,0
99591,-100,4,1,0,75,0,0
99999,-90.9090909090909,4,1,0,85,0,1
117958,-90.9090909090909,4,1,0,75,0,0
119183,-105.263157894737,4,1,0,75,0,0
119591,-100,4,1,0,55,0,0
121223,-98.0392156862745,4,1,0,55,0,0
121530,-96.1538461538461,4,1,0,55,0,0
121836,-94.3396226415094,4,1,0,55,0,0
122244,-91.743119266055,4,1,0,55,0,0
122550,-89.2857142857143,4,1,0,55,0,0

[HitObjects]
256,192,1022,12,0,3470,0:0:0:0:
256,192,4083,5,0,0:0:0:0:
256,192,4185,1,0,0:0:0:0:
256,192,4287,1,8,0:0:0:0:
256,192,4593,1,0,0:0:0:0:
256,192,4899,1,8,0:0:0:0:
256,192,5205,1,0,0:0:0:0:
256,192,5511,1,8,0:0:0:0:
256,192,5715,1,0,0:0:0:0:
256,192,5919,1,8,0:0:0:0:
256,192,6226,1,8,0:0:0:0:
256,192,6532,1,8,0:0:0:0:
256,192,7144,1,12,0:0:0:0:
256,192,7552,1,4,0:0:0:0:
256,192,7756,1,8,0:0:0:0:
256,192,7960,1,0,0:0:0:0:
256,192,8062,1,8,0:0:0:0:
256,192,8368,1,8,0:0:0:0:
256,192,8675,1,8,0:0:0:0:
256,192,8777,1,0,0:0:0:0:
256,192,8981,1,0,0:0:0:0:
256,192,9083,1,0,0:0:0:0:
256,192,9185,1,8,0:0:0:0:
256,192,9389,1,0,0:0:0:0:
256,192,9593,1,8,0:0:0:0:
256,192,9695,1,0,0:0:0:0:
256,192,10001,1,8,0:0:0:0:
256,192,10307,1,0,0:0:0:0:
256,192,10409,1,8,0:0:0:0:
256,192,10613,1,8,0:0:0:0:
256,192,10715,1,8,0:0:0:0:
256,192,10817,1,0,0:0:0:0:
256,192,11021,1,8,0:0:0:0:
256,192,11226,1,0,0:0:0:0:
256,192,11328,1,8,0:0:0:0:
256,192,11634,1,8,0:0:0:0:
256,192,11940,1,8,0:0:0:0:
256,192,12042,1,0,0:0:0:0:
256,192,12246,1,0,0:0:0:0:
256,192,12450,1,12,0:0:0:0:
256,192,12756,1,4,0:0:0:0:
256,192,13062,1,4,0:0:0:0:
256,192,13368,1,12,0:0:0:0:
256,192,13675,1,8,0:0:0:0:
256,192,13879,1,0,0:0:0:0:
256,192,14083,1,4,0:0:0:0:
256,192,14287,1,8,0:0:0:0:
256,192,14491,1,0,0:0:0:0:
256,192,14593,1,8,0:0:0:0:
256,192,14899,1,8,0:0:0:0:
256,192,15205,1,8,0:0:0:0:
256,192,15307,1,0,0:0:0:0:
256,192,15511,1,0,0:0:0:0:
256,192,15613,1,0,0:0:0:0:
256,192,15715,1,8,0:0:0:0:
256,192,15919,1,0,0:0:0:0:
256,192,16124,1,8,0:0:0:0:
256,192,16226,1,0,0:0:0:0:
256,192,16532,1,8,0:0:0:0:
256,192,16838,1,0,0:0:0:0:
256,192,16940,1,8,0:0:0:0:
256,192,17144,1,8,0:0:0:0:
256,192,17246,1,8,0:0:0:0:
256,192,17348,1,0,0:0:0:0:
256,192,17552,1,8,0:0:0:0:
256,192,17756,1,0,0:0:0:0:
256,192,17858,1,8,0:0:0:0:
256,192,18164,1,8,0:0:0:0:
256,192,18470,1,8,0:0:0:0:
256,192,18573,1,0,0:0:0:0:
256,192,18777,1,0,0:0:0:0:
256,192,18981,1,12,0:0:0:0:
256,192,19287,1,4,0:0:0:0:
256,192,19593,1,12,0:0:0:0:
256,192,19899,1,4,0:0:0:0:
256,192,20205,1,8,0:0:0:0:
256,192,20409,1,8,0:0:0:0:
256,192,20613,1,4,0:0:0:0:
256,192,20919,1,0,0:0:0:0:
256,192,21226,1,8,0:0:0:0:
256,192,21838,1,8,0:0:0:0:
256,192,22042,1,0,0:0:0:0:
256,192,22144,1,0,0:0:0:0:
256,192,22246,1,8,0:0:0:0:
256,192,22552,1,0,0:0:0:0:
256,192,22858,1,8,0:0:0:0:
256,192,23470,1,8,0:0:0:0:
256,192,23573,1,8,0:0:0:0:
256,192,23675,1,0,0:0:0:0:
256,192,23879,1,8,0:0:0:0:
256,192,24185,1,0,0:0:0:0:
256,192,24491,1,8,0:0:0:0:
256,192,24899,1,0,0:0:0:0:
256,192,25001,1,8,0:0:0:0:
256,192,25103,1,0,0:0:0:0:
256,192,25307,1,8,0:0:0:0:
256,192,25511,1,12,0:0:0:0:
256,192,25817,1,8,0:0:0:0:
256,192,26124,1,4,0:0:0:0:
256,192,26940,1,0,0:0:0:0:
256,192,27144,1,12,0:0:0:0:
256,192,27450,1,0,0:0:0:0:
256,192,27552,1,8,0:0:0:0:
256,192,27756,1,0,0:0:0:0:
256,192,28164,1,0,0:0:0:0:
256,192,28368,1,8,0:0:0:0:
256,192,28573,1,8,0:0:0:0:
256,192,28675,1,8,0:0:0:0:
256,192,28777,1,0,0:0:0:0:
256,192,29083,1,0,0:0:0:0:
256,192,29185,1,8,0:0:0:0:
256,192,29389,1,0,0:0:0:0:
256,192,29797,1,0,0:0:0:0:
256,192,29899,1,0,0:0:0:0:
256,192,30001,1,8,0:0:0:0:
256,192,30205,1,0,0:0:0:0:
256,192,30409,1,8,0:0:0:0:
256,192,30715,1,8,0:0:0:0:
256,192,30817,1,0,0:0:0:0:
256,192,31021,1,8,0:0:0:0:
256,192,31430,1,0,0:0:0:0:
256,192,31634,1,8,0:0:0:0:
256,192,31736,1,0,0:0:0:0:
256,192,31838,1,8,0:0:0:0:
256,192,32042,1,0,0:0:0:0:
256,192,32348,1,8,0:0:0:0:
256,192,32450,1,0,0:0:0:0:
256,192,32858,1,8,0:0:0:0:
256,192,33062,1,0,0:0:0:0:
256,192,33266,1,8,0:0:0:0:
256,192,33368,1,0,0:0:0:0:
256,192,33470,1,0,0:0:0:0:
256,192,33675,1,12,0:0:0:0:
256,192,33981,1,0,0:0:0:0:
256,192,34287,1,8,0:0:0:0:
256,192,34389,1,0,0:0:0:0:
256,192,34593,1,8,0:0:0:0:
256,192,34899,1,0,0:0:0:0:
256,192,35001,1,0,0:0:0:0:
256,192,35103,1,0,0:0:0:0:
256,192,35307,1,8,0:0:0:0:
256,192,35613,1,0,0:0:0:0:
256,192,35715,1,8,0:0:0:0:
256,192,35919,1,0,0:0:0:0:
256,192,36226,1,8,0:0:0:0:
256,192,36532,1,8,0:0:0:0:
256,192,36634,1,8,0:0:0:0:
256,192,36736,1,0,0:0:0:0:
256,192,36838,1,0,0:0:0:0:
256,192,36940,1,8,0:0:0:0:
256,192,37246,1,0,0:0:0:0:
256,192,37552,1,8,0:0:0:0:
256,192,37654,1,0,0:0:0:0:
256,192,37858,1,8,0:0:0:0:
256,192,38164,1,0,0:0:0:0:
256,192,38266,1,0,0:0:0:0:
256,192,38368,1,0,0:0:0:0:
256,192,38573,1,8,0:0:0:0:
256,192,38777,1,8,0:0:0:0:
256,192,38879,1,0,0:0:0:0:
256,192,39185,1,0,0:0:0:0:
256,192,39389,1,0,0:0:0:0:
256,192,39491,1,8,0:0:0:0:
256,192,39797,1,8,0:0:0:0:
256,192,39899,1,8,0:0:0:0:
256,192,40001,1,8,0:0:0:0:
256,192,40205,1,4,0:0:0:0:
256,192,40477,1,8,0:0:0:0:
256,192,40749,1,0,0:0:0:0:
256,192,41021,1,0,0:0:0:0:
256,192,41294,1,8,0:0:0:0:
256,192,41566,1,0,0:0:0:0:
256,192,41838,1,8,0:0:0:0:
256,192,42110,1,0,0:0:0:0:
256,192,42382,1,8,0:0:0:0:
256,192,42654,1,8,0:0:0:0:
256,192,43062,1,0,0:0:0:0:
256,192,43266,1,8,0:0:0:0:
256,192,43470,1,0,0:0:0:0:
256,192,43777,1,8,0:0:0:0:
256,192,43879,1,0,0:0:0:0:
256,192,44083,1,8,0:0:0:0:
256,192,44287,1,0,0:0:0:0:
256,192,44389,1,8,0:0:0:0:
256,192,44695,1,0,0:0:0:0:
256,192,44899,1,0,0:0:0:0:
256,192,45103,1,8,0:0:0:0:
256,192,45409,1,0,0:0:0:0:
256,192,45511,1,8,0:0:0:0:
256,192,45715,1,0,0:0:0:0:
256,192,45919,1,8,0:0:0:0:
256,192,46021,1,0,0:0:0:0:
256,192,46328,1,8,0:0:0:0:
256,192,46532,1,8,0:0:0:0:
256,192,46736,1,4,0:0:0:0:
256,192,47008,1,0,0:0:0:0:
256,192,47280,1,8,0:0:0:0:
256,192,47552,1,0,0:0:0:0:
256,192,47824,1,8,0:0:0:0:
256,192,48096,1,0,0:0:0:0:
256,192,48368,1,8,0:0:0:0:
256,192,48641,1,8,0:0:0:0:
256,192,48981,1,8,0:0:0:0:
256,192,49185,1,0,0:0:0:0:
256,192,49389,1,8,0:0:0:0:
256,192,49491,1,8,0:0:0:0:
256,192,49593,1,0,0:0:0:0:
256,192,49797,1,8,0:0:0:0:
256,192,50001,2,0,L|320:192,14,35
256,192,51634,1,0,0:0:0:0:
256,192,51770,1,0,0:0:0:0:
256,192,51906,1,0,0:0:0:0:
256,192,52042,1,0,0:0:0:0:
256,192,52178,1,0,0:0:0:0:
256,192,52314,1,0,0:0:0:0:
256,192,52450,1,12,0:0:0:0:
256,192,53266,1,4,0:0:0:0:
256,192,53470,1,8,0:0:0:0:
256,192,53573,1,8,0:0:0:0:
256,192,53879,1,0,0:0:0:0:
256,192,54083,1,8,0:0:0:0:
256,192,54389,1,0,0:0:0:0:
256,192,54491,1,8,0:0:0:0:
256,192,54695,1,0,0:0:0:0:
256,192,54797,1,8,0:0:0:0:
256,192,54899,1,0,0:0:0:0:
256,192,55205,1,8,0:0:0:0:
256,192,55307,1,0,0:0:0:0:
256,192,55511,1,8,0:0:0:0:
256,192,55715,1,0,0:0:0:0:
256,192,55919,1,8,0:0:0:0:
256,192,56124,1,0,0:0:0:0:
256,192,56226,1,8,0:0:0:0:
256,192,56532,1,8,0:0:0:0:
256,192,56736,1,0,0:0:0:0:
256,192,56838,1,0,0:0:0:0:
256,192,57144,1,8,0:0:0:0:
256,192,57348,1,0,0:0:0:0:
256,192,57654,1,8,0:0:0:0:
256,192,57756,1,0,0:0:0:0:
256,192,57960,1,8,0:0:0:0:
256,192,58062,1,0,0:0:0:0:
256,192,58164,1,8,0:0:0:0:
256,192,58470,1,0,0:0:0:0:
256,192,58573,1,8,0:0:0:0:
256,192,58777,1,0,0:0:0:0:
256,192,58981,1,12,0:0:0:0:
256,192,59185,1,8,0:0:0:0:
256,192,59287,1,0,0:0:0:0:
256,192,59593,1,12,0:0:0:0:
256,192,59797,1,0,0:0:0:0:
256,192,60001,1,8,0:0:0:0:
256,192,60103,1,8,0:0:0:0:
256,192,60409,1,0,0:0:0:0:
256,192,60613,1,8,0:0:0:0:
256,192,60919,1,0,0:0:0:0:
256,192,61021,1,8,0:0:0:0:
256,192,61226,1,0,0:0:0:0:
256,192,61328,1,8,0:0:0:0:
256,192,61430,1,0,0:0:0:0:
256,192,61736,1,8,0:0:0:0:
256,192,61838,1,0,0:0:0:0:
256,192,62042,1,8,0:0:0:0:
256,192,62246,1,12,0:0:0:0:
256,192,62450,1,12,0:0:0:0:
256,192,62654,1,4,0:0:0:0:
256,192,62858,1,4,0:0:0:0:
256,192,63062,1,8,0:0:0:0:
256,192,63266,1,8,0:0:0:0:
256,192,63368,1,0,0:0:0:0:
256,192,63675,1,0,0:0:0:0:
256,192,63777,1,0,0:0:0:0:
256,192,63879,1,8,0:0:0:0:
256,192,64083,1,8,0:0:0:0:
256,192,64185,1,0,0:0:0:0:
256,192,64491,1,0,0:0:0:0:
256,192,64695,1,8,0:0:0:0:
256,192,64899,1,8,0:0:0:0:
256,192,65001,1,0,0:0:0:0:
256,192,65307,1,8,0:0:0:0:
256,192,65511,1,8,0:0:0:0:
256,192,65613,1,8,0:0:0:0:
256,192,65715,1,0,0:0:0:0:
256,192,65919,1,8,0:0:0:0:
256,192,66328,1,12,0:0:0:0:
256,192,66634,1,4,0:0:0:0:
256,192,66940,1,12,0:0:0:0:
256,192,67246,1,0,0:0:0:0:
256,192,67450,1,8,0:0:0:0:
256,192,67552,1,0,0:0:0:0:
256,192,67756,1,8,0:0:0:0:
256,192,67960,1,12,0:0:0:0:
256,192,68266,1,4,0:0:0:0:
256,192,68573,1,12,0:0:0:0:
256,192,68879,1,8,0:0:0:0:
256,192,69083,1,0,0:0:0:0:
256,192,69185,1,8,0:0:0:0:
256,192,69389,1,0,0:0:0:0:
256,192,69593,1,12,0:0:0:0:
256,192,69899,1,4,0:0:0:0:
256,192,70205,1,12,0:0:0:0:
256,192,70511,1,8,0:0:0:0:
256,192,70817,1,0,0:0:0:0:
256,192,71021,1,8,0:0:0:0:
256,192,71226,1,4,0:0:0:0:
256,192,72450,1,0,0:0:0:0:
256,192,72858,1,4,0:0:0:0:
256,192,73164,1,0,0:0:0:0:
256,192,73470,1,8,0:0:0:0:
256,192,73675,1,0,0:0:0:0:
256,192,73777,1,8,0:0:0:0:
256,192,74083,1,8,0:0:0:0:
256,192,74287,1,12,0:0:0:0:
256,192,74593,1,8,0:0:0:0:
256,192,74899,1,0,0:0:0:0:
256,192,75103,1,8,0:0:0:0:
256,192,75205,1,0,0:0:0:0:
256,192,75511,1,0,0:0:0:0:
256,192,75715,1,4,0:0:0:0:
256,192,75919,1,8,0:0:0:0:
256,192,76021,1,0,0:0:0:0:
256,192,76225,1,0,0:0:0:0:
256,192,76327,1,8,0:0:0:0:
256,192,76531,1,0,0:0:0:0:
256,192,76633,1,8,0:0:0:0:
256,192,76735,1,0,0:0:0:0:
256,192,76837,1,0,0:0:0:0:
256,192,76939,1,8,0:0:0:0:
256,192,77143,1,12,0:0:0:0:
256,192,77449,1,8,0:0:0:0:
256,192,77755,1,0,0:0:0:0:
256,192,78061,1,8,0:0:0:0:
256,192,78367,1,8,0:0:0:0:
256,192,78571,1,0,0:0:0:0:
256,192,78775,1,4,0:0:0:0:
256,192,78979,1,8,0:0:0:0:
256,192,79183,1,0,0:0:0:0:
256,192,79285,1,8,0:0:0:0:
256,192,79489,1,8,0:0:0:0:
256,192,79591,1,0,0:0:0:0:
256,192,79795,1,8,0:0:0:0:
256,192,79897,1,0,0:0:0:0:
256,192,79999,1,8,0:0:0:0:
256,192,80203,1,8,0:0:0:0:
256,192,80407,1,0,0:0:0:0:
256,192,80611,1,0,0:0:0:0:
256,192,80713,1,0,0:0:0:0:
256,192,80815,1,8,0:0:0:0:
256,192,81019,1,0,0:0:0:0:
256,192,81121,1,8,0:0:0:0:
256,192,81223,1,8,0:0:0:0:
256,192,81428,1,8,0:0:0:0:
256,192,81530,1,0,0:0:0:0:
256,192,81632,1,8,0:0:0:0:
256,192,81734,1,8,0:0:0:0:
256,192,81836,1,0,0:0:0:0:
256,192,82040,1,8,0:0:0:0:
256,192,82244,1,0,0:0:0:0:
256,192,82346,1,0,0:0:0:0:
256,192,82448,1,8,0:0:0:0:
256,192,82550,1,8,0:0:0:0:
256,192,82652,1,0,0:0:0:0:
256,192,82856,1,8,0:0:0:0:
256,192,82958,1,8,0:0:0:0:
256,192,83060,1,0,0:0:0:0:
256,192,83162,1,0,0:0:0:0:
256,192,83264,1,8,0:0:0:0:
256,192,83366,1,0,0:0:0:0:
256,192,83468,1,8,0:0:0:0:
256,192,83672,1,12,0:0:0:0:
256,192,83979,1,4,0:0:0:0:
256,192,84285,1,4,0:0:0:0:
256,192,84591,1,12,0:0:0:0:
256,192,84897,1,8,0:0:0:0:
256,192,85101,1,0,0:0:0:0:
256,192,85305,1,12,0:0:0:0:
256,192,85611,1,4,0:0:0:0:
256,192,85917,1,12,0:0:0:0:
256,192,86223,1,4,0:0:0:0:
256,192,86530,1,8,0:0:0:0:
256,192,86734,1,8,0:0:0:0:
256,192,86836,1,8,0:0:0:0:
256,192,86938,1,0,0:0:0:0:
256,192,87754,1,8,0:0:0:0:
256,192,88570,1,0,0:0:0:0:
256,192,89387,1,8,0:0:0:0:
256,192,89795,1,8,0:0:0:0:
256,192,90203,1,0,0:0:0:0:
256,192,91019,1,8,0:0:0:0:
256,192,91836,1,0,0:0:0:0:
256,192,92652,1,0,0:0:0:0:
256,192,92958,1,8,0:0:0:0:
256,192,93264,1,8,0:0:0:0:
256,192,93468,1,0,0:0:0:0:
256,192,93877,1,8,0:0:0:0:
256,192,94285,1,8,0:0:0:0:
256,192,94693,1,0,0:0:0:0:
256,192,95101,1,0,0:0:0:0:
256,192,95509,1,8,0:0:0:0:
256,192,95917,1,8,0:0:0:0:
256,192,96326,1,0,0:0:0:0:
256,192,96734,1,12,0:0:0:0:
256,192,97040,1,12,0:0:0:0:
256,192,97550,1,4,0:0:0:0:
256,192,97856,1,4,0:0:0:0:
256,192,98366,1,12,0:0:0:0:
256,192,98672,1,12,0:0:0:0:
256,192,99591,1,8,0:0:0:0:
256,192,99999,1,4,0:0:0:0:
256,192,100203,1,8,0:0:0:0:
256,192,100305,1,8,0:0:0:0:
256,192,100611,1,0,0:0:0:0:
256,192,100713,1,0,0:0:0:0:
256,192,100815,1,8,0:0:0:0:
256,192,101121,1,0,0:0:0:0:
256,192,101223,1,8,0:0:0:0:
256,192,101428,1,0,0:0:0:0:
256,192,101632,1,0,0:0:0:0:
256,192,101938,1,8,0:0:0:0:
256,192,102040,1,0,0:0:0:0:
256,192,102244,1,8,0:0:0:0:
256,192,102448,1,0,0:0:0:0:
256,192,102652,1,8,0:0:0:0:
256,192,102754,1,8,0:0:0:0:
256,192,102856,1,0,0:0:0:0:
256,192,102958,1,8,0:0:0:0:
256,192,103264,1,8,0:0:0:0:
256,192,103468,1,0,0:0:0:0:
256,192,103570,1,0,0:0:0:0:
256,192,103877,1,8,0:0:0:0:
256,192,103979,1,8,0:0:0:0:
256,192,104081,1,0,0:0:0:0:
256,192,104387,1,8,0:0:0:0:
256,192,104489,1,0,0:0:0:0:
256,192,104693,1,8,0:0:0:0:
256,192,104897,1,8,0:0:0:0:
256,192,105203,1,0,0:0:0:0:
256,192,105305,1,8,0:0:0:0:
256,192,105509,1,0,0:0:0:0:
256,192,105713,1,12,0:0:0:0:
256,192,105917,1,8,0:0:0:0:
256,192,106019,1,0,0:0:0:0:
256,192,106326,1,12,0:0:0:0:
256,192,106530,1,0,0:0:0:0:
256,192,106734,1,8,0:0:0:0:
256,192,106836,1,8,0:0:0:0:
256,192,107142,1,0,0:0:0:0:
256,192,107244,1,0,0:0:0:0:
256,192,107346,1,8,0:0:0:0:
256,192,107652,1,0,0:0:0:0:
256,192,107754,1,8,0:0:0:0:
256,192,107958,1,0,0:0:0:0:
256,192,108162,1,0,0:0:0:0:
256,192,108468,1,8,0:0:0:0:
256,192,108570,1,0,0:0:0:0:
256,192,108774,1,8,0:0:0:0:
256,192,108979,1,12,0:0:0:0:
256,192,109183,1,12,0:0:0:0:
256,192,109387,1,4,0:0:0:0:
256,192,109591,1,4,0:0:0:0:
256,192,109795,1,8,0:0:0:0:
256,192,109999,1,8,0:0:0:0:
256,192,110101,1,0,0:0:0:0:
256,192,110407,1,0,0:0:0:0:
256,192,110509,1,0,0:0:0:0:
256,192,110611,1,8,0:0:0:0:
256,192,110815,1,8,0:0:0:0:
256,192,110917,1,0,0:0:0:0:
256,192,111223,1,0,0:0:0:0:
256,192,111428,1,8,0:0:0:0:
256,192,111632,1,8,0:0:0:0:
256,192,111734,1,0,0:0:0:0:
256,192,112040,1,8,0:0:0:0:
256,192,112244,1,8,0:0:0:0:
256,192,112346,1,8,0:0:0:0:
256,192,112448,1,0,0:0:0:0:
256,192,112652,1,8,0:0:0:0:
256,192,113060,1,12,0:0:0:0:
256,192,113366,1,4,0:0:0:0:
256,192,113672,1,12,0:0:0:0:
256,192,113979,1,0,0:0:0:0:
256,192,114081,1,8,0:0:0:0:
256,192,114183,1,8,0:0:0:0:
256,192,114285,1,0,0:0:0:0:
256,192,114489,1,8,0:0:0:0:
256,192,114693,1,12,0:0:0:0:
256,192,114999,1,4,0:0:0:0:
256,192,115305,1,12,0:0:0:0:
256,192,115611,1,8,0:0:0:0:
256,192,115713,1,0,0:0:0:0:
256,192,115815,1,0,0:0:0:0:
256,192,115917,1,8,0:0:0:0:
256,192,116121,1,0,0:0:0:0:
256,192,116326,1,12,0:0:0:0:
256,192,116530,1,8,0:0:0:0:
256,192,116632,1,0,0:0:0:0:
256,192,116938,1,12,0:0:0:0:
256,192,117142,1,0,0:0:0:0:
256,192,117244,1,8,0:0:0:0:
256,192,117550,1,0,0:0:0:0:
256,192,117754,1,8,0:0:0:0:
256,192,117958,1,4,0:0:0:0:
256,192,119183,1,0,0:0:0:0:
256,192,119591,1,8,0:0:0:0:
256,192,119795,1,0,0:0:0:0:
256,192,119897,1,0,0:0:0:0:
256,192,120101,1,8,0:0:0:0:
256,192,120305,1,0,0:0:0:0:
256,192,120407,1,0,0:0:0:0:
256,192,120611,1,8,0:0:0:0:
256,192,120815,1,0,0:0:0:0:
256,192,121019,1,8,0:0:0:0:
256,192,121223,1,4,0:0:0:0:
256,192,121530,1,4,0:0:0:0:
256,192,121836,1,4,0:0:0:0:
256,192,122244,1,12,0:0:0:0:
256,192,122550,1,12,0:0:0:0:
