osu file format v14

[General]
AudioFilename: [SDVX III ] TIEFSEE [EXH].mp3
AudioLeadIn: 0
PreviewTime: 47146
Countdown: 0
SampleSet: Soft
StackLeniency: 0.7
Mode: 3
LetterboxInBreaks: 0
SpecialStyle: 0
WidescreenStoryboard: 1

[Editor]
DistanceSpacing: 1
BeatDivisor: 4
GridSize: 8
TimelineZoom: 1

[Metadata]
Title:TIEFSEE
TitleUnicode:TIEFSEE
Artist:SOUND HOLIC Vs. dj TAKA feat. YURiCa
ArtistUnicode:SOUND HOLIC Vs. dj TAKA feat. YURiCa
Creator:ilhamsyah849
Version:7K ADVANCED Lv.10
Source:SOUND VOLTEX III GRAVITY WARS
Tags:konami bemani 斬 -ZAN- [_A_v_a_l_o_n_] SpectorDG -_i_o_r_i_- Another_Lie DEEP SPECTRUM beatmania IIDX 22 PENDUAL MEGAtive
BeatmapID:670580
BeatmapSetID:298376

[Difficulty]
HPDrainRate:7
CircleSize:7
OverallDifficulty:7
ApproachRate:5
SliderMultiplier:1.4
SliderTickRate:1

[Events]
//Background and Video events
0,0,"TIEFSEE.jpg",0,0
//Break Periods
//Storyboard Layer 0 (Background)
//Storyboard Layer 1 (Fail)
//Storyboard Layer 2 (Pass)
//Storyboard Layer 3 (Foreground)
//Storyboard Sound Samples

[TimingPoints]
601,363.636363636364,4,2,1,50,1,0
12237,-100,4,2,1,50,0,0
47146,-100,4,2,1,50,0,1
82055,-100,4,2,1,50,0,0
108237,-100,4,2,1,50,0,0

[HitObjects]
36,192,601,5,0,0:0:0:0:
329,192,601,1,0,0:0:0:0:
109,192,782,1,0,0:0:0:0:
182,192,964,1,0,0:0:0:0:
256,192,1146,1,0,0:0:0:0:
475,192,1328,1,0,0:0:0:0:
109,192,1328,1,0,0:0:0:0:
402,192,1510,1,0,0:0:0:0:
182,192,1691,1,0,0:0:0:0:
402,192,1873,1,0,0:0:0:0:
256,192,2055,1,0,0:0:0:0:
109,192,2055,1,0,0:0:0:0:
36,192,2237,1,0,0:0:0:0:
329,192,2419,1,0,0:0:0:0:
109,192,2601,1,0,0:0:0:0:
36,192,2782,1,0,0:0:0:0:
402,192,2782,1,0,0:0:0:0:
475,192,2964,1,0,0:0:0:0:
109,192,3146,1,0,0:0:0:0:
329,192,3146,1,0,0:0:0:0:
182,192,3328,1,0,0:0:0:0:
256,192,3510,1,0,0:0:0:0:
475,192,3510,1,0,0:0:0:0:
182,192,3691,1,0,0:0:0:0:
109,192,3873,1,0,0:0:0:0:
329,192,3873,1,0,0:0:0:0:
182,192,4055,1,0,0:0:0:0:
402,192,4055,1,0,0:0:0:0:
475,192,4237,1,0,0:0:0:0:
256,192,4237,1,0,0:0:0:0:
36,192,4237,1,0,0:0:0:0:
109,192,4419,1,0,0:0:0:0:
402,192,4419,1,0,0:0:0:0:
182,192,4419,1,0,0:0:0:0:
475,192,4601,1,0,0:0:0:0:
329,192,4601,1,0,0:0:0:0:
36,192,4601,1,0,0:0:0:0:
402,192,4782,1,0,0:0:0:0:
109,192,4782,1,0,0:0:0:0:
256,192,4964,1,0,0:0:0:0:
182,192,4964,1,0,0:0:0:0:
329,192,4964,1,0,0:0:0:0:
109,192,5146,1,0,0:0:0:0:
402,192,5146,1,0,0:0:0:0:
36,192,5328,1,0,0:0:0:0:
329,192,5328,1,0,0:0:0:0:
475,192,5328,1,0,0:0:0:0:
182,192,5510,1,0,0:0:0:0:
256,192,5691,1,0,0:0:0:0:
329,192,5691,1,0,0:0:0:0:
402,192,5691,1,0,0:0:0:0:
475,192,5873,1,0,0:0:0:0:
109,192,5873,1,0,0:0:0:0:
36,192,6055,1,0,0:0:0:0:
402,192,6055,1,0,0:0:0:0:
182,192,6055,1,0,0:0:0:0:
329,192,6237,1,0,0:0:0:0:
256,192,6419,1,0,0:0:0:0:
182,192,6419,1,0,0:0:0:0:
109,192,6419,1,0,0:0:0:0:
36,192,6601,1,0,0:0:0:0:
329,192,6601,1,0,0:0:0:0:
109,192,6782,1,0,0:0:0:0:
402,192,6782,1,0,0:0:0:0:
36,192,6964,1,0,0:0:0:0:
256,192,6964,1,0,0:0:0:0:
475,192,6964,1,0,0:0:0:0:
402,192,7146,1,0,0:0:0:0:
182,192,7146,1,0,0:0:0:0:
475,192,7328,1,0,0:0:0:0:
109,192,7328,1,0,0:0:0:0:
329,192,7328,1,0,0:0:0:0:
402,192,7510,1,0,0:0:0:0:
182,192,7510,1,0,0:0:0:0:
329,192,7691,1,0,0:0:0:0:
109,192,7691,1,0,0:0:0:0:
36,192,7691,1,0,0:0:0:0:
182,192,7873,128,0,9328:0:0:0:0:
402,192,7873,1,0,0:0:0:0:
402,192,8055,1,0,0:0:0:0:
36,192,8237,1,0,0:0:0:0:
36,192,8419,1,0,0:0:0:0:
329,192,8601,1,0,0:0:0:0:
329,192,8782,1,0,0:0:0:0:
109,192,8964,1,0,0:0:0:0:
109,192,9146,1,0,0:0:0:0:
256,192,9328,1,0,0:0:0:0:
329,192,9328,1,0,0:0:0:0:
475,192,9328,128,0,10782:0:0:0:0:
109,192,9691,1,0,0:0:0:0:
329,192,9782,1,0,0:0:0:0:
402,192,9873,1,0,0:0:0:0:
182,192,9964,1,0,0:0:0:0:
36,192,10055,128,0,10782:0:0:0:0:
109,192,10055,1,0,0:0:0:0:
256,192,10146,1,0,0:0:0:0:
329,192,10237,1,0,0:0:0:0:
402,192,10328,1,0,0:0:0:0:
182,192,10419,1,0,0:0:0:0:
256,192,10510,1,0,0:0:0:0:
329,192,10601,1,0,0:0:0:0:
402,192,10691,1,0,0:0:0:0:
256,192,10782,128,8,11510:0:0:0:0:
182,192,10782,1,8,0:0:0:0:
402,192,11510,128,0,12237:0:0:0:0:
475,192,11510,1,0,0:0:0:0:
182,192,12237,128,0,13328:0:0:0:0:
109,192,12237,1,0,0:0:0:0:
402,192,12601,1,0,0:0:0:0:
329,192,12601,1,0,0:0:0:0:
475,192,12782,1,0,0:0:0:0:
256,192,12782,1,0,0:0:0:0:
402,192,12964,1,0,0:0:0:0:
109,192,13146,1,0,0:0:0:0:
256,192,13328,1,0,0:0:0:0:
402,192,13328,1,0,0:0:0:0:
36,192,13510,1,0,0:0:0:0:
109,192,13510,1,0,0:0:0:0:
402,192,13691,128,0,14055:0:0:0:0:
475,192,13691,1,0,0:0:0:0:
109,192,14055,1,0,0:0:0:0:
329,192,14055,1,0,0:0:0:0:
182,192,14237,1,0,0:0:0:0:
475,192,14237,1,0,0:0:0:0:
36,192,14419,128,0,15146:0:0:0:0:
256,192,14419,1,0,0:0:0:0:
109,192,14419,1,0,0:0:0:0:
402,192,14601,1,0,0:0:0:0:
475,192,14601,1,0,0:0:0:0:
182,192,14782,1,0,0:0:0:0:
256,192,14782,1,0,0:0:0:0:
475,192,14964,1,0,0:0:0:0:
329,192,14964,1,0,0:0:0:0:
402,192,15146,128,0,16601:0:0:0:0:
256,192,15146,1,0,0:0:0:0:
182,192,15146,1,0,0:0:0:0:
109,192,15328,1,0,0:0:0:0:
475,192,15328,1,0,0:0:0:0:
36,192,15510,1,0,0:0:0:0:
475,192,15691,1,0,0:0:0:0:
329,192,15873,1,0,0:0:0:0:
256,192,16055,1,0,0:0:0:0:
109,192,16237,1,0,0:0:0:0:
256,192,16419,1,0,0:0:0:0:
36,192,16601,1,0,0:0:0:0:
182,192,16601,1,0,0:0:0:0:
329,192,16601,1,0,0:0:0:0:
109,192,16873,1,0,0:0:0:0:
182,192,16873,1,0,0:0:0:0:
36,192,16873,1,0,0:0:0:0:
329,192,17146,1,0,0:0:0:0:
402,192,17146,1,0,0:0:0:0:
475,192,17146,1,0,0:0:0:0:
475,192,17419,1,0,0:0:0:0:
329,192,17419,1,0,0:0:0:0:
36,192,17691,1,0,0:0:0:0:
182,192,17691,1,0,0:0:0:0:
256,192,17873,1,0,0:0:0:0:
329,192,18055,1,0,0:0:0:0:
109,192,18055,128,0,19510:0:0:0:0:
182,192,18055,1,0,0:0:0:0:
256,192,18419,1,0,0:0:0:0:
475,192,18419,1,0,0:0:0:0:
402,192,18601,1,0,0:0:0:0:
36,192,18601,1,0,0:0:0:0:
182,192,18782,1,0,0:0:0:0:
329,192,18964,1,0,0:0:0:0:
475,192,19146,1,0,0:0:0:0:
256,192,19146,1,0,0:0:0:0:
402,192,19146,1,0,0:0:0:0:
182,192,19328,1,0,0:0:0:0:
329,192,19328,1,0,0:0:0:0:
402,192,19510,128,0,20964:0:0:0:0:
475,192,19510,1,0,0:0:0:0:
36,192,19873,1,0,0:0:0:0:
256,192,19873,1,0,0:0:0:0:
109,192,20055,1,0,0:0:0:0:
182,192,20055,1,0,0:0:0:0:
36,192,20237,1,0,0:0:0:0:
329,192,20419,1,0,0:0:0:0:
256,192,20601,1,0,0:0:0:0:
475,192,20601,1,0,0:0:0:0:
182,192,20782,1,0,0:0:0:0:
36,192,20782,1,0,0:0:0:0:
329,192,20964,1,0,0:0:0:0:
256,192,20964,1,0,0:0:0:0:
36,192,21146,1,0,0:0:0:0:
109,192,21146,1,0,0:0:0:0:
182,192,21328,1,0,0:0:0:0:
402,192,21510,1,0,0:0:0:0:
475,192,21510,1,0,0:0:0:0:
329,192,21691,1,0,0:0:0:0:
109,192,21873,1,0,0:0:0:0:
182,192,21873,1,0,0:0:0:0:
256,192,22055,1,0,0:0:0:0:
329,192,22237,1,0,0:0:0:0:
402,192,22237,1,0,0:0:0:0:
36,192,22419,1,0,0:0:0:0:
182,192,22419,1,0,0:0:0:0:
109,192,22419,1,0,0:0:0:0:
329,192,22601,1,0,0:0:0:0:
475,192,22601,1,0,0:0:0:0:
402,192,22601,1,0,0:0:0:0:
109,192,22782,1,0,0:0:0:0:
402,192,22782,1,0,0:0:0:0:
182,192,22782,1,0,0:0:0:0:
475,192,22964,1,0,0:0:0:0:
36,192,22964,1,0,0:0:0:0:
329,192,22964,1,0,0:0:0:0:
256,192,22964,1,0,0:0:0:0:
182,192,23146,1,0,0:0:0:0:
329,192,23146,1,0,0:0:0:0:
402,192,23328,1,0,0:0:0:0:
475,192,23328,1,0,0:0:0:0:
36,192,23510,1,0,0:0:0:0:
109,192,23510,1,0,0:0:0:0:
182,192,23601,1,0,0:0:0:0:
256,192,23691,1,0,0:0:0:0:
329,192,23782,1,0,0:0:0:0:
109,192,23873,1,0,0:0:0:0:
475,192,23873,1,0,0:0:0:0:
256,192,24055,1,0,0:0:0:0:
36,192,24237,1,0,0:0:0:0:
402,192,24237,1,0,0:0:0:0:
475,192,24328,1,0,0:0:0:0:
109,192,24419,1,0,0:0:0:0:
402,192,24510,1,0,0:0:0:0:
329,192,24601,1,0,0:0:0:0:
182,192,24601,1,0,0:0:0:0:
109,192,24782,1,0,0:0:0:0:
475,192,24964,1,0,0:0:0:0:
329,192,24964,1,0,0:0:0:0:
109,192,25055,1,0,0:0:0:0:
36,192,25146,1,0,0:0:0:0:
402,192,25328,1,0,0:0:0:0:
256,192,25328,1,0,0:0:0:0:
182,192,25328,1,0,0:0:0:0:
329,192,25510,1,0,0:0:0:0:
36,192,25691,1,8,0:0:0:0:
109,192,25691,1,8,0:0:0:0:
182,192,25873,1,0,0:0:0:0:
256,192,25964,1,0,0:0:0:0:
402,192,26055,1,8,0:0:0:0:
475,192,26055,1,8,0:0:0:0:
329,192,26237,1,0,0:0:0:0:
256,192,26328,1,0,0:0:0:0:
182,192,26419,1,8,0:0:0:0:
329,192,26419,1,8,0:0:0:0:
36,192,26601,1,0,0:0:0:0:
109,192,26691,1,0,0:0:0:0:
182,192,26782,1,0,0:0:0:0:
402,192,26782,1,0,0:0:0:0:
329,192,26964,1,0,0:0:0:0:
256,192,27055,1,0,0:0:0:0:
402,192,27146,1,0,0:0:0:0:
36,192,27146,1,0,0:0:0:0:
182,192,27328,1,0,0:0:0:0:
109,192,27510,1,0,0:0:0:0:
475,192,27510,1,0,0:0:0:0:
402,192,27691,1,0,0:0:0:0:
109,192,27873,1,0,0:0:0:0:
329,192,27873,1,0,0:0:0:0:
256,192,28055,1,0,0:0:0:0:
36,192,28237,1,0,0:0:0:0:
402,192,28237,1,0,0:0:0:0:
182,192,28419,1,0,0:0:0:0:
402,192,28601,1,8,0:0:0:0:
475,192,28601,1,8,0:0:0:0:
329,192,28691,1,0,0:0:0:0:
256,192,28782,1,0,0:0:0:0:
36,192,28964,1,8,0:0:0:0:
109,192,28964,1,8,0:0:0:0:
182,192,29055,1,0,0:0:0:0:
402,192,29146,1,0,0:0:0:0:
256,192,29146,1,0,0:0:0:0:
182,192,29328,1,8,0:0:0:0:
329,192,29328,1,8,0:0:0:0:
256,192,29510,1,0,0:0:0:0:
475,192,29691,1,0,0:0:0:0:
329,192,29691,128,0,32237:0:0:0:0:
36,192,29873,1,0,0:0:0:0:
182,192,30055,1,0,0:0:0:0:
402,192,30055,1,0,0:0:0:0:
256,192,30237,1,0,0:0:0:0:
402,192,30419,1,0,0:0:0:0:
36,192,30419,1,0,0:0:0:0:
109,192,30601,128,0,31146:0:0:0:0:
475,192,30782,1,0,0:0:0:0:
182,192,30782,1,0,0:0:0:0:
36,192,30964,1,0,0:0:0:0:
402,192,31146,1,0,0:0:0:0:
182,192,31146,128,0,32237:0:0:0:0:
256,192,31328,1,0,0:0:0:0:
109,192,31510,1,0,0:0:0:0:
475,192,31510,1,0,0:0:0:0:
402,192,31691,1,0,0:0:0:0:
256,192,31873,1,0,0:0:0:0:
36,192,31873,1,0,0:0:0:0:
475,192,32055,1,0,0:0:0:0:
36,192,32237,1,8,0:0:0:0:
109,192,32237,1,8,0:0:0:0:
402,192,32601,1,0,0:0:0:0:
109,192,32601,128,0,35510:0:0:0:0:
256,192,32601,1,0,0:0:0:0:
36,192,32782,1,0,0:0:0:0:
329,192,32964,1,0,0:0:0:0:
475,192,32964,1,0,0:0:0:0:
402,192,33146,1,0,0:0:0:0:
182,192,33328,1,0,0:0:0:0:
475,192,33328,1,0,0:0:0:0:
256,192,33510,1,0,0:0:0:0:
402,192,33510,128,0,35510:0:0:0:0:
329,192,33691,1,0,0:0:0:0:
475,192,33873,1,0,0:0:0:0:
36,192,34055,1,0,0:0:0:0:
256,192,34055,128,0,35510:0:0:0:0:
475,192,34237,1,0,0:0:0:0:
329,192,34419,1,0,0:0:0:0:
182,192,34419,1,0,0:0:0:0:
36,192,34601,1,0,0:0:0:0:
475,192,34782,1,0,0:0:0:0:
329,192,34964,1,0,0:0:0:0:
475,192,35146,1,8,0:0:0:0:
182,192,35146,1,8,0:0:0:0:
36,192,35328,1,0,0:0:0:0:
329,192,35510,1,0,0:0:0:0:
475,192,35510,1,0,0:0:0:0:
182,192,35691,1,0,0:0:0:0:
475,192,35873,1,0,0:0:0:0:
36,192,35873,1,0,0:0:0:0:
402,192,36055,1,0,0:0:0:0:
36,192,36237,1,0,0:0:0:0:
256,192,36237,1,0,0:0:0:0:
109,192,36419,1,0,0:0:0:0:
182,192,36601,1,0,0:0:0:0:
402,192,36601,1,0,0:0:0:0:
475,192,36782,1,0,0:0:0:0:
109,192,36964,1,0,0:0:0:0:
402,192,36964,1,0,0:0:0:0:
329,192,37146,1,0,0:0:0:0:
182,192,37328,1,0,0:0:0:0:
402,192,37328,1,0,0:0:0:0:
256,192,37510,1,0,0:0:0:0:
109,192,37691,1,8,0:0:0:0:
36,192,37691,1,8,0:0:0:0:
402,192,38055,1,8,0:0:0:0:
475,192,38055,1,8,0:0:0:0:
402,192,38419,1,0,0:0:0:0:
36,192,38419,1,0,0:0:0:0:
182,192,38601,1,0,0:0:0:0:
475,192,38782,1,0,0:0:0:0:
109,192,38782,1,0,0:0:0:0:
36,192,38964,1,0,0:0:0:0:
109,192,39146,1,0,0:0:0:0:
402,192,39146,1,0,0:0:0:0:
256,192,39328,1,0,0:0:0:0:
402,192,39510,1,0,0:0:0:0:
36,192,39510,1,0,0:0:0:0:
182,192,39691,1,0,0:0:0:0:
36,192,39873,128,0,40601:0:0:0:0:
109,192,39873,1,0,0:0:0:0:
182,192,39964,1,0,0:0:0:0:
256,192,40055,1,0,0:0:0:0:
329,192,40146,1,0,0:0:0:0:
402,192,40237,128,0,40601:0:0:0:0:
475,192,40601,128,0,40964:0:0:0:0:
402,192,40964,1,0,0:0:0:0:
329,192,41055,1,0,0:0:0:0:
256,192,41146,1,0,0:0:0:0:
36,192,41328,1,8,0:0:0:0:
329,192,41328,1,8,0:0:0:0:
182,192,41510,1,0,0:0:0:0:
402,192,41691,1,8,0:0:0:0:
256,192,41691,1,8,0:0:0:0:
109,192,41691,1,8,0:0:0:0:
36,192,41873,1,0,0:0:0:0:
475,192,41873,1,0,0:0:0:0:
182,192,42055,1,8,0:0:0:0:
402,192,42055,1,8,0:0:0:0:
256,192,42055,1,8,0:0:0:0:
329,192,42237,1,0,0:0:0:0:
109,192,42237,1,0,0:0:0:0:
475,192,42419,1,8,0:0:0:0:
36,192,42419,1,8,0:0:0:0:
402,192,42419,1,8,0:0:0:0:
475,192,42601,1,0,0:0:0:0:
182,192,42601,1,0,0:0:0:0:
256,192,42782,1,8,0:0:0:0:
402,192,42782,1,8,0:0:0:0:
109,192,42782,1,8,0:0:0:0:
36,192,42964,1,0,0:0:0:0:
329,192,42964,1,0,0:0:0:0:
109,192,43146,1,8,0:0:0:0:
256,192,43146,1,8,0:0:0:0:
402,192,43146,1,8,0:0:0:0:
475,192,43328,1,0,0:0:0:0:
182,192,43328,1,0,0:0:0:0:
402,192,43510,1,8,0:0:0:0:
109,192,43510,1,8,0:0:0:0:
36,192,43510,1,8,0:0:0:0:
329,192,43691,1,0,0:0:0:0:
182,192,43873,1,8,0:0:0:0:
36,192,43873,1,8,0:0:0:0:
475,192,43873,1,8,0:0:0:0:
402,192,44055,1,0,0:0:0:0:
256,192,44055,1,0,0:0:0:0:
475,192,44237,1,8,0:0:0:0:
109,192,44237,1,8,0:0:0:0:
36,192,44237,1,8,0:0:0:0:
329,192,44419,1,0,0:0:0:0:
182,192,44419,1,0,0:0:0:0:
402,192,44601,1,8,0:0:0:0:
256,192,44601,1,8,0:0:0:0:
475,192,44601,1,8,0:0:0:0:
109,192,44782,1,0,0:0:0:0:
329,192,44782,1,0,0:0:0:0:
36,192,44964,1,8,0:0:0:0:
402,192,44964,1,8,0:0:0:0:
109,192,44964,1,8,0:0:0:0:
182,192,45146,1,0,0:0:0:0:
329,192,45146,1,0,0:0:0:0:
402,192,45328,1,8,0:0:0:0:
475,192,45328,1,8,0:0:0:0:
36,192,45328,1,8,0:0:0:0:
109,192,45510,1,0,0:0:0:0:
182,192,45510,1,0,0:0:0:0:
36,192,45691,1,8,0:0:0:0:
402,192,45691,1,8,0:0:0:0:
475,192,45691,1,8,0:0:0:0:
182,192,45873,1,0,0:0:0:0:
475,192,45873,1,0,0:0:0:0:
36,192,46055,1,8,0:0:0:0:
329,192,46055,1,8,0:0:0:0:
109,192,46055,1,8,0:0:0:0:
256,192,46237,1,0,0:0:0:0:
402,192,46237,1,0,0:0:0:0:
109,192,46419,1,8,0:0:0:0:
402,192,46419,1,8,0:0:0:0:
475,192,46419,1,8,0:0:0:0:
329,192,46601,1,0,0:0:0:0:
36,192,46601,1,0,0:0:0:0:
182,192,46782,1,8,0:0:0:0:
256,192,46782,1,8,0:0:0:0:
36,192,46782,1,8,0:0:0:0:
475,192,46964,1,0,0:0:0:0:
109,192,46964,1,0,0:0:0:0:
329,192,47146,1,0,0:0:0:0:
36,192,47146,1,0,0:0:0:0:
109,192,47328,1,0,0:0:0:0:
402,192,47510,1,0,0:0:0:0:
36,192,47510,1,0,0:0:0:0:
182,192,47691,1,0,0:0:0:0:
475,192,47873,1,0,0:0:0:0:
36,192,47873,1,0,0:0:0:0:
182,192,48055,1,8,0:0:0:0:
329,192,48055,1,8,0:0:0:0:
475,192,48055,1,8,0:0:0:0:
109,192,48237,1,8,0:0:0:0:
402,192,48237,1,8,0:0:0:0:
36,192,48237,1,8,0:0:0:0:
182,192,48601,1,0,0:0:0:0:
329,192,48601,1,0,0:0:0:0:
475,192,48782,1,0,0:0:0:0:
109,192,48964,1,0,0:0:0:0:
402,192,48964,1,0,0:0:0:0:
256,192,49146,1,0,0:0:0:0:
402,192,49328,1,0,0:0:0:0:
36,192,49328,1,0,0:0:0:0:
475,192,49328,1,0,0:0:0:0:
256,192,49510,1,8,0:0:0:0:
109,192,49510,1,8,0:0:0:0:
475,192,49691,1,8,0:0:0:0:
182,192,49691,1,8,0:0:0:0:
36,192,49691,1,8,0:0:0:0:
36,192,50055,1,0,0:0:0:0:
182,192,50055,1,0,0:0:0:0:
402,192,50237,1,0,0:0:0:0:
329,192,50237,1,0,0:0:0:0:
109,192,50419,1,0,0:0:0:0:
256,192,50601,1,0,0:0:0:0:
475,192,50601,1,0,0:0:0:0:
36,192,50782,1,0,0:0:0:0:
256,192,50964,1,0,0:0:0:0:
109,192,50964,1,0,0:0:0:0:
402,192,51146,1,0,0:0:0:0:
182,192,51328,1,0,0:0:0:0:
36,192,51328,1,0,0:0:0:0:
329,192,51510,1,0,0:0:0:0:
402,192,51510,1,0,0:0:0:0:
109,192,51691,1,0,0:0:0:0:
182,192,51873,1,0,0:0:0:0:
329,192,51873,1,0,0:0:0:0:
475,192,52055,1,0,0:0:0:0:
109,192,52237,1,0,0:0:0:0:
36,192,52237,1,0,0:0:0:0:
402,192,52419,1,0,0:0:0:0:
36,192,52601,1,0,0:0:0:0:
329,192,52601,1,0,0:0:0:0:
475,192,52782,1,0,0:0:0:0:
109,192,52964,1,0,0:0:0:0:
256,192,52964,1,0,0:0:0:0:
402,192,53146,1,0,0:0:0:0:
182,192,53328,1,0,0:0:0:0:
329,192,53328,1,0,0:0:0:0:
36,192,53510,1,0,0:0:0:0:
329,192,53691,1,0,0:0:0:0:
109,192,53691,1,0,0:0:0:0:
475,192,53873,1,0,0:0:0:0:
256,192,54055,1,0,0:0:0:0:
402,192,54055,1,0,0:0:0:0:
109,192,54237,1,0,0:0:0:0:
475,192,54419,1,0,0:0:0:0:
182,192,54419,1,0,0:0:0:0:
36,192,54601,1,0,0:0:0:0:
109,192,54782,1,0,0:0:0:0:
475,192,54782,1,0,0:0:0:0:
329,192,54964,1,0,0:0:0:0:
182,192,55146,1,0,0:0:0:0:
109,192,55146,1,0,0:0:0:0:
402,192,55328,1,0,0:0:0:0:
36,192,55510,1,0,0:0:0:0:
329,192,55510,1,0,0:0:0:0:
182,192,55691,1,0,0:0:0:0:
256,192,55691,1,0,0:0:0:0:
475,192,55873,1,0,0:0:0:0:
329,192,55873,1,0,0:0:0:0:
109,192,56055,1,0,0:0:0:0:
402,192,56237,1,0,0:0:0:0:
36,192,56237,1,0,0:0:0:0:
182,192,56419,1,0,0:0:0:0:
256,192,56601,1,0,0:0:0:0:
402,192,56601,1,0,0:0:0:0:
109,192,56782,1,0,0:0:0:0:
182,192,56964,1,0,0:0:0:0:
36,192,56964,1,0,0:0:0:0:
329,192,57146,1,0,0:0:0:0:
36,192,57328,1,8,0:0:0:0:
402,192,57328,1,8,0:0:0:0:
256,192,57328,1,8,0:0:0:0:
475,192,57328,1,8,0:0:0:0:
329,192,58782,1,0,0:0:0:0:
475,192,58782,1,0,0:0:0:0:
109,192,58782,1,0,0:0:0:0:
36,192,58782,1,0,0:0:0:0:
182,192,58964,1,0,0:0:0:0:
36,192,59055,1,0,0:0:0:0:
402,192,59146,1,0,0:0:0:0:
109,192,59146,1,0,0:0:0:0:
182,192,59237,1,0,0:0:0:0:
329,192,59328,1,8,0:0:0:0:
402,192,59328,1,8,0:0:0:0:
475,192,59510,1,0,0:0:0:0:
402,192,59601,1,0,0:0:0:0:
329,192,59691,1,0,0:0:0:0:
182,192,59782,1,0,0:0:0:0:
109,192,59873,1,8,0:0:0:0:
36,192,59873,1,8,0:0:0:0:
475,192,59873,1,0,0:0:0:0:
402,192,60055,1,0,0:0:0:0:
109,192,60237,1,0,0:0:0:0:
256,192,60237,1,0,0:0:0:0:
402,192,60419,1,0,0:0:0:0:
182,192,60601,1,0,0:0:0:0:
329,192,60601,1,0,0:0:0:0:
402,192,60782,1,0,0:0:0:0:
109,192,60964,1,0,0:0:0:0:
475,192,60964,128,0,61691:0:0:0:0:
256,192,60964,1,0,0:0:0:0:
329,192,61146,1,0,0:0:0:0:
36,192,61328,1,0,0:0:0:0:
182,192,61328,1,0,0:0:0:0:
402,192,61510,1,0,0:0:0:0:
182,192,61691,1,0,0:0:0:0:
329,192,61691,1,0,0:0:0:0:
109,192,61873,1,0,0:0:0:0:
402,192,62055,1,0,0:0:0:0:
475,192,62055,1,0,0:0:0:0:
182,192,62237,1,0,0:0:0:0:
36,192,62419,1,0,0:0:0:0:
109,192,62419,1,0,0:0:0:0:
256,192,62601,1,0,0:0:0:0:
329,192,62782,1,0,0:0:0:0:
402,192,62782,1,0,0:0:0:0:
36,192,62964,1,0,0:0:0:0:
109,192,63146,1,0,0:0:0:0:
182,192,63146,1,0,0:0:0:0:
402,192,63328,1,0,0:0:0:0:
182,192,63510,1,0,0:0:0:0:
402,192,63691,1,0,0:0:0:0:
329,192,63873,1,0,0:0:0:0:
475,192,63873,128,0,64419:0:0:0:0:
109,192,64055,1,0,0:0:0:0:
182,192,64237,1,0,0:0:0:0:
329,192,64419,1,0,0:0:0:0:
109,192,64601,1,0,0:0:0:0:
402,192,64601,1,0,0:0:0:0:
256,192,64601,128,0,65691:0:0:0:0:
329,192,64782,1,0,0:0:0:0:
182,192,64964,1,0,0:0:0:0:
402,192,65146,1,0,0:0:0:0:
329,192,65328,1,0,0:0:0:0:
36,192,65328,1,0,0:0:0:0:
109,192,65510,1,8,0:0:0:0:
182,192,65510,1,8,0:0:0:0:
329,192,65691,1,8,0:0:0:0:
402,192,65691,1,8,0:0:0:0:
182,192,65873,1,0,0:0:0:0:
256,192,66055,1,0,0:0:0:0:
36,192,66055,1,0,0:0:0:0:
109,192,66055,1,0,0:0:0:0:
402,192,66237,1,0,0:0:0:0:
329,192,66419,1,0,0:0:0:0:
109,192,66601,1,0,0:0:0:0:
182,192,66782,1,0,0:0:0:0:
402,192,66964,1,8,0:0:0:0:
475,192,66964,1,8,0:0:0:0:
109,192,67146,1,8,0:0:0:0:
36,192,67146,1,8,0:0:0:0:
256,192,67328,1,0,0:0:0:0:
402,192,67510,1,0,0:0:0:0:
36,192,67510,1,0,0:0:0:0:
109,192,67510,1,0,0:0:0:0:
329,192,67691,1,0,0:0:0:0:
109,192,67873,1,0,0:0:0:0:
402,192,67873,1,0,0:0:0:0:
182,192,68055,1,0,0:0:0:0:
329,192,68237,1,0,0:0:0:0:
36,192,68237,1,0,0:0:0:0:
475,192,68419,1,0,0:0:0:0:
36,192,68601,1,0,0:0:0:0:
256,192,68601,1,0,0:0:0:0:
182,192,68782,1,0,0:0:0:0:
402,192,68964,1,0,0:0:0:0:
329,192,68964,1,0,0:0:0:0:
36,192,68964,1,0,0:0:0:0:
109,192,69055,1,0,0:0:0:0:
182,192,69146,1,0,0:0:0:0:
256,192,69237,1,0,0:0:0:0:
329,192,69328,1,8,0:0:0:0:
402,192,69328,1,8,0:0:0:0:
475,192,69328,1,8,0:0:0:0:
36,192,69510,1,0,0:0:0:0:
109,192,69691,1,0,0:0:0:0:
475,192,69691,1,0,0:0:0:0:
402,192,69782,1,0,0:0:0:0:
329,192,69873,1,0,0:0:0:0:
256,192,69964,1,0,0:0:0:0:
109,192,70055,1,8,0:0:0:0:
182,192,70055,1,8,0:0:0:0:
36,192,70055,1,8,0:0:0:0:
475,192,70237,1,0,0:0:0:0:
329,192,70419,1,0,0:0:0:0:
402,192,70419,1,0,0:0:0:0:
182,192,70601,1,0,0:0:0:0:
402,192,70782,1,0,0:0:0:0:
256,192,70782,1,0,0:0:0:0:
109,192,70964,1,8,0:0:0:0:
36,192,70964,1,8,0:0:0:0:
475,192,71146,1,0,0:0:0:0:
182,192,71146,1,0,0:0:0:0:
36,192,71328,1,0,0:0:0:0:
402,192,71510,1,8,0:0:0:0:
109,192,71510,1,8,0:0:0:0:
256,192,71510,1,8,0:0:0:0:
182,192,71691,1,0,0:0:0:0:
109,192,71873,1,0,0:0:0:0:
402,192,71873,1,0,0:0:0:0:
256,192,72055,1,0,0:0:0:0:
36,192,72237,1,0,0:0:0:0:
402,192,72237,1,0,0:0:0:0:
475,192,72419,1,0,0:0:0:0:
329,192,72601,1,0,0:0:0:0:
36,192,72601,1,0,0:0:0:0:
402,192,72601,128,0,73328:0:0:0:0:
182,192,72782,1,0,0:0:0:0:
256,192,72964,1,0,0:0:0:0:
475,192,72964,1,0,0:0:0:0:
109,192,73146,1,0,0:0:0:0:
329,192,73328,1,0,0:0:0:0:
36,192,73328,1,0,0:0:0:0:
256,192,73510,1,0,0:0:0:0:
109,192,73510,1,0,0:0:0:0:
402,192,73691,1,0,0:0:0:0:
182,192,73691,1,0,0:0:0:0:
36,192,73691,1,0,0:0:0:0:
109,192,73873,1,0,0:0:0:0:
402,192,74055,1,0,0:0:0:0:
475,192,74055,1,0,0:0:0:0:
182,192,74055,1,0,0:0:0:0:
36,192,74237,1,0,0:0:0:0:
475,192,74419,1,0,0:0:0:0:
256,192,74419,1,0,0:0:0:0:
182,192,74419,1,0,0:0:0:0:
329,192,74601,1,0,0:0:0:0:
109,192,74782,1,0,0:0:0:0:
329,192,74782,1,0,0:0:0:0:
402,192,74964,1,0,0:0:0:0:
256,192,75146,1,0,0:0:0:0:
475,192,75146,1,0,0:0:0:0:
109,192,75328,1,0,0:0:0:0:
329,192,75510,1,0,0:0:0:0:
402,192,75510,1,0,0:0:0:0:
256,192,75510,128,0,75873:0:0:0:0:
36,192,75691,1,0,0:0:0:0:
109,192,75691,1,0,0:0:0:0:
475,192,75873,1,0,0:0:0:0:
182,192,76055,1,0,0:0:0:0:
329,192,76237,1,0,0:0:0:0:
36,192,76237,1,0,0:0:0:0:
182,192,76419,1,0,0:0:0:0:
402,192,76601,1,0,0:0:0:0:
256,192,76601,1,0,0:0:0:0:
109,192,76782,1,0,0:0:0:0:
36,192,76964,1,0,0:0:0:0:
109,192,76964,1,0,0:0:0:0:
329,192,77146,1,8,0:0:0:0:
402,192,77146,1,8,0:0:0:0:
182,192,77328,1,8,0:0:0:0:
36,192,77328,1,8,0:0:0:0:
109,192,77328,1,8,0:0:0:0:
402,192,77510,1,0,0:0:0:0:
475,192,77510,1,0,0:0:0:0:
475,192,77691,1,0,0:0:0:0:
182,192,77873,1,0,0:0:0:0:
109,192,78055,1,0,0:0:0:0:
256,192,78237,1,0,0:0:0:0:
402,192,78419,1,0,0:0:0:0:
329,192,78601,1,8,0:0:0:0:
402,192,78601,1,8,0:0:0:0:
36,192,78782,1,8,0:0:0:0:
109,192,78782,1,8,0:0:0:0:
329,192,78964,1,0,0:0:0:0:
402,192,79146,1,0,0:0:0:0:
256,192,79146,1,0,0:0:0:0:
475,192,79146,1,0,0:0:0:0:
109,192,79328,1,0,0:0:0:0:
329,192,79510,1,0,0:0:0:0:
182,192,79510,1,0,0:0:0:0:
256,192,79691,1,0,0:0:0:0:
109,192,79873,1,0,0:0:0:0:
402,192,79873,1,0,0:0:0:0:
36,192,80055,1,0,0:0:0:0:
475,192,80237,1,0,0:0:0:0:
182,192,80237,1,0,0:0:0:0:
402,192,80419,1,0,0:0:0:0:
109,192,80601,1,8,0:0:0:0:
402,192,80601,1,8,0:0:0:0:
256,192,80601,1,8,0:0:0:0:
329,192,80782,1,0,0:0:0:0:
182,192,80964,1,8,0:0:0:0:
402,192,80964,1,8,0:0:0:0:
36,192,80964,1,8,0:0:0:0:
109,192,81146,1,0,0:0:0:0:
256,192,81328,1,8,0:0:0:0:
36,192,81328,1,8,0:0:0:0:
182,192,81328,1,8,0:0:0:0:
402,192,81510,1,0,0:0:0:0:
475,192,81691,1,8,0:0:0:0:
329,192,81691,1,8,0:0:0:0:
182,192,81691,1,8,0:0:0:0:
36,192,81873,1,0,0:0:0:0:
109,192,82055,1,0,0:0:0:0:
402,192,82055,128,0,84964:0:0:0:0:
182,192,82146,1,0,0:0:0:0:
256,192,82237,1,0,0:0:0:0:
475,192,82328,1,0,0:0:0:0:
329,192,82419,1,0,0:0:0:0:
109,192,82510,1,0,0:0:0:0:
182,192,82601,1,0,0:0:0:0:
256,192,82691,1,0,0:0:0:0:
36,192,82782,1,0,0:0:0:0:
109,192,82873,1,0,0:0:0:0:
475,192,82964,1,0,0:0:0:0:
182,192,83055,1,0,0:0:0:0:
109,192,83146,1,0,0:0:0:0:
36,192,83237,1,0,0:0:0:0:
329,192,83328,1,0,0:0:0:0:
475,192,83419,1,0,0:0:0:0:
256,192,83510,1,0,0:0:0:0:
36,192,83601,1,0,0:0:0:0:
109,192,83691,1,0,0:0:0:0:
182,192,83782,1,0,0:0:0:0:
475,192,83873,1,0,0:0:0:0:
329,192,83964,1,0,0:0:0:0:
109,192,84055,1,0,0:0:0:0:
36,192,84146,1,0,0:0:0:0:
475,192,84237,1,0,0:0:0:0:
182,192,84328,1,0,0:0:0:0:
256,192,84419,1,0,0:0:0:0:
329,192,84510,1,0,0:0:0:0:
36,192,84601,1,0,0:0:0:0:
256,192,84691,1,0,0:0:0:0:
475,192,84782,1,0,0:0:0:0:
182,192,84873,1,0,0:0:0:0:
329,192,84964,1,0,0:0:0:0:
109,192,84964,1,0,0:0:0:0:
256,192,85055,1,0,0:0:0:0:
182,192,85146,1,0,0:0:0:0:
402,192,85237,1,0,0:0:0:0:
475,192,85328,1,0,0:0:0:0:
256,192,85510,1,0,0:0:0:0:
402,192,85601,1,0,0:0:0:0:
109,192,85601,1,0,0:0:0:0:
475,192,85691,1,0,0:0:0:0:
182,192,85873,1,0,0:0:0:0:
329,192,85964,1,0,0:0:0:0:
402,192,86055,1,0,0:0:0:0:
182,192,86237,1,0,0:0:0:0:
36,192,86328,1,0,0:0:0:0:
109,192,86419,1,0,0:0:0:0:
256,192,86510,1,0,0:0:0:0:
475,192,86601,1,0,0:0:0:0:
402,192,86691,1,0,0:0:0:0:
256,192,86782,1,0,0:0:0:0:
36,192,86873,1,0,0:0:0:0:
109,192,86964,1,0,0:0:0:0:
182,192,87055,1,0,0:0:0:0:
256,192,87146,1,0,0:0:0:0:
475,192,87237,1,0,0:0:0:0:
402,192,87328,1,0,0:0:0:0:
329,192,87419,1,0,0:0:0:0:
256,192,87510,1,0,0:0:0:0:
182,192,87601,1,0,0:0:0:0:
109,192,87691,1,0,0:0:0:0:
475,192,87782,1,0,0:0:0:0:
36,192,87873,1,0,0:0:0:0:
182,192,87964,1,0,0:0:0:0:
402,192,88055,1,0,0:0:0:0:
109,192,88146,1,0,0:0:0:0:
475,192,88237,1,0,0:0:0:0:
182,192,88237,1,0,0:0:0:0:
256,192,88328,1,0,0:0:0:0:
36,192,88419,1,0,0:0:0:0:
329,192,88510,1,0,0:0:0:0:
109,192,88601,1,0,0:0:0:0:
475,192,88691,1,0,0:0:0:0:
256,192,88782,1,0,0:0:0:0:
36,192,88873,1,0,0:0:0:0:
109,192,88964,1,0,0:0:0:0:
402,192,89055,1,0,0:0:0:0:
329,192,89146,1,0,0:0:0:0:
182,192,89237,1,0,0:0:0:0:
256,192,89328,128,0,89691:0:0:0:0:
475,192,89691,1,0,0:0:0:0:
36,192,89782,1,0,0:0:0:0:
109,192,89873,1,0,0:0:0:0:
402,192,89964,1,0,0:0:0:0:
329,192,90055,1,0,0:0:0:0:
475,192,90146,1,0,0:0:0:0:
402,192,90237,1,0,0:0:0:0:
329,192,90328,1,0,0:0:0:0:
256,192,90419,1,0,0:0:0:0:
182,192,90510,1,0,0:0:0:0:
36,192,90601,1,0,0:0:0:0:
109,192,90691,1,0,0:0:0:0:
182,192,90782,1,0,0:0:0:0:
329,192,90873,1,0,0:0:0:0:
475,192,90964,1,0,0:0:0:0:
36,192,91055,1,0,0:0:0:0:
402,192,91146,1,0,0:0:0:0:
109,192,91237,1,0,0:0:0:0:
329,192,91328,1,0,0:0:0:0:
475,192,91419,1,0,0:0:0:0:
182,192,91510,1,0,0:0:0:0:
182,192,91691,1,0,0:0:0:0:
109,192,91873,1,0,0:0:0:0:
329,192,91964,1,0,0:0:0:0:
182,192,92055,1,0,0:0:0:0:
475,192,92146,1,0,0:0:0:0:
329,192,92237,1,0,0:0:0:0:
36,192,92328,1,0,0:0:0:0:
182,192,92419,1,0,0:0:0:0:
402,192,92510,1,0,0:0:0:0:
329,192,92601,1,0,0:0:0:0:
329,192,92782,1,0,0:0:0:0:
109,192,92964,1,0,0:0:0:0:
36,192,93055,1,0,0:0:0:0:
402,192,93146,1,0,0:0:0:0:
182,192,93237,1,0,0:0:0:0:
109,192,93328,1,0,0:0:0:0:
402,192,93419,1,0,0:0:0:0:
329,192,93510,1,0,0:0:0:0:
36,192,93601,1,0,0:0:0:0:
256,192,93691,128,0,94055:0:0:0:0:
402,192,94055,1,0,0:0:0:0:
36,192,94146,1,0,0:0:0:0:
109,192,94237,1,0,0:0:0:0:
475,192,94328,1,0,0:0:0:0:
329,192,94419,1,0,0:0:0:0:
109,192,94510,1,0,0:0:0:0:
256,192,94601,1,0,0:0:0:0:
36,192,94691,1,0,0:0:0:0:
475,192,94782,1,0,0:0:0:0:
402,192,94873,1,0,0:0:0:0:
109,192,94964,1,0,0:0:0:0:
256,192,95055,1,0,0:0:0:0:
329,192,95146,1,0,0:0:0:0:
36,192,95237,1,0,0:0:0:0:
182,192,95328,1,0,0:0:0:0:
109,192,95419,1,0,0:0:0:0:
402,192,95510,1,0,0:0:0:0:
182,192,95601,1,0,0:0:0:0:
36,192,95691,1,0,0:0:0:0:
329,192,95782,1,0,0:0:0:0:
402,192,95873,1,0,0:0:0:0:
475,192,95964,1,0,0:0:0:0:
182,192,96055,1,0,0:0:0:0:
109,192,96146,1,0,0:0:0:0:
256,192,96237,1,0,0:0:0:0:
402,192,96328,1,0,0:0:0:0:
36,192,96419,1,0,0:0:0:0:
109,192,96510,1,0,0:0:0:0:
475,192,96601,1,8,0:0:0:0:
402,192,96601,1,8,0:0:0:0:
182,192,96691,1,0,0:0:0:0:
36,192,96782,1,0,0:0:0:0:
109,192,96873,1,0,0:0:0:0:
402,192,96964,1,8,0:0:0:0:
182,192,96964,1,8,0:0:0:0:
329,192,97055,1,0,0:0:0:0:
475,192,97146,1,0,0:0:0:0:
256,192,97237,1,0,0:0:0:0:
109,192,97328,1,8,0:0:0:0:
402,192,97328,1,8,0:0:0:0:
329,192,97419,1,0,0:0:0:0:
36,192,97510,1,0,0:0:0:0:
109,192,97601,1,0,0:0:0:0:
182,192,97691,1,8,0:0:0:0:
256,192,97691,1,8,0:0:0:0:
402,192,97782,1,0,0:0:0:0:
475,192,97873,1,0,0:0:0:0:
329,192,97964,1,0,0:0:0:0:
182,192,98055,1,8,0:0:0:0:
36,192,98055,1,8,0:0:0:0:
402,192,98146,1,0,0:0:0:0:
329,192,98237,1,0,0:0:0:0:
109,192,98328,1,0,0:0:0:0:
256,192,98419,1,0,0:0:0:0:
475,192,98510,1,0,0:0:0:0:
36,192,98601,1,8,0:0:0:0:
329,192,98601,1,8,0:0:0:0:
182,192,98691,1,0,0:0:0:0:
109,192,98782,1,0,0:0:0:0:
329,192,98782,1,0,0:0:0:0:
402,192,98873,1,0,0:0:0:0:
256,192,98964,1,0,0:0:0:0:
36,192,99055,1,0,0:0:0:0:
402,192,99146,1,8,0:0:0:0:
256,192,99146,1,8,0:0:0:0:
109,192,99237,1,0,0:0:0:0:
475,192,99328,1,0,0:0:0:0:
182,192,99328,1,0,0:0:0:0:
329,192,99419,1,0,0:0:0:0:
182,192,99510,1,8,0:0:0:0:
109,192,99510,1,8,0:0:0:0:
475,192,99510,1,8,0:0:0:0:
402,192,99601,1,0,0:0:0:0:
36,192,99691,1,0,0:0:0:0:
256,192,99782,1,0,0:0:0:0:
402,192,99873,1,0,0:0:0:0:
109,192,99964,1,0,0:0:0:0:
36,192,100055,1,0,0:0:0:0:
329,192,100146,1,0,0:0:0:0:
182,192,100237,1,0,0:0:0:0:
475,192,100328,1,0,0:0:0:0:
256,192,100419,1,0,0:0:0:0:
36,192,100510,1,0,0:0:0:0:
402,192,100601,1,0,0:0:0:0:
182,192,100691,1,0,0:0:0:0:
109,192,100782,1,0,0:0:0:0:
329,192,100873,1,0,0:0:0:0:
256,192,100964,1,0,0:0:0:0:
36,192,100964,1,0,0:0:0:0:
109,192,100964,1,0,0:0:0:0:
402,192,101146,1,0,0:0:0:0:
475,192,101146,1,0,0:0:0:0:
182,192,101146,1,0,0:0:0:0:
109,192,101328,1,0,0:0:0:0:
182,192,101328,1,0,0:0:0:0:
329,192,101328,1,0,0:0:0:0:
475,192,101510,1,0,0:0:0:0:
402,192,101510,1,0,0:0:0:0:
36,192,101510,1,0,0:0:0:0:
182,192,101691,1,0,0:0:0:0:
329,192,101691,1,0,0:0:0:0:
256,192,101691,128,0,102419:0:0:0:0:
475,192,101782,1,0,0:0:0:0:
109,192,101873,1,0,0:0:0:0:
475,192,101964,1,0,0:0:0:0:
402,192,102055,1,0,0:0:0:0:
182,192,102055,1,0,0:0:0:0:
329,192,102146,1,0,0:0:0:0:
36,192,102237,1,0,0:0:0:0:
475,192,102328,1,0,0:0:0:0:
402,192,102419,1,0,0:0:0:0:
109,192,102419,1,0,0:0:0:0:
329,192,102601,1,0,0:0:0:0:
475,192,102691,1,0,0:0:0:0:
402,192,102782,1,0,0:0:0:0:
36,192,102964,1,0,0:0:0:0:
182,192,103055,1,0,0:0:0:0:
109,192,103146,1,0,0:0:0:0:
329,192,103237,1,0,0:0:0:0:
256,192,103328,1,0,0:0:0:0:
475,192,103419,1,0,0:0:0:0:
402,192,103510,1,0,0:0:0:0:
36,192,103601,1,0,0:0:0:0:
182,192,103691,1,0,0:0:0:0:
109,192,103782,1,0,0:0:0:0:
329,192,103873,1,0,0:0:0:0:
182,192,103873,1,0,0:0:0:0:
256,192,103873,128,0,104601:0:0:0:0:
402,192,103964,1,0,0:0:0:0:
475,192,104055,1,0,0:0:0:0:
36,192,104146,1,0,0:0:0:0:
109,192,104237,1,0,0:0:0:0:
182,192,104328,1,0,0:0:0:0:
329,192,104419,1,0,0:0:0:0:
402,192,104510,1,0,0:0:0:0:
109,192,104601,1,0,0:0:0:0:
475,192,104601,1,0,0:0:0:0:
182,192,104691,1,0,0:0:0:0:
475,192,104782,1,0,0:0:0:0:
329,192,104873,1,0,0:0:0:0:
402,192,104964,1,0,0:0:0:0:
36,192,105055,1,0,0:0:0:0:
109,192,105146,1,0,0:0:0:0:
182,192,105237,1,0,0:0:0:0:
475,192,105328,128,0,105691:0:0:0:0:
109,192,105691,1,0,0:0:0:0:
182,192,105873,1,0,0:0:0:0:
329,192,105964,1,0,0:0:0:0:
402,192,106055,1,0,0:0:0:0:
36,192,106055,128,0,106419:0:0:0:0:
402,192,106419,1,0,0:0:0:0:
182,192,106510,1,0,0:0:0:0:
329,192,106601,1,0,0:0:0:0:
109,192,106691,1,0,0:0:0:0:
256,192,106782,1,0,0:0:0:0:
402,192,106873,1,0,0:0:0:0:
475,192,106964,1,0,0:0:0:0:
36,192,107055,1,0,0:0:0:0:
109,192,107146,1,0,0:0:0:0:
329,192,107237,1,0,0:0:0:0:
256,192,107328,128,0,107510:0:0:0:0:
109,192,107510,1,0,0:0:0:0:
402,192,107510,1,0,0:0:0:0:
182,192,107601,1,0,0:0:0:0:
475,192,107691,1,0,0:0:0:0:
329,192,107782,1,0,0:0:0:0:
109,192,107873,1,0,0:0:0:0:
402,192,107964,1,0,0:0:0:0:
256,192,108055,128,0,108237:0:0:0:0:
182,192,108237,1,0,0:0:0:0:
329,192,108237,1,0,0:0:0:0:
109,192,108328,1,0,0:0:0:0:
402,192,108419,1,0,0:0:0:0:
329,192,108510,1,0,0:0:0:0:
475,192,108601,1,0,0:0:0:0:
402,192,108601,1,0,0:0:0:0:
182,192,108691,1,0,0:0:0:0:
109,192,108782,1,0,0:0:0:0:
402,192,108873,1,0,0:0:0:0:
36,192,108964,1,0,0:0:0:0:
182,192,108964,1,0,0:0:0:0:
256,192,109055,1,0,0:0:0:0:
329,192,109146,1,0,0:0:0:0:
182,192,109237,1,0,0:0:0:0:
256,192,109328,1,0,0:0:0:0:
475,192,109328,1,0,0:0:0:0:
402,192,109419,1,0,0:0:0:0:
36,192,109510,1,0,0:0:0:0:
329,192,109601,1,0,0:0:0:0:
109,192,109691,1,0,0:0:0:0:
182,192,109691,1,0,0:0:0:0:
402,192,109782,1,0,0:0:0:0:
329,192,109873,1,0,0:0:0:0:
109,192,109964,1,0,0:0:0:0:
402,192,110055,1,0,0:0:0:0:
475,192,110055,1,0,0:0:0:0:
182,192,110146,1,0,0:0:0:0:
256,192,110237,1,0,0:0:0:0:
475,192,110328,1,0,0:0:0:0:
36,192,110419,1,0,0:0:0:0:
109,192,110419,1,0,0:0:0:0:
182,192,110510,1,0,0:0:0:0:
402,192,110601,1,0,0:0:0:0:
256,192,110691,1,0,0:0:0:0:
182,192,110782,1,0,0:0:0:0:
329,192,110782,1,0,0:0:0:0:
475,192,110964,1,0,0:0:0:0:
36,192,111146,1,0,0:0:0:0:
109,192,111146,1,0,0:0:0:0:
402,192,111146,128,0,112601:0:0:0:0:
256,192,111328,1,0,0:0:0:0:
182,192,111510,1,0,0:0:0:0:
329,192,111510,1,0,0:0:0:0:
36,192,111691,1,0,0:0:0:0:
475,192,111873,1,0,0:0:0:0:
329,192,111873,1,0,0:0:0:0:
182,192,112055,1,0,0:0:0:0:
36,192,112237,1,0,0:0:0:0:
109,192,112237,1,0,0:0:0:0:
329,192,112419,1,0,0:0:0:0:
475,192,112601,1,0,0:0:0:0:
182,192,112601,1,0,0:0:0:0:
109,192,112601,128,0,114055:0:0:0:0:
256,192,112691,1,0,0:0:0:0:
329,192,112782,1,0,0:0:0:0:
475,192,112873,1,0,0:0:0:0:
36,192,112964,1,0,0:0:0:0:
182,192,112964,1,0,0:0:0:0:
402,192,113055,1,0,0:0:0:0:
329,192,113146,1,0,0:0:0:0:
182,192,113237,1,0,0:0:0:0:
402,192,113328,1,0,0:0:0:0:
256,192,113328,1,0,0:0:0:0:
329,192,113419,1,0,0:0:0:0:
475,192,113510,1,0,0:0:0:0:
36,192,113601,1,0,0:0:0:0:
182,192,113691,1,0,0:0:0:0:
402,192,113691,1,0,0:0:0:0:
329,192,113782,1,0,0:0:0:0:
256,192,113873,1,0,0:0:0:0:
36,192,113964,1,0,0:0:0:0:
182,192,114055,1,0,0:0:0:0:
475,192,114055,128,0,114237:0:0:0:0:
329,192,114237,1,0,0:0:0:0:
182,192,114328,1,0,0:0:0:0:
36,192,114419,128,0,114601:0:0:0:0:
329,192,114601,1,0,0:0:0:0:
402,192,114691,1,0,0:0:0:0:
109,192,114782,1,0,0:0:0:0:
36,192,114873,1,0,0:0:0:0:
182,192,114964,1,0,0:0:0:0:
256,192,115055,1,0,0:0:0:0:
109,192,115146,1,0,0:0:0:0:
475,192,115237,1,0,0:0:0:0:
402,192,115328,1,0,0:0:0:0:
182,192,115419,1,0,0:0:0:0:
402,192,115510,128,0,116964:0:0:0:0:
109,192,115510,128,0,116964:0:0:0:0:
36,192,115510,1,0,0:0:0:0:
256,192,115691,1,0,0:0:0:0:
329,192,115873,1,0,0:0:0:0:
256,192,116055,1,0,0:0:0:0:
182,192,116237,1,0,0:0:0:0:
36,192,116419,1,0,0:0:0:0:
475,192,116601,1,0,0:0:0:0:
256,192,116782,1,0,0:0:0:0:
182,192,116964,128,0,118419:0:0:0:0:
329,192,116964,128,0,118419:0:0:0:0:
475,192,116964,1,0,0:0:0:0:
36,192,117146,1,0,0:0:0:0:
402,192,117328,1,0,0:0:0:0:
109,192,117510,1,0,0:0:0:0:
475,192,117691,1,0,0:0:0:0:
36,192,117873,1,0,0:0:0:0:
402,192,118055,1,0,0:0:0:0:
109,192,118237,1,0,0:0:0:0:
475,192,118419,1,0,0:0:0:0:
256,192,118419,128,0,118782:0:0:0:0:
402,192,118782,1,0,0:0:0:0:
329,192,118873,1,0,0:0:0:0:
109,192,118964,1,0,0:0:0:0:
182,192,119146,1,0,0:0:0:0:
329,192,119237,1,0,0:0:0:0:
475,192,119328,1,0,0:0:0:0:
109,192,119419,1,0,0:0:0:0:
36,192,119510,1,0,0:0:0:0:
182,192,119601,1,0,0:0:0:0:
256,192,119691,1,0,0:0:0:0:
402,192,119782,1,0,0:0:0:0:
475,192,119873,1,0,0:0:0:0:
109,192,119964,1,0,0:0:0:0:
182,192,120055,1,0,0:0:0:0:
402,192,120146,1,0,0:0:0:0:
329,192,120237,1,0,0:0:0:0:
109,192,120328,1,0,0:0:0:0:
182,192,120419,1,0,0:0:0:0:
329,192,120510,1,0,0:0:0:0:
402,192,120601,1,0,0:0:0:0:
109,192,120691,1,0,0:0:0:0:
36,192,120782,1,0,0:0:0:0:
256,192,120873,1,0,0:0:0:0:
329,192,120964,1,0,0:0:0:0:
402,192,121055,1,0,0:0:0:0:
182,192,121146,1,0,0:0:0:0:
36,192,121237,1,0,0:0:0:0:
109,192,121328,1,0,0:0:0:0:
475,192,121419,1,0,0:0:0:0:
402,192,121510,1,0,0:0:0:0:
329,192,121601,1,0,0:0:0:0:
256,192,121691,128,0,122782:0:0:0:0:
109,192,122782,1,0,0:0:0:0:
329,192,122782,1,0,0:0:0:0:
36,192,122873,1,0,0:0:0:0:
402,192,122964,1,0,0:0:0:0:
329,192,123055,1,0,0:0:0:0:
109,192,123146,1,0,0:0:0:0:
36,192,123237,1,0,0:0:0:0:
329,192,123328,1,0,0:0:0:0:
182,192,123419,1,0,0:0:0:0:
475,192,123510,1,0,0:0:0:0:
402,192,123510,1,0,0:0:0:0:
36,192,123601,1,0,0:0:0:0:
109,192,123691,1,0,0:0:0:0:
475,192,123782,1,0,0:0:0:0:
256,192,123873,1,0,0:0:0:0:
182,192,123964,1,0,0:0:0:0:
109,192,124055,1,0,0:0:0:0:
329,192,124146,1,0,0:0:0:0:
402,192,124237,1,0,0:0:0:0:
36,192,124328,1,0,0:0:0:0:
109,192,124419,1,0,0:0:0:0:
182,192,124510,1,0,0:0:0:0:
475,192,124601,1,0,0:0:0:0:
402,192,124691,1,0,0:0:0:0:
329,192,124782,1,0,0:0:0:0:
182,192,124873,1,0,0:0:0:0:
109,192,124964,1,0,0:0:0:0:
36,192,125055,1,0,0:0:0:0:
329,192,125146,1,0,0:0:0:0:
402,192,125237,1,0,0:0:0:0:
475,192,125328,1,0,0:0:0:0:
256,192,125328,128,0,125691:0:0:0:0:
109,192,125419,1,0,0:0:0:0:
36,192,125510,1,0,0:0:0:0:
182,192,125601,1,0,0:0:0:0:
109,192,125691,1,0,0:0:0:0:
402,192,125691,1,0,0:0:0:0:
329,192,125691,1,0,0:0:0:0:
182,192,125873,1,0,0:0:0:0:
109,192,125964,1,0,0:0:0:0:
329,192,126055,1,0,0:0:0:0:
475,192,126146,1,0,0:0:0:0:
402,192,126237,1,0,0:0:0:0:
182,192,126328,1,0,0:0:0:0:
36,192,126419,1,0,0:0:0:0:
329,192,126510,1,0,0:0:0:0:
256,192,126601,1,0,0:0:0:0:
109,192,126691,1,0,0:0:0:0:
402,192,126782,1,0,0:0:0:0:
475,192,126873,1,0,0:0:0:0:
36,192,126964,1,0,0:0:0:0:
182,192,127055,1,0,0:0:0:0:
256,192,127146,1,0,0:0:0:0:
402,192,127237,1,0,0:0:0:0:
475,192,127328,1,0,0:0:0:0:
109,192,127419,1,0,0:0:0:0:
36,192,127510,1,0,0:0:0:0:
182,192,127601,1,0,0:0:0:0:
329,192,127691,1,0,0:0:0:0:
475,192,127782,1,0,0:0:0:0:
402,192,127873,1,0,0:0:0:0:
182,192,127964,1,0,0:0:0:0:
109,192,128055,1,0,0:0:0:0:
329,192,128146,1,0,0:0:0:0:
402,192,128237,1,0,0:0:0:0:
109,192,128328,1,0,0:0:0:0:
36,192,128419,1,0,0:0:0:0:
256,192,128510,1,0,0:0:0:0:
329,192,128601,1,0,0:0:0:0:
109,192,128691,1,0,0:0:0:0:
182,192,128782,1,0,0:0:0:0:
329,192,128873,1,0,0:0:0:0:
402,192,128964,1,0,0:0:0:0:
329,192,129055,1,0,0:0:0:0:
475,192,129146,1,0,0:0:0:0:
182,192,129237,1,0,0:0:0:0:
36,192,129328,1,0,0:0:0:0:
182,192,129419,1,0,0:0:0:0:
329,192,129510,1,0,0:0:0:0:
402,192,129601,1,0,0:0:0:0:
109,192,129691,1,0,0:0:0:0:
256,192,129782,1,0,0:0:0:0:
36,192,129873,1,0,0:0:0:0:
402,192,129964,1,0,0:0:0:0:
475,192,130055,1,0,0:0:0:0:
256,192,130146,1,0,0:0:0:0:
109,192,130237,1,0,0:0:0:0:
182,192,130328,1,0,0:0:0:0:
256,192,130419,1,0,0:0:0:0:
402,192,130510,1,0,0:0:0:0:
475,192,130601,1,0,0:0:0:0:
256,192,130691,1,0,0:0:0:0:
109,192,130782,1,0,0:0:0:0:
36,192,130873,1,0,0:0:0:0:
182,192,130964,1,0,0:0:0:0:
402,192,131055,1,0,0:0:0:0:
329,192,131146,1,0,0:0:0:0:
475,192,131237,1,0,0:0:0:0:
109,192,131328,1,0,0:0:0:0:
402,192,131419,1,0,0:0:0:0:
256,192,131510,128,0,132964:0:0:0:0:
