osu file format v14

[General]
AudioFilename: [SDVX III ] TIEFSEE [EXH].mp3
AudioLeadIn: 0
PreviewTime: 47146
Countdown: 0
SampleSet: Soft
StackLeniency: 0.7
Mode: 3
LetterboxInBreaks: 0
SpecialStyle: 0
WidescreenStoryboard: 1

[Editor]
DistanceSpacing: 1
BeatDivisor: 4
GridSize: 8
TimelineZoom: 1.4

[Metadata]
Title:TIEFSEE
TitleUnicode:TIEFSEE
Artist:SOUND HOLIC Vs. dj TAKA feat. YURiCa
ArtistUnicode:SOUND HOLIC Vs. dj TAKA feat. YURiCa
Creator:ilhamsyah849
Version:4K GRAVITY Lv.16
Source:SOUND VOLTEX III GRAVITY WARS
Tags:konami bemani 斬 -ZAN- [_A_v_a_l_o_n_] SpectorDG -_i_o_r_i_- Another_Lie DEEP SPECTRUM beatmania IIDX 22 PENDUAL MEGAtive
BeatmapID:801687
BeatmapSetID:298376

[Difficulty]
HPDrainRate:8.5
CircleSize:4
OverallDifficulty:8
ApproachRate:5
SliderMultiplier:1.4
SliderTickRate:1

[Events]
//Background and Video events
0,0,"TIEFSEE.jpg",0,0
//Break Periods
//Storyboard Layer 0 (Background)
//Storyboard Layer 1 (Fail)
//Storyboard Layer 2 (Pass)
//Storyboard Layer 3 (Foreground)
//Storyboard Sound Samples

[TimingPoints]
601,363.636363636364,4,2,1,50,1,0
47146,-100,4,2,1,50,0,1
82055,-100,4,2,1,50,0,0

[HitObjects]
192,192,601,5,0,0:0:0:0:
320,192,601,1,0,0:0:0:0:
64,192,782,1,0,0:0:0:0:
192,192,964,1,0,0:0:0:0:
320,192,1146,1,0,0:0:0:0:
64,192,1146,1,0,0:0:0:0:
192,192,1328,1,0,0:0:0:0:
448,192,1328,1,0,0:0:0:0:
320,192,1328,1,0,0:0:0:0:
320,192,1510,1,0,0:0:0:0:
192,192,1691,1,0,0:0:0:0:
64,192,1873,1,0,0:0:0:0:
320,192,1873,1,0,0:0:0:0:
192,192,2055,1,0,0:0:0:0:
448,192,2055,1,0,0:0:0:0:
64,192,2055,1,0,0:0:0:0:
320,192,2237,1,0,0:0:0:0:
192,192,2419,1,0,0:0:0:0:
64,192,2601,1,0,0:0:0:0:
320,192,2601,1,0,0:0:0:0:
64,192,2782,1,0,0:0:0:0:
192,192,2782,1,0,0:0:0:0:
448,192,2782,1,0,0:0:0:0:
320,192,2964,1,0,0:0:0:0:
192,192,3146,1,0,0:0:0:0:
320,192,3328,1,0,0:0:0:0:
64,192,3328,1,0,0:0:0:0:
192,192,3510,1,0,0:0:0:0:
320,192,3510,1,0,0:0:0:0:
448,192,3510,1,0,0:0:0:0:
320,192,3691,1,0,0:0:0:0:
192,192,3873,1,0,0:0:0:0:
64,192,4055,1,0,0:0:0:0:
320,192,4055,1,0,0:0:0:0:
64,192,4237,1,0,0:0:0:0:
320,192,4237,1,0,0:0:0:0:
448,192,4237,1,0,0:0:0:0:
192,192,4419,1,0,0:0:0:0:
448,192,4419,1,0,0:0:0:0:
64,192,4601,1,0,0:0:0:0:
320,192,4601,1,0,0:0:0:0:
448,192,4782,1,0,0:0:0:0:
192,192,4782,1,0,0:0:0:0:
64,192,4964,1,0,0:0:0:0:
192,192,4964,1,0,0:0:0:0:
320,192,4964,1,0,0:0:0:0:
320,192,5146,1,0,0:0:0:0:
192,192,5328,1,0,0:0:0:0:
448,192,5328,1,0,0:0:0:0:
320,192,5510,1,0,0:0:0:0:
192,192,5691,1,0,0:0:0:0:
448,192,5691,1,0,0:0:0:0:
320,192,5691,1,0,0:0:0:0:
64,192,5873,1,0,0:0:0:0:
320,192,5873,1,0,0:0:0:0:
192,192,6055,1,0,0:0:0:0:
448,192,6055,1,0,0:0:0:0:
320,192,6237,1,0,0:0:0:0:
64,192,6419,1,0,0:0:0:0:
192,192,6419,1,0,0:0:0:0:
448,192,6419,1,0,0:0:0:0:
320,192,6601,1,0,0:0:0:0:
192,192,6782,1,0,0:0:0:0:
64,192,6964,1,0,0:0:0:0:
448,192,6964,1,0,0:0:0:0:
192,192,7146,1,0,0:0:0:0:
320,192,7146,1,0,0:0:0:0:
448,192,7146,1,0,0:0:0:0:
192,192,7328,1,0,0:0:0:0:
320,192,7510,1,0,0:0:0:0:
192,192,7691,1,0,0:0:0:0:
448,192,7691,1,0,0:0:0:0:
64,192,7873,1,0,0:0:0:0:
192,192,7873,1,0,0:0:0:0:
320,192,7873,1,0,0:0:0:0:
448,192,8055,1,0,0:0:0:0:
192,192,8237,1,0,0:0:0:0:
448,192,8237,1,0,0:0:0:0:
320,192,8237,1,0,0:0:0:0:
192,192,8419,1,0,0:0:0:0:
64,192,8601,1,0,0:0:0:0:
320,192,8601,1,0,0:0:0:0:
448,192,8601,1,0,0:0:0:0:
192,192,8782,1,0,0:0:0:0:
64,192,8964,1,0,0:0:0:0:
192,192,8964,1,0,0:0:0:0:
448,192,8964,1,0,0:0:0:0:
320,192,9146,1,0,0:0:0:0:
64,192,9328,1,0,0:0:0:0:
192,192,9328,1,0,0:0:0:0:
448,192,9328,1,0,0:0:0:0:
448,192,9691,1,0,0:0:0:0:
320,192,9691,1,0,0:0:0:0:
192,192,9782,1,0,0:0:0:0:
64,192,9873,1,0,0:0:0:0:
320,192,9964,1,0,0:0:0:0:
192,192,10055,1,0,0:0:0:0:
64,192,10055,1,0,0:0:0:0:
448,192,10146,1,0,0:0:0:0:
320,192,10237,1,0,0:0:0:0:
192,192,10328,1,0,0:0:0:0:
64,192,10419,1,0,0:0:0:0:
448,192,10419,1,0,0:0:0:0:
320,192,10510,1,0,0:0:0:0:
192,192,10601,1,0,0:0:0:0:
64,192,10601,1,0,0:0:0:0:
320,192,10691,1,0,0:0:0:0:
192,192,10782,1,8,0:0:0:0:
448,192,10782,1,0,0:0:0:0:
64,192,10782,1,0,0:0:0:0:
192,192,12237,1,0,0:0:0:0:
320,192,12237,1,0,0:0:0:0:
448,192,12237,1,0,0:0:0:0:
64,192,12237,128,0,13691:0:0:0:0:
320,192,12601,1,0,0:0:0:0:
192,192,12782,1,0,0:0:0:0:
448,192,12782,1,0,0:0:0:0:
320,192,12964,1,0,0:0:0:0:
192,192,13146,1,0,0:0:0:0:
320,192,13328,1,0,0:0:0:0:
448,192,13510,1,0,0:0:0:0:
192,192,13510,1,0,0:0:0:0:
192,192,13691,1,0,0:0:0:0:
320,192,13691,1,0,0:0:0:0:
448,192,13691,1,0,0:0:0:0:
320,192,14055,1,0,0:0:0:0:
448,192,14237,1,0,0:0:0:0:
320,192,14237,1,0,0:0:0:0:
64,192,14419,1,0,0:0:0:0:
192,192,14419,128,0,15146:0:0:0:0:
320,192,14601,1,0,0:0:0:0:
64,192,14782,1,0,0:0:0:0:
320,192,14964,1,0,0:0:0:0:
64,192,15146,1,0,0:0:0:0:
320,192,15146,1,0,0:0:0:0:
448,192,15146,128,0,16237:0:0:0:0:
192,192,15328,1,0,0:0:0:0:
320,192,15510,1,0,0:0:0:0:
64,192,15691,1,0,0:0:0:0:
192,192,15873,1,0,0:0:0:0:
320,192,16055,1,0,0:0:0:0:
192,192,16237,1,0,0:0:0:0:
64,192,16237,1,0,0:0:0:0:
64,192,16601,1,0,0:0:0:0:
192,192,16601,1,0,0:0:0:0:
448,192,16601,128,0,18055:0:0:0:0:
192,192,16873,1,0,0:0:0:0:
320,192,16873,1,0,0:0:0:0:
64,192,17146,1,0,0:0:0:0:
320,192,17146,1,0,0:0:0:0:
192,192,17419,1,0,0:0:0:0:
64,192,17419,1,0,0:0:0:0:
320,192,17691,1,0,0:0:0:0:
64,192,17691,1,0,0:0:0:0:
192,192,17873,1,0,0:0:0:0:
320,192,18055,1,0,0:0:0:0:
64,192,18055,1,0,0:0:0:0:
192,192,18146,1,0,0:0:0:0:
64,192,18237,1,0,0:0:0:0:
192,192,18328,1,0,0:0:0:0:
448,192,18419,1,0,0:0:0:0:
64,192,18419,1,0,0:0:0:0:
320,192,18601,1,0,0:0:0:0:
192,192,18601,128,0,19510:0:0:0:0:
320,192,18964,1,0,0:0:0:0:
448,192,18964,1,0,0:0:0:0:
64,192,19146,1,0,0:0:0:0:
448,192,19328,1,0,0:0:0:0:
64,192,19328,1,0,0:0:0:0:
320,192,19510,1,0,0:0:0:0:
64,192,19510,1,0,0:0:0:0:
448,192,19601,1,0,0:0:0:0:
320,192,19691,1,0,0:0:0:0:
448,192,19782,1,0,0:0:0:0:
192,192,19873,128,0,20601:0:0:0:0:
64,192,19873,1,0,0:0:0:0:
320,192,19873,1,0,0:0:0:0:
448,192,20055,1,0,0:0:0:0:
64,192,20237,1,0,0:0:0:0:
448,192,20419,1,0,0:0:0:0:
320,192,20601,1,0,0:0:0:0:
64,192,20601,1,0,0:0:0:0:
448,192,20782,1,0,0:0:0:0:
320,192,20782,1,0,0:0:0:0:
64,192,20964,1,0,0:0:0:0:
192,192,20964,1,0,0:0:0:0:
320,192,21146,1,0,0:0:0:0:
448,192,21328,1,0,0:0:0:0:
192,192,21328,1,0,0:0:0:0:
64,192,21328,128,0,22419:0:0:0:0:
320,192,21510,1,0,0:0:0:0:
320,192,21691,1,0,0:0:0:0:
448,192,21691,1,0,0:0:0:0:
192,192,21873,1,0,0:0:0:0:
192,192,22055,1,0,0:0:0:0:
448,192,22055,1,0,0:0:0:0:
448,192,22237,1,0,0:0:0:0:
320,192,22419,1,0,0:0:0:0:
448,192,22419,1,0,0:0:0:0:
64,192,22601,1,0,0:0:0:0:
192,192,22601,1,0,0:0:0:0:
448,192,22782,1,0,0:0:0:0:
320,192,22782,1,0,0:0:0:0:
64,192,22964,1,0,0:0:0:0:
192,192,22964,1,0,0:0:0:0:
320,192,23146,1,0,0:0:0:0:
448,192,23146,1,0,0:0:0:0:
64,192,23328,1,0,0:0:0:0:
192,192,23328,1,0,0:0:0:0:
64,192,23510,1,0,0:0:0:0:
192,192,23601,1,0,0:0:0:0:
320,192,23691,1,0,0:0:0:0:
448,192,23782,1,0,0:0:0:0:
64,192,23873,1,0,0:0:0:0:
192,192,23873,1,0,0:0:0:0:
320,192,23873,1,0,0:0:0:0:
320,192,24055,1,0,0:0:0:0:
64,192,24146,1,0,0:0:0:0:
192,192,24237,1,0,0:0:0:0:
448,192,24237,1,0,0:0:0:0:
320,192,24328,1,0,0:0:0:0:
64,192,24419,1,0,0:0:0:0:
448,192,24510,1,0,0:0:0:0:
192,192,24601,1,0,0:0:0:0:
320,192,24601,1,0,0:0:0:0:
64,192,24691,1,0,0:0:0:0:
448,192,24782,1,0,0:0:0:0:
320,192,24873,1,0,0:0:0:0:
192,192,24964,1,0,0:0:0:0:
64,192,24964,1,0,0:0:0:0:
448,192,25055,1,0,0:0:0:0:
320,192,25146,1,0,0:0:0:0:
64,192,25237,1,0,0:0:0:0:
192,192,25328,1,0,0:0:0:0:
448,192,25328,1,0,0:0:0:0:
320,192,25419,1,0,0:0:0:0:
192,192,25510,1,0,0:0:0:0:
64,192,25601,1,0,0:0:0:0:
192,192,25691,1,0,0:0:0:0:
320,192,25691,1,8,0:0:0:0:
448,192,25691,1,0,0:0:0:0:
320,192,25873,1,0,0:0:0:0:
448,192,25964,1,0,0:0:0:0:
64,192,26055,1,0,0:0:0:0:
192,192,26055,1,8,0:0:0:0:
320,192,26055,1,8,0:0:0:0:
192,192,26237,1,0,0:0:0:0:
320,192,26328,1,0,0:0:0:0:
192,192,26419,1,8,0:0:0:0:
64,192,26419,1,0,0:0:0:0:
448,192,26419,1,8,0:0:0:0:
64,192,26601,1,0,0:0:0:0:
192,192,26691,1,0,0:0:0:0:
448,192,26782,1,0,0:0:0:0:
320,192,26782,1,0,0:0:0:0:
64,192,26873,1,0,0:0:0:0:
448,192,26964,1,0,0:0:0:0:
64,192,27055,1,0,0:0:0:0:
192,192,27055,1,0,0:0:0:0:
448,192,27146,1,0,0:0:0:0:
320,192,27146,1,0,0:0:0:0:
64,192,27237,1,0,0:0:0:0:
192,192,27328,1,0,0:0:0:0:
448,192,27419,1,0,0:0:0:0:
320,192,27510,1,0,0:0:0:0:
64,192,27510,1,0,0:0:0:0:
192,192,27601,1,0,0:0:0:0:
448,192,27691,1,0,0:0:0:0:
320,192,27782,1,0,0:0:0:0:
192,192,27873,1,0,0:0:0:0:
64,192,27873,1,0,0:0:0:0:
448,192,27964,1,0,0:0:0:0:
64,192,28055,1,0,0:0:0:0:
192,192,28146,1,0,0:0:0:0:
320,192,28237,1,0,0:0:0:0:
448,192,28237,1,0,0:0:0:0:
192,192,28419,1,0,0:0:0:0:
64,192,28601,1,0,0:0:0:0:
192,192,28601,1,8,0:0:0:0:
320,192,28601,1,0,0:0:0:0:
320,192,28782,1,0,0:0:0:0:
192,192,28964,1,0,0:0:0:0:
448,192,28964,1,0,0:0:0:0:
320,192,28964,1,8,0:0:0:0:
192,192,29146,1,0,0:0:0:0:
64,192,29328,1,0,0:0:0:0:
192,192,29328,1,8,0:0:0:0:
320,192,29328,1,0,0:0:0:0:
320,192,29510,1,0,0:0:0:0:
448,192,29691,1,0,0:0:0:0:
192,192,29691,1,0,0:0:0:0:
64,192,29691,128,0,30601:0:0:0:0:
320,192,29782,1,0,0:0:0:0:
448,192,29873,1,0,0:0:0:0:
320,192,29964,1,0,0:0:0:0:
192,192,30055,1,0,0:0:0:0:
448,192,30055,1,0,0:0:0:0:
320,192,30146,1,0,0:0:0:0:
448,192,30237,1,0,0:0:0:0:
192,192,30328,1,0,0:0:0:0:
320,192,30419,1,0,0:0:0:0:
448,192,30419,1,0,0:0:0:0:
192,192,30510,1,0,0:0:0:0:
320,192,30601,1,0,0:0:0:0:
448,192,30601,128,0,31510:0:0:0:0:
192,192,30691,1,0,0:0:0:0:
320,192,30782,1,0,0:0:0:0:
192,192,30873,1,0,0:0:0:0:
320,192,30964,1,0,0:0:0:0:
192,192,31055,1,0,0:0:0:0:
320,192,31146,1,0,0:0:0:0:
64,192,31146,1,0,0:0:0:0:
192,192,31237,1,0,0:0:0:0:
64,192,31328,1,0,0:0:0:0:
192,192,31419,1,0,0:0:0:0:
320,192,31510,128,0,32601:0:0:0:0:
64,192,31510,1,0,0:0:0:0:
192,192,31601,1,0,0:0:0:0:
448,192,31691,1,0,0:0:0:0:
64,192,31873,1,0,0:0:0:0:
192,192,31873,1,0,0:0:0:0:
448,192,32055,1,0,0:0:0:0:
64,192,32237,1,8,0:0:0:0:
192,192,32237,1,0,0:0:0:0:
448,192,32419,1,0,0:0:0:0:
192,192,32601,1,0,0:0:0:0:
448,192,32601,1,0,0:0:0:0:
64,192,32691,1,0,0:0:0:0:
448,192,32782,128,0,33510:0:0:0:0:
192,192,32782,1,0,0:0:0:0:
64,192,32873,1,0,0:0:0:0:
192,192,32964,1,0,0:0:0:0:
320,192,32964,1,0,0:0:0:0:
64,192,33055,1,0,0:0:0:0:
320,192,33146,1,0,0:0:0:0:
192,192,33237,1,0,0:0:0:0:
64,192,33328,1,0,0:0:0:0:
320,192,33328,1,0,0:0:0:0:
192,192,33419,1,0,0:0:0:0:
64,192,33510,128,0,34055:0:0:0:0:
320,192,33510,1,0,0:0:0:0:
192,192,33601,1,0,0:0:0:0:
448,192,33691,1,0,0:0:0:0:
320,192,33782,1,0,0:0:0:0:
192,192,33873,1,0,0:0:0:0:
320,192,33964,1,0,0:0:0:0:
448,192,34055,1,0,0:0:0:0:
192,192,34146,1,0,0:0:0:0:
448,192,34237,1,0,0:0:0:0:
320,192,34328,1,0,0:0:0:0:
64,192,34419,1,0,0:0:0:0:
448,192,34419,1,0,0:0:0:0:
192,192,34510,1,0,0:0:0:0:
448,192,34601,1,0,0:0:0:0:
64,192,34691,1,0,0:0:0:0:
192,192,34782,1,0,0:0:0:0:
448,192,34782,1,0,0:0:0:0:
320,192,34873,1,0,0:0:0:0:
64,192,34919,1,0,0:0:0:0:
192,192,34964,1,0,0:0:0:0:
320,192,35010,1,0,0:0:0:0:
448,192,35055,1,0,0:0:0:0:
64,192,35146,1,0,0:0:0:0:
192,192,35146,1,8,0:0:0:0:
320,192,35146,1,0,0:0:0:0:
448,192,35237,1,0,0:0:0:0:
192,192,35328,1,0,0:0:0:0:
320,192,35419,1,0,0:0:0:0:
192,192,35510,1,0,0:0:0:0:
448,192,35510,1,0,0:0:0:0:
64,192,35510,1,0,0:0:0:0:
320,192,35691,1,0,0:0:0:0:
64,192,35782,1,0,0:0:0:0:
192,192,35873,1,0,0:0:0:0:
448,192,35873,1,0,0:0:0:0:
320,192,35964,1,0,0:0:0:0:
64,192,36055,1,0,0:0:0:0:
448,192,36055,1,0,0:0:0:0:
320,192,36146,1,0,0:0:0:0:
192,192,36237,1,0,0:0:0:0:
64,192,36237,1,0,0:0:0:0:
320,192,36328,1,0,0:0:0:0:
448,192,36419,1,0,0:0:0:0:
192,192,36419,1,0,0:0:0:0:
64,192,36510,1,0,0:0:0:0:
192,192,36601,1,0,0:0:0:0:
320,192,36601,1,0,0:0:0:0:
64,192,36691,1,0,0:0:0:0:
448,192,36782,1,0,0:0:0:0:
192,192,36873,1,0,0:0:0:0:
64,192,36964,1,0,0:0:0:0:
320,192,36964,1,0,0:0:0:0:
448,192,37055,1,0,0:0:0:0:
192,192,37146,1,0,0:0:0:0:
64,192,37237,1,0,0:0:0:0:
320,192,37328,1,0,0:0:0:0:
448,192,37328,1,0,0:0:0:0:
320,192,37510,1,0,0:0:0:0:
64,192,37691,1,0,0:0:0:0:
448,192,37691,1,0,0:0:0:0:
192,192,37691,1,8,0:0:0:0:
320,192,37873,1,0,0:0:0:0:
448,192,38055,1,0,0:0:0:0:
320,192,38055,1,8,0:0:0:0:
64,192,38055,1,0,0:0:0:0:
192,192,38237,1,0,0:0:0:0:
64,192,38419,1,0,0:0:0:0:
320,192,38419,1,0,0:0:0:0:
192,192,38510,1,0,0:0:0:0:
448,192,38601,1,0,0:0:0:0:
64,192,38691,1,0,0:0:0:0:
192,192,38782,1,0,0:0:0:0:
448,192,38782,1,0,0:0:0:0:
320,192,38873,1,0,0:0:0:0:
64,192,38964,1,0,0:0:0:0:
448,192,38964,1,0,0:0:0:0:
320,192,39055,1,0,0:0:0:0:
64,192,39146,1,0,0:0:0:0:
448,192,39146,1,0,0:0:0:0:
192,192,39237,1,0,0:0:0:0:
320,192,39328,1,0,0:0:0:0:
64,192,39328,1,0,0:0:0:0:
448,192,39419,1,0,0:0:0:0:
64,192,39510,1,0,0:0:0:0:
320,192,39510,1,0,0:0:0:0:
192,192,39601,1,0,0:0:0:0:
320,192,39691,1,0,0:0:0:0:
64,192,39691,1,0,0:0:0:0:
448,192,39873,128,0,40601:0:0:0:0:
192,192,39873,1,0,0:0:0:0:
320,192,39964,1,0,0:0:0:0:
192,192,40055,1,0,0:0:0:0:
320,192,40146,1,0,0:0:0:0:
64,192,40237,1,0,0:0:0:0:
192,192,40282,1,0,0:0:0:0:
320,192,40328,1,0,0:0:0:0:
64,192,40373,1,0,0:0:0:0:
192,192,40419,1,0,0:0:0:0:
64,192,40601,128,0,41146:0:0:0:0:
320,192,40601,1,0,0:0:0:0:
192,192,40691,1,0,0:0:0:0:
320,192,40782,1,0,0:0:0:0:
192,192,40873,1,0,0:0:0:0:
448,192,40964,1,0,0:0:0:0:
320,192,41010,1,0,0:0:0:0:
192,192,41055,1,0,0:0:0:0:
448,192,41101,1,0,0:0:0:0:
320,192,41146,1,0,0:0:0:0:
64,192,41328,1,0,0:0:0:0:
320,192,41328,1,8,0:0:0:0:
448,192,41328,1,0,0:0:0:0:
192,192,41510,1,0,0:0:0:0:
320,192,41691,1,8,0:0:0:0:
448,192,41691,1,0,0:0:0:0:
64,192,41691,1,0,0:0:0:0:
192,192,41873,1,0,0:0:0:0:
64,192,42055,1,0,0:0:0:0:
320,192,42055,1,8,0:0:0:0:
448,192,42055,1,0,0:0:0:0:
448,192,42237,1,0,0:0:0:0:
64,192,42419,1,0,0:0:0:0:
192,192,42419,1,8,0:0:0:0:
320,192,42419,1,0,0:0:0:0:
192,192,42601,1,0,0:0:0:0:
192,192,42782,1,0,0:0:0:0:
320,192,42782,1,8,0:0:0:0:
448,192,42782,1,0,0:0:0:0:
320,192,42964,1,0,0:0:0:0:
64,192,43146,1,0,0:0:0:0:
192,192,43146,1,8,0:0:0:0:
448,192,43146,1,0,0:0:0:0:
192,192,43328,1,0,0:0:0:0:
64,192,43510,1,0,0:0:0:0:
320,192,43510,1,8,0:0:0:0:
448,192,43510,1,0,0:0:0:0:
320,192,43691,1,0,0:0:0:0:
64,192,43873,1,0,0:0:0:0:
192,192,43873,1,8,0:0:0:0:
448,192,43873,1,0,0:0:0:0:
192,192,44055,1,0,0:0:0:0:
64,192,44237,1,0,0:0:0:0:
320,192,44237,1,8,0:0:0:0:
448,192,44237,1,0,0:0:0:0:
192,192,44419,1,0,0:0:0:0:
448,192,44601,1,0,0:0:0:0:
64,192,44601,1,0,0:0:0:0:
320,192,44601,1,8,0:0:0:0:
448,192,44782,1,0,0:0:0:0:
320,192,44964,1,0,0:0:0:0:
64,192,44964,1,0,0:0:0:0:
192,192,44964,1,8,0:0:0:0:
192,192,45146,1,0,0:0:0:0:
64,192,45328,1,0,0:0:0:0:
448,192,45328,1,0,0:0:0:0:
320,192,45328,1,8,0:0:0:0:
320,192,45510,1,0,0:0:0:0:
64,192,45691,1,0,0:0:0:0:
192,192,45691,1,8,0:0:0:0:
448,192,45691,1,0,0:0:0:0:
192,192,45873,1,0,0:0:0:0:
64,192,46055,1,0,0:0:0:0:
448,192,46055,1,0,0:0:0:0:
320,192,46055,1,8,0:0:0:0:
192,192,46237,1,0,0:0:0:0:
64,192,46419,1,0,0:0:0:0:
320,192,46419,1,8,0:0:0:0:
448,192,46419,1,0,0:0:0:0:
192,192,46601,1,0,0:0:0:0:
448,192,46782,1,0,0:0:0:0:
64,192,46782,1,0,0:0:0:0:
320,192,46782,1,8,0:0:0:0:
192,192,46964,1,0,0:0:0:0:
320,192,47146,1,0,0:0:0:0:
448,192,47146,1,0,0:0:0:0:
64,192,47146,1,0,0:0:0:0:
192,192,47237,1,0,0:0:0:0:
320,192,47328,1,0,0:0:0:0:
64,192,47328,1,0,0:0:0:0:
192,192,47419,1,0,0:0:0:0:
448,192,47510,1,0,0:0:0:0:
64,192,47510,1,0,0:0:0:0:
192,192,47601,1,0,0:0:0:0:
320,192,47691,1,0,0:0:0:0:
192,192,47782,1,0,0:0:0:0:
448,192,47873,1,0,0:0:0:0:
64,192,47873,1,0,0:0:0:0:
192,192,47964,1,0,0:0:0:0:
64,192,48055,1,0,0:0:0:0:
320,192,48055,1,8,0:0:0:0:
448,192,48055,1,0,0:0:0:0:
64,192,48237,1,0,0:0:0:0:
320,192,48237,1,0,0:0:0:0:
192,192,48237,1,8,0:0:0:0:
192,192,48601,1,0,0:0:0:0:
448,192,48601,1,0,0:0:0:0:
320,192,48691,1,0,0:0:0:0:
192,192,48782,1,0,0:0:0:0:
64,192,48873,1,0,0:0:0:0:
320,192,48964,1,0,0:0:0:0:
448,192,48964,1,0,0:0:0:0:
192,192,49055,1,0,0:0:0:0:
448,192,49146,1,0,0:0:0:0:
320,192,49237,1,0,0:0:0:0:
64,192,49328,1,0,0:0:0:0:
448,192,49328,1,0,0:0:0:0:
192,192,49419,1,0,0:0:0:0:
64,192,49510,1,0,0:0:0:0:
320,192,49510,1,8,0:0:0:0:
448,192,49510,1,0,0:0:0:0:
64,192,49691,1,0,0:0:0:0:
192,192,49691,1,8,0:0:0:0:
320,192,49691,1,0,0:0:0:0:
64,192,50055,1,0,0:0:0:0:
320,192,50055,1,0,0:0:0:0:
192,192,50055,128,0,50782:0:0:0:0:
448,192,50146,1,0,0:0:0:0:
64,192,50237,1,0,0:0:0:0:
320,192,50328,1,0,0:0:0:0:
64,192,50419,1,0,0:0:0:0:
448,192,50419,1,0,0:0:0:0:
320,192,50510,1,0,0:0:0:0:
448,192,50601,1,0,0:0:0:0:
320,192,50691,1,0,0:0:0:0:
64,192,50782,1,0,0:0:0:0:
448,192,50782,1,0,0:0:0:0:
320,192,50873,1,0,0:0:0:0:
448,192,50964,1,0,0:0:0:0:
64,192,50964,1,0,0:0:0:0:
192,192,51055,1,0,0:0:0:0:
64,192,51146,1,0,0:0:0:0:
320,192,51146,1,0,0:0:0:0:
448,192,51237,1,0,0:0:0:0:
320,192,51328,1,0,0:0:0:0:
64,192,51328,1,0,0:0:0:0:
192,192,51419,1,0,0:0:0:0:
64,192,51510,1,0,0:0:0:0:
448,192,51510,1,0,0:0:0:0:
320,192,51510,1,0,0:0:0:0:
192,192,51601,1,0,0:0:0:0:
320,192,51691,1,0,0:0:0:0:
64,192,51782,1,0,0:0:0:0:
192,192,51873,1,0,0:0:0:0:
448,192,51873,1,0,0:0:0:0:
64,192,51964,1,0,0:0:0:0:
320,192,52055,1,0,0:0:0:0:
448,192,52146,1,0,0:0:0:0:
64,192,52237,1,0,0:0:0:0:
192,192,52237,1,0,0:0:0:0:
320,192,52328,1,0,0:0:0:0:
448,192,52419,1,0,0:0:0:0:
192,192,52510,1,0,0:0:0:0:
320,192,52601,1,0,0:0:0:0:
64,192,52601,1,0,0:0:0:0:
192,192,52691,1,0,0:0:0:0:
448,192,52782,1,0,0:0:0:0:
320,192,52873,1,0,0:0:0:0:
64,192,52964,1,0,0:0:0:0:
192,192,52964,1,0,0:0:0:0:
448,192,53055,1,0,0:0:0:0:
320,192,53146,1,0,0:0:0:0:
64,192,53146,1,0,0:0:0:0:
192,192,53237,1,0,0:0:0:0:
64,192,53328,1,0,0:0:0:0:
320,192,53328,1,0,0:0:0:0:
448,192,53419,1,0,0:0:0:0:
320,192,53510,1,0,0:0:0:0:
64,192,53510,1,0,0:0:0:0:
192,192,53601,1,0,0:0:0:0:
448,192,53691,1,0,0:0:0:0:
64,192,53691,1,0,0:0:0:0:
320,192,53782,1,0,0:0:0:0:
192,192,53873,1,0,0:0:0:0:
320,192,53964,1,0,0:0:0:0:
64,192,54055,1,0,0:0:0:0:
448,192,54055,1,0,0:0:0:0:
192,192,54146,1,0,0:0:0:0:
320,192,54237,1,0,0:0:0:0:
192,192,54328,1,0,0:0:0:0:
320,192,54419,1,0,0:0:0:0:
448,192,54419,1,0,0:0:0:0:
64,192,54510,1,0,0:0:0:0:
320,192,54601,1,0,0:0:0:0:
64,192,54691,1,0,0:0:0:0:
192,192,54782,1,0,0:0:0:0:
448,192,54782,1,0,0:0:0:0:
64,192,54873,1,0,0:0:0:0:
192,192,54964,1,0,0:0:0:0:
448,192,54964,1,0,0:0:0:0:
320,192,55055,1,0,0:0:0:0:
64,192,55146,1,0,0:0:0:0:
448,192,55146,1,0,0:0:0:0:
192,192,55237,1,0,0:0:0:0:
64,192,55328,1,0,0:0:0:0:
192,192,55419,1,0,0:0:0:0:
448,192,55510,1,0,0:0:0:0:
320,192,55510,1,0,0:0:0:0:
64,192,55601,1,0,0:0:0:0:
192,192,55691,1,0,0:0:0:0:
320,192,55782,1,0,0:0:0:0:
448,192,55873,128,0,57328:0:0:0:0:
192,192,55873,1,0,0:0:0:0:
64,192,55873,1,0,0:0:0:0:
64,192,56055,1,0,0:0:0:0:
320,192,56055,1,0,0:0:0:0:
192,192,56237,1,0,0:0:0:0:
64,192,56237,1,0,0:0:0:0:
320,192,56419,1,0,0:0:0:0:
64,192,56419,1,0,0:0:0:0:
192,192,56601,1,0,0:0:0:0:
320,192,56601,1,0,0:0:0:0:
64,192,56782,1,0,0:0:0:0:
320,192,56782,1,0,0:0:0:0:
192,192,56964,1,0,0:0:0:0:
64,192,56964,1,0,0:0:0:0:
320,192,57146,1,0,0:0:0:0:
64,192,57146,1,0,0:0:0:0:
192,192,57328,1,8,0:0:0:0:
320,192,57328,1,0,0:0:0:0:
64,192,57328,1,0,0:0:0:0:
64,192,58782,1,0,0:0:0:0:
192,192,58782,1,0,0:0:0:0:
448,192,58782,1,0,0:0:0:0:
320,192,58873,1,0,0:0:0:0:
192,192,58964,1,0,0:0:0:0:
448,192,59055,1,0,0:0:0:0:
320,192,59146,1,0,0:0:0:0:
192,192,59146,1,0,0:0:0:0:
64,192,59237,1,0,0:0:0:0:
320,192,59328,1,8,0:0:0:0:
448,192,59328,1,0,0:0:0:0:
192,192,59328,1,0,0:0:0:0:
64,192,59419,1,0,0:0:0:0:
192,192,59510,1,0,0:0:0:0:
448,192,59510,1,0,0:0:0:0:
320,192,59601,1,0,0:0:0:0:
64,192,59691,1,0,0:0:0:0:
448,192,59782,1,0,0:0:0:0:
192,192,59873,1,8,0:0:0:0:
64,192,59873,1,0,0:0:0:0:
320,192,59873,1,0,0:0:0:0:
448,192,59964,1,0,0:0:0:0:
192,192,60055,1,0,0:0:0:0:
64,192,60146,1,0,0:0:0:0:
192,192,60237,1,0,0:0:0:0:
448,192,60237,1,0,0:0:0:0:
64,192,60328,1,0,0:0:0:0:
320,192,60419,1,0,0:0:0:0:
448,192,60510,1,0,0:0:0:0:
192,192,60601,1,0,0:0:0:0:
64,192,60601,1,0,0:0:0:0:
320,192,60691,1,0,0:0:0:0:
64,192,60782,1,0,0:0:0:0:
192,192,60873,1,0,0:0:0:0:
320,192,60964,1,0,0:0:0:0:
64,192,60964,1,0,0:0:0:0:
448,192,60964,128,0,61328:0:0:0:0:
192,192,61055,1,0,0:0:0:0:
320,192,61146,1,0,0:0:0:0:
192,192,61237,1,0,0:0:0:0:
64,192,61328,1,0,0:0:0:0:
320,192,61328,1,0,0:0:0:0:
192,192,61419,1,0,0:0:0:0:
320,192,61510,1,0,0:0:0:0:
192,192,61601,1,0,0:0:0:0:
448,192,61691,1,0,0:0:0:0:
320,192,61691,1,0,0:0:0:0:
448,192,61873,1,0,0:0:0:0:
64,192,61873,1,0,0:0:0:0:
320,192,62055,1,0,0:0:0:0:
192,192,62055,1,0,0:0:0:0:
64,192,62237,1,0,0:0:0:0:
448,192,62237,1,0,0:0:0:0:
320,192,62419,1,0,0:0:0:0:
192,192,62419,1,0,0:0:0:0:
448,192,62601,1,0,0:0:0:0:
64,192,62601,1,0,0:0:0:0:
192,192,62782,1,0,0:0:0:0:
320,192,62782,1,0,0:0:0:0:
448,192,62873,1,0,0:0:0:0:
192,192,63055,1,0,0:0:0:0:
64,192,63146,1,0,0:0:0:0:
448,192,63146,1,0,0:0:0:0:
320,192,63237,1,0,0:0:0:0:
448,192,63419,1,0,0:0:0:0:
192,192,63510,1,0,0:0:0:0:
320,192,63510,1,0,0:0:0:0:
64,192,63601,1,0,0:0:0:0:
192,192,63691,1,0,0:0:0:0:
320,192,63782,1,0,0:0:0:0:
64,192,63873,1,0,0:0:0:0:
448,192,63873,128,0,64237:0:0:0:0:
192,192,63964,1,0,0:0:0:0:
320,192,64055,1,0,0:0:0:0:
192,192,64146,1,0,0:0:0:0:
320,192,64237,1,0,0:0:0:0:
320,192,64419,1,0,0:0:0:0:
192,192,64510,1,0,0:0:0:0:
320,192,64601,1,0,0:0:0:0:
448,192,64601,1,0,0:0:0:0:
64,192,64601,128,0,66055:0:0:0:0:
192,192,64691,1,0,0:0:0:0:
320,192,64782,1,0,0:0:0:0:
448,192,64873,1,0,0:0:0:0:
192,192,64873,1,0,0:0:0:0:
320,192,64964,1,0,0:0:0:0:
448,192,65055,1,0,0:0:0:0:
320,192,65146,1,0,0:0:0:0:
448,192,65237,1,0,0:0:0:0:
320,192,65328,1,0,0:0:0:0:
192,192,65328,1,0,0:0:0:0:
320,192,65510,1,8,0:0:0:0:
192,192,65510,1,0,0:0:0:0:
448,192,65510,1,0,0:0:0:0:
192,192,65691,1,0,0:0:0:0:
448,192,65691,1,0,0:0:0:0:
320,192,65691,1,8,0:0:0:0:
192,192,65873,1,0,0:0:0:0:
320,192,65964,1,0,0:0:0:0:
192,192,66055,1,0,0:0:0:0:
448,192,66055,128,0,67510:0:0:0:0:
320,192,66237,1,0,0:0:0:0:
192,192,66419,1,0,0:0:0:0:
64,192,66601,1,0,0:0:0:0:
192,192,66782,1,0,0:0:0:0:
64,192,66964,1,0,0:0:0:0:
192,192,66964,1,8,0:0:0:0:
320,192,66964,1,0,0:0:0:0:
192,192,67146,1,8,0:0:0:0:
320,192,67146,1,0,0:0:0:0:
64,192,67146,1,0,0:0:0:0:
64,192,67328,1,0,0:0:0:0:
320,192,67510,1,0,0:0:0:0:
192,192,67510,1,0,0:0:0:0:
64,192,67601,1,0,0:0:0:0:
192,192,67691,1,0,0:0:0:0:
64,192,67782,1,0,0:0:0:0:
320,192,67873,1,0,0:0:0:0:
192,192,67873,1,0,0:0:0:0:
448,192,67964,1,0,0:0:0:0:
192,192,68055,1,0,0:0:0:0:
64,192,68146,1,0,0:0:0:0:
320,192,68237,1,0,0:0:0:0:
448,192,68237,1,0,0:0:0:0:
192,192,68328,1,0,0:0:0:0:
320,192,68419,1,0,0:0:0:0:
448,192,68510,1,0,0:0:0:0:
192,192,68601,1,0,0:0:0:0:
64,192,68601,1,0,0:0:0:0:
320,192,68691,1,0,0:0:0:0:
448,192,68782,1,0,0:0:0:0:
320,192,68873,1,0,0:0:0:0:
192,192,68964,1,0,0:0:0:0:
448,192,68964,1,0,0:0:0:0:
64,192,68964,128,0,69328:0:0:0:0:
320,192,69055,1,0,0:0:0:0:
192,192,69146,1,0,0:0:0:0:
320,192,69237,1,0,0:0:0:0:
192,192,69328,1,0,0:0:0:0:
448,192,69328,1,8,0:0:0:0:
320,192,69419,1,0,0:0:0:0:
448,192,69510,1,0,0:0:0:0:
320,192,69601,1,0,0:0:0:0:
448,192,69691,1,0,0:0:0:0:
192,192,69691,1,0,0:0:0:0:
64,192,69691,128,0,70055:0:0:0:0:
320,192,69782,1,0,0:0:0:0:
192,192,69873,1,0,0:0:0:0:
320,192,69964,1,0,0:0:0:0:
448,192,70055,1,8,0:0:0:0:
192,192,70055,1,0,0:0:0:0:
320,192,70237,1,0,0:0:0:0:
192,192,70328,1,0,0:0:0:0:
448,192,70419,1,0,0:0:0:0:
320,192,70419,1,0,0:0:0:0:
64,192,70510,1,0,0:0:0:0:
320,192,70601,1,0,0:0:0:0:
192,192,70691,1,0,0:0:0:0:
320,192,70782,1,0,0:0:0:0:
64,192,70782,1,0,0:0:0:0:
448,192,70873,1,0,0:0:0:0:
64,192,70964,1,0,0:0:0:0:
192,192,70964,1,8,0:0:0:0:
320,192,70964,1,0,0:0:0:0:
448,192,71055,1,0,0:0:0:0:
320,192,71146,1,0,0:0:0:0:
192,192,71146,1,0,0:0:0:0:
64,192,71237,1,0,0:0:0:0:
192,192,71328,1,0,0:0:0:0:
448,192,71419,1,0,0:0:0:0:
64,192,71510,1,0,0:0:0:0:
192,192,71510,1,8,0:0:0:0:
320,192,71510,1,0,0:0:0:0:
448,192,71601,1,0,0:0:0:0:
192,192,71691,1,0,0:0:0:0:
448,192,71782,1,0,0:0:0:0:
320,192,71873,1,0,0:0:0:0:
64,192,71873,1,0,0:0:0:0:
192,192,71964,1,0,0:0:0:0:
320,192,72055,1,0,0:0:0:0:
64,192,72146,1,0,0:0:0:0:
192,192,72237,1,0,0:0:0:0:
448,192,72237,128,0,72964:0:0:0:0:
64,192,72328,1,0,0:0:0:0:
192,192,72419,1,0,0:0:0:0:
320,192,72510,1,0,0:0:0:0:
64,192,72601,1,0,0:0:0:0:
192,192,72601,1,0,0:0:0:0:
320,192,72691,1,0,0:0:0:0:
192,192,72782,1,0,0:0:0:0:
320,192,72873,1,0,0:0:0:0:
192,192,72964,1,0,0:0:0:0:
64,192,72964,1,0,0:0:0:0:
320,192,73055,1,0,0:0:0:0:
192,192,73146,1,0,0:0:0:0:
448,192,73237,1,0,0:0:0:0:
320,192,73328,1,0,0:0:0:0:
64,192,73328,1,0,0:0:0:0:
448,192,73510,1,0,0:0:0:0:
64,192,73510,1,0,0:0:0:0:
320,192,73691,1,0,0:0:0:0:
192,192,73691,1,0,0:0:0:0:
64,192,73873,1,0,0:0:0:0:
448,192,73873,1,0,0:0:0:0:
320,192,74055,1,0,0:0:0:0:
192,192,74055,1,0,0:0:0:0:
448,192,74237,1,0,0:0:0:0:
64,192,74237,1,0,0:0:0:0:
192,192,74419,1,0,0:0:0:0:
320,192,74419,1,0,0:0:0:0:
448,192,74510,1,0,0:0:0:0:
192,192,74601,1,0,0:0:0:0:
448,192,74691,1,0,0:0:0:0:
192,192,74782,1,0,0:0:0:0:
320,192,74873,1,0,0:0:0:0:
64,192,74964,1,0,0:0:0:0:
192,192,75055,1,0,0:0:0:0:
320,192,75055,1,0,0:0:0:0:
448,192,75146,1,0,0:0:0:0:
64,192,75146,1,0,0:0:0:0:
320,192,75237,1,0,0:0:0:0:
192,192,75328,1,0,0:0:0:0:
448,192,75419,1,0,0:0:0:0:
320,192,75510,1,0,0:0:0:0:
64,192,75510,128,0,75873:0:0:0:0:
192,192,75601,1,0,0:0:0:0:
320,192,75691,1,0,0:0:0:0:
448,192,75782,1,0,0:0:0:0:
192,192,75873,1,0,0:0:0:0:
320,192,75873,1,0,0:0:0:0:
448,192,75964,1,0,0:0:0:0:
320,192,76055,1,0,0:0:0:0:
192,192,76146,1,0,0:0:0:0:
320,192,76237,1,0,0:0:0:0:
64,192,76237,128,0,76964:0:0:0:0:
448,192,76328,1,0,0:0:0:0:
320,192,76419,1,0,0:0:0:0:
448,192,76510,1,0,0:0:0:0:
320,192,76601,1,0,0:0:0:0:
192,192,76691,1,0,0:0:0:0:
320,192,76782,1,0,0:0:0:0:
448,192,76873,1,0,0:0:0:0:
192,192,76964,1,0,0:0:0:0:
320,192,76964,1,0,0:0:0:0:
448,192,77055,1,0,0:0:0:0:
192,192,77146,1,8,0:0:0:0:
64,192,77146,1,0,0:0:0:0:
320,192,77146,1,0,0:0:0:0:
448,192,77237,1,0,0:0:0:0:
64,192,77328,1,0,0:0:0:0:
320,192,77328,1,0,0:0:0:0:
192,192,77328,1,8,0:0:0:0:
448,192,77419,1,0,0:0:0:0:
64,192,77510,1,0,0:0:0:0:
192,192,77601,1,0,0:0:0:0:
320,192,77691,1,0,0:0:0:0:
448,192,77691,1,0,0:0:0:0:
64,192,77873,1,0,0:0:0:0:
320,192,78055,1,0,0:0:0:0:
192,192,78055,1,0,0:0:0:0:
192,192,78237,1,0,0:0:0:0:
64,192,78419,1,0,0:0:0:0:
320,192,78419,1,0,0:0:0:0:
192,192,78601,1,0,0:0:0:0:
320,192,78601,1,8,0:0:0:0:
448,192,78601,1,0,0:0:0:0:
192,192,78782,1,0,0:0:0:0:
448,192,78782,1,0,0:0:0:0:
320,192,78782,1,8,0:0:0:0:
64,192,78964,1,0,0:0:0:0:
320,192,79146,1,0,0:0:0:0:
448,192,79146,1,0,0:0:0:0:
192,192,79237,1,0,0:0:0:0:
320,192,79328,1,0,0:0:0:0:
64,192,79419,1,0,0:0:0:0:
192,192,79510,1,0,0:0:0:0:
320,192,79510,1,0,0:0:0:0:
64,192,79601,1,0,0:0:0:0:
448,192,79691,1,0,0:0:0:0:
320,192,79782,1,0,0:0:0:0:
64,192,79873,1,0,0:0:0:0:
448,192,79873,1,0,0:0:0:0:
192,192,79964,1,0,0:0:0:0:
448,192,80055,1,0,0:0:0:0:
320,192,80146,1,0,0:0:0:0:
192,192,80237,1,0,0:0:0:0:
64,192,80237,1,0,0:0:0:0:
448,192,80328,1,0,0:0:0:0:
64,192,80419,1,0,0:0:0:0:
192,192,80510,1,0,0:0:0:0:
64,192,80601,1,0,0:0:0:0:
320,192,80601,1,8,0:0:0:0:
448,192,80601,1,0,0:0:0:0:
192,192,80691,1,0,0:0:0:0:
448,192,80782,1,0,0:0:0:0:
320,192,80873,1,0,0:0:0:0:
192,192,80964,1,8,0:0:0:0:
448,192,80964,1,0,0:0:0:0:
64,192,80964,1,0,0:0:0:0:
320,192,81055,1,0,0:0:0:0:
448,192,81146,1,0,0:0:0:0:
192,192,81237,1,0,0:0:0:0:
448,192,81328,1,0,0:0:0:0:
320,192,81328,1,8,0:0:0:0:
64,192,81328,1,0,0:0:0:0:
192,192,81419,1,0,0:0:0:0:
448,192,81510,1,0,0:0:0:0:
320,192,81601,1,0,0:0:0:0:
64,192,81691,1,0,0:0:0:0:
192,192,81691,1,8,0:0:0:0:
448,192,81691,1,0,0:0:0:0:
320,192,81782,1,0,0:0:0:0:
192,192,81873,1,0,0:0:0:0:
64,192,81964,1,0,0:0:0:0:
320,192,82055,1,0,0:0:0:0:
448,192,82055,1,0,0:0:0:0:
192,192,82146,1,0,0:0:0:0:
320,192,82237,1,0,0:0:0:0:
448,192,82328,1,0,0:0:0:0:
64,192,82419,1,0,0:0:0:0:
192,192,82419,1,0,0:0:0:0:
320,192,82510,1,0,0:0:0:0:
192,192,82601,1,0,0:0:0:0:
64,192,82691,1,0,0:0:0:0:
192,192,82782,1,0,0:0:0:0:
448,192,82782,1,0,0:0:0:0:
320,192,82873,1,0,0:0:0:0:
192,192,82964,1,0,0:0:0:0:
64,192,83055,1,0,0:0:0:0:
320,192,83146,1,0,0:0:0:0:
192,192,83146,1,0,0:0:0:0:
448,192,83237,1,0,0:0:0:0:
320,192,83328,1,0,0:0:0:0:
192,192,83419,1,0,0:0:0:0:
64,192,83510,1,0,0:0:0:0:
448,192,83510,1,0,0:0:0:0:
192,192,83601,1,0,0:0:0:0:
320,192,83691,1,0,0:0:0:0:
192,192,83782,1,0,0:0:0:0:
64,192,83873,1,0,0:0:0:0:
448,192,83873,1,0,0:0:0:0:
320,192,83964,1,0,0:0:0:0:
192,192,84055,1,0,0:0:0:0:
320,192,84146,1,0,0:0:0:0:
448,192,84237,1,0,0:0:0:0:
64,192,84237,1,0,0:0:0:0:
192,192,84328,1,0,0:0:0:0:
64,192,84419,1,0,0:0:0:0:
192,192,84510,1,0,0:0:0:0:
320,192,84601,1,0,0:0:0:0:
448,192,84601,1,0,0:0:0:0:
192,192,84691,1,0,0:0:0:0:
64,192,84782,1,0,0:0:0:0:
320,192,84873,1,0,0:0:0:0:
448,192,84964,1,0,0:0:0:0:
192,192,84964,1,0,0:0:0:0:
320,192,85055,1,0,0:0:0:0:
192,192,85146,1,0,0:0:0:0:
320,192,85237,1,0,0:0:0:0:
448,192,85328,1,0,0:0:0:0:
64,192,85328,1,0,0:0:0:0:
192,192,85419,1,0,0:0:0:0:
64,192,85510,1,0,0:0:0:0:
192,192,85601,1,0,0:0:0:0:
320,192,85691,1,0,0:0:0:0:
448,192,85691,1,0,0:0:0:0:
64,192,85782,1,0,0:0:0:0:
192,192,85873,1,0,0:0:0:0:
64,192,85964,1,0,0:0:0:0:
192,192,86055,1,0,0:0:0:0:
320,192,86055,1,0,0:0:0:0:
448,192,86146,1,0,0:0:0:0:
192,192,86237,1,0,0:0:0:0:
64,192,86328,1,0,0:0:0:0:
320,192,86419,1,0,0:0:0:0:
192,192,86419,1,0,0:0:0:0:
448,192,86510,1,0,0:0:0:0:
320,192,86601,1,0,0:0:0:0:
192,192,86691,1,0,0:0:0:0:
64,192,86782,1,0,0:0:0:0:
320,192,86782,1,0,0:0:0:0:
192,192,86873,1,0,0:0:0:0:
320,192,86964,1,0,0:0:0:0:
448,192,87055,1,0,0:0:0:0:
64,192,87146,1,0,0:0:0:0:
320,192,87146,1,0,0:0:0:0:
448,192,87237,1,0,0:0:0:0:
320,192,87328,1,0,0:0:0:0:
192,192,87419,1,0,0:0:0:0:
448,192,87510,1,0,0:0:0:0:
320,192,87510,1,0,0:0:0:0:
64,192,87601,1,0,0:0:0:0:
320,192,87691,1,0,0:0:0:0:
192,192,87782,1,0,0:0:0:0:
448,192,87873,1,0,0:0:0:0:
320,192,87873,1,0,0:0:0:0:
64,192,87964,1,0,0:0:0:0:
192,192,88055,1,0,0:0:0:0:
320,192,88146,1,0,0:0:0:0:
64,192,88237,1,0,0:0:0:0:
448,192,88237,1,0,0:0:0:0:
320,192,88328,1,0,0:0:0:0:
192,192,88419,1,0,0:0:0:0:
64,192,88510,1,0,0:0:0:0:
320,192,88601,1,0,0:0:0:0:
448,192,88601,1,0,0:0:0:0:
192,192,88691,1,0,0:0:0:0:
64,192,88782,1,0,0:0:0:0:
192,192,88873,1,0,0:0:0:0:
448,192,88964,1,0,0:0:0:0:
320,192,88964,1,0,0:0:0:0:
192,192,89055,1,0,0:0:0:0:
64,192,89146,1,0,0:0:0:0:
192,192,89237,1,0,0:0:0:0:
64,192,89328,1,0,0:0:0:0:
320,192,89328,1,0,0:0:0:0:
448,192,89328,128,0,89691:0:0:0:0:
192,192,89691,1,0,0:0:0:0:
320,192,89691,1,0,0:0:0:0:
64,192,89782,1,0,0:0:0:0:
192,192,89873,1,0,0:0:0:0:
320,192,89964,1,0,0:0:0:0:
448,192,90055,1,0,0:0:0:0:
64,192,90055,1,0,0:0:0:0:
192,192,90146,1,0,0:0:0:0:
64,192,90237,1,0,0:0:0:0:
320,192,90328,1,0,0:0:0:0:
64,192,90419,1,0,0:0:0:0:
192,192,90419,1,0,0:0:0:0:
448,192,90510,1,0,0:0:0:0:
192,192,90601,1,0,0:0:0:0:
320,192,90691,1,0,0:0:0:0:
64,192,90782,1,0,0:0:0:0:
192,192,90782,1,0,0:0:0:0:
448,192,90873,1,0,0:0:0:0:
192,192,90964,1,0,0:0:0:0:
320,192,91055,1,0,0:0:0:0:
448,192,91146,1,0,0:0:0:0:
192,192,91146,1,0,0:0:0:0:
64,192,91237,1,0,0:0:0:0:
192,192,91328,1,0,0:0:0:0:
448,192,91419,1,0,0:0:0:0:
320,192,91510,1,0,0:0:0:0:
192,192,91510,1,0,0:0:0:0:
64,192,91601,1,0,0:0:0:0:
448,192,91601,1,0,0:0:0:0:
320,192,91691,1,0,0:0:0:0:
192,192,91782,1,0,0:0:0:0:
64,192,91782,1,0,0:0:0:0:
448,192,91873,1,0,0:0:0:0:
320,192,91873,1,0,0:0:0:0:
64,192,91964,1,0,0:0:0:0:
192,192,92055,1,0,0:0:0:0:
448,192,92146,1,0,0:0:0:0:
192,192,92237,1,0,0:0:0:0:
320,192,92237,1,0,0:0:0:0:
64,192,92328,1,0,0:0:0:0:
192,192,92419,1,0,0:0:0:0:
64,192,92510,1,0,0:0:0:0:
320,192,92601,1,0,0:0:0:0:
448,192,92601,1,0,0:0:0:0:
64,192,92691,1,0,0:0:0:0:
192,192,92691,1,0,0:0:0:0:
448,192,92782,1,0,0:0:0:0:
192,192,92873,1,0,0:0:0:0:
320,192,92964,1,0,0:0:0:0:
64,192,92964,1,0,0:0:0:0:
448,192,93055,1,0,0:0:0:0:
64,192,93146,1,0,0:0:0:0:
320,192,93237,1,0,0:0:0:0:
192,192,93328,1,0,0:0:0:0:
448,192,93328,1,0,0:0:0:0:
64,192,93419,1,0,0:0:0:0:
320,192,93510,1,0,0:0:0:0:
448,192,93601,1,0,0:0:0:0:
64,192,93691,1,0,0:0:0:0:
192,192,93737,1,0,0:0:0:0:
320,192,93782,1,0,0:0:0:0:
448,192,93828,1,0,0:0:0:0:
64,192,93873,1,0,0:0:0:0:
192,192,93919,1,0,0:0:0:0:
320,192,93964,1,0,0:0:0:0:
64,192,94055,1,0,0:0:0:0:
192,192,94055,1,0,0:0:0:0:
320,192,94146,1,0,0:0:0:0:
448,192,94237,1,0,0:0:0:0:
64,192,94328,1,0,0:0:0:0:
192,192,94419,1,0,0:0:0:0:
320,192,94419,1,0,0:0:0:0:
448,192,94510,1,0,0:0:0:0:
320,192,94601,1,0,0:0:0:0:
64,192,94691,1,0,0:0:0:0:
192,192,94782,1,0,0:0:0:0:
448,192,94782,1,0,0:0:0:0:
320,192,94873,1,0,0:0:0:0:
192,192,94964,1,0,0:0:0:0:
320,192,95055,1,0,0:0:0:0:
192,192,95146,1,0,0:0:0:0:
64,192,95146,1,0,0:0:0:0:
320,192,95237,1,0,0:0:0:0:
448,192,95328,1,0,0:0:0:0:
64,192,95419,1,0,0:0:0:0:
192,192,95510,1,0,0:0:0:0:
320,192,95510,1,0,0:0:0:0:
448,192,95601,1,0,0:0:0:0:
320,192,95691,1,0,0:0:0:0:
64,192,95782,1,0,0:0:0:0:
448,192,95873,1,0,0:0:0:0:
320,192,95873,1,0,0:0:0:0:
192,192,95964,1,0,0:0:0:0:
320,192,96055,1,0,0:0:0:0:
192,192,96146,1,0,0:0:0:0:
320,192,96237,1,0,0:0:0:0:
448,192,96237,1,0,0:0:0:0:
64,192,96328,1,0,0:0:0:0:
448,192,96419,1,0,0:0:0:0:
320,192,96510,1,0,0:0:0:0:
192,192,96601,1,8,0:0:0:0:
64,192,96601,1,0,0:0:0:0:
448,192,96601,1,0,0:0:0:0:
320,192,96691,1,0,0:0:0:0:
64,192,96782,1,0,0:0:0:0:
192,192,96873,1,0,0:0:0:0:
64,192,96964,1,0,0:0:0:0:
320,192,96964,1,8,0:0:0:0:
448,192,96964,1,0,0:0:0:0:
192,192,97055,1,0,0:0:0:0:
448,192,97146,1,0,0:0:0:0:
320,192,97237,1,0,0:0:0:0:
192,192,97328,1,8,0:0:0:0:
448,192,97328,1,0,0:0:0:0:
64,192,97328,1,0,0:0:0:0:
320,192,97419,1,0,0:0:0:0:
64,192,97510,1,0,0:0:0:0:
192,192,97601,1,0,0:0:0:0:
64,192,97691,1,0,0:0:0:0:
320,192,97691,1,8,0:0:0:0:
448,192,97691,1,0,0:0:0:0:
192,192,97782,1,0,0:0:0:0:
320,192,97873,1,0,0:0:0:0:
192,192,97964,1,0,0:0:0:0:
64,192,98055,1,0,0:0:0:0:
320,192,98055,1,8,0:0:0:0:
448,192,98055,1,0,0:0:0:0:
192,192,98146,1,0,0:0:0:0:
320,192,98237,1,0,0:0:0:0:
448,192,98328,1,0,0:0:0:0:
320,192,98419,1,0,0:0:0:0:
192,192,98510,1,0,0:0:0:0:
64,192,98601,1,0,0:0:0:0:
320,192,98601,1,8,0:0:0:0:
448,192,98601,1,0,0:0:0:0:
192,192,98691,1,0,0:0:0:0:
64,192,98782,1,0,0:0:0:0:
192,192,98873,1,0,0:0:0:0:
320,192,98964,1,0,0:0:0:0:
448,192,99055,1,0,0:0:0:0:
64,192,99191,1,0,0:0:0:0:
192,192,99237,1,0,0:0:0:0:
320,192,99282,1,0,0:0:0:0:
64,192,99328,1,0,0:0:0:0:
448,192,99328,1,0,0:0:0:0:
192,192,99373,1,0,0:0:0:0:
320,192,99419,1,0,0:0:0:0:
448,192,99464,1,0,0:0:0:0:
64,192,99510,1,0,0:0:0:0:
192,192,99510,1,8,0:0:0:0:
320,192,99601,1,0,0:0:0:0:
448,192,99691,1,0,0:0:0:0:
320,192,99782,1,0,0:0:0:0:
192,192,99873,1,0,0:0:0:0:
64,192,99873,1,0,0:0:0:0:
320,192,99964,1,0,0:0:0:0:
64,192,100055,1,0,0:0:0:0:
448,192,100146,1,0,0:0:0:0:
192,192,100237,1,0,0:0:0:0:
64,192,100237,1,0,0:0:0:0:
320,192,100328,1,0,0:0:0:0:
448,192,100419,1,0,0:0:0:0:
320,192,100510,1,0,0:0:0:0:
64,192,100601,1,0,0:0:0:0:
192,192,100601,1,0,0:0:0:0:
448,192,100691,1,0,0:0:0:0:
320,192,100782,1,0,0:0:0:0:
192,192,100873,1,0,0:0:0:0:
64,192,100964,1,0,0:0:0:0:
448,192,100964,1,0,0:0:0:0:
192,192,101055,1,0,0:0:0:0:
320,192,101055,1,0,0:0:0:0:
64,192,101146,1,0,0:0:0:0:
448,192,101146,1,0,0:0:0:0:
320,192,101237,1,0,0:0:0:0:
192,192,101237,1,0,0:0:0:0:
448,192,101328,1,0,0:0:0:0:
64,192,101328,1,0,0:0:0:0:
192,192,101419,1,0,0:0:0:0:
320,192,101419,1,0,0:0:0:0:
64,192,101510,1,0,0:0:0:0:
448,192,101510,1,0,0:0:0:0:
192,192,101601,1,0,0:0:0:0:
448,192,101691,1,0,0:0:0:0:
320,192,101691,1,0,0:0:0:0:
192,192,101782,1,0,0:0:0:0:
64,192,101782,1,0,0:0:0:0:
448,192,101873,1,0,0:0:0:0:
320,192,101873,1,0,0:0:0:0:
64,192,101964,1,0,0:0:0:0:
192,192,101964,1,0,0:0:0:0:
320,192,102055,1,0,0:0:0:0:
192,192,102146,1,0,0:0:0:0:
448,192,102146,1,0,0:0:0:0:
320,192,102237,1,0,0:0:0:0:
64,192,102237,1,0,0:0:0:0:
192,192,102328,1,0,0:0:0:0:
64,192,102419,1,0,0:0:0:0:
448,192,102419,1,0,0:0:0:0:
320,192,102419,1,0,0:0:0:0:
320,192,102601,1,0,0:0:0:0:
192,192,102691,1,0,0:0:0:0:
448,192,102782,1,0,0:0:0:0:
320,192,102782,1,0,0:0:0:0:
64,192,102964,1,0,0:0:0:0:
192,192,103055,1,0,0:0:0:0:
448,192,103146,1,0,0:0:0:0:
320,192,103146,1,0,0:0:0:0:
64,192,103237,1,0,0:0:0:0:
192,192,103328,1,0,0:0:0:0:
320,192,103419,1,0,0:0:0:0:
448,192,103510,1,0,0:0:0:0:
192,192,103510,1,0,0:0:0:0:
64,192,103601,1,0,0:0:0:0:
192,192,103691,1,0,0:0:0:0:
64,192,103782,1,0,0:0:0:0:
320,192,103873,1,0,0:0:0:0:
448,192,103873,128,0,104601:0:0:0:0:
192,192,103964,1,0,0:0:0:0:
64,192,104055,1,0,0:0:0:0:
192,192,104146,1,0,0:0:0:0:
64,192,104237,1,0,0:0:0:0:
320,192,104237,1,0,0:0:0:0:
192,192,104328,1,0,0:0:0:0:
64,192,104419,1,0,0:0:0:0:
320,192,104510,1,0,0:0:0:0:
192,192,104601,1,0,0:0:0:0:
64,192,104601,1,0,0:0:0:0:
320,192,104691,1,0,0:0:0:0:
64,192,104782,1,0,0:0:0:0:
192,192,104873,1,0,0:0:0:0:
448,192,104964,1,0,0:0:0:0:
64,192,104964,1,0,0:0:0:0:
320,192,105055,1,0,0:0:0:0:
192,192,105146,1,0,0:0:0:0:
320,192,105237,1,0,0:0:0:0:
64,192,105328,1,0,0:0:0:0:
192,192,105328,1,0,0:0:0:0:
448,192,105328,128,0,105691:0:0:0:0:
320,192,105419,1,0,0:0:0:0:
192,192,105510,1,0,0:0:0:0:
64,192,105601,1,0,0:0:0:0:
192,192,105691,1,0,0:0:0:0:
320,192,105782,1,0,0:0:0:0:
192,192,105873,1,0,0:0:0:0:
448,192,105964,1,0,0:0:0:0:
192,192,106055,1,0,0:0:0:0:
64,192,106055,128,0,106419:0:0:0:0:
320,192,106146,1,0,0:0:0:0:
448,192,106237,1,0,0:0:0:0:
320,192,106328,1,0,0:0:0:0:
192,192,106419,1,0,0:0:0:0:
448,192,106510,1,0,0:0:0:0:
320,192,106601,1,0,0:0:0:0:
192,192,106691,1,0,0:0:0:0:
320,192,106782,1,0,0:0:0:0:
64,192,106782,1,0,0:0:0:0:
448,192,106873,1,0,0:0:0:0:
64,192,106964,1,0,0:0:0:0:
320,192,107055,1,0,0:0:0:0:
448,192,107146,1,0,0:0:0:0:
192,192,107146,1,0,0:0:0:0:
64,192,107237,1,0,0:0:0:0:
448,192,107328,1,0,0:0:0:0:
320,192,107373,1,0,0:0:0:0:
192,192,107419,1,0,0:0:0:0:
64,192,107464,1,0,0:0:0:0:
320,192,107510,1,0,0:0:0:0:
448,192,107510,1,0,0:0:0:0:
192,192,107601,1,0,0:0:0:0:
64,192,107691,1,0,0:0:0:0:
192,192,107782,1,0,0:0:0:0:
320,192,107873,1,0,0:0:0:0:
448,192,107873,1,0,0:0:0:0:
192,192,107964,1,0,0:0:0:0:
64,192,108055,1,0,0:0:0:0:
192,192,108101,1,0,0:0:0:0:
320,192,108146,1,0,0:0:0:0:
448,192,108191,1,0,0:0:0:0:
192,192,108237,1,0,0:0:0:0:
64,192,108237,1,0,0:0:0:0:
320,192,108237,128,0,110419:0:0:0:0:
448,192,108328,1,0,0:0:0:0:
192,192,108419,1,0,0:0:0:0:
64,192,108510,1,0,0:0:0:0:
448,192,108601,1,0,0:0:0:0:
192,192,108601,1,0,0:0:0:0:
64,192,108691,1,0,0:0:0:0:
448,192,108782,1,0,0:0:0:0:
192,192,108873,1,0,0:0:0:0:
64,192,108964,1,0,0:0:0:0:
448,192,108964,1,0,0:0:0:0:
192,192,109055,1,0,0:0:0:0:
64,192,109146,1,0,0:0:0:0:
448,192,109237,1,0,0:0:0:0:
192,192,109328,1,0,0:0:0:0:
64,192,109328,1,0,0:0:0:0:
448,192,109419,1,0,0:0:0:0:
64,192,109510,1,0,0:0:0:0:
192,192,109601,1,0,0:0:0:0:
448,192,109691,1,0,0:0:0:0:
64,192,109691,1,0,0:0:0:0:
192,192,109782,1,0,0:0:0:0:
448,192,109873,1,0,0:0:0:0:
192,192,109964,1,0,0:0:0:0:
448,192,110055,1,0,0:0:0:0:
64,192,110055,1,0,0:0:0:0:
192,192,110146,1,0,0:0:0:0:
448,192,110237,1,0,0:0:0:0:
64,192,110328,1,0,0:0:0:0:
448,192,110419,1,0,0:0:0:0:
192,192,110510,1,0,0:0:0:0:
448,192,110601,1,0,0:0:0:0:
64,192,110691,1,0,0:0:0:0:
320,192,110782,1,0,0:0:0:0:
192,192,110873,1,0,0:0:0:0:
448,192,110964,1,0,0:0:0:0:
64,192,111055,1,0,0:0:0:0:
320,192,111146,1,0,0:0:0:0:
448,192,111146,128,0,112601:0:0:0:0:
64,192,111237,1,0,0:0:0:0:
192,192,111328,1,0,0:0:0:0:
320,192,111419,1,0,0:0:0:0:
64,192,111510,1,0,0:0:0:0:
192,192,111601,1,0,0:0:0:0:
320,192,111691,1,0,0:0:0:0:
192,192,111782,1,0,0:0:0:0:
64,192,111873,1,0,0:0:0:0:
192,192,111964,1,0,0:0:0:0:
64,192,112055,1,0,0:0:0:0:
192,192,112146,1,0,0:0:0:0:
320,192,112237,1,0,0:0:0:0:
192,192,112328,1,0,0:0:0:0:
64,192,112419,1,0,0:0:0:0:
192,192,112510,1,0,0:0:0:0:
320,192,112601,1,0,0:0:0:0:
64,192,112601,128,0,114055:0:0:0:0:
448,192,112691,1,0,0:0:0:0:
320,192,112782,1,0,0:0:0:0:
192,192,112873,1,0,0:0:0:0:
320,192,112964,1,0,0:0:0:0:
448,192,113055,1,0,0:0:0:0:
320,192,113146,1,0,0:0:0:0:
192,192,113237,1,0,0:0:0:0:
320,192,113328,1,0,0:0:0:0:
192,192,113419,1,0,0:0:0:0:
320,192,113510,1,0,0:0:0:0:
448,192,113601,1,0,0:0:0:0:
320,192,113691,1,0,0:0:0:0:
192,192,113691,1,0,0:0:0:0:
448,192,113782,1,0,0:0:0:0:
320,192,113873,1,0,0:0:0:0:
192,192,113964,1,0,0:0:0:0:
448,192,114055,1,0,0:0:0:0:
320,192,114055,128,0,115510:0:0:0:0:
192,192,114146,1,0,0:0:0:0:
448,192,114237,1,0,0:0:0:0:
64,192,114328,1,0,0:0:0:0:
192,192,114419,1,0,0:0:0:0:
64,192,114510,1,0,0:0:0:0:
448,192,114601,1,0,0:0:0:0:
192,192,114691,1,0,0:0:0:0:
448,192,114782,1,0,0:0:0:0:
192,192,114873,1,0,0:0:0:0:
64,192,114964,1,0,0:0:0:0:
448,192,115055,1,0,0:0:0:0:
64,192,115146,1,0,0:0:0:0:
448,192,115237,1,0,0:0:0:0:
192,192,115328,1,0,0:0:0:0:
64,192,115419,1,0,0:0:0:0:
448,192,115510,1,0,0:0:0:0:
192,192,115510,128,0,116964:0:0:0:0:
320,192,115691,1,0,0:0:0:0:
64,192,115782,1,0,0:0:0:0:
448,192,115873,1,0,0:0:0:0:
64,192,115964,1,0,0:0:0:0:
448,192,116055,1,0,0:0:0:0:
320,192,116146,1,0,0:0:0:0:
64,192,116237,1,0,0:0:0:0:
320,192,116328,1,0,0:0:0:0:
448,192,116419,1,0,0:0:0:0:
64,192,116510,1,0,0:0:0:0:
320,192,116601,1,0,0:0:0:0:
64,192,116691,1,0,0:0:0:0:
448,192,116782,1,0,0:0:0:0:
320,192,116873,1,0,0:0:0:0:
64,192,116964,1,0,0:0:0:0:
448,192,116964,128,0,118419:0:0:0:0:
320,192,117055,1,0,0:0:0:0:
192,192,117146,1,0,0:0:0:0:
64,192,117237,1,0,0:0:0:0:
192,192,117328,1,0,0:0:0:0:
320,192,117419,1,0,0:0:0:0:
64,192,117510,1,0,0:0:0:0:
320,192,117601,1,0,0:0:0:0:
192,192,117691,1,0,0:0:0:0:
320,192,117782,1,0,0:0:0:0:
64,192,117873,1,0,0:0:0:0:
192,192,117964,1,0,0:0:0:0:
320,192,118055,1,0,0:0:0:0:
192,192,118146,1,0,0:0:0:0:
64,192,118237,1,0,0:0:0:0:
320,192,118328,1,0,0:0:0:0:
64,192,118419,128,0,118782:0:0:0:0:
320,192,118782,1,0,0:0:0:0:
448,192,118782,1,0,0:0:0:0:
192,192,118873,1,0,0:0:0:0:
320,192,118964,1,0,0:0:0:0:
64,192,119055,1,0,0:0:0:0:
192,192,119146,1,0,0:0:0:0:
448,192,119146,1,0,0:0:0:0:
64,192,119237,1,0,0:0:0:0:
192,192,119328,1,0,0:0:0:0:
448,192,119419,1,0,0:0:0:0:
320,192,119510,1,0,0:0:0:0:
64,192,119510,1,0,0:0:0:0:
192,192,119601,1,0,0:0:0:0:
320,192,119691,1,0,0:0:0:0:
64,192,119782,1,0,0:0:0:0:
320,192,119873,1,0,0:0:0:0:
192,192,119873,1,0,0:0:0:0:
448,192,119964,1,0,0:0:0:0:
192,192,120055,1,0,0:0:0:0:
64,192,120146,1,0,0:0:0:0:
320,192,120237,1,0,0:0:0:0:
448,192,120237,1,0,0:0:0:0:
192,192,120328,1,0,0:0:0:0:
448,192,120419,1,0,0:0:0:0:
64,192,120510,1,0,0:0:0:0:
320,192,120601,1,0,0:0:0:0:
192,192,120601,1,0,0:0:0:0:
64,192,120691,1,0,0:0:0:0:
448,192,120782,1,0,0:0:0:0:
320,192,120873,1,0,0:0:0:0:
192,192,120964,1,0,0:0:0:0:
448,192,120964,1,0,0:0:0:0:
320,192,121055,1,0,0:0:0:0:
64,192,121146,1,0,0:0:0:0:
192,192,121237,1,0,0:0:0:0:
320,192,121328,1,0,0:0:0:0:
64,192,121328,1,0,0:0:0:0:
448,192,121419,1,0,0:0:0:0:
320,192,121510,1,0,0:0:0:0:
192,192,121601,1,0,0:0:0:0:
320,192,121691,1,0,0:0:0:0:
64,192,121691,1,0,0:0:0:0:
448,192,121691,128,0,122055:0:0:0:0:
192,192,121782,1,0,0:0:0:0:
64,192,121873,1,0,0:0:0:0:
192,192,121964,1,0,0:0:0:0:
320,192,122055,1,0,0:0:0:0:
64,192,122055,128,0,122782:0:0:0:0:
192,192,122146,1,0,0:0:0:0:
320,192,122237,1,0,0:0:0:0:
448,192,122328,1,0,0:0:0:0:
192,192,122419,1,0,0:0:0:0:
320,192,122510,1,0,0:0:0:0:
448,192,122601,1,0,0:0:0:0:
320,192,122691,1,0,0:0:0:0:
448,192,122782,1,8,0:0:0:0:
192,192,122782,1,0,0:0:0:0:
320,192,122873,1,0,0:0:0:0:
448,192,122964,1,0,0:0:0:0:
320,192,123055,1,0,0:0:0:0:
448,192,123146,1,0,0:0:0:0:
192,192,123146,1,0,0:0:0:0:
64,192,123237,1,0,0:0:0:0:
192,192,123328,1,0,0:0:0:0:
448,192,123419,1,0,0:0:0:0:
320,192,123510,1,0,0:0:0:0:
192,192,123510,1,8,0:0:0:0:
64,192,123510,1,0,0:0:0:0:
448,192,123601,1,0,0:0:0:0:
320,192,123691,1,0,0:0:0:0:
192,192,123782,1,0,0:0:0:0:
320,192,123873,1,0,0:0:0:0:
448,192,123873,1,0,0:0:0:0:
64,192,123964,1,0,0:0:0:0:
192,192,124055,1,0,0:0:0:0:
64,192,124146,1,0,0:0:0:0:
448,192,124237,1,0,0:0:0:0:
320,192,124237,1,0,0:0:0:0:
192,192,124328,1,0,0:0:0:0:
320,192,124419,1,0,0:0:0:0:
64,192,124510,1,0,0:0:0:0:
320,192,124601,1,0,0:0:0:0:
192,192,124601,1,0,0:0:0:0:
448,192,124691,1,0,0:0:0:0:
320,192,124782,1,0,0:0:0:0:
192,192,124873,1,0,0:0:0:0:
320,192,124964,1,0,0:0:0:0:
448,192,124964,1,0,0:0:0:0:
192,192,125055,1,0,0:0:0:0:
64,192,125146,1,0,0:0:0:0:
192,192,125237,1,0,0:0:0:0:
320,192,125328,1,0,0:0:0:0:
448,192,125328,128,0,125691:0:0:0:0:
192,192,125419,1,0,0:0:0:0:
64,192,125510,1,0,0:0:0:0:
192,192,125601,1,0,0:0:0:0:
64,192,125691,128,0,127146:0:0:0:0:
320,192,125691,1,8,0:0:0:0:
192,192,125873,1,0,0:0:0:0:
320,192,125964,1,0,0:0:0:0:
448,192,126055,1,0,0:0:0:0:
320,192,126146,1,0,0:0:0:0:
448,192,126237,1,0,0:0:0:0:
320,192,126328,1,0,0:0:0:0:
192,192,126419,1,0,0:0:0:0:
320,192,126510,1,0,0:0:0:0:
448,192,126601,1,0,0:0:0:0:
192,192,126691,1,0,0:0:0:0:
448,192,126782,1,0,0:0:0:0:
320,192,126873,1,0,0:0:0:0:
192,192,126964,1,0,0:0:0:0:
320,192,127055,1,0,0:0:0:0:
192,192,127146,1,0,0:0:0:0:
448,192,127146,128,0,128601:0:0:0:0:
320,192,127237,1,0,0:0:0:0:
192,192,127328,1,0,0:0:0:0:
64,192,127419,1,0,0:0:0:0:
192,192,127510,1,0,0:0:0:0:
320,192,127601,1,0,0:0:0:0:
64,192,127691,1,0,0:0:0:0:
320,192,127782,1,0,0:0:0:0:
192,192,127873,1,0,0:0:0:0:
320,192,127964,1,0,0:0:0:0:
192,192,128055,1,0,0:0:0:0:
64,192,128146,1,0,0:0:0:0:
320,192,128237,1,0,0:0:0:0:
64,192,128328,1,0,0:0:0:0:
320,192,128419,1,0,0:0:0:0:
192,192,128510,1,0,0:0:0:0:
320,192,128601,1,0,0:0:0:0:
64,192,128601,128,0,130055:0:0:0:0:
192,192,128691,1,0,0:0:0:0:
320,192,128782,1,0,0:0:0:0:
448,192,128873,1,0,0:0:0:0:
192,192,128964,1,0,0:0:0:0:
320,192,129055,1,0,0:0:0:0:
192,192,129146,1,0,0:0:0:0:
448,192,129237,1,0,0:0:0:0:
320,192,129328,1,0,0:0:0:0:
192,192,129419,1,0,0:0:0:0:
320,192,129510,1,0,0:0:0:0:
192,192,129601,1,0,0:0:0:0:
448,192,129691,1,0,0:0:0:0:
320,192,129782,1,0,0:0:0:0:
448,192,129873,1,0,0:0:0:0:
320,192,129964,1,0,0:0:0:0:
192,192,130055,1,0,0:0:0:0:
448,192,130055,1,0,0:0:0:0:
320,192,130146,1,0,0:0:0:0:
448,192,130237,1,0,0:0:0:0:
64,192,130328,1,0,0:0:0:0:
320,192,130419,1,0,0:0:0:0:
192,192,130510,1,0,0:0:0:0:
448,192,130601,1,0,0:0:0:0:
320,192,130691,1,0,0:0:0:0:
448,192,130782,1,0,0:0:0:0:
192,192,130873,1,0,0:0:0:0:
320,192,130964,1,0,0:0:0:0:
64,192,131055,1,0,0:0:0:0:
192,192,131146,1,0,0:0:0:0:
64,192,131237,1,0,0:0:0:0:
192,192,131328,1,0,0:0:0:0:
320,192,131419,1,0,0:0:0:0:
64,192,131510,1,0,0:0:0:0:
448,192,131510,128,0,132964:0:0:0:0:
