osu file format v14

[General]
AudioFilename: audio.ogg
AudioLeadIn: 0
PreviewTime: 47179
Countdown: 0
SampleSet: Soft
StackLeniency: 0.7
Mode: 3
LetterboxInBreaks: 0
SpecialStyle: 1
WidescreenStoryboard: 1

[Editor]
DistanceSpacing: 0.8
BeatDivisor: 16
GridSize: 32
TimelineZoom: 2.1

[Metadata]
Title:TIEFSEE
TitleUnicode:TIEFSEE
Artist:SOUND HOLIC vs. dj TAKA feat. YURiCa
ArtistUnicode:SOUND HOLIC vs. dj TAKA feat. YURiCa
Creator:BKwind
Version:liaoxingyao's Black Another
Source:beatmania IIDX 22 PENDUAL
Tags:Piano video game SDVX 3 III SOUND VOLTEX GRAVITY WARS hanatan 花たん 斬 japanese electronic liaoxingyao yf_bmp _Yiiiii [Emiria] n+1 scratch 7+1K 7K+1 7K1S NK+1 7+1 special style
BeatmapID:3995603
BeatmapSetID:1932403

[Difficulty]
HPDrainRate:8
CircleSize:8
OverallDifficulty:8
ApproachRate:5
SliderMultiplier:1.4
SliderTickRate:1

[Events]
//Background and Video events
0,0,"BG.png",0,0
//Break Periods
//Storyboard Layer 0 (Background)
//Storyboard Layer 1 (Fail)
//Storyboard Layer 2 (Pass)
//Storyboard Layer 3 (Foreground)
//Storyboard Layer 4 (Overlay)
//Storyboard Sound Samples

[TimingPoints]
1725,363.636363636364,4,2,1,40,1,0
91906,-100,4,2,1,40,0,1
115179,-100,4,2,1,40,0,0

[HitObjects]
96,192,1725,5,0,0:0:0:0:
416,192,1725,1,0,0:0:0:0:
160,192,1906,1,0,0:0:0:0:
288,192,2088,1,0,0:0:0:0:
416,192,2270,1,0,0:0:0:0:
224,192,2452,1,0,0:0:0:0:
160,192,2634,1,0,0:0:0:0:
288,192,2815,1,0,0:0:0:0:
416,192,2997,1,0,0:0:0:0:
96,192,3179,1,0,0:0:0:0:
352,192,3179,1,0,0:0:0:0:
224,192,3361,1,0,0:0:0:0:
288,192,3543,1,0,0:0:0:0:
416,192,3725,1,0,0:0:0:0:
224,192,4088,1,0,0:0:0:0:
288,192,4270,1,0,0:0:0:0:
416,192,4452,1,0,0:0:0:0:
96,192,4634,1,0,0:0:0:0:
352,192,4634,1,0,0:0:0:0:
224,192,4815,1,0,0:0:0:0:
288,192,4997,1,0,0:0:0:0:
416,192,5179,1,0,0:0:0:0:
160,192,5361,1,0,0:0:0:0:
288,192,5543,1,0,0:0:0:0:
416,192,5725,1,0,0:0:0:0:
96,192,6088,1,0,0:0:0:0:
416,192,6088,1,0,0:0:0:0:
288,192,6088,1,0,0:0:0:0:
288,192,6361,1,0,0:0:0:0:
224,192,6634,1,0,0:0:0:0:
160,192,6815,1,0,0:0:0:0:
416,192,6815,1,0,0:0:0:0:
224,192,6906,1,0,0:0:0:0:
96,192,7179,1,0,0:0:0:0:
480,192,7179,1,0,0:0:0:0:
352,192,7361,1,0,0:0:0:0:
288,192,7543,1,0,0:0:0:0:
160,192,7543,1,0,0:0:0:0:
224,192,7725,1,0,0:0:0:0:
352,192,7906,1,0,0:0:0:0:
416,192,8088,1,0,0:0:0:0:
96,192,8270,1,0,0:0:0:0:
224,192,8452,1,0,0:0:0:0:
352,192,8634,1,0,0:0:0:0:
416,192,8815,1,0,0:0:0:0:
96,192,8997,1,0,0:0:0:0:
352,192,8997,1,0,0:0:0:0:
160,192,9179,1,0,0:0:0:0:
288,192,9361,1,0,0:0:0:0:
416,192,9543,1,0,0:0:0:0:
160,192,9906,1,0,0:0:0:0:
288,192,10088,1,0,0:0:0:0:
480,192,10270,1,0,0:0:0:0:
96,192,10452,1,0,0:0:0:0:
352,192,10452,1,0,0:0:0:0:
160,192,10634,1,0,0:0:0:0:
288,192,10815,1,0,0:0:0:0:
416,192,10997,1,0,0:0:0:0:
480,192,11179,1,0,0:0:0:0:
224,192,11361,1,0,0:0:0:0:
352,192,11543,1,0,0:0:0:0:
224,192,11725,1,0,0:0:0:0:
96,192,11906,1,0,0:0:0:0:
288,192,11906,1,0,0:0:0:0:
416,192,11906,1,0,0:0:0:0:
32,192,11906,1,0,0:0:0:0:
224,192,11997,1,0,0:0:0:0:
96,192,12088,1,0,0:0:0:0:
288,192,12088,1,0,0:0:0:0:
416,192,12179,1,0,0:0:0:0:
224,192,12179,1,0,0:0:0:0:
96,192,12270,1,0,0:0:0:0:
352,192,12270,1,0,0:0:0:0:
288,192,12361,1,0,0:0:0:0:
96,192,12452,1,0,0:0:0:0:
352,192,12452,1,0,0:0:0:0:
480,192,12452,1,0,0:0:0:0:
288,192,12543,1,0,0:0:0:0:
160,192,12634,1,0,0:0:0:0:
416,192,12634,1,0,0:0:0:0:
352,192,12725,1,0,0:0:0:0:
224,192,12725,1,0,0:0:0:0:
160,192,12815,1,0,0:0:0:0:
480,192,12815,1,0,0:0:0:0:
352,192,12906,1,0,0:0:0:0:
224,192,12997,1,0,0:0:0:0:
480,192,12997,1,0,0:0:0:0:
288,192,12997,1,0,0:0:0:0:
160,192,13043,1,0,0:0:0:0:
96,192,13088,1,0,0:0:0:0:
352,192,13088,1,0,0:0:0:0:
224,192,13179,1,0,0:0:0:0:
480,192,13179,1,0,0:0:0:0:
160,192,13270,1,0,0:0:0:0:
352,192,13270,1,0,0:0:0:0:
96,192,13361,1,0,0:0:0:0:
32,192,13361,1,0,0:0:0:0:
288,192,13361,1,0,0:0:0:0:
480,192,13361,1,0,0:0:0:0:
224,192,13361,1,0,0:0:0:0:
416,192,13452,1,0,0:0:0:0:
160,192,13543,1,0,0:0:0:0:
288,192,13634,1,0,0:0:0:0:
480,192,13634,1,0,0:0:0:0:
96,192,13725,1,0,0:0:0:0:
416,192,13725,1,0,0:0:0:0:
224,192,13815,1,0,0:0:0:0:
160,192,13906,1,0,0:0:0:0:
352,192,13906,1,0,0:0:0:0:
480,192,13997,1,0,0:0:0:0:
96,192,14088,1,0,0:0:0:0:
352,192,14088,1,0,0:0:0:0:
224,192,14088,1,0,0:0:0:0:
416,192,14179,1,0,0:0:0:0:
160,192,14270,1,0,0:0:0:0:
288,192,14270,1,0,0:0:0:0:
416,192,14361,1,0,0:0:0:0:
96,192,14452,1,0,0:0:0:0:
224,192,14452,1,0,0:0:0:0:
288,192,14543,1,0,0:0:0:0:
416,192,14634,1,0,0:0:0:0:
160,192,14634,1,0,0:0:0:0:
352,192,14725,1,0,0:0:0:0:
96,192,14815,1,0,0:0:0:0:
288,192,14815,1,0,0:0:0:0:
480,192,14815,1,0,0:0:0:0:
416,192,14906,1,0,0:0:0:0:
224,192,14997,1,0,0:0:0:0:
160,192,14997,1,0,0:0:0:0:
352,192,15088,1,0,0:0:0:0:
480,192,15179,1,0,0:0:0:0:
288,192,15179,1,0,0:0:0:0:
96,192,15179,1,0,0:0:0:0:
416,192,15270,1,0,0:0:0:0:
160,192,15361,1,0,0:0:0:0:
288,192,15452,1,0,0:0:0:0:
480,192,15452,1,0,0:0:0:0:
96,192,15543,1,0,0:0:0:0:
416,192,15543,1,0,0:0:0:0:
224,192,15543,1,0,0:0:0:0:
160,192,15634,1,0,0:0:0:0:
352,192,15725,1,0,0:0:0:0:
416,192,15815,1,0,0:0:0:0:
224,192,15815,1,0,0:0:0:0:
352,192,15906,1,0,0:0:0:0:
160,192,15906,1,0,0:0:0:0:
96,192,15906,1,0,0:0:0:0:
480,192,15997,1,0,0:0:0:0:
160,192,16088,1,0,0:0:0:0:
288,192,16088,1,0,0:0:0:0:
416,192,16179,1,0,0:0:0:0:
96,192,16270,1,0,0:0:0:0:
352,192,16270,1,0,0:0:0:0:
224,192,16270,1,0,0:0:0:0:
160,192,16361,1,0,0:0:0:0:
288,192,16452,1,0,0:0:0:0:
416,192,16452,1,0,0:0:0:0:
160,192,16543,1,0,0:0:0:0:
480,192,16543,1,0,0:0:0:0:
96,192,16634,1,0,0:0:0:0:
288,192,16634,1,0,0:0:0:0:
416,192,16725,1,0,0:0:0:0:
352,192,16815,1,0,0:0:0:0:
160,192,16815,1,0,0:0:0:0:
480,192,16906,1,0,0:0:0:0:
96,192,16997,1,0,0:0:0:0:
224,192,16997,1,0,0:0:0:0:
352,192,16997,1,0,0:0:0:0:
416,192,17088,1,0,0:0:0:0:
352,192,17179,1,0,0:0:0:0:
160,192,17179,1,0,0:0:0:0:
288,192,17270,1,0,0:0:0:0:
96,192,17361,1,0,0:0:0:0:
224,192,17361,1,0,0:0:0:0:
416,192,17361,1,0,0:0:0:0:
480,192,17452,1,0,0:0:0:0:
160,192,17543,1,0,0:0:0:0:
288,192,17543,1,0,0:0:0:0:
416,192,17634,1,0,0:0:0:0:
288,192,17725,1,0,0:0:0:0:
96,192,17725,1,0,0:0:0:0:
480,192,17725,1,0,0:0:0:0:
224,192,17815,1,0,0:0:0:0:
160,192,17906,1,0,0:0:0:0:
416,192,17906,1,0,0:0:0:0:
288,192,17997,1,0,0:0:0:0:
96,192,18088,1,0,0:0:0:0:
352,192,18088,1,0,0:0:0:0:
480,192,18088,1,0,0:0:0:0:
224,192,18179,1,0,0:0:0:0:
160,192,18270,1,0,0:0:0:0:
480,192,18361,1,0,0:0:0:0:
352,192,18361,1,0,0:0:0:0:
416,192,18452,1,0,0:0:0:0:
288,192,18452,1,0,0:0:0:0:
96,192,18452,1,0,0:0:0:0:
224,192,18543,1,0,0:0:0:0:
160,192,18634,1,0,0:0:0:0:
416,192,18725,1,0,0:0:0:0:
288,192,18725,1,0,0:0:0:0:
352,192,18815,1,0,0:0:0:0:
224,192,18815,1,0,0:0:0:0:
96,192,18815,1,0,0:0:0:0:
480,192,18906,1,0,0:0:0:0:
416,192,18997,1,0,0:0:0:0:
288,192,18997,1,0,0:0:0:0:
160,192,19088,1,0,0:0:0:0:
96,192,19179,1,0,0:0:0:0:
224,192,19179,1,0,0:0:0:0:
32,192,19179,1,0,0:0:0:0:
352,192,19179,1,0,0:0:0:0:
416,192,19270,1,0,0:0:0:0:
224,192,19361,1,0,0:0:0:0:
480,192,19361,1,0,0:0:0:0:
160,192,19452,1,0,0:0:0:0:
352,192,19452,1,0,0:0:0:0:
224,192,19543,1,0,0:0:0:0:
96,192,19543,1,0,0:0:0:0:
416,192,19543,1,0,0:0:0:0:
288,192,19634,1,0,0:0:0:0:
224,192,19725,1,0,0:0:0:0:
480,192,19725,1,0,0:0:0:0:
416,192,19815,1,0,0:0:0:0:
160,192,19815,1,0,0:0:0:0:
288,192,19906,1,0,0:0:0:0:
416,192,19906,1,0,0:0:0:0:
96,192,19906,1,0,0:0:0:0:
224,192,19997,1,0,0:0:0:0:
288,192,20088,1,0,0:0:0:0:
352,192,20088,1,0,0:0:0:0:
160,192,20179,1,0,0:0:0:0:
416,192,20179,1,0,0:0:0:0:
288,192,20270,1,0,0:0:0:0:
96,192,20270,1,0,0:0:0:0:
480,192,20270,1,0,0:0:0:0:
352,192,20361,1,0,0:0:0:0:
288,192,20452,1,0,0:0:0:0:
224,192,20452,1,0,0:0:0:0:
160,192,20543,1,0,0:0:0:0:
416,192,20543,1,0,0:0:0:0:
96,192,20634,1,0,0:0:0:0:
352,192,20634,1,0,0:0:0:0:
480,192,20634,1,0,0:0:0:0:
224,192,20725,1,0,0:0:0:0:
352,192,20815,1,0,0:0:0:0:
288,192,20815,1,0,0:0:0:0:
224,192,20906,1,0,0:0:0:0:
160,192,20906,1,0,0:0:0:0:
352,192,20997,1,0,0:0:0:0:
96,192,20997,1,0,0:0:0:0:
480,192,20997,1,0,0:0:0:0:
160,192,21088,1,0,0:0:0:0:
352,192,21179,1,0,0:0:0:0:
288,192,21179,1,0,0:0:0:0:
480,192,21270,1,0,0:0:0:0:
224,192,21270,1,0,0:0:0:0:
480,192,21361,1,0,0:0:0:0:
288,192,21361,1,0,0:0:0:0:
96,192,21361,1,0,0:0:0:0:
160,192,21452,1,0,0:0:0:0:
288,192,21543,1,0,0:0:0:0:
416,192,21543,1,0,0:0:0:0:
160,192,21634,1,0,0:0:0:0:
352,192,21634,1,0,0:0:0:0:
288,192,21725,1,0,0:0:0:0:
96,192,21725,1,0,0:0:0:0:
480,192,21725,1,0,0:0:0:0:
224,192,21815,1,0,0:0:0:0:
288,192,21906,1,0,0:0:0:0:
416,192,21906,1,0,0:0:0:0:
160,192,21997,1,0,0:0:0:0:
480,192,21997,1,0,0:0:0:0:
352,192,22088,1,0,0:0:0:0:
96,192,22088,1,0,0:0:0:0:
32,192,22088,1,0,0:0:0:0:
224,192,22088,1,0,0:0:0:0:
480,192,22179,1,0,0:0:0:0:
352,192,22270,1,0,0:0:0:0:
224,192,22270,1,0,0:0:0:0:
480,192,22361,1,0,0:0:0:0:
160,192,22361,1,0,0:0:0:0:
352,192,22452,1,0,0:0:0:0:
96,192,22452,1,0,0:0:0:0:
480,192,22543,1,0,0:0:0:0:
352,192,22634,1,0,0:0:0:0:
160,192,22634,1,0,0:0:0:0:
480,192,22725,1,0,0:0:0:0:
288,192,22725,1,0,0:0:0:0:
288,192,22815,1,0,0:0:0:0:
96,192,22815,1,0,0:0:0:0:
416,192,22906,1,0,0:0:0:0:
288,192,22997,1,0,0:0:0:0:
160,192,22997,1,0,0:0:0:0:
416,192,23088,1,0,0:0:0:0:
224,192,23088,1,0,0:0:0:0:
96,192,23179,1,0,0:0:0:0:
288,192,23179,1,0,0:0:0:0:
416,192,23270,1,0,0:0:0:0:
288,192,23361,1,0,0:0:0:0:
224,192,23361,1,0,0:0:0:0:
416,192,23452,1,0,0:0:0:0:
160,192,23452,1,0,0:0:0:0:
32,192,23543,1,0,0:0:0:0:
96,192,23543,1,0,0:0:0:0:
352,192,23543,1,0,0:0:0:0:
224,192,23634,1,0,0:0:0:0:
352,192,23725,1,0,0:0:0:0:
480,192,23725,1,0,0:0:0:0:
224,192,23815,1,0,0:0:0:0:
160,192,23815,1,0,0:0:0:0:
96,192,23906,1,0,0:0:0:0:
352,192,23906,1,0,0:0:0:0:
224,192,23997,1,0,0:0:0:0:
352,192,24088,1,0,0:0:0:0:
160,192,24088,1,0,0:0:0:0:
224,192,24179,1,0,0:0:0:0:
480,192,24179,1,0,0:0:0:0:
288,192,24179,1,0,0:0:0:0:
96,192,24270,1,0,0:0:0:0:
480,192,24270,1,0,0:0:0:0:
352,192,24270,1,0,0:0:0:0:
224,192,24361,1,0,0:0:0:0:
352,192,24452,1,0,0:0:0:0:
160,192,24452,1,0,0:0:0:0:
224,192,24543,1,0,0:0:0:0:
416,192,24543,1,0,0:0:0:0:
480,192,24634,1,0,0:0:0:0:
96,192,24634,1,0,0:0:0:0:
416,192,24679,1,0,0:0:0:0:
352,192,24725,1,0,0:0:0:0:
288,192,24770,1,0,0:0:0:0:
416,192,24815,1,0,0:0:0:0:
96,192,24815,1,0,0:0:0:0:
352,192,24861,1,0,0:0:0:0:
288,192,24906,1,0,0:0:0:0:
224,192,24952,1,0,0:0:0:0:
32,192,24997,1,0,0:0:0:0:
96,192,24997,1,0,0:0:0:0:
352,192,24997,1,0,0:0:0:0:
480,192,24997,1,0,0:0:0:0:
160,192,24997,1,0,0:0:0:0:
416,192,25088,1,0,0:0:0:0:
160,192,25179,1,0,0:0:0:0:
288,192,25179,1,0,0:0:0:0:
352,192,25270,1,0,0:0:0:0:
96,192,25361,1,0,0:0:0:0:
224,192,25361,1,0,0:0:0:0:
480,192,25361,1,0,0:0:0:0:
416,192,25452,1,0,0:0:0:0:
160,192,25543,1,0,0:0:0:0:
288,192,25543,1,0,0:0:0:0:
416,192,25634,1,0,0:0:0:0:
96,192,25725,1,0,0:0:0:0:
480,192,25725,1,0,0:0:0:0:
352,192,25725,1,0,0:0:0:0:
288,192,25815,1,0,0:0:0:0:
160,192,25906,1,0,0:0:0:0:
224,192,25906,1,0,0:0:0:0:
416,192,25997,1,0,0:0:0:0:
96,192,26088,1,0,0:0:0:0:
352,192,26088,1,0,0:0:0:0:
480,192,26088,1,0,0:0:0:0:
160,192,26179,1,0,0:0:0:0:
224,192,26270,1,0,0:0:0:0:
416,192,26270,1,0,0:0:0:0:
160,192,26361,1,0,0:0:0:0:
96,192,26452,1,0,0:0:0:0:
288,192,26452,1,0,0:0:0:0:
416,192,26452,1,0,0:0:0:0:
224,192,26543,1,0,0:0:0:0:
160,192,26634,1,0,0:0:0:0:
352,192,26634,1,0,0:0:0:0:
224,192,26725,1,0,0:0:0:0:
288,192,26815,1,0,0:0:0:0:
416,192,26815,1,0,0:0:0:0:
96,192,26815,1,0,0:0:0:0:
480,192,26906,1,0,0:0:0:0:
224,192,26997,1,0,0:0:0:0:
352,192,26997,1,0,0:0:0:0:
288,192,27088,1,0,0:0:0:0:
352,192,27179,1,0,0:0:0:0:
480,192,27179,1,0,0:0:0:0:
96,192,27179,1,0,0:0:0:0:
224,192,27270,1,0,0:0:0:0:
160,192,27361,1,0,0:0:0:0:
416,192,27361,1,0,0:0:0:0:
288,192,27452,1,0,0:0:0:0:
352,192,27543,1,0,0:0:0:0:
480,192,27543,1,0,0:0:0:0:
96,192,27543,1,0,0:0:0:0:
160,192,27634,1,0,0:0:0:0:
224,192,27725,1,0,0:0:0:0:
416,192,27725,1,0,0:0:0:0:
352,192,27815,1,0,0:0:0:0:
288,192,27906,1,0,0:0:0:0:
160,192,27906,1,0,0:0:0:0:
96,192,27906,1,0,0:0:0:0:
480,192,27997,1,0,0:0:0:0:
224,192,28088,1,0,0:0:0:0:
352,192,28088,1,0,0:0:0:0:
416,192,28179,1,0,0:0:0:0:
288,192,28270,1,0,0:0:0:0:
160,192,28270,1,0,0:0:0:0:
96,192,28270,1,0,0:0:0:0:
352,192,28361,1,0,0:0:0:0:
224,192,28452,1,0,0:0:0:0:
416,192,28452,1,0,0:0:0:0:
288,192,28543,1,0,0:0:0:0:
352,192,28634,1,0,0:0:0:0:
480,192,28634,1,0,0:0:0:0:
96,192,28634,1,0,0:0:0:0:
160,192,28725,1,0,0:0:0:0:
288,192,28815,1,0,0:0:0:0:
224,192,28815,1,0,0:0:0:0:
160,192,28906,1,0,0:0:0:0:
352,192,28997,1,0,0:0:0:0:
480,192,28997,1,0,0:0:0:0:
96,192,28997,1,0,0:0:0:0:
416,192,29088,1,0,0:0:0:0:
160,192,29179,1,0,0:0:0:0:
288,192,29179,1,0,0:0:0:0:
352,192,29270,1,0,0:0:0:0:
416,192,29361,1,0,0:0:0:0:
288,192,29361,1,0,0:0:0:0:
96,192,29361,1,0,0:0:0:0:
160,192,29452,1,0,0:0:0:0:
224,192,29543,1,0,0:0:0:0:
352,192,29543,1,0,0:0:0:0:
160,192,29634,1,0,0:0:0:0:
288,192,29725,1,0,0:0:0:0:
416,192,29725,1,0,0:0:0:0:
96,192,29725,1,0,0:0:0:0:
480,192,29815,1,0,0:0:0:0:
224,192,29906,1,0,0:0:0:0:
352,192,29906,1,0,0:0:0:0:
416,192,29997,1,0,0:0:0:0:
224,192,30088,1,0,0:0:0:0:
480,192,30088,1,0,0:0:0:0:
96,192,30088,1,0,0:0:0:0:
160,192,30179,1,0,0:0:0:0:
416,192,30270,1,0,0:0:0:0:
288,192,30270,1,0,0:0:0:0:
160,192,30361,1,0,0:0:0:0:
224,192,30452,1,0,0:0:0:0:
480,192,30452,1,0,0:0:0:0:
96,192,30452,1,0,0:0:0:0:
352,192,30543,1,0,0:0:0:0:
96,192,30634,1,0,0:0:0:0:
288,192,30634,1,0,0:0:0:0:
416,192,30634,1,0,0:0:0:0:
480,192,30725,1,0,0:0:0:0:
96,192,30815,1,0,0:0:0:0:
416,192,30815,1,0,0:0:0:0:
224,192,30815,1,0,0:0:0:0:
288,192,30906,1,0,0:0:0:0:
352,192,30997,1,0,0:0:0:0:
160,192,30997,1,0,0:0:0:0:
288,192,31088,1,0,0:0:0:0:
96,192,31179,1,0,0:0:0:0:
224,192,31179,1,0,0:0:0:0:
416,192,31179,1,0,0:0:0:0:
352,192,31270,1,0,0:0:0:0:
160,192,31361,1,0,0:0:0:0:
288,192,31361,1,0,0:0:0:0:
352,192,31452,1,0,0:0:0:0:
96,192,31543,1,0,0:0:0:0:
224,192,31543,1,0,0:0:0:0:
416,192,31543,1,0,0:0:0:0:
288,192,31634,1,0,0:0:0:0:
160,192,31725,1,0,0:0:0:0:
416,192,31725,1,0,0:0:0:0:
288,192,31815,1,0,0:0:0:0:
96,192,31906,1,0,0:0:0:0:
224,192,31906,1,0,0:0:0:0:
416,192,31906,1,0,0:0:0:0:
480,192,31997,1,0,0:0:0:0:
160,192,32088,1,0,0:0:0:0:
288,192,32088,1,0,0:0:0:0:
480,192,32179,1,0,0:0:0:0:
416,192,32270,1,0,0:0:0:0:
288,192,32270,1,0,0:0:0:0:
96,192,32270,1,0,0:0:0:0:
160,192,32361,1,0,0:0:0:0:
224,192,32452,1,0,0:0:0:0:
352,192,32452,1,0,0:0:0:0:
160,192,32543,1,0,0:0:0:0:
416,192,32634,1,0,0:0:0:0:
288,192,32634,1,0,0:0:0:0:
96,192,32634,1,0,0:0:0:0:
352,192,32725,1,0,0:0:0:0:
160,192,32815,1,0,0:0:0:0:
480,192,32815,1,0,0:0:0:0:
352,192,32906,1,0,0:0:0:0:
416,192,32997,1,0,0:0:0:0:
288,192,32997,1,0,0:0:0:0:
96,192,32997,1,0,0:0:0:0:
160,192,33088,1,0,0:0:0:0:
480,192,33179,1,0,0:0:0:0:
352,192,33179,1,0,0:0:0:0:
224,192,33270,1,0,0:0:0:0:
288,192,33361,1,0,0:0:0:0:
416,192,33361,1,0,0:0:0:0:
96,192,33361,1,0,0:0:0:0:
480,192,33452,1,0,0:0:0:0:
160,192,33543,1,0,0:0:0:0:
352,192,33543,1,0,0:0:0:0:
288,192,33634,1,0,0:0:0:0:
96,192,33725,1,0,0:0:0:0:
224,192,33725,1,0,0:0:0:0:
352,192,33725,1,0,0:0:0:0:
416,192,33815,1,0,0:0:0:0:
480,192,33906,1,0,0:0:0:0:
160,192,33906,1,0,0:0:0:0:
416,192,33997,1,0,0:0:0:0:
224,192,34088,1,0,0:0:0:0:
352,192,34088,1,0,0:0:0:0:
96,192,34088,1,0,0:0:0:0:
480,192,34179,1,0,0:0:0:0:
160,192,34270,1,0,0:0:0:0:
352,192,34270,1,0,0:0:0:0:
416,192,34361,1,0,0:0:0:0:
480,192,34452,1,0,0:0:0:0:
288,192,34452,1,0,0:0:0:0:
96,192,34452,1,0,0:0:0:0:
224,192,34543,1,0,0:0:0:0:
160,192,34634,1,0,0:0:0:0:
352,192,34634,1,0,0:0:0:0:
224,192,34725,1,0,0:0:0:0:
96,192,34815,1,0,0:0:0:0:
480,192,34815,1,0,0:0:0:0:
288,192,34815,1,0,0:0:0:0:
224,192,34906,1,0,0:0:0:0:
160,192,34997,1,0,0:0:0:0:
416,192,34997,1,0,0:0:0:0:
352,192,35088,1,0,0:0:0:0:
224,192,35179,1,0,0:0:0:0:
416,192,35179,1,0,0:0:0:0:
96,192,35179,1,0,0:0:0:0:
480,192,35270,1,0,0:0:0:0:
352,192,35361,1,0,0:0:0:0:
224,192,35361,1,0,0:0:0:0:
160,192,35452,1,0,0:0:0:0:
416,192,35543,1,0,0:0:0:0:
224,192,35543,1,0,0:0:0:0:
96,192,35543,1,0,0:0:0:0:
288,192,35634,1,0,0:0:0:0:
352,192,35725,1,0,0:0:0:0:
160,192,35725,1,0,0:0:0:0:
416,192,35815,1,0,0:0:0:0:
96,192,35906,1,0,0:0:0:0:
288,192,35906,1,0,0:0:0:0:
480,192,35906,1,0,0:0:0:0:
288,192,36088,1,0,0:0:0:0:
480,192,36088,1,0,0:0:0:0:
96,192,36088,1,0,0:0:0:0:
160,192,36452,1,0,0:0:0:0:
288,192,36452,1,0,0:0:0:0:
416,192,36452,1,0,0:0:0:0:
224,192,36634,1,0,0:0:0:0:
96,192,36634,1,0,0:0:0:0:
352,192,36634,1,0,0:0:0:0:
480,192,36634,1,0,0:0:0:0:
32,192,36634,1,0,0:0:0:0:
160,192,36725,1,0,0:0:0:0:
224,192,36815,1,0,0:0:0:0:
416,192,36815,1,0,0:0:0:0:
288,192,36906,1,0,0:0:0:0:
480,192,36906,1,0,0:0:0:0:
352,192,36997,1,0,0:0:0:0:
96,192,36997,1,0,0:0:0:0:
224,192,36997,1,0,0:0:0:0:
288,192,37088,1,0,0:0:0:0:
352,192,37179,1,0,0:0:0:0:
160,192,37179,1,0,0:0:0:0:
416,192,37270,1,0,0:0:0:0:
224,192,37270,1,0,0:0:0:0:
480,192,37361,1,0,0:0:0:0:
96,192,37361,1,0,0:0:0:0:
288,192,37361,1,0,0:0:0:0:
352,192,37452,1,0,0:0:0:0:
288,192,37543,1,0,0:0:0:0:
416,192,37543,1,0,0:0:0:0:
160,192,37634,1,0,0:0:0:0:
480,192,37634,1,0,0:0:0:0:
96,192,37725,1,0,0:0:0:0:
416,192,37725,1,0,0:0:0:0:
288,192,37725,1,0,0:0:0:0:
352,192,37815,1,0,0:0:0:0:
224,192,37906,1,0,0:0:0:0:
480,192,37906,1,0,0:0:0:0:
160,192,37997,1,0,0:0:0:0:
352,192,37997,1,0,0:0:0:0:
96,192,38088,1,0,0:0:0:0:
288,192,38088,1,0,0:0:0:0:
416,192,38088,1,0,0:0:0:0:
160,192,38179,1,0,0:0:0:0:
224,192,38270,1,0,0:0:0:0:
288,192,38270,1,0,0:0:0:0:
352,192,38361,1,0,0:0:0:0:
480,192,38361,1,0,0:0:0:0:
224,192,38452,1,0,0:0:0:0:
96,192,38452,1,0,0:0:0:0:
416,192,38452,1,0,0:0:0:0:
288,192,38543,1,0,0:0:0:0:
352,192,38634,1,0,0:0:0:0:
160,192,38634,1,0,0:0:0:0:
416,192,38725,1,0,0:0:0:0:
224,192,38725,1,0,0:0:0:0:
480,192,38815,1,0,0:0:0:0:
96,192,38815,1,0,0:0:0:0:
288,192,38815,1,0,0:0:0:0:
416,192,38906,1,0,0:0:0:0:
288,192,38997,1,0,0:0:0:0:
480,192,38997,1,0,0:0:0:0:
224,192,39088,1,0,0:0:0:0:
352,192,39088,1,0,0:0:0:0:
416,192,39179,1,0,0:0:0:0:
96,192,39179,1,0,0:0:0:0:
160,192,39179,1,0,0:0:0:0:
352,192,39270,1,0,0:0:0:0:
224,192,39361,1,0,0:0:0:0:
480,192,39361,1,0,0:0:0:0:
160,192,39452,1,0,0:0:0:0:
416,192,39452,1,0,0:0:0:0:
352,192,39543,1,0,0:0:0:0:
96,192,39543,1,0,0:0:0:0:
288,192,39543,1,0,0:0:0:0:
160,192,39634,1,0,0:0:0:0:
352,192,39725,1,0,0:0:0:0:
224,192,39725,1,0,0:0:0:0:
416,192,39815,1,0,0:0:0:0:
480,192,39815,1,0,0:0:0:0:
160,192,39906,1,0,0:0:0:0:
96,192,39906,1,0,0:0:0:0:
352,192,39906,1,0,0:0:0:0:
288,192,39997,1,0,0:0:0:0:
352,192,40088,1,0,0:0:0:0:
224,192,40088,1,0,0:0:0:0:
480,192,40179,1,0,0:0:0:0:
160,192,40179,1,0,0:0:0:0:
416,192,40270,1,0,0:0:0:0:
96,192,40270,1,0,0:0:0:0:
288,192,40270,1,0,0:0:0:0:
352,192,40361,1,0,0:0:0:0:
224,192,40452,1,0,0:0:0:0:
416,192,40452,1,0,0:0:0:0:
160,192,40543,1,0,0:0:0:0:
352,192,40543,1,0,0:0:0:0:
480,192,40634,1,0,0:0:0:0:
96,192,40634,1,0,0:0:0:0:
288,192,40634,1,0,0:0:0:0:
352,192,40725,1,0,0:0:0:0:
288,192,40815,1,0,0:0:0:0:
416,192,40815,1,0,0:0:0:0:
160,192,40906,1,0,0:0:0:0:
480,192,40906,1,0,0:0:0:0:
96,192,40997,1,0,0:0:0:0:
224,192,40997,1,0,0:0:0:0:
416,192,40997,1,0,0:0:0:0:
288,192,41088,1,0,0:0:0:0:
352,192,41179,1,0,0:0:0:0:
160,192,41179,1,0,0:0:0:0:
416,192,41270,1,0,0:0:0:0:
224,192,41270,1,0,0:0:0:0:
96,192,41361,1,0,0:0:0:0:
288,192,41361,1,0,0:0:0:0:
160,192,41361,1,0,0:0:0:0:
352,192,41452,1,0,0:0:0:0:
416,192,41543,1,0,0:0:0:0:
224,192,41543,1,0,0:0:0:0:
480,192,41634,1,0,0:0:0:0:
288,192,41634,1,0,0:0:0:0:
96,192,41725,1,0,0:0:0:0:
160,192,41725,1,0,0:0:0:0:
352,192,41725,1,0,0:0:0:0:
224,192,41815,1,0,0:0:0:0:
288,192,41906,1,0,0:0:0:0:
352,192,41906,1,0,0:0:0:0:
416,192,41997,1,0,0:0:0:0:
480,192,41997,1,0,0:0:0:0:
96,192,42088,1,0,0:0:0:0:
160,192,42088,1,0,0:0:0:0:
352,192,42088,1,0,0:0:0:0:
288,192,42179,1,0,0:0:0:0:
352,192,42270,1,0,0:0:0:0:
224,192,42270,1,0,0:0:0:0:
96,192,42270,1,0,0:0:0:0:
480,192,42361,1,0,0:0:0:0:
160,192,42361,1,0,0:0:0:0:
96,192,42452,1,0,0:0:0:0:
32,192,42452,1,0,0:0:0:0:
224,192,42452,1,0,0:0:0:0:
416,192,42452,1,0,0:0:0:0:
288,192,42543,1,0,0:0:0:0:
416,192,42634,1,0,0:0:0:0:
160,192,42634,1,0,0:0:0:0:
288,192,42725,1,0,0:0:0:0:
224,192,42725,1,0,0:0:0:0:
96,192,42815,1,0,0:0:0:0:
416,192,42815,1,0,0:0:0:0:
352,192,42815,1,0,0:0:0:0:
288,192,42906,1,0,0:0:0:0:
416,192,42997,1,0,0:0:0:0:
160,192,42997,1,0,0:0:0:0:
288,192,43088,1,0,0:0:0:0:
224,192,43088,1,0,0:0:0:0:
352,192,43179,1,0,0:0:0:0:
480,192,43179,1,0,0:0:0:0:
96,192,43179,1,0,0:0:0:0:
224,192,43270,1,0,0:0:0:0:
352,192,43361,1,0,0:0:0:0:
288,192,43361,1,0,0:0:0:0:
224,192,43452,1,0,0:0:0:0:
416,192,43452,1,0,0:0:0:0:
352,192,43543,1,0,0:0:0:0:
96,192,43543,1,0,0:0:0:0:
480,192,43543,1,0,0:0:0:0:
224,192,43634,1,0,0:0:0:0:
352,192,43725,1,0,0:0:0:0:
416,192,43725,1,0,0:0:0:0:
224,192,43815,1,0,0:0:0:0:
160,192,43815,1,0,0:0:0:0:
96,192,43906,1,0,0:0:0:0:
288,192,43906,1,0,0:0:0:0:
480,192,43906,1,0,0:0:0:0:
416,192,43952,1,0,0:0:0:0:
352,192,43997,1,0,0:0:0:0:
480,192,44088,1,0,0:0:0:0:
160,192,44088,1,0,0:0:0:0:
352,192,44179,1,0,0:0:0:0:
224,192,44179,1,0,0:0:0:0:
480,192,44270,1,0,0:0:0:0:
96,192,44270,1,0,0:0:0:0:
288,192,44270,1,0,0:0:0:0:
352,192,44361,1,0,0:0:0:0:
480,192,44452,1,0,0:0:0:0:
224,192,44452,1,0,0:0:0:0:
352,192,44543,1,0,0:0:0:0:
288,192,44543,1,0,0:0:0:0:
160,192,44634,1,0,0:0:0:0:
96,192,44634,1,0,0:0:0:0:
416,192,44634,1,0,0:0:0:0:
288,192,44725,1,0,0:0:0:0:
160,192,44815,1,0,0:0:0:0:
352,192,44815,1,0,0:0:0:0:
288,192,44906,1,0,0:0:0:0:
416,192,44906,1,0,0:0:0:0:
160,192,44997,1,0,0:0:0:0:
96,192,44997,1,0,0:0:0:0:
480,192,44997,1,0,0:0:0:0:
288,192,45088,1,0,0:0:0:0:
160,192,45179,1,0,0:0:0:0:
416,192,45179,1,0,0:0:0:0:
288,192,45270,1,0,0:0:0:0:
352,192,45270,1,0,0:0:0:0:
96,192,45361,1,0,0:0:0:0:
224,192,45361,1,0,0:0:0:0:
416,192,45361,1,0,0:0:0:0:
32,192,45361,1,0,0:0:0:0:
480,192,45452,1,0,0:0:0:0:
416,192,45543,1,0,0:0:0:0:
352,192,45543,1,0,0:0:0:0:
480,192,45634,1,0,0:0:0:0:
288,192,45634,1,0,0:0:0:0:
352,192,45725,1,0,0:0:0:0:
96,192,45725,1,0,0:0:0:0:
224,192,45725,1,0,0:0:0:0:
416,192,45815,1,0,0:0:0:0:
352,192,45906,1,0,0:0:0:0:
288,192,45906,1,0,0:0:0:0:
416,192,45997,1,0,0:0:0:0:
224,192,45997,1,0,0:0:0:0:
288,192,46088,1,0,0:0:0:0:
96,192,46088,1,0,0:0:0:0:
160,192,46088,1,0,0:0:0:0:
32,192,46088,1,0,0:0:0:0:
352,192,46179,1,0,0:0:0:0:
288,192,46270,1,0,0:0:0:0:
224,192,46270,1,0,0:0:0:0:
352,192,46361,1,0,0:0:0:0:
160,192,46361,1,0,0:0:0:0:
224,192,46452,1,0,0:0:0:0:
96,192,46452,1,0,0:0:0:0:
288,192,46497,1,0,0:0:0:0:
352,192,46543,1,0,0:0:0:0:
416,192,46588,1,0,0:0:0:0:
224,192,46634,1,0,0:0:0:0:
96,192,46634,1,0,0:0:0:0:
288,192,46679,1,0,0:0:0:0:
352,192,46725,1,0,0:0:0:0:
416,192,46770,1,0,0:0:0:0:
96,192,46815,1,0,0:0:0:0:
224,192,46815,1,0,0:0:0:0:
480,192,46815,1,0,0:0:0:0:
96,192,48270,1,0,0:0:0:0:
32,192,48270,1,0,0:0:0:0:
224,192,48270,1,0,0:0:0:0:
480,192,48270,1,0,0:0:0:0:
352,192,48270,1,0,0:0:0:0:
416,192,48361,1,0,0:0:0:0:
160,192,48452,1,0,0:0:0:0:
288,192,48452,1,0,0:0:0:0:
352,192,48543,1,0,0:0:0:0:
480,192,48543,1,0,0:0:0:0:
416,192,48634,1,0,0:0:0:0:
96,192,48634,1,0,0:0:0:0:
224,192,48634,1,0,0:0:0:0:
160,192,48725,1,0,0:0:0:0:
288,192,48815,1,0,0:0:0:0:
480,192,48815,1,0,0:0:0:0:
224,192,48906,1,0,0:0:0:0:
96,192,48997,1,0,0:0:0:0:
416,192,48997,1,0,0:0:0:0:
160,192,48997,1,0,0:0:0:0:
224,192,49088,1,0,0:0:0:0:
288,192,49179,1,0,0:0:0:0:
480,192,49179,1,0,0:0:0:0:
224,192,49270,1,0,0:0:0:0:
288,192,49361,1,0,0:0:0:0:
480,192,49361,1,0,0:0:0:0:
96,192,49361,1,0,0:0:0:0:
416,192,49452,1,0,0:0:0:0:
160,192,49543,1,0,0:0:0:0:
352,192,49543,1,0,0:0:0:0:
224,192,49634,1,0,0:0:0:0:
288,192,49725,1,0,0:0:0:0:
96,192,49725,1,0,0:0:0:0:
416,192,49725,1,0,0:0:0:0:
224,192,49815,1,0,0:0:0:0:
160,192,49906,1,0,0:0:0:0:
352,192,49906,1,0,0:0:0:0:
288,192,49997,1,0,0:0:0:0:
480,192,49997,1,0,0:0:0:0:
96,192,50088,1,0,0:0:0:0:
224,192,50088,1,0,0:0:0:0:
416,192,50088,1,0,0:0:0:0:
160,192,50179,1,0,0:0:0:0:
288,192,50270,1,0,0:0:0:0:
416,192,50270,1,0,0:0:0:0:
224,192,50361,1,0,0:0:0:0:
160,192,50452,1,0,0:0:0:0:
352,192,50452,1,0,0:0:0:0:
96,192,50452,1,0,0:0:0:0:
480,192,50543,1,0,0:0:0:0:
416,192,50634,1,0,0:0:0:0:
288,192,50634,1,0,0:0:0:0:
352,192,50725,1,0,0:0:0:0:
160,192,50725,1,0,0:0:0:0:
96,192,50815,1,0,0:0:0:0:
224,192,50815,1,0,0:0:0:0:
480,192,50815,1,0,0:0:0:0:
416,192,50906,1,0,0:0:0:0:
288,192,50997,1,0,0:0:0:0:
352,192,50997,1,0,0:0:0:0:
160,192,51088,1,0,0:0:0:0:
96,192,51179,1,0,0:0:0:0:
288,192,51179,1,0,0:0:0:0:
416,192,51179,1,0,0:0:0:0:
480,192,51270,1,0,0:0:0:0:
352,192,51361,1,0,0:0:0:0:
160,192,51361,1,0,0:0:0:0:
480,192,51452,1,0,0:0:0:0:
416,192,51543,1,0,0:0:0:0:
96,192,51543,1,0,0:0:0:0:
288,192,51543,1,0,0:0:0:0:
224,192,51634,1,0,0:0:0:0:
160,192,51725,1,0,0:0:0:0:
352,192,51725,1,0,0:0:0:0:
224,192,51815,1,0,0:0:0:0:
96,192,51906,1,0,0:0:0:0:
288,192,51906,1,0,0:0:0:0:
416,192,51906,1,0,0:0:0:0:
160,192,51997,1,0,0:0:0:0:
352,192,52088,1,0,0:0:0:0:
416,192,52088,1,0,0:0:0:0:
224,192,52179,1,0,0:0:0:0:
96,192,52270,1,0,0:0:0:0:
288,192,52270,1,0,0:0:0:0:
480,192,52270,1,0,0:0:0:0:
224,192,52361,1,0,0:0:0:0:
160,192,52452,1,0,0:0:0:0:
352,192,52452,1,0,0:0:0:0:
288,192,52543,1,0,0:0:0:0:
352,192,52634,1,0,0:0:0:0:
480,192,52634,1,0,0:0:0:0:
96,192,52634,1,0,0:0:0:0:
224,192,52725,1,0,0:0:0:0:
160,192,52815,1,0,0:0:0:0:
288,192,52815,1,0,0:0:0:0:
480,192,52906,1,0,0:0:0:0:
352,192,52906,1,0,0:0:0:0:
96,192,52997,1,0,0:0:0:0:
224,192,52997,1,0,0:0:0:0:
416,192,52997,1,0,0:0:0:0:
352,192,53088,1,0,0:0:0:0:
160,192,53179,1,0,0:0:0:0:
288,192,53179,1,0,0:0:0:0:
416,192,53270,1,0,0:0:0:0:
224,192,53361,1,0,0:0:0:0:
352,192,53361,1,0,0:0:0:0:
96,192,53361,1,0,0:0:0:0:
416,192,53452,1,0,0:0:0:0:
288,192,53543,1,0,0:0:0:0:
480,192,53543,1,0,0:0:0:0:
352,192,53634,1,0,0:0:0:0:
160,192,53634,1,0,0:0:0:0:
96,192,53725,1,0,0:0:0:0:
416,192,53725,1,0,0:0:0:0:
288,192,53725,1,0,0:0:0:0:
480,192,53815,1,0,0:0:0:0:
96,192,53906,1,0,0:0:0:0:
224,192,53906,1,0,0:0:0:0:
352,192,53906,1,0,0:0:0:0:
416,192,53997,1,0,0:0:0:0:
96,192,54088,1,0,0:0:0:0:
32,192,54088,1,0,0:0:0:0:
352,192,54088,1,0,0:0:0:0:
480,192,54088,1,0,0:0:0:0:
224,192,54179,1,0,0:0:0:0:
160,192,54270,1,0,0:0:0:0:
288,192,54270,1,0,0:0:0:0:
352,192,54361,1,0,0:0:0:0:
480,192,54361,1,0,0:0:0:0:
96,192,54452,1,0,0:0:0:0:
224,192,54452,1,0,0:0:0:0:
416,192,54452,1,0,0:0:0:0:
352,192,54543,1,0,0:0:0:0:
288,192,54634,1,0,0:0:0:0:
160,192,54634,1,0,0:0:0:0:
416,192,54725,1,0,0:0:0:0:
224,192,54815,1,0,0:0:0:0:
352,192,54815,1,0,0:0:0:0:
96,192,54815,1,0,0:0:0:0:
416,192,54906,1,0,0:0:0:0:
160,192,54997,1,0,0:0:0:0:
288,192,54997,1,0,0:0:0:0:
352,192,55088,1,0,0:0:0:0:
224,192,55088,1,0,0:0:0:0:
96,192,55179,1,0,0:0:0:0:
416,192,55179,1,0,0:0:0:0:
480,192,55179,1,0,0:0:0:0:
160,192,55270,1,0,0:0:0:0:
288,192,55361,1,0,0:0:0:0:
224,192,55361,1,0,0:0:0:0:
352,192,55452,1,0,0:0:0:0:
288,192,55543,1,0,0:0:0:0:
416,192,55543,1,0,0:0:0:0:
96,192,55543,1,0,0:0:0:0:
480,192,55634,1,0,0:0:0:0:
160,192,55725,1,0,0:0:0:0:
224,192,55725,1,0,0:0:0:0:
416,192,55815,1,0,0:0:0:0:
288,192,55815,1,0,0:0:0:0:
96,192,55906,1,0,0:0:0:0:
352,192,55906,1,0,0:0:0:0:
480,192,55906,1,0,0:0:0:0:
224,192,55997,1,0,0:0:0:0:
288,192,56088,1,0,0:0:0:0:
416,192,56088,1,0,0:0:0:0:
160,192,56088,1,0,0:0:0:0:
224,192,56179,1,0,0:0:0:0:
352,192,56270,1,0,0:0:0:0:
480,192,56270,1,0,0:0:0:0:
96,192,56270,1,0,0:0:0:0:
288,192,56361,1,0,0:0:0:0:
224,192,56452,1,0,0:0:0:0:
416,192,56452,1,0,0:0:0:0:
352,192,56543,1,0,0:0:0:0:
288,192,56634,1,0,0:0:0:0:
160,192,56634,1,0,0:0:0:0:
96,192,56634,1,0,0:0:0:0:
480,192,56725,1,0,0:0:0:0:
224,192,56815,1,0,0:0:0:0:
416,192,56815,1,0,0:0:0:0:
288,192,56906,1,0,0:0:0:0:
352,192,56997,1,0,0:0:0:0:
480,192,56997,1,0,0:0:0:0:
96,192,56997,1,0,0:0:0:0:
224,192,57088,1,0,0:0:0:0:
160,192,57179,1,0,0:0:0:0:
288,192,57179,1,0,0:0:0:0:
352,192,57270,1,0,0:0:0:0:
480,192,57270,1,0,0:0:0:0:
96,192,57361,1,0,0:0:0:0:
224,192,57361,1,0,0:0:0:0:
416,192,57361,1,0,0:0:0:0:
288,192,57543,1,0,0:0:0:0:
480,192,57543,1,0,0:0:0:0:
416,192,57634,1,0,0:0:0:0:
224,192,57725,1,0,0:0:0:0:
96,192,57725,1,0,0:0:0:0:
352,192,57725,1,0,0:0:0:0:
288,192,57815,1,0,0:0:0:0:
224,192,57906,1,0,0:0:0:0:
416,192,57906,1,0,0:0:0:0:
160,192,57997,1,0,0:0:0:0:
352,192,57997,1,0,0:0:0:0:
96,192,58088,1,0,0:0:0:0:
288,192,58088,1,0,0:0:0:0:
480,192,58088,1,0,0:0:0:0:
224,192,58179,1,0,0:0:0:0:
160,192,58270,1,0,0:0:0:0:
352,192,58270,1,0,0:0:0:0:
416,192,58361,1,0,0:0:0:0:
224,192,58452,1,0,0:0:0:0:
352,192,58452,1,0,0:0:0:0:
96,192,58452,1,0,0:0:0:0:
288,192,58543,1,0,0:0:0:0:
160,192,58634,1,0,0:0:0:0:
416,192,58634,1,0,0:0:0:0:
352,192,58725,1,0,0:0:0:0:
224,192,58725,1,0,0:0:0:0:
96,192,58815,1,0,0:0:0:0:
288,192,58815,1,0,0:0:0:0:
480,192,58815,1,0,0:0:0:0:
160,192,58906,1,0,0:0:0:0:
224,192,58997,1,0,0:0:0:0:
416,192,58997,1,0,0:0:0:0:
352,192,59088,1,0,0:0:0:0:
160,192,59179,1,0,0:0:0:0:
416,192,59179,1,0,0:0:0:0:
96,192,59179,1,0,0:0:0:0:
224,192,59270,1,0,0:0:0:0:
96,192,59361,1,0,0:0:0:0:
288,192,59361,1,0,0:0:0:0:
480,192,59361,1,0,0:0:0:0:
416,192,59452,1,0,0:0:0:0:
160,192,59452,1,0,0:0:0:0:
96,192,59543,1,0,0:0:0:0:
352,192,59543,1,0,0:0:0:0:
224,192,59543,1,0,0:0:0:0:
416,192,59634,1,0,0:0:0:0:
96,192,59725,1,0,0:0:0:0:
480,192,59725,1,0,0:0:0:0:
288,192,59725,1,0,0:0:0:0:
224,192,59815,1,0,0:0:0:0:
352,192,59815,1,0,0:0:0:0:
96,192,59906,1,0,0:0:0:0:
32,192,59906,1,0,0:0:0:0:
288,192,59906,1,0,0:0:0:0:
480,192,59906,1,0,0:0:0:0:
416,192,59997,1,0,0:0:0:0:
160,192,60088,1,0,0:0:0:0:
352,192,60088,1,0,0:0:0:0:
224,192,60179,1,0,0:0:0:0:
480,192,60179,1,0,0:0:0:0:
96,192,60270,1,0,0:0:0:0:
288,192,60270,1,0,0:0:0:0:
416,192,60270,1,0,0:0:0:0:
352,192,60361,1,0,0:0:0:0:
288,192,60452,1,0,0:0:0:0:
160,192,60452,1,0,0:0:0:0:
416,192,60543,1,0,0:0:0:0:
352,192,60634,1,0,0:0:0:0:
96,192,60634,1,0,0:0:0:0:
224,192,60634,1,0,0:0:0:0:
480,192,60725,1,0,0:0:0:0:
160,192,60815,1,0,0:0:0:0:
416,192,60815,1,0,0:0:0:0:
352,192,60906,1,0,0:0:0:0:
288,192,60997,1,0,0:0:0:0:
96,192,60997,1,0,0:0:0:0:
480,192,60997,1,0,0:0:0:0:
352,192,61088,1,0,0:0:0:0:
160,192,61179,1,0,0:0:0:0:
224,192,61179,1,0,0:0:0:0:
288,192,61270,1,0,0:0:0:0:
352,192,61361,1,0,0:0:0:0:
480,192,61361,1,0,0:0:0:0:
96,192,61361,1,0,0:0:0:0:
224,192,61452,1,0,0:0:0:0:
160,192,61543,1,0,0:0:0:0:
288,192,61543,1,0,0:0:0:0:
352,192,61634,1,0,0:0:0:0:
480,192,61634,1,0,0:0:0:0:
96,192,61725,1,0,0:0:0:0:
224,192,61725,1,0,0:0:0:0:
416,192,61725,1,0,0:0:0:0:
160,192,61815,1,0,0:0:0:0:
352,192,61906,1,0,0:0:0:0:
224,192,61906,1,0,0:0:0:0:
160,192,61997,1,0,0:0:0:0:
416,192,62088,1,0,0:0:0:0:
288,192,62088,1,0,0:0:0:0:
96,192,62088,1,0,0:0:0:0:
224,192,62179,1,0,0:0:0:0:
352,192,62270,1,0,0:0:0:0:
480,192,62270,1,0,0:0:0:0:
416,192,62361,1,0,0:0:0:0:
288,192,62361,1,0,0:0:0:0:
96,192,62452,1,0,0:0:0:0:
224,192,62452,1,0,0:0:0:0:
480,192,62452,1,0,0:0:0:0:
352,192,62543,1,0,0:0:0:0:
416,192,62634,1,0,0:0:0:0:
288,192,62634,1,0,0:0:0:0:
160,192,62725,1,0,0:0:0:0:
224,192,62815,1,0,0:0:0:0:
352,192,62815,1,0,0:0:0:0:
96,192,62815,1,0,0:0:0:0:
480,192,62906,1,0,0:0:0:0:
288,192,62997,1,0,0:0:0:0:
416,192,62997,1,0,0:0:0:0:
352,192,63088,1,0,0:0:0:0:
224,192,63088,1,0,0:0:0:0:
96,192,63179,1,0,0:0:0:0:
160,192,63179,1,0,0:0:0:0:
480,192,63179,1,0,0:0:0:0:
288,192,63270,1,0,0:0:0:0:
224,192,63361,1,0,0:0:0:0:
352,192,63361,1,0,0:0:0:0:
416,192,63452,1,0,0:0:0:0:
96,192,63543,1,0,0:0:0:0:
288,192,63543,1,0,0:0:0:0:
480,192,63543,1,0,0:0:0:0:
352,192,63634,1,0,0:0:0:0:
160,192,63725,1,0,0:0:0:0:
288,192,63725,1,0,0:0:0:0:
224,192,63815,1,0,0:0:0:0:
96,192,63906,1,0,0:0:0:0:
288,192,63906,1,0,0:0:0:0:
416,192,63906,1,0,0:0:0:0:
480,192,63997,1,0,0:0:0:0:
352,192,64088,1,0,0:0:0:0:
224,192,64088,1,0,0:0:0:0:
288,192,64179,1,0,0:0:0:0:
352,192,64270,1,0,0:0:0:0:
480,192,64270,1,0,0:0:0:0:
96,192,64270,1,0,0:0:0:0:
224,192,64361,1,0,0:0:0:0:
160,192,64452,1,0,0:0:0:0:
288,192,64452,1,0,0:0:0:0:
480,192,64543,1,0,0:0:0:0:
352,192,64543,1,0,0:0:0:0:
96,192,64634,1,0,0:0:0:0:
224,192,64634,1,0,0:0:0:0:
288,192,64634,1,0,0:0:0:0:
160,192,64725,1,0,0:0:0:0:
352,192,64815,1,0,0:0:0:0:
480,192,64815,1,0,0:0:0:0:
224,192,64906,1,0,0:0:0:0:
288,192,64997,1,0,0:0:0:0:
416,192,64997,1,0,0:0:0:0:
96,192,64997,1,0,0:0:0:0:
224,192,65088,1,0,0:0:0:0:
352,192,65179,1,0,0:0:0:0:
480,192,65179,1,0,0:0:0:0:
416,192,65270,1,0,0:0:0:0:
288,192,65270,1,0,0:0:0:0:
96,192,65361,1,0,0:0:0:0:
224,192,65361,1,0,0:0:0:0:
480,192,65361,1,0,0:0:0:0:
352,192,65452,1,0,0:0:0:0:
96,192,65543,1,0,0:0:0:0:
288,192,65543,1,0,0:0:0:0:
416,192,65543,1,0,0:0:0:0:
160,192,65634,1,0,0:0:0:0:
352,192,65725,1,0,0:0:0:0:
96,192,65725,1,0,0:0:0:0:
32,192,65725,1,0,0:0:0:0:
480,192,65725,1,0,0:0:0:0:
224,192,65815,1,0,0:0:0:0:
416,192,65906,1,0,0:0:0:0:
160,192,65906,1,0,0:0:0:0:
352,192,65997,1,0,0:0:0:0:
224,192,65997,1,0,0:0:0:0:
96,192,66088,1,0,0:0:0:0:
416,192,66088,1,0,0:0:0:0:
288,192,66088,1,0,0:0:0:0:
224,192,66179,1,0,0:0:0:0:
352,192,66270,1,0,0:0:0:0:
160,192,66270,1,0,0:0:0:0:
416,192,66361,1,0,0:0:0:0:
224,192,66452,1,0,0:0:0:0:
352,192,66452,1,0,0:0:0:0:
96,192,66452,1,0,0:0:0:0:
416,192,66543,1,0,0:0:0:0:
160,192,66634,1,0,0:0:0:0:
288,192,66634,1,0,0:0:0:0:
352,192,66725,1,0,0:0:0:0:
224,192,66725,1,0,0:0:0:0:
96,192,66815,1,0,0:0:0:0:
288,192,66815,1,0,0:0:0:0:
416,192,66815,1,0,0:0:0:0:
480,192,66906,1,0,0:0:0:0:
288,192,66997,1,0,0:0:0:0:
160,192,66997,1,0,0:0:0:0:
416,192,67088,1,0,0:0:0:0:
480,192,67179,1,0,0:0:0:0:
96,192,67179,1,0,0:0:0:0:
224,192,67179,1,0,0:0:0:0:
160,192,67270,1,0,0:0:0:0:
224,192,67361,1,0,0:0:0:0:
288,192,67361,1,0,0:0:0:0:
352,192,67452,1,0,0:0:0:0:
480,192,67452,1,0,0:0:0:0:
288,192,67543,1,0,0:0:0:0:
96,192,67543,1,0,0:0:0:0:
160,192,67543,1,0,0:0:0:0:
352,192,67634,1,0,0:0:0:0:
224,192,67725,1,0,0:0:0:0:
416,192,67725,1,0,0:0:0:0:
288,192,67815,1,0,0:0:0:0:
96,192,67906,1,0,0:0:0:0:
224,192,67906,1,0,0:0:0:0:
352,192,67906,1,0,0:0:0:0:
160,192,67997,1,0,0:0:0:0:
480,192,68088,1,0,0:0:0:0:
352,192,68088,1,0,0:0:0:0:
224,192,68179,1,0,0:0:0:0:
288,192,68270,1,0,0:0:0:0:
160,192,68270,1,0,0:0:0:0:
96,192,68270,1,0,0:0:0:0:
352,192,68361,1,0,0:0:0:0:
224,192,68452,1,0,0:0:0:0:
416,192,68452,1,0,0:0:0:0:
288,192,68543,1,0,0:0:0:0:
352,192,68634,1,0,0:0:0:0:
480,192,68634,1,0,0:0:0:0:
96,192,68634,1,0,0:0:0:0:
32,192,68634,1,0,0:0:0:0:
224,192,68634,1,0,0:0:0:0:
416,192,68725,1,0,0:0:0:0:
160,192,68815,1,0,0:0:0:0:
288,192,68815,1,0,0:0:0:0:
352,192,68906,1,0,0:0:0:0:
480,192,68906,1,0,0:0:0:0:
224,192,68906,1,0,0:0:0:0:
96,192,68997,1,0,0:0:0:0:
288,192,68997,1,0,0:0:0:0:
416,192,68997,1,0,0:0:0:0:
224,192,69088,1,0,0:0:0:0:
160,192,69179,1,0,0:0:0:0:
416,192,69179,1,0,0:0:0:0:
224,192,69270,1,0,0:0:0:0:
352,192,69270,1,0,0:0:0:0:
288,192,69361,1,0,0:0:0:0:
416,192,69361,1,0,0:0:0:0:
96,192,69361,1,0,0:0:0:0:
160,192,69452,1,0,0:0:0:0:
480,192,69543,1,0,0:0:0:0:
224,192,69543,1,0,0:0:0:0:
416,192,69634,1,0,0:0:0:0:
288,192,69634,1,0,0:0:0:0:
96,192,69725,1,0,0:0:0:0:
352,192,69725,1,0,0:0:0:0:
224,192,69725,1,0,0:0:0:0:
160,192,69815,1,0,0:0:0:0:
96,192,69906,1,0,0:0:0:0:
416,192,69906,1,0,0:0:0:0:
288,192,69906,1,0,0:0:0:0:
480,192,69997,1,0,0:0:0:0:
352,192,69997,1,0,0:0:0:0:
96,192,70088,1,0,0:0:0:0:
416,192,70088,1,0,0:0:0:0:
288,192,70088,1,0,0:0:0:0:
160,192,70149,1,0,0:0:0:0:
352,192,70179,1,0,0:0:0:0:
224,192,70209,1,0,0:0:0:0:
96,192,70270,1,0,0:0:0:0:
416,192,70270,1,0,0:0:0:0:
224,192,70361,1,0,0:0:0:0:
352,192,70361,1,0,0:0:0:0:
480,192,70452,1,0,0:0:0:0:
160,192,70452,1,0,0:0:0:0:
288,192,70452,1,0,0:0:0:0:
416,192,70512,1,0,0:0:0:0:
224,192,70543,1,0,0:0:0:0:
352,192,70573,1,0,0:0:0:0:
480,192,70634,1,0,0:0:0:0:
160,192,70634,1,0,0:0:0:0:
352,192,70725,1,0,0:0:0:0:
224,192,70725,1,0,0:0:0:0:
480,192,70815,1,0,0:0:0:0:
288,192,70815,1,0,0:0:0:0:
96,192,70815,1,0,0:0:0:0:
160,192,70876,1,0,0:0:0:0:
416,192,70906,1,0,0:0:0:0:
224,192,70937,1,0,0:0:0:0:
96,192,70997,1,0,0:0:0:0:
480,192,70997,1,0,0:0:0:0:
224,192,71088,1,0,0:0:0:0:
416,192,71088,1,0,0:0:0:0:
480,192,71179,1,0,0:0:0:0:
96,192,71179,1,0,0:0:0:0:
288,192,71179,1,0,0:0:0:0:
416,192,71240,1,0,0:0:0:0:
160,192,71270,1,0,0:0:0:0:
352,192,71300,1,0,0:0:0:0:
480,192,71361,1,0,0:0:0:0:
96,192,71361,1,0,0:0:0:0:
288,192,71361,1,0,0:0:0:0:
352,192,71452,1,0,0:0:0:0:
160,192,71452,1,0,0:0:0:0:
96,192,71543,5,0,0:0:0:0:
32,192,71543,1,0,0:0:0:0:
224,192,71543,1,0,0:0:0:0:
480,192,71543,1,0,0:0:0:0:
288,192,71634,1,0,0:0:0:0:
352,192,71725,1,0,0:0:0:0:
224,192,71725,1,0,0:0:0:0:
416,192,71815,1,0,0:0:0:0:
160,192,71815,1,0,0:0:0:0:
480,192,71906,1,0,0:0:0:0:
96,192,71906,1,0,0:0:0:0:
224,192,71906,1,0,0:0:0:0:
416,192,71997,1,0,0:0:0:0:
352,192,72088,1,0,0:0:0:0:
224,192,72088,1,0,0:0:0:0:
288,192,72179,1,0,0:0:0:0:
160,192,72270,1,0,0:0:0:0:
96,192,72270,1,0,0:0:0:0:
352,192,72270,1,0,0:0:0:0:
224,192,72361,1,0,0:0:0:0:
352,192,72452,1,0,0:0:0:0:
288,192,72452,1,0,0:0:0:0:
416,192,72543,1,0,0:0:0:0:
224,192,72543,1,0,0:0:0:0:
480,192,72634,1,0,0:0:0:0:
96,192,72634,1,0,0:0:0:0:
288,192,72634,1,0,0:0:0:0:
416,192,72725,1,0,0:0:0:0:
352,192,72815,1,0,0:0:0:0:
160,192,72815,1,0,0:0:0:0:
224,192,72906,1,0,0:0:0:0:
96,192,72997,1,0,0:0:0:0:
288,192,72997,1,0,0:0:0:0:
416,192,72997,1,0,0:0:0:0:
160,192,73088,1,0,0:0:0:0:
224,192,73179,1,0,0:0:0:0:
288,192,73179,1,0,0:0:0:0:
352,192,73270,1,0,0:0:0:0:
480,192,73270,1,0,0:0:0:0:
160,192,73361,1,0,0:0:0:0:
96,192,73361,1,0,0:0:0:0:
416,192,73361,1,0,0:0:0:0:
288,192,73452,1,0,0:0:0:0:
352,192,73543,1,0,0:0:0:0:
224,192,73543,1,0,0:0:0:0:
416,192,73634,1,0,0:0:0:0:
96,192,73725,1,0,0:0:0:0:
480,192,73725,1,0,0:0:0:0:
352,192,73725,1,0,0:0:0:0:
224,192,73815,1,0,0:0:0:0:
288,192,73906,1,0,0:0:0:0:
160,192,73906,1,0,0:0:0:0:
416,192,73997,1,0,0:0:0:0:
480,192,73997,1,0,0:0:0:0:
224,192,74088,1,0,0:0:0:0:
96,192,74088,1,0,0:0:0:0:
352,192,74088,1,0,0:0:0:0:
288,192,74179,1,0,0:0:0:0:
352,192,74270,1,0,0:0:0:0:
160,192,74270,1,0,0:0:0:0:
480,192,74361,1,0,0:0:0:0:
288,192,74361,1,0,0:0:0:0:
416,192,74452,1,0,0:0:0:0:
96,192,74452,1,0,0:0:0:0:
32,192,74452,1,0,0:0:0:0:
224,192,74452,1,0,0:0:0:0:
288,192,74543,1,0,0:0:0:0:
224,192,74634,1,0,0:0:0:0:
352,192,74634,1,0,0:0:0:0:
160,192,74725,1,0,0:0:0:0:
416,192,74725,1,0,0:0:0:0:
96,192,74815,1,0,0:0:0:0:
480,192,74815,1,0,0:0:0:0:
352,192,74815,1,0,0:0:0:0:
224,192,74906,1,0,0:0:0:0:
288,192,74997,1,0,0:0:0:0:
352,192,74997,1,0,0:0:0:0:
416,192,75088,1,0,0:0:0:0:
480,192,75179,1,0,0:0:0:0:
96,192,75179,1,0,0:0:0:0:
224,192,75179,1,0,0:0:0:0:
352,192,75270,1,0,0:0:0:0:
288,192,75361,1,0,0:0:0:0:
416,192,75361,1,0,0:0:0:0:
224,192,75452,1,0,0:0:0:0:
352,192,75452,1,0,0:0:0:0:
480,192,75543,1,0,0:0:0:0:
96,192,75543,1,0,0:0:0:0:
160,192,75543,1,0,0:0:0:0:
352,192,75634,1,0,0:0:0:0:
288,192,75725,1,0,0:0:0:0:
160,192,75725,1,0,0:0:0:0:
224,192,75815,1,0,0:0:0:0:
416,192,75906,1,0,0:0:0:0:
96,192,75906,1,0,0:0:0:0:
480,192,75906,1,0,0:0:0:0:
352,192,75997,1,0,0:0:0:0:
288,192,76088,1,0,0:0:0:0:
224,192,76088,1,0,0:0:0:0:
160,192,76179,1,0,0:0:0:0:
352,192,76179,1,0,0:0:0:0:
416,192,76270,1,0,0:0:0:0:
96,192,76270,1,0,0:0:0:0:
224,192,76270,1,0,0:0:0:0:
352,192,76361,1,0,0:0:0:0:
288,192,76452,1,0,0:0:0:0:
160,192,76452,1,0,0:0:0:0:
224,192,76543,1,0,0:0:0:0:
480,192,76634,1,0,0:0:0:0:
96,192,76634,1,0,0:0:0:0:
352,192,76634,1,0,0:0:0:0:
416,192,76725,1,0,0:0:0:0:
288,192,76815,1,0,0:0:0:0:
160,192,76815,1,0,0:0:0:0:
224,192,76906,1,0,0:0:0:0:
352,192,76906,1,0,0:0:0:0:
416,192,76997,1,0,0:0:0:0:
96,192,76997,1,0,0:0:0:0:
480,192,76997,1,0,0:0:0:0:
352,192,77088,1,0,0:0:0:0:
224,192,77179,1,0,0:0:0:0:
96,192,77179,1,0,0:0:0:0:
416,192,77179,1,0,0:0:0:0:
160,192,77270,1,0,0:0:0:0:
352,192,77270,1,0,0:0:0:0:
96,192,77361,1,0,0:0:0:0:
32,192,77361,1,0,0:0:0:0:
288,192,77361,1,0,0:0:0:0:
480,192,77361,1,0,0:0:0:0:
224,192,77452,1,0,0:0:0:0:
288,192,77543,1,0,0:0:0:0:
352,192,77543,1,0,0:0:0:0:
416,192,77634,1,0,0:0:0:0:
480,192,77634,1,0,0:0:0:0:
96,192,77725,1,0,0:0:0:0:
224,192,77725,1,0,0:0:0:0:
352,192,77725,1,0,0:0:0:0:
288,192,77815,1,0,0:0:0:0:
352,192,77906,1,0,0:0:0:0:
160,192,77906,1,0,0:0:0:0:
480,192,77997,1,0,0:0:0:0:
96,192,78088,1,0,0:0:0:0:
32,192,78088,1,0,0:0:0:0:
224,192,78088,1,0,0:0:0:0:
416,192,78088,1,0,0:0:0:0:
160,192,78179,1,0,0:0:0:0:
288,192,78270,1,0,0:0:0:0:
416,192,78270,1,0,0:0:0:0:
352,192,78361,1,0,0:0:0:0:
480,192,78361,1,0,0:0:0:0:
160,192,78452,1,0,0:0:0:0:
96,192,78452,1,0,0:0:0:0:
288,192,78452,1,0,0:0:0:0:
224,192,78543,1,0,0:0:0:0:
352,192,78634,1,0,0:0:0:0:
160,192,78634,1,0,0:0:0:0:
416,192,78725,1,0,0:0:0:0:
96,192,78815,1,0,0:0:0:0:
288,192,78815,1,0,0:0:0:0:
480,192,78815,1,0,0:0:0:0:
32,192,78815,1,0,0:0:0:0:
224,192,78997,1,0,0:0:0:0:
352,192,78997,1,0,0:0:0:0:
224,192,79088,1,0,0:0:0:0:
96,192,79179,1,0,0:0:0:0:
288,192,79179,1,0,0:0:0:0:
480,192,79179,1,0,0:0:0:0:
224,192,79270,1,0,0:0:0:0:
288,192,79361,1,0,0:0:0:0:
160,192,79361,1,0,0:0:0:0:
352,192,79452,1,0,0:0:0:0:
480,192,79543,1,0,0:0:0:0:
96,192,79543,1,0,0:0:0:0:
32,192,79543,1,0,0:0:0:0:
224,192,79543,1,0,0:0:0:0:
416,192,79634,1,0,0:0:0:0:
288,192,79725,1,0,0:0:0:0:
160,192,79725,1,0,0:0:0:0:
224,192,79815,1,0,0:0:0:0:
352,192,79815,1,0,0:0:0:0:
480,192,79906,1,0,0:0:0:0:
96,192,79906,1,0,0:0:0:0:
160,192,79906,1,0,0:0:0:0:
416,192,79997,1,0,0:0:0:0:
288,192,80088,1,0,0:0:0:0:
352,192,80088,1,0,0:0:0:0:
224,192,80179,1,0,0:0:0:0:
160,192,80179,1,0,0:0:0:0:
480,192,80270,1,0,0:0:0:0:
96,192,80270,1,0,0:0:0:0:
416,192,80270,1,0,0:0:0:0:
352,192,80361,1,0,0:0:0:0:
288,192,80452,1,0,0:0:0:0:
160,192,80452,1,0,0:0:0:0:
224,192,80543,1,0,0:0:0:0:
352,192,80543,1,0,0:0:0:0:
416,192,80634,1,0,0:0:0:0:
96,192,80634,1,0,0:0:0:0:
480,192,80634,1,0,0:0:0:0:
288,192,80725,1,0,0:0:0:0:
224,192,80815,1,0,0:0:0:0:
352,192,80815,1,0,0:0:0:0:
160,192,80906,1,0,0:0:0:0:
416,192,80997,1,0,0:0:0:0:
96,192,80997,1,0,0:0:0:0:
224,192,80997,1,0,0:0:0:0:
288,192,81088,1,0,0:0:0:0:
416,192,81179,1,0,0:0:0:0:
224,192,81179,1,0,0:0:0:0:
288,192,81270,1,0,0:0:0:0:
160,192,81270,1,0,0:0:0:0:
352,192,81361,1,0,0:0:0:0:
96,192,81361,1,0,0:0:0:0:
480,192,81361,1,0,0:0:0:0:
288,192,81452,1,0,0:0:0:0:
224,192,81543,1,0,0:0:0:0:
352,192,81543,1,0,0:0:0:0:
160,192,81634,1,0,0:0:0:0:
416,192,81725,1,0,0:0:0:0:
96,192,81725,1,0,0:0:0:0:
32,192,81725,1,0,0:0:0:0:
288,192,81725,1,0,0:0:0:0:
352,192,81815,1,0,0:0:0:0:
288,192,81906,1,0,0:0:0:0:
160,192,81906,1,0,0:0:0:0:
224,192,81997,1,0,0:0:0:0:
352,192,81997,1,0,0:0:0:0:
416,192,82088,1,0,0:0:0:0:
96,192,82088,1,0,0:0:0:0:
480,192,82088,1,0,0:0:0:0:
288,192,82179,1,0,0:0:0:0:
416,192,82270,1,0,0:0:0:0:
160,192,82270,1,0,0:0:0:0:
288,192,82361,1,0,0:0:0:0:
224,192,82452,1,0,0:0:0:0:
96,192,82452,1,0,0:0:0:0:
32,192,82452,1,0,0:0:0:0:
480,192,82452,1,0,0:0:0:0:
288,192,82543,1,0,0:0:0:0:
352,192,82634,1,0,0:0:0:0:
224,192,82634,1,0,0:0:0:0:
416,192,82725,1,0,0:0:0:0:
288,192,82725,1,0,0:0:0:0:
160,192,82815,1,0,0:0:0:0:
96,192,82815,1,0,0:0:0:0:
480,192,82815,1,0,0:0:0:0:
224,192,82906,1,0,0:0:0:0:
288,192,82997,1,0,0:0:0:0:
416,192,82997,1,0,0:0:0:0:
352,192,83088,1,0,0:0:0:0:
480,192,83088,1,0,0:0:0:0:
96,192,83179,1,0,0:0:0:0:
32,192,83179,1,0,0:0:0:0:
224,192,83179,1,0,0:0:0:0:
416,192,83179,1,0,0:0:0:0:
160,192,83361,1,0,0:0:0:0:
352,192,83361,1,0,0:0:0:0:
352,192,83452,1,0,0:0:0:0:
224,192,83543,1,0,0:0:0:0:
416,192,83543,1,0,0:0:0:0:
96,192,83543,1,0,0:0:0:0:
288,192,83634,1,0,0:0:0:0:
352,192,83725,1,0,0:0:0:0:
224,192,83725,1,0,0:0:0:0:
416,192,83815,1,0,0:0:0:0:
480,192,83906,1,0,0:0:0:0:
96,192,83906,1,0,0:0:0:0:
32,192,83906,1,0,0:0:0:0:
288,192,83906,1,0,0:0:0:0:
352,192,83997,1,0,0:0:0:0:
288,192,84088,1,0,0:0:0:0:
224,192,84088,1,0,0:0:0:0:
160,192,84179,1,0,0:0:0:0:
416,192,84179,1,0,0:0:0:0:
480,192,84270,1,0,0:0:0:0:
96,192,84270,1,0,0:0:0:0:
224,192,84270,1,0,0:0:0:0:
352,192,84361,1,0,0:0:0:0:
288,192,84452,1,0,0:0:0:0:
416,192,84452,1,0,0:0:0:0:
160,192,84543,1,0,0:0:0:0:
416,192,84634,1,0,0:0:0:0:
96,192,84634,1,0,0:0:0:0:
352,192,84634,1,0,0:0:0:0:
288,192,84725,1,0,0:0:0:0:
224,192,84815,1,0,0:0:0:0:
352,192,84815,1,0,0:0:0:0:
160,192,84906,1,0,0:0:0:0:
288,192,84906,1,0,0:0:0:0:
480,192,84997,1,0,0:0:0:0:
96,192,84997,1,0,0:0:0:0:
224,192,84997,1,0,0:0:0:0:
416,192,85088,1,0,0:0:0:0:
288,192,85179,1,0,0:0:0:0:
160,192,85179,1,0,0:0:0:0:
224,192,85270,1,0,0:0:0:0:
416,192,85361,1,0,0:0:0:0:
96,192,85361,1,0,0:0:0:0:
288,192,85361,1,0,0:0:0:0:
352,192,85452,1,0,0:0:0:0:
224,192,85543,1,0,0:0:0:0:
416,192,85543,1,0,0:0:0:0:
160,192,85634,1,0,0:0:0:0:
352,192,85634,1,0,0:0:0:0:
480,192,85725,1,0,0:0:0:0:
96,192,85725,1,0,0:0:0:0:
288,192,85725,1,0,0:0:0:0:
416,192,85815,1,0,0:0:0:0:
352,192,85906,1,0,0:0:0:0:
160,192,85906,1,0,0:0:0:0:
224,192,85997,1,0,0:0:0:0:
288,192,85997,1,0,0:0:0:0:
96,192,86088,1,0,0:0:0:0:
32,192,86088,1,0,0:0:0:0:
352,192,86088,1,0,0:0:0:0:
480,192,86088,1,0,0:0:0:0:
288,192,86179,1,0,0:0:0:0:
352,192,86270,1,0,0:0:0:0:
160,192,86270,1,0,0:0:0:0:
416,192,86361,5,0,0:0:0:0:
224,192,86361,1,0,0:0:0:0:
480,192,86452,1,0,0:0:0:0:
96,192,86452,1,0,0:0:0:0:
288,192,86452,1,0,0:0:0:0:
352,192,86543,1,0,0:0:0:0:
288,192,86634,1,0,0:0:0:0:
416,192,86634,1,0,0:0:0:0:
224,192,86725,1,0,0:0:0:0:
160,192,86815,1,0,0:0:0:0:
96,192,86815,1,0,0:0:0:0:
32,192,86815,1,0,0:0:0:0:
480,192,86815,1,0,0:0:0:0:
288,192,86906,1,0,0:0:0:0:
352,192,86997,1,0,0:0:0:0:
224,192,86997,1,0,0:0:0:0:
480,192,87088,1,0,0:0:0:0:
160,192,87088,1,0,0:0:0:0:
416,192,87179,1,0,0:0:0:0:
96,192,87179,1,0,0:0:0:0:
288,192,87179,1,0,0:0:0:0:
352,192,87270,1,0,0:0:0:0:
224,192,87361,1,0,0:0:0:0:
416,192,87361,1,0,0:0:0:0:
160,192,87452,1,0,0:0:0:0:
96,192,87543,5,0,0:0:0:0:
32,192,87543,1,0,0:0:0:0:
480,192,87543,1,0,0:0:0:0:
288,192,87543,1,0,0:0:0:0:
160,192,88270,1,0,0:0:0:0:
288,192,88361,1,0,0:0:0:0:
352,192,88452,1,0,0:0:0:0:
480,192,88543,1,0,0:0:0:0:
416,192,88634,1,0,0:0:0:0:
352,192,88725,1,0,0:0:0:0:
224,192,88815,1,0,0:0:0:0:
160,192,88906,1,0,0:0:0:0:
96,192,88997,1,0,0:0:0:0:
32,192,88997,1,0,0:0:0:0:
288,192,88997,1,0,0:0:0:0:
480,192,89088,1,0,0:0:0:0:
352,192,89179,1,0,0:0:0:0:
480,192,89270,1,0,0:0:0:0:
160,192,89361,1,0,0:0:0:0:
416,192,89452,1,0,0:0:0:0:
288,192,89543,1,0,0:0:0:0:
416,192,89634,1,0,0:0:0:0:
160,192,89725,1,0,0:0:0:0:
352,192,89815,1,0,0:0:0:0:
224,192,89906,1,0,0:0:0:0:
352,192,89997,1,0,0:0:0:0:
416,192,90088,1,0,0:0:0:0:
160,192,90179,1,0,0:0:0:0:
288,192,90270,1,0,0:0:0:0:
160,192,90361,1,0,0:0:0:0:
96,192,90452,5,0,0:0:0:0:
224,192,90452,1,0,0:0:0:0:
416,192,90543,1,0,0:0:0:0:
96,192,90634,1,0,0:0:0:0:
288,192,90634,1,0,0:0:0:0:
416,192,90725,1,0,0:0:0:0:
96,192,90815,1,0,0:0:0:0:
224,192,90815,1,0,0:0:0:0:
416,192,90906,1,0,0:0:0:0:
96,192,90997,1,0,0:0:0:0:
288,192,90997,1,0,0:0:0:0:
416,192,91088,1,0,0:0:0:0:
96,192,91179,5,0,0:0:0:0:
224,192,91179,1,0,0:0:0:0:
352,192,91179,1,0,0:0:0:0:
160,192,91270,1,0,0:0:0:0:
288,192,91270,1,0,0:0:0:0:
416,192,91270,1,0,0:0:0:0:
224,192,91361,1,0,0:0:0:0:
352,192,91361,1,0,0:0:0:0:
480,192,91361,1,0,0:0:0:0:
416,192,91452,1,0,0:0:0:0:
288,192,91452,1,0,0:0:0:0:
160,192,91452,1,0,0:0:0:0:
224,192,91543,1,0,0:0:0:0:
96,192,91543,1,0,0:0:0:0:
352,192,91543,1,0,0:0:0:0:
160,192,91634,1,0,0:0:0:0:
288,192,91634,1,0,0:0:0:0:
224,192,91725,1,0,0:0:0:0:
352,192,91725,1,0,0:0:0:0:
288,192,91815,1,0,0:0:0:0:
416,192,91815,1,0,0:0:0:0:
352,192,91906,1,0,0:0:0:0:
480,192,91906,1,0,0:0:0:0:
96,192,91906,1,0,0:0:0:0:
32,192,91906,1,0,0:0:0:0:
224,192,91906,1,0,0:0:0:0:
224,192,92088,1,0,0:0:0:0:
352,192,92088,1,0,0:0:0:0:
288,192,92179,1,0,0:0:0:0:
416,192,92179,1,0,0:0:0:0:
96,192,92270,1,0,0:0:0:0:
352,192,92270,1,0,0:0:0:0:
480,192,92270,1,0,0:0:0:0:
288,192,92452,1,0,0:0:0:0:
416,192,92452,1,0,0:0:0:0:
352,192,92543,1,0,0:0:0:0:
480,192,92543,1,0,0:0:0:0:
416,192,92634,1,0,0:0:0:0:
288,192,92634,1,0,0:0:0:0:
96,192,92634,1,0,0:0:0:0:
352,192,92725,1,0,0:0:0:0:
224,192,92725,1,0,0:0:0:0:
160,192,92815,1,0,0:0:0:0:
288,192,92815,1,0,0:0:0:0:
224,192,92906,1,0,0:0:0:0:
352,192,92906,1,0,0:0:0:0:
96,192,92997,1,0,0:0:0:0:
160,192,92997,1,0,0:0:0:0:
288,192,92997,1,0,0:0:0:0:
224,192,93088,1,0,0:0:0:0:
352,192,93088,1,0,0:0:0:0:
288,192,93179,1,0,0:0:0:0:
416,192,93179,1,0,0:0:0:0:
352,192,93270,1,0,0:0:0:0:
480,192,93270,1,0,0:0:0:0:
96,192,93361,1,0,0:0:0:0:
416,192,93361,1,0,0:0:0:0:
288,192,93361,1,0,0:0:0:0:
352,192,93452,1,0,0:0:0:0:
224,192,93452,1,0,0:0:0:0:
288,192,93543,1,0,0:0:0:0:
160,192,93543,1,0,0:0:0:0:
352,192,93634,1,0,0:0:0:0:
480,192,93634,1,0,0:0:0:0:
96,192,93725,1,0,0:0:0:0:
416,192,93725,1,0,0:0:0:0:
288,192,93725,1,0,0:0:0:0:
352,192,93815,1,0,0:0:0:0:
224,192,93815,1,0,0:0:0:0:
480,192,93906,1,0,0:0:0:0:
416,192,93906,1,0,0:0:0:0:
352,192,93997,1,0,0:0:0:0:
288,192,93997,1,0,0:0:0:0:
96,192,94088,1,0,0:0:0:0:
224,192,94088,1,0,0:0:0:0:
416,192,94088,1,0,0:0:0:0:
288,192,94179,1,0,0:0:0:0:
480,192,94179,1,0,0:0:0:0:
416,192,94270,1,0,0:0:0:0:
224,192,94270,1,0,0:0:0:0:
352,192,94361,1,0,0:0:0:0:
160,192,94361,1,0,0:0:0:0:
96,192,94452,1,0,0:0:0:0:
288,192,94452,1,0,0:0:0:0:
416,192,94452,1,0,0:0:0:0:
352,192,94543,1,0,0:0:0:0:
480,192,94543,1,0,0:0:0:0:
416,192,94634,1,0,0:0:0:0:
288,192,94634,1,0,0:0:0:0:
352,192,94725,1,0,0:0:0:0:
224,192,94725,1,0,0:0:0:0:
96,192,94815,1,0,0:0:0:0:
288,192,94815,1,0,0:0:0:0:
416,192,94815,1,0,0:0:0:0:
160,192,94906,1,0,0:0:0:0:
352,192,94906,1,0,0:0:0:0:
224,192,94997,1,0,0:0:0:0:
416,192,94997,1,0,0:0:0:0:
288,192,95088,1,0,0:0:0:0:
480,192,95088,1,0,0:0:0:0:
96,192,95179,1,0,0:0:0:0:
224,192,95179,1,0,0:0:0:0:
416,192,95179,1,0,0:0:0:0:
416,192,95361,1,0,0:0:0:0:
288,192,95361,1,0,0:0:0:0:
352,192,95452,1,0,0:0:0:0:
224,192,95452,1,0,0:0:0:0:
288,192,95543,1,0,0:0:0:0:
160,192,95543,1,0,0:0:0:0:
96,192,95543,1,0,0:0:0:0:
352,192,95634,1,0,0:0:0:0:
480,192,95634,1,0,0:0:0:0:
416,192,95725,1,0,0:0:0:0:
288,192,95725,1,0,0:0:0:0:
352,192,95815,1,0,0:0:0:0:
224,192,95815,1,0,0:0:0:0:
96,192,95906,1,0,0:0:0:0:
160,192,95906,1,0,0:0:0:0:
288,192,95906,1,0,0:0:0:0:
224,192,95997,1,0,0:0:0:0:
352,192,95997,1,0,0:0:0:0:
288,192,96088,1,0,0:0:0:0:
416,192,96088,1,0,0:0:0:0:
352,192,96179,1,0,0:0:0:0:
480,192,96179,1,0,0:0:0:0:
96,192,96270,1,0,0:0:0:0:
288,192,96270,1,0,0:0:0:0:
416,192,96270,1,0,0:0:0:0:
352,192,96361,1,0,0:0:0:0:
224,192,96361,1,0,0:0:0:0:
288,192,96452,1,0,0:0:0:0:
160,192,96452,1,0,0:0:0:0:
352,192,96543,1,0,0:0:0:0:
480,192,96543,1,0,0:0:0:0:
416,192,96634,1,0,0:0:0:0:
288,192,96634,1,0,0:0:0:0:
96,192,96634,1,0,0:0:0:0:
352,192,96725,1,0,0:0:0:0:
224,192,96725,1,0,0:0:0:0:
160,192,96815,1,0,0:0:0:0:
288,192,96815,1,0,0:0:0:0:
224,192,96906,1,0,0:0:0:0:
352,192,96906,1,0,0:0:0:0:
96,192,96997,1,0,0:0:0:0:
160,192,96997,1,0,0:0:0:0:
416,192,96997,1,0,0:0:0:0:
352,192,97088,1,0,0:0:0:0:
224,192,97088,1,0,0:0:0:0:
288,192,97179,1,0,0:0:0:0:
416,192,97179,1,0,0:0:0:0:
480,192,97270,1,0,0:0:0:0:
224,192,97270,1,0,0:0:0:0:
288,192,97361,1,0,0:0:0:0:
416,192,97361,1,0,0:0:0:0:
96,192,97361,1,0,0:0:0:0:
352,192,97452,1,0,0:0:0:0:
480,192,97452,1,0,0:0:0:0:
160,192,97543,1,0,0:0:0:0:
288,192,97543,1,0,0:0:0:0:
96,192,97543,1,0,0:0:0:0:
224,192,97634,1,0,0:0:0:0:
352,192,97634,1,0,0:0:0:0:
96,192,97725,1,0,0:0:0:0:
288,192,97725,1,0,0:0:0:0:
416,192,97725,1,0,0:0:0:0:
32,192,97725,1,0,0:0:0:0:
160,192,97906,1,0,0:0:0:0:
352,192,97906,1,0,0:0:0:0:
224,192,97997,1,0,0:0:0:0:
416,192,97997,1,0,0:0:0:0:
480,192,98088,1,0,0:0:0:0:
288,192,98088,1,0,0:0:0:0:
96,192,98088,1,0,0:0:0:0:
416,192,98179,1,0,0:0:0:0:
224,192,98179,1,0,0:0:0:0:
352,192,98270,1,0,0:0:0:0:
160,192,98270,1,0,0:0:0:0:
96,192,98361,1,0,0:0:0:0:
288,192,98361,1,0,0:0:0:0:
160,192,98452,1,0,0:0:0:0:
352,192,98452,1,0,0:0:0:0:
480,192,98452,1,0,0:0:0:0:
96,192,98543,1,0,0:0:0:0:
288,192,98543,1,0,0:0:0:0:
160,192,98634,1,0,0:0:0:0:
352,192,98634,1,0,0:0:0:0:
224,192,98725,1,0,0:0:0:0:
416,192,98725,1,0,0:0:0:0:
480,192,98815,1,0,0:0:0:0:
288,192,98815,1,0,0:0:0:0:
96,192,98815,1,0,0:0:0:0:
160,192,98906,1,0,0:0:0:0:
352,192,98906,1,0,0:0:0:0:
224,192,98997,1,0,0:0:0:0:
416,192,98997,1,0,0:0:0:0:
288,192,99088,1,0,0:0:0:0:
480,192,99088,1,0,0:0:0:0:
96,192,99179,1,0,0:0:0:0:
352,192,99179,1,0,0:0:0:0:
224,192,99179,1,0,0:0:0:0:
160,192,99270,1,0,0:0:0:0:
416,192,99270,1,0,0:0:0:0:
224,192,99361,1,0,0:0:0:0:
352,192,99361,1,0,0:0:0:0:
288,192,99452,1,0,0:0:0:0:
416,192,99452,1,0,0:0:0:0:
224,192,99543,1,0,0:0:0:0:
96,192,99543,1,0,0:0:0:0:
480,192,99543,1,0,0:0:0:0:
416,192,99725,1,0,0:0:0:0:
160,192,99725,1,0,0:0:0:0:
224,192,99815,1,0,0:0:0:0:
480,192,99815,1,0,0:0:0:0:
416,192,99906,1,0,0:0:0:0:
160,192,99906,1,0,0:0:0:0:
288,192,99906,1,0,0:0:0:0:
96,192,99997,1,0,0:0:0:0:
352,192,99997,1,0,0:0:0:0:
160,192,100088,1,0,0:0:0:0:
416,192,100088,1,0,0:0:0:0:
352,192,100179,1,0,0:0:0:0:
224,192,100179,1,0,0:0:0:0:
96,192,100270,1,0,0:0:0:0:
288,192,100270,1,0,0:0:0:0:
480,192,100270,1,0,0:0:0:0:
416,192,100361,1,0,0:0:0:0:
224,192,100361,1,0,0:0:0:0:
352,192,100452,1,0,0:0:0:0:
160,192,100452,1,0,0:0:0:0:
288,192,100543,1,0,0:0:0:0:
96,192,100543,1,0,0:0:0:0:
160,192,100634,1,0,0:0:0:0:
352,192,100634,1,0,0:0:0:0:
480,192,100634,1,0,0:0:0:0:
416,192,100725,1,0,0:0:0:0:
224,192,100725,1,0,0:0:0:0:
160,192,100815,1,0,0:0:0:0:
352,192,100815,1,0,0:0:0:0:
416,192,100906,1,0,0:0:0:0:
224,192,100906,1,0,0:0:0:0:
352,192,100997,1,0,0:0:0:0:
160,192,100997,1,0,0:0:0:0:
480,192,100997,1,0,0:0:0:0:
416,192,101088,1,0,0:0:0:0:
224,192,101088,1,0,0:0:0:0:
352,192,101179,1,0,0:0:0:0:
160,192,101179,1,0,0:0:0:0:
96,192,101270,1,0,0:0:0:0:
288,192,101270,1,0,0:0:0:0:
160,192,101361,1,0,0:0:0:0:
480,192,101361,1,0,0:0:0:0:
352,192,101361,1,0,0:0:0:0:
416,192,101452,1,0,0:0:0:0:
288,192,101452,1,0,0:0:0:0:
352,192,101543,1,0,0:0:0:0:
224,192,101543,1,0,0:0:0:0:
288,192,101634,1,0,0:0:0:0:
160,192,101634,1,0,0:0:0:0:
96,192,101725,1,0,0:0:0:0:
480,192,101725,1,0,0:0:0:0:
352,192,101725,1,0,0:0:0:0:
416,192,101815,1,0,0:0:0:0:
288,192,101815,1,0,0:0:0:0:
352,192,101906,1,0,0:0:0:0:
224,192,101906,1,0,0:0:0:0:
288,192,101997,1,0,0:0:0:0:
160,192,101997,1,0,0:0:0:0:
96,192,102088,1,0,0:0:0:0:
224,192,102088,1,0,0:0:0:0:
480,192,102088,1,0,0:0:0:0:
160,192,102179,1,0,0:0:0:0:
288,192,102179,1,0,0:0:0:0:
224,192,102270,1,0,0:0:0:0:
352,192,102270,1,0,0:0:0:0:
288,192,102361,1,0,0:0:0:0:
416,192,102361,1,0,0:0:0:0:
352,192,102452,1,0,0:0:0:0:
480,192,102452,1,0,0:0:0:0:
96,192,102452,1,0,0:0:0:0:
160,192,102543,1,0,0:0:0:0:
288,192,102543,1,0,0:0:0:0:
224,192,102634,1,0,0:0:0:0:
352,192,102634,1,0,0:0:0:0:
288,192,102725,1,0,0:0:0:0:
416,192,102725,1,0,0:0:0:0:
96,192,102815,1,0,0:0:0:0:
352,192,102815,1,0,0:0:0:0:
480,192,102815,1,0,0:0:0:0:
416,192,102906,1,0,0:0:0:0:
288,192,102906,1,0,0:0:0:0:
96,192,102997,1,0,0:0:0:0:
352,192,102997,1,0,0:0:0:0:
224,192,102997,1,0,0:0:0:0:
288,192,103088,1,0,0:0:0:0:
160,192,103088,1,0,0:0:0:0:
96,192,103179,1,0,0:0:0:0:
224,192,103179,1,0,0:0:0:0:
352,192,103179,1,0,0:0:0:0:
416,192,103270,1,0,0:0:0:0:
288,192,103270,1,0,0:0:0:0:
96,192,103361,1,0,0:0:0:0:
352,192,103361,1,0,0:0:0:0:
224,192,103361,1,0,0:0:0:0:
416,192,103452,1,0,0:0:0:0:
288,192,103452,1,0,0:0:0:0:
96,192,103543,1,0,0:0:0:0:
32,192,103543,1,0,0:0:0:0:
480,192,103543,1,0,0:0:0:0:
224,192,103543,1,0,0:0:0:0:
160,192,103725,1,0,0:0:0:0:
352,192,103725,1,0,0:0:0:0:
224,192,103815,1,0,0:0:0:0:
416,192,103815,1,0,0:0:0:0:
96,192,103906,1,0,0:0:0:0:
288,192,103906,1,0,0:0:0:0:
480,192,103906,1,0,0:0:0:0:
352,192,104088,1,0,0:0:0:0:
224,192,104088,1,0,0:0:0:0:
288,192,104179,1,0,0:0:0:0:
160,192,104179,1,0,0:0:0:0:
96,192,104270,1,0,0:0:0:0:
224,192,104270,1,0,0:0:0:0:
480,192,104270,1,0,0:0:0:0:
160,192,104361,1,0,0:0:0:0:
288,192,104361,1,0,0:0:0:0:
224,192,104452,1,0,0:0:0:0:
352,192,104452,1,0,0:0:0:0:
288,192,104543,1,0,0:0:0:0:
416,192,104543,1,0,0:0:0:0:
96,192,104634,1,0,0:0:0:0:
352,192,104634,1,0,0:0:0:0:
224,192,104634,1,0,0:0:0:0:
160,192,104725,1,0,0:0:0:0:
416,192,104725,1,0,0:0:0:0:
480,192,104815,1,0,0:0:0:0:
224,192,104815,1,0,0:0:0:0:
416,192,104906,1,0,0:0:0:0:
288,192,104906,1,0,0:0:0:0:
96,192,104997,1,0,0:0:0:0:
352,192,104997,1,0,0:0:0:0:
480,192,104997,1,0,0:0:0:0:
416,192,105088,1,0,0:0:0:0:
288,192,105088,1,0,0:0:0:0:
352,192,105179,1,0,0:0:0:0:
224,192,105179,1,0,0:0:0:0:
416,192,105270,5,0,0:0:0:0:
288,192,105270,1,0,0:0:0:0:
352,192,105361,1,0,0:0:0:0:
224,192,105361,1,0,0:0:0:0:
96,192,105361,1,0,0:0:0:0:
288,192,105452,1,0,0:0:0:0:
160,192,105452,1,0,0:0:0:0:
352,192,105543,1,0,0:0:0:0:
480,192,105543,1,0,0:0:0:0:
288,192,105634,1,0,0:0:0:0:
416,192,105634,1,0,0:0:0:0:
96,192,105725,1,0,0:0:0:0:
224,192,105725,1,0,0:0:0:0:
480,192,105725,1,0,0:0:0:0:
288,192,105815,1,0,0:0:0:0:
416,192,105815,1,0,0:0:0:0:
352,192,105906,1,0,0:0:0:0:
224,192,105906,1,0,0:0:0:0:
288,192,105997,1,0,0:0:0:0:
160,192,105997,1,0,0:0:0:0:
96,192,106088,1,0,0:0:0:0:
224,192,106088,1,0,0:0:0:0:
416,192,106088,1,0,0:0:0:0:
480,192,106179,1,0,0:0:0:0:
288,192,106179,1,0,0:0:0:0:
416,192,106270,1,0,0:0:0:0:
224,192,106270,1,0,0:0:0:0:
352,192,106361,1,0,0:0:0:0:
160,192,106361,1,0,0:0:0:0:
96,192,106452,5,0,0:0:0:0:
224,192,106452,1,0,0:0:0:0:
480,192,106452,1,0,0:0:0:0:
160,192,106543,1,0,0:0:0:0:
288,192,106543,1,0,0:0:0:0:
224,192,106634,1,0,0:0:0:0:
352,192,106634,1,0,0:0:0:0:
288,192,106725,1,0,0:0:0:0:
416,192,106725,1,0,0:0:0:0:
96,192,106815,1,0,0:0:0:0:
352,192,106815,1,0,0:0:0:0:
480,192,106815,1,0,0:0:0:0:
160,192,106906,1,0,0:0:0:0:
288,192,106906,1,0,0:0:0:0:
224,192,106997,1,0,0:0:0:0:
416,192,106997,1,0,0:0:0:0:
288,192,107088,1,0,0:0:0:0:
480,192,107088,1,0,0:0:0:0:
416,192,107179,1,0,0:0:0:0:
224,192,107179,1,0,0:0:0:0:
96,192,107179,1,0,0:0:0:0:
352,192,107270,1,0,0:0:0:0:
160,192,107270,1,0,0:0:0:0:
288,192,107361,1,0,0:0:0:0:
96,192,107361,1,0,0:0:0:0:
160,192,107452,1,0,0:0:0:0:
416,192,107452,1,0,0:0:0:0:
96,192,107543,1,0,0:0:0:0:
480,192,107543,1,0,0:0:0:0:
352,192,107543,1,0,0:0:0:0:
416,192,107634,1,0,0:0:0:0:
288,192,107634,1,0,0:0:0:0:
352,192,107725,1,0,0:0:0:0:
224,192,107725,1,0,0:0:0:0:
288,192,107815,1,0,0:0:0:0:
160,192,107815,1,0,0:0:0:0:
96,192,107906,1,0,0:0:0:0:
352,192,107906,1,0,0:0:0:0:
480,192,107906,1,0,0:0:0:0:
160,192,107997,1,0,0:0:0:0:
288,192,107997,1,0,0:0:0:0:
224,192,108088,1,0,0:0:0:0:
352,192,108088,1,0,0:0:0:0:
288,192,108179,1,0,0:0:0:0:
416,192,108179,1,0,0:0:0:0:
160,192,108270,1,0,0:0:0:0:
352,192,108270,1,0,0:0:0:0:
96,192,108270,1,0,0:0:0:0:
416,192,108361,1,0,0:0:0:0:
224,192,108361,1,0,0:0:0:0:
288,192,108452,1,0,0:0:0:0:
480,192,108452,1,0,0:0:0:0:
160,192,108543,1,0,0:0:0:0:
352,192,108543,1,0,0:0:0:0:
96,192,108634,1,0,0:0:0:0:
224,192,108634,1,0,0:0:0:0:
416,192,108634,1,0,0:0:0:0:
160,192,108725,1,0,0:0:0:0:
352,192,108725,1,0,0:0:0:0:
224,192,108815,1,0,0:0:0:0:
416,192,108815,1,0,0:0:0:0:
288,192,108906,1,0,0:0:0:0:
480,192,108906,1,0,0:0:0:0:
352,192,108997,1,0,0:0:0:0:
224,192,108997,1,0,0:0:0:0:
96,192,108997,1,0,0:0:0:0:
160,192,109088,1,0,0:0:0:0:
288,192,109088,1,0,0:0:0:0:
224,192,109179,1,0,0:0:0:0:
352,192,109179,1,0,0:0:0:0:
96,192,109179,1,0,0:0:0:0:
288,192,109270,1,0,0:0:0:0:
416,192,109270,1,0,0:0:0:0:
96,192,109361,1,0,0:0:0:0:
32,192,109361,1,0,0:0:0:0:
352,192,109361,1,0,0:0:0:0:
480,192,109361,1,0,0:0:0:0:
160,192,109452,1,0,0:0:0:0:
416,192,109452,1,0,0:0:0:0:
224,192,109543,1,0,0:0:0:0:
352,192,109543,1,0,0:0:0:0:
288,192,109634,1,0,0:0:0:0:
416,192,109634,1,0,0:0:0:0:
96,192,109725,1,0,0:0:0:0:
352,192,109725,1,0,0:0:0:0:
480,192,109725,1,0,0:0:0:0:
288,192,109815,1,0,0:0:0:0:
416,192,109815,1,0,0:0:0:0:
160,192,109906,1,0,0:0:0:0:
352,192,109906,1,0,0:0:0:0:
96,192,109997,1,0,0:0:0:0:
288,192,109997,1,0,0:0:0:0:
160,192,110088,1,0,0:0:0:0:
352,192,110088,1,0,0:0:0:0:
480,192,110088,1,0,0:0:0:0:
224,192,110179,1,0,0:0:0:0:
416,192,110179,1,0,0:0:0:0:
480,192,110270,1,0,0:0:0:0:
288,192,110270,1,0,0:0:0:0:
416,192,110361,1,0,0:0:0:0:
224,192,110361,1,0,0:0:0:0:
160,192,110452,1,0,0:0:0:0:
352,192,110452,1,0,0:0:0:0:
480,192,110452,1,0,0:0:0:0:
224,192,110543,1,0,0:0:0:0:
416,192,110543,1,0,0:0:0:0:
352,192,110634,1,0,0:0:0:0:
160,192,110634,1,0,0:0:0:0:
288,192,110725,1,0,0:0:0:0:
96,192,110725,1,0,0:0:0:0:
160,192,110815,1,0,0:0:0:0:
416,192,110815,1,0,0:0:0:0:
352,192,110815,1,0,0:0:0:0:
224,192,110906,1,0,0:0:0:0:
480,192,110906,1,0,0:0:0:0:
288,192,110997,1,0,0:0:0:0:
416,192,110997,1,0,0:0:0:0:
352,192,111088,1,0,0:0:0:0:
224,192,111088,1,0,0:0:0:0:
160,192,111179,1,0,0:0:0:0:
96,192,111179,1,0,0:0:0:0:
416,192,111179,1,0,0:0:0:0:
224,192,111361,1,0,0:0:0:0:
352,192,111361,1,0,0:0:0:0:
288,192,111452,1,0,0:0:0:0:
160,192,111452,1,0,0:0:0:0:
224,192,111543,1,0,0:0:0:0:
352,192,111543,1,0,0:0:0:0:
96,192,111543,1,0,0:0:0:0:
288,192,111634,1,0,0:0:0:0:
416,192,111634,1,0,0:0:0:0:
352,192,111725,1,0,0:0:0:0:
480,192,111725,1,0,0:0:0:0:
416,192,111815,1,0,0:0:0:0:
288,192,111815,1,0,0:0:0:0:
96,192,111906,1,0,0:0:0:0:
224,192,111906,1,0,0:0:0:0:
352,192,111906,1,0,0:0:0:0:
160,192,111997,1,0,0:0:0:0:
288,192,111997,1,0,0:0:0:0:
224,192,112088,1,0,0:0:0:0:
352,192,112088,1,0,0:0:0:0:
288,192,112179,1,0,0:0:0:0:
416,192,112179,1,0,0:0:0:0:
96,192,112270,1,0,0:0:0:0:
224,192,112270,1,0,0:0:0:0:
480,192,112270,1,0,0:0:0:0:
32,192,112270,1,0,0:0:0:0:
352,192,112361,1,0,0:0:0:0:
288,192,112361,1,0,0:0:0:0:
480,192,112452,1,0,0:0:0:0:
224,192,112452,1,0,0:0:0:0:
160,192,112543,1,0,0:0:0:0:
352,192,112543,1,0,0:0:0:0:
288,192,112543,1,0,0:0:0:0:
96,192,112634,1,0,0:0:0:0:
480,192,112634,1,0,0:0:0:0:
416,192,112634,1,0,0:0:0:0:
352,192,112725,1,0,0:0:0:0:
224,192,112725,1,0,0:0:0:0:
480,192,112815,1,0,0:0:0:0:
288,192,112815,1,0,0:0:0:0:
352,192,112906,1,0,0:0:0:0:
160,192,112906,1,0,0:0:0:0:
224,192,112906,1,0,0:0:0:0:
96,192,112997,1,0,0:0:0:0:
288,192,112997,1,0,0:0:0:0:
416,192,112997,1,0,0:0:0:0:
352,192,113088,1,0,0:0:0:0:
480,192,113088,1,0,0:0:0:0:
96,192,113179,1,0,0:0:0:0:
288,192,113179,1,0,0:0:0:0:
224,192,113179,1,0,0:0:0:0:
416,192,113270,1,0,0:0:0:0:
160,192,113270,1,0,0:0:0:0:
288,192,113361,1,0,0:0:0:0:
96,192,113361,1,0,0:0:0:0:
480,192,113361,1,0,0:0:0:0:
416,192,113452,1,0,0:0:0:0:
224,192,113452,1,0,0:0:0:0:
288,192,113543,1,0,0:0:0:0:
96,192,113543,1,0,0:0:0:0:
352,192,113543,1,0,0:0:0:0:
416,192,113634,1,0,0:0:0:0:
224,192,113634,1,0,0:0:0:0:
96,192,113725,1,0,0:0:0:0:
480,192,113725,1,0,0:0:0:0:
352,192,113725,1,0,0:0:0:0:
224,192,113815,1,0,0:0:0:0:
288,192,113815,1,0,0:0:0:0:
96,192,113906,1,0,0:0:0:0:
352,192,113906,1,0,0:0:0:0:
480,192,113906,1,0,0:0:0:0:
224,192,113997,1,0,0:0:0:0:
416,192,113997,1,0,0:0:0:0:
96,192,114088,1,0,0:0:0:0:
288,192,114088,1,0,0:0:0:0:
352,192,114088,1,0,0:0:0:0:
160,192,114179,1,0,0:0:0:0:
416,192,114179,1,0,0:0:0:0:
96,192,114270,1,0,0:0:0:0:
480,192,114270,1,0,0:0:0:0:
224,192,114270,1,0,0:0:0:0:
160,192,114361,1,0,0:0:0:0:
416,192,114361,1,0,0:0:0:0:
352,192,114452,1,0,0:0:0:0:
96,192,114452,1,0,0:0:0:0:
160,192,114497,1,0,0:0:0:0:
480,192,114543,1,0,0:0:0:0:
224,192,114543,1,0,0:0:0:0:
288,192,114588,1,0,0:0:0:0:
96,192,114634,1,0,0:0:0:0:
352,192,114634,1,0,0:0:0:0:
160,192,114679,1,0,0:0:0:0:
480,192,114725,1,0,0:0:0:0:
224,192,114725,1,0,0:0:0:0:
288,192,114770,1,0,0:0:0:0:
352,192,114815,1,0,0:0:0:0:
96,192,114815,1,0,0:0:0:0:
224,192,114861,1,0,0:0:0:0:
288,192,114906,1,0,0:0:0:0:
416,192,114952,1,0,0:0:0:0:
96,192,114997,1,0,0:0:0:0:
224,192,115043,1,0,0:0:0:0:
288,192,115088,1,0,0:0:0:0:
416,192,115134,1,0,0:0:0:0:
32,192,115179,1,0,0:0:0:0:
96,192,115179,1,0,0:0:0:0:
480,192,115179,1,0,0:0:0:0:
352,192,115179,1,0,0:0:0:0:
160,192,115361,1,0,0:0:0:0:
288,192,115452,1,0,0:0:0:0:
416,192,115543,1,0,0:0:0:0:
352,192,115634,1,0,0:0:0:0:
224,192,115725,1,0,0:0:0:0:
96,192,115815,1,0,0:0:0:0:
480,192,115906,1,0,0:0:0:0:
416,192,115997,1,0,0:0:0:0:
288,192,116088,1,0,0:0:0:0:
160,192,116179,1,0,0:0:0:0:
96,192,116270,1,0,0:0:0:0:
224,192,116361,1,0,0:0:0:0:
288,192,116452,1,0,0:0:0:0:
416,192,116543,1,0,0:0:0:0:
480,192,116634,1,0,0:0:0:0:
352,192,116725,1,0,0:0:0:0:
224,192,116815,1,0,0:0:0:0:
480,192,116906,1,0,0:0:0:0:
352,192,116997,1,0,0:0:0:0:
224,192,117088,1,0,0:0:0:0:
480,192,117179,1,0,0:0:0:0:
224,192,117270,1,0,0:0:0:0:
352,192,117361,1,0,0:0:0:0:
416,192,117452,1,0,0:0:0:0:
352,192,117543,1,0,0:0:0:0:
224,192,117634,1,0,0:0:0:0:
160,192,117725,1,0,0:0:0:0:
288,192,117815,1,0,0:0:0:0:
160,192,117906,1,0,0:0:0:0:
96,192,117997,1,0,0:0:0:0:
160,192,118088,1,0,0:0:0:0:
288,192,118179,1,0,0:0:0:0:
416,192,118270,1,0,0:0:0:0:
480,192,118361,1,0,0:0:0:0:
416,192,118452,1,0,0:0:0:0:
96,192,118452,1,0,0:0:0:0:
352,192,118634,1,0,0:0:0:0:
224,192,118725,1,0,0:0:0:0:
352,192,118815,1,0,0:0:0:0:
480,192,118906,1,0,0:0:0:0:
352,192,118997,1,0,0:0:0:0:
224,192,119088,1,0,0:0:0:0:
288,192,119179,1,0,0:0:0:0:
416,192,119270,1,0,0:0:0:0:
288,192,119361,1,0,0:0:0:0:
160,192,119452,1,0,0:0:0:0:
96,192,119543,1,0,0:0:0:0:
224,192,119634,1,0,0:0:0:0:
352,192,119725,1,0,0:0:0:0:
96,192,119815,5,0,0:0:0:0:
224,192,119906,1,0,0:0:0:0:
352,192,119997,1,0,0:0:0:0:
96,192,120088,1,0,0:0:0:0:
352,192,120179,1,0,0:0:0:0:
160,192,120270,1,0,0:0:0:0:
288,192,120361,1,0,0:0:0:0:
416,192,120452,1,0,0:0:0:0:
160,192,120543,5,0,0:0:0:0:
288,192,120634,1,0,0:0:0:0:
416,192,120725,1,0,0:0:0:0:
160,192,120815,1,0,0:0:0:0:
160,192,120906,1,0,0:0:0:0:
480,192,120997,5,0,0:0:0:0:
