osu file format v14

[General]
AudioFilename: audio.mp3
AudioLeadIn: 0
PreviewTime: 57575
Countdown: 0
SampleSet: Normal
StackLeniency: 0.7
Mode: 3
LetterboxInBreaks: 0
SpecialStyle: 0
WidescreenStoryboard: 1

[Editor]
DistanceSpacing: 0.8
BeatDivisor: 4
GridSize: 32
TimelineZoom: 2.5

[Metadata]
Title:TIEFSEE
TitleUnicode:TIEFSEE
Artist:SOUND HOLIC Vs. dj TAKA feat. YURiCa
ArtistUnicode:SOUND HOLIC Vs. dj TAKA feat. YURiCa
Creator:A KASHA
Version:15
Source:sdvx
Tags:sdvx
BeatmapID:1003012
BeatmapSetID:469022

[Difficulty]
HPDrainRate:8
CircleSize:4
OverallDifficulty:9
ApproachRate:5
SliderMultiplier:1.4
SliderTickRate:1

[Events]
//Background and Video events
0,0,"79aac70ea93a03c1eb494678b042dbc0.png",0,0
//Break Periods
//Storyboard Layer 0 (Background)
//Storyboard Layer 1 (Fail)
//Storyboard Layer 2 (Pass)
//Storyboard Layer 3 (Foreground)
//Storyboard Sound Samples

[TimingPoints]
485,363.636363636364,4,1,0,17,1,0
58666,-100,4,1,0,17,0,1
97939,-100,4,1,0,17,0,0

[HitObjects]
448,192,485,128,0,1212:0:0:0:0:
64,192,485,1,0,0:0:0:0:
192,192,666,1,0,0:0:0:0:
320,192,848,1,0,0:0:0:0:
64,192,1030,1,0,0:0:0:0:
192,192,1212,128,0,1939:0:0:0:0:
320,192,1212,1,0,0:0:0:0:
64,192,1394,1,0,0:0:0:0:
448,192,1575,1,0,0:0:0:0:
320,192,1757,1,0,0:0:0:0:
448,192,1939,128,0,2666:0:0:0:0:
64,192,1939,1,0,0:0:0:0:
320,192,2121,1,0,0:0:0:0:
64,192,2303,1,0,0:0:0:0:
192,192,2485,1,0,0:0:0:0:
64,192,2666,128,0,3394:0:0:0:0:
320,192,2666,1,0,0:0:0:0:
192,192,2848,1,0,0:0:0:0:
320,192,3030,1,0,0:0:0:0:
448,192,3212,1,0,0:0:0:0:
320,192,3394,128,0,4121:0:0:0:0:
192,192,3394,1,0,0:0:0:0:
448,192,3575,1,0,0:0:0:0:
64,192,3757,1,0,0:0:0:0:
192,192,3939,1,0,0:0:0:0:
448,192,4121,128,0,4848:0:0:0:0:
64,192,4121,1,0,0:0:0:0:
320,192,4303,1,0,0:0:0:0:
192,192,4485,1,0,0:0:0:0:
64,192,4666,1,0,0:0:0:0:
192,192,4848,128,0,5575:0:0:0:0:
320,192,4848,1,0,0:0:0:0:
64,192,5030,1,0,0:0:0:0:
448,192,5212,1,0,0:0:0:0:
320,192,5394,1,0,0:0:0:0:
64,192,5575,128,0,6303:0:0:0:0:
448,192,5575,1,0,0:0:0:0:
192,192,5757,1,0,0:0:0:0:
448,192,5939,1,0,0:0:0:0:
320,192,6121,1,0,0:0:0:0:
448,192,6303,128,0,7030:0:0:0:0:
192,192,6303,1,0,0:0:0:0:
320,192,6485,1,0,0:0:0:0:
192,192,6666,1,0,0:0:0:0:
64,192,6848,1,0,0:0:0:0:
192,192,7030,128,0,7757:0:0:0:0:
320,192,7030,1,0,0:0:0:0:
64,192,7212,1,0,0:0:0:0:
320,192,7394,1,0,0:0:0:0:
448,192,7575,1,0,0:0:0:0:
320,192,7757,128,0,8121:0:0:0:0:
64,192,7757,1,0,0:0:0:0:
192,192,7939,1,0,0:0:0:0:
448,192,8121,128,0,8485:0:0:0:0:
64,192,8121,1,0,0:0:0:0:
192,192,8303,1,0,0:0:0:0:
64,192,8485,128,0,8848:0:0:0:0:
320,192,8485,1,0,0:0:0:0:
192,192,8666,1,0,0:0:0:0:
192,192,8848,128,0,9212:0:0:0:0:
448,192,8848,1,0,0:0:0:0:
320,192,9030,1,0,0:0:0:0:
64,192,9212,128,0,9939:0:0:0:0:
448,192,9212,1,0,0:0:0:0:
192,192,9575,1,0,0:0:0:0:
320,192,9666,1,0,0:0:0:0:
448,192,9757,1,0,0:0:0:0:
320,192,9848,1,0,0:0:0:0:
192,192,9939,128,0,10666:0:0:0:0:
448,192,9939,1,0,0:0:0:0:
320,192,10030,1,0,0:0:0:0:
64,192,10121,1,0,0:0:0:0:
320,192,10212,1,0,0:0:0:0:
448,192,10303,1,0,0:0:0:0:
320,192,10394,1,0,0:0:0:0:
64,192,10485,1,0,0:0:0:0:
448,192,10575,1,0,0:0:0:0:
320,192,10666,128,0,11394:0:0:0:0:
64,192,10666,128,0,11394:0:0:0:0:
192,192,11394,1,0,0:0:0:0:
448,192,11575,1,0,0:0:0:0:
192,192,11757,1,0,0:0:0:0:
192,192,11939,1,0,0:0:0:0:
320,192,12121,1,0,0:0:0:0:
448,192,12121,1,0,0:0:0:0:
192,192,12303,1,0,0:0:0:0:
320,192,12485,1,0,0:0:0:0:
192,192,12666,1,0,0:0:0:0:
64,192,13030,1,0,0:0:0:0:
192,192,13212,1,0,0:0:0:0:
320,192,13394,1,0,0:0:0:0:
448,192,13575,1,0,0:0:0:0:
192,192,13575,1,0,0:0:0:0:
320,192,13757,1,0,0:0:0:0:
192,192,13939,1,0,0:0:0:0:
64,192,14121,1,0,0:0:0:0:
448,192,14485,1,0,0:0:0:0:
320,192,14666,1,0,0:0:0:0:
192,192,14848,1,0,0:0:0:0:
448,192,15030,1,0,0:0:0:0:
64,192,15030,1,0,0:0:0:0:
192,192,15212,1,0,0:0:0:0:
448,192,15394,1,0,0:0:0:0:
64,192,15575,1,0,0:0:0:0:
320,192,15757,1,0,0:0:0:0:
192,192,15939,1,0,0:0:0:0:
64,192,16121,1,0,0:0:0:0:
192,192,16303,1,0,0:0:0:0:
448,192,16485,1,0,0:0:0:0:
320,192,16485,1,0,0:0:0:0:
320,192,16757,1,0,0:0:0:0:
448,192,16757,1,0,0:0:0:0:
320,192,17030,1,0,0:0:0:0:
192,192,17030,1,0,0:0:0:0:
320,192,17303,1,0,0:0:0:0:
192,192,17303,1,0,0:0:0:0:
192,192,17575,1,0,0:0:0:0:
64,192,17575,1,0,0:0:0:0:
192,192,17848,1,0,0:0:0:0:
64,192,17848,1,0,0:0:0:0:
448,192,17939,1,0,0:0:0:0:
320,192,17939,1,0,0:0:0:0:
192,192,18121,1,0,0:0:0:0:
320,192,18303,1,0,0:0:0:0:
448,192,18485,1,0,0:0:0:0:
64,192,18848,1,0,0:0:0:0:
192,192,19030,1,0,0:0:0:0:
320,192,19212,1,0,0:0:0:0:
448,192,19394,1,0,0:0:0:0:
192,192,19394,1,0,0:0:0:0:
64,192,19575,1,0,0:0:0:0:
192,192,19757,1,0,0:0:0:0:
320,192,19939,1,0,0:0:0:0:
448,192,20303,1,0,0:0:0:0:
192,192,20485,1,0,0:0:0:0:
320,192,20666,1,0,0:0:0:0:
448,192,20848,1,0,0:0:0:0:
192,192,21030,1,0,0:0:0:0:
320,192,21212,1,0,0:0:0:0:
64,192,21394,1,0,0:0:0:0:
448,192,21575,1,0,0:0:0:0:
192,192,21757,1,0,0:0:0:0:
320,192,21939,1,0,0:0:0:0:
64,192,22121,1,0,0:0:0:0:
448,192,22303,1,0,0:0:0:0:
320,192,22303,1,0,0:0:0:0:
192,192,22303,1,0,0:0:0:0:
448,192,22485,1,0,0:0:0:0:
320,192,22485,1,0,0:0:0:0:
192,192,22485,1,0,0:0:0:0:
448,192,22666,1,0,0:0:0:0:
192,192,22666,1,0,0:0:0:0:
64,192,22666,1,0,0:0:0:0:
448,192,22848,1,0,0:0:0:0:
192,192,22848,1,0,0:0:0:0:
64,192,22848,1,0,0:0:0:0:
64,192,23030,1,0,0:0:0:0:
320,192,23030,1,0,0:0:0:0:
448,192,23030,1,0,0:0:0:0:
64,192,23212,1,0,0:0:0:0:
320,192,23212,1,0,0:0:0:0:
448,192,23212,1,0,0:0:0:0:
192,192,23394,1,0,0:0:0:0:
64,192,23394,1,0,0:0:0:0:
320,192,23485,1,0,0:0:0:0:
448,192,23485,1,0,0:0:0:0:
192,192,23575,1,0,0:0:0:0:
64,192,23575,1,0,0:0:0:0:
320,192,23666,1,0,0:0:0:0:
448,192,23666,1,0,0:0:0:0:
192,192,23757,1,0,0:0:0:0:
64,192,23757,1,4,0:0:0:0:
320,192,23848,1,0,0:0:0:0:
448,192,23939,1,0,0:0:0:0:
320,192,24030,1,0,0:0:0:0:
64,192,24121,1,0,0:0:0:0:
448,192,24121,1,0,0:0:0:0:
192,192,24212,1,0,0:0:0:0:
320,192,24303,1,0,0:0:0:0:
192,192,24394,1,0,0:0:0:0:
448,192,24485,1,0,0:0:0:0:
320,192,24485,1,0,0:0:0:0:
192,192,24575,1,0,0:0:0:0:
64,192,24666,1,0,0:0:0:0:
192,192,24757,1,0,0:0:0:0:
64,192,24848,1,0,0:0:0:0:
448,192,24848,1,0,0:0:0:0:
320,192,24939,1,0,0:0:0:0:
192,192,25030,1,0,0:0:0:0:
320,192,25121,1,0,0:0:0:0:
448,192,25212,1,0,0:0:0:0:
192,192,25212,1,0,0:0:0:0:
64,192,25303,1,0,0:0:0:0:
192,192,25394,1,0,0:0:0:0:
320,192,25485,1,0,0:0:0:0:
64,192,25575,128,0,25939:0:0:0:0:
192,192,25575,1,0,0:0:0:0:
448,192,25666,1,0,0:0:0:0:
320,192,25757,1,0,0:0:0:0:
192,192,25848,1,0,0:0:0:0:
448,192,25939,128,0,26303:0:0:0:0:
320,192,25939,1,0,0:0:0:0:
192,192,26030,1,0,0:0:0:0:
64,192,26121,1,0,0:0:0:0:
192,192,26212,1,0,0:0:0:0:
320,192,26303,128,0,26666:0:0:0:0:
64,192,26303,1,0,0:0:0:0:
192,192,26394,1,0,0:0:0:0:
64,192,26485,1,0,0:0:0:0:
448,192,26575,1,0,0:0:0:0:
192,192,26666,128,0,27030:0:0:0:0:
64,192,26666,1,0,0:0:0:0:
448,192,26757,1,0,0:0:0:0:
64,192,26848,1,0,0:0:0:0:
320,192,26939,1,0,0:0:0:0:
448,192,27030,1,0,0:0:0:0:
320,192,27121,1,0,0:0:0:0:
192,192,27212,1,0,0:0:0:0:
64,192,27303,1,0,0:0:0:0:
192,192,27394,1,0,0:0:0:0:
448,192,27394,1,0,0:0:0:0:
320,192,27485,1,0,0:0:0:0:
192,192,27575,1,0,0:0:0:0:
64,192,27666,1,0,0:0:0:0:
192,192,27757,1,0,0:0:0:0:
320,192,27757,1,0,0:0:0:0:
448,192,27848,1,0,0:0:0:0:
320,192,27939,1,0,0:0:0:0:
448,192,28030,1,0,0:0:0:0:
320,192,28121,1,0,0:0:0:0:
64,192,28121,1,0,0:0:0:0:
192,192,28212,1,0,0:0:0:0:
320,192,28303,1,0,0:0:0:0:
192,192,28394,1,0,0:0:0:0:
448,192,28485,128,0,28848:0:0:0:0:
320,192,28485,1,0,0:0:0:0:
192,192,28575,1,0,0:0:0:0:
64,192,28666,1,0,0:0:0:0:
320,192,28757,1,0,0:0:0:0:
64,192,28848,128,0,29212:0:0:0:0:
192,192,28848,1,0,0:0:0:0:
320,192,28939,1,0,0:0:0:0:
448,192,29030,1,0,0:0:0:0:
320,192,29121,1,0,0:0:0:0:
192,192,29212,128,0,29575:0:0:0:0:
448,192,29212,1,0,0:0:0:0:
320,192,29303,1,0,0:0:0:0:
64,192,29394,1,0,0:0:0:0:
448,192,29485,1,0,0:0:0:0:
320,192,29575,1,0,0:0:0:0:
64,192,29575,1,4,0:0:0:0:
448,192,29666,1,0,0:0:0:0:
320,192,29757,1,0,0:0:0:0:
192,192,29848,1,0,0:0:0:0:
64,192,29939,1,0,0:0:0:0:
192,192,30030,1,0,0:0:0:0:
320,192,30121,1,0,0:0:0:0:
192,192,30212,1,0,0:0:0:0:
64,192,30212,1,0,0:0:0:0:
192,192,30303,1,0,0:0:0:0:
64,192,30303,1,0,0:0:0:0:
320,192,30394,1,0,0:0:0:0:
448,192,30485,1,0,0:0:0:0:
320,192,30575,1,0,0:0:0:0:
192,192,30666,1,0,0:0:0:0:
64,192,30757,1,0,0:0:0:0:
192,192,30848,1,0,0:0:0:0:
64,192,30939,1,0,0:0:0:0:
192,192,31030,1,0,0:0:0:0:
448,192,31030,1,0,0:0:0:0:
320,192,31121,1,0,0:0:0:0:
448,192,31212,1,0,0:0:0:0:
320,192,31303,1,0,0:0:0:0:
192,192,31394,1,0,0:0:0:0:
320,192,31485,1,0,0:0:0:0:
448,192,31575,1,0,0:0:0:0:
64,192,31666,1,0,0:0:0:0:
320,192,31666,1,0,0:0:0:0:
64,192,31757,1,0,0:0:0:0:
320,192,31757,1,0,0:0:0:0:
192,192,31848,1,0,0:0:0:0:
320,192,31939,1,0,0:0:0:0:
448,192,32030,1,0,0:0:0:0:
320,192,32121,1,0,0:0:0:0:
448,192,32212,1,0,0:0:0:0:
320,192,32303,1,0,0:0:0:0:
192,192,32394,1,0,0:0:0:0:
64,192,32485,1,0,0:0:0:0:
448,192,32485,1,0,0:0:0:0:
192,192,32575,1,0,0:0:0:0:
320,192,32666,1,0,0:0:0:0:
192,192,32757,1,0,0:0:0:0:
64,192,32848,1,0,0:0:0:0:
192,192,32939,1,0,0:0:0:0:
320,192,33030,1,0,0:0:0:0:
192,192,33121,1,0,0:0:0:0:
448,192,33121,1,0,0:0:0:0:
192,192,33212,1,0,0:0:0:0:
448,192,33212,1,0,0:0:0:0:
64,192,33303,1,0,0:0:0:0:
192,192,33394,1,0,0:0:0:0:
320,192,33485,1,0,0:0:0:0:
448,192,33575,1,0,0:0:0:0:
320,192,33666,1,0,0:0:0:0:
448,192,33757,1,0,0:0:0:0:
320,192,33848,1,0,0:0:0:0:
192,192,33939,1,0,0:0:0:0:
64,192,33939,1,0,0:0:0:0:
320,192,34030,1,0,0:0:0:0:
192,192,34121,1,0,0:0:0:0:
320,192,34212,1,0,0:0:0:0:
448,192,34303,1,0,0:0:0:0:
320,192,34394,1,0,0:0:0:0:
192,192,34485,1,0,0:0:0:0:
448,192,34575,1,0,0:0:0:0:
320,192,34575,1,0,0:0:0:0:
320,192,34666,1,0,0:0:0:0:
448,192,34666,1,0,0:0:0:0:
192,192,34757,1,0,0:0:0:0:
64,192,34848,1,0,0:0:0:0:
192,192,34939,1,0,0:0:0:0:
320,192,35030,1,0,0:0:0:0:
448,192,35121,1,0,0:0:0:0:
320,192,35212,1,0,0:0:0:0:
192,192,35303,1,0,0:0:0:0:
64,192,35394,1,0,0:0:0:0:
448,192,35394,1,0,0:0:0:0:
320,192,35394,1,0,0:0:0:0:
192,192,35575,1,0,0:0:0:0:
320,192,35575,1,0,0:0:0:0:
64,192,35757,1,0,0:0:0:0:
320,192,35757,1,0,0:0:0:0:
192,192,35939,1,0,0:0:0:0:
448,192,35939,1,0,0:0:0:0:
448,192,36121,1,0,0:0:0:0:
64,192,36121,1,0,0:0:0:0:
192,192,36303,1,0,0:0:0:0:
448,192,36303,1,0,0:0:0:0:
320,192,36485,1,0,0:0:0:0:
192,192,36485,1,0,0:0:0:0:
192,192,36666,1,0,0:0:0:0:
448,192,36666,1,0,0:0:0:0:
448,192,36848,1,0,0:0:0:0:
64,192,36848,1,0,0:0:0:0:
192,192,37030,1,0,0:0:0:0:
64,192,37030,1,0,0:0:0:0:
64,192,37212,1,0,0:0:0:0:
448,192,37212,1,0,0:0:0:0:
192,192,37394,1,0,0:0:0:0:
448,192,37394,1,0,0:0:0:0:
448,192,37575,1,0,0:0:0:0:
320,192,37575,1,0,0:0:0:0:
64,192,37575,1,0,0:0:0:0:
192,192,37757,1,0,0:0:0:0:
320,192,37757,1,0,0:0:0:0:
64,192,37939,1,0,0:0:0:0:
192,192,37939,1,0,0:0:0:0:
448,192,37939,1,0,0:0:0:0:
448,192,38121,1,0,0:0:0:0:
320,192,38121,1,0,0:0:0:0:
192,192,38303,1,0,0:0:0:0:
320,192,38303,1,0,0:0:0:0:
64,192,38303,1,0,0:0:0:0:
192,192,38485,1,0,0:0:0:0:
448,192,38485,1,0,0:0:0:0:
448,192,38666,1,0,0:0:0:0:
320,192,38666,1,0,0:0:0:0:
64,192,38666,1,0,0:0:0:0:
320,192,38848,1,0,0:0:0:0:
192,192,38848,1,0,0:0:0:0:
192,192,39030,1,0,0:0:0:0:
64,192,39030,1,0,0:0:0:0:
320,192,39030,1,0,0:0:0:0:
448,192,39212,1,0,0:0:0:0:
64,192,39212,1,0,0:0:0:0:
192,192,39394,1,0,0:0:0:0:
448,192,39394,1,0,0:0:0:0:
64,192,39394,1,0,0:0:0:0:
320,192,39575,1,0,0:0:0:0:
192,192,39575,1,0,0:0:0:0:
64,192,39757,1,0,0:0:0:0:
192,192,39757,1,0,0:0:0:0:
448,192,39757,1,0,0:0:0:0:
320,192,39939,1,0,0:0:0:0:
448,192,39939,1,0,0:0:0:0:
320,192,40121,1,0,0:0:0:0:
192,192,40121,1,0,0:0:0:0:
64,192,40121,1,0,0:0:0:0:
448,192,40303,1,0,0:0:0:0:
192,192,40303,1,0,0:0:0:0:
320,192,40485,1,0,0:0:0:0:
448,192,40485,1,0,0:0:0:0:
64,192,40485,1,0,0:0:0:0:
64,192,40666,1,0,0:0:0:0:
192,192,40666,1,0,0:0:0:0:
320,192,40848,1,0,0:0:0:0:
448,192,40848,1,0,0:0:0:0:
192,192,40848,1,0,0:0:0:0:
320,192,41030,1,0,0:0:0:0:
448,192,41030,1,0,0:0:0:0:
64,192,41212,1,0,0:0:0:0:
448,192,41212,1,0,0:0:0:0:
192,192,41212,1,0,0:0:0:0:
448,192,41394,1,0,0:0:0:0:
320,192,41394,1,0,0:0:0:0:
320,192,41575,1,0,0:0:0:0:
192,192,41575,1,0,0:0:0:0:
64,192,41575,1,0,0:0:0:0:
320,192,41757,1,0,0:0:0:0:
192,192,41757,1,0,0:0:0:0:
320,192,41939,1,0,0:0:0:0:
448,192,41939,1,0,0:0:0:0:
64,192,41939,1,0,0:0:0:0:
64,192,42121,1,0,0:0:0:0:
192,192,42121,1,0,0:0:0:0:
64,192,42303,1,0,0:0:0:0:
192,192,42303,1,0,0:0:0:0:
320,192,42303,1,0,0:0:0:0:
192,192,42485,1,0,0:0:0:0:
320,192,42485,1,0,0:0:0:0:
64,192,42666,1,0,0:0:0:0:
192,192,42666,1,0,0:0:0:0:
448,192,42666,1,0,0:0:0:0:
448,192,42848,1,0,0:0:0:0:
192,192,42848,1,0,0:0:0:0:
448,192,43030,1,0,0:0:0:0:
320,192,43030,1,0,0:0:0:0:
192,192,43030,1,0,0:0:0:0:
320,192,43212,1,0,0:0:0:0:
64,192,43212,1,0,0:0:0:0:
320,192,43394,1,0,0:0:0:0:
192,192,43394,1,0,0:0:0:0:
64,192,43394,1,0,0:0:0:0:
192,192,43575,1,0,0:0:0:0:
448,192,43575,1,0,0:0:0:0:
320,192,43757,1,0,0:0:0:0:
192,192,43757,1,0,0:0:0:0:
64,192,43757,1,0,0:0:0:0:
320,192,43939,1,0,0:0:0:0:
64,192,43939,1,0,0:0:0:0:
192,192,44121,1,0,0:0:0:0:
320,192,44121,1,0,0:0:0:0:
448,192,44121,1,0,0:0:0:0:
192,192,44303,1,0,0:0:0:0:
64,192,44303,1,0,0:0:0:0:
448,192,44485,1,0,0:0:0:0:
64,192,44485,1,0,0:0:0:0:
320,192,44485,1,0,0:0:0:0:
448,192,44666,1,0,0:0:0:0:
320,192,44666,1,0,0:0:0:0:
192,192,44848,1,0,0:0:0:0:
320,192,44848,1,0,0:0:0:0:
64,192,44848,1,0,0:0:0:0:
192,192,45030,1,0,0:0:0:0:
64,192,45030,1,0,0:0:0:0:
448,192,45212,1,0,0:0:0:0:
320,192,45212,1,0,0:0:0:0:
64,192,45212,1,0,0:0:0:0:
320,192,45394,1,0,0:0:0:0:
448,192,45394,1,0,0:0:0:0:
192,192,45575,1,0,0:0:0:0:
64,192,45575,128,0,45939:0:0:0:0:
448,192,45757,1,0,0:0:0:0:
320,192,45757,1,0,0:0:0:0:
448,192,45939,128,0,46303:0:0:0:0:
320,192,45939,1,0,0:0:0:0:
64,192,46121,1,0,0:0:0:0:
192,192,46121,1,0,0:0:0:0:
192,192,46303,128,0,46666:0:0:0:0:
64,192,46303,1,0,0:0:0:0:
320,192,46485,1,0,0:0:0:0:
448,192,46485,1,0,0:0:0:0:
320,192,46666,128,0,47030:0:0:0:0:
448,192,46666,1,0,0:0:0:0:
192,192,46848,1,0,0:0:0:0:
64,192,46848,1,0,0:0:0:0:
64,192,47030,1,0,0:0:0:0:
448,192,47030,1,0,0:0:0:0:
192,192,47121,1,0,0:0:0:0:
64,192,47212,1,0,0:0:0:0:
448,192,47303,1,0,0:0:0:0:
64,192,47394,1,0,0:0:0:0:
192,192,47485,1,0,0:0:0:0:
320,192,47485,1,0,0:0:0:0:
64,192,47575,1,0,0:0:0:0:
320,192,47666,1,0,0:0:0:0:
448,192,47666,1,0,0:0:0:0:
64,192,47757,1,0,0:0:0:0:
448,192,47848,1,0,0:0:0:0:
192,192,47848,1,0,0:0:0:0:
64,192,47939,1,0,0:0:0:0:
320,192,48030,1,0,0:0:0:0:
448,192,48030,1,0,0:0:0:0:
64,192,48121,1,0,0:0:0:0:
192,192,48212,1,0,0:0:0:0:
320,192,48212,1,0,0:0:0:0:
64,192,48303,1,0,0:0:0:0:
192,192,48394,1,0,0:0:0:0:
448,192,48394,1,0,0:0:0:0:
320,192,48485,1,0,0:0:0:0:
64,192,48485,1,0,0:0:0:0:
192,192,48575,1,0,0:0:0:0:
448,192,48666,1,0,0:0:0:0:
64,192,48757,1,0,0:0:0:0:
448,192,48848,1,0,0:0:0:0:
320,192,48939,1,0,0:0:0:0:
192,192,48939,1,0,0:0:0:0:
448,192,49030,1,0,0:0:0:0:
192,192,49121,1,0,0:0:0:0:
64,192,49121,1,0,0:0:0:0:
448,192,49212,1,0,0:0:0:0:
64,192,49303,1,0,0:0:0:0:
320,192,49303,1,0,0:0:0:0:
448,192,49394,1,0,0:0:0:0:
192,192,49485,1,0,0:0:0:0:
64,192,49485,1,0,0:0:0:0:
448,192,49575,1,0,0:0:0:0:
320,192,49666,1,0,0:0:0:0:
192,192,49666,1,0,0:0:0:0:
448,192,49757,1,0,0:0:0:0:
320,192,49848,1,0,0:0:0:0:
64,192,49848,1,0,0:0:0:0:
192,192,49939,1,0,0:0:0:0:
320,192,50030,1,0,0:0:0:0:
448,192,50121,1,0,0:0:0:0:
320,192,50212,1,0,0:0:0:0:
192,192,50303,1,0,0:0:0:0:
64,192,50303,1,0,0:0:0:0:
320,192,50394,1,0,0:0:0:0:
448,192,50485,1,0,0:0:0:0:
320,192,50575,1,0,0:0:0:0:
192,192,50666,1,0,0:0:0:0:
448,192,50666,1,0,0:0:0:0:
64,192,50757,1,0,0:0:0:0:
192,192,50848,1,0,0:0:0:0:
320,192,50939,1,0,0:0:0:0:
192,192,51030,1,0,0:0:0:0:
448,192,51030,1,0,0:0:0:0:
64,192,51121,1,0,0:0:0:0:
192,192,51212,1,0,0:0:0:0:
320,192,51303,1,0,0:0:0:0:
192,192,51394,1,0,0:0:0:0:
64,192,51394,128,0,52121:0:0:0:0:
320,192,51485,1,0,0:0:0:0:
448,192,51575,1,0,0:0:0:0:
192,192,51666,1,0,0:0:0:0:
320,192,51757,1,0,0:0:0:0:
448,192,51848,1,0,0:0:0:0:
192,192,51939,1,0,0:0:0:0:
320,192,52030,1,0,0:0:0:0:
448,192,52121,128,0,52848:0:0:0:0:
192,192,52121,1,0,0:0:0:0:
320,192,52212,1,0,0:0:0:0:
192,192,52303,1,0,0:0:0:0:
64,192,52394,1,0,0:0:0:0:
320,192,52485,1,0,0:0:0:0:
192,192,52575,1,0,0:0:0:0:
64,192,52666,1,0,0:0:0:0:
192,192,52757,1,0,0:0:0:0:
320,192,52848,1,0,0:0:0:0:
64,192,52848,1,4,0:0:0:0:
192,192,52939,1,0,0:0:0:0:
64,192,53030,1,0,0:0:0:0:
192,192,53121,1,0,0:0:0:0:
448,192,53212,1,0,0:0:0:0:
320,192,53303,1,0,0:0:0:0:
448,192,53394,1,0,0:0:0:0:
320,192,53485,1,0,0:0:0:0:
64,192,53575,1,0,0:0:0:0:
448,192,53575,1,0,0:0:0:0:
192,192,53666,1,0,0:0:0:0:
64,192,53757,1,0,0:0:0:0:
448,192,53757,1,0,0:0:0:0:
192,192,53848,1,0,0:0:0:0:
64,192,53939,1,0,0:0:0:0:
448,192,53939,1,0,0:0:0:0:
320,192,54030,1,0,0:0:0:0:
64,192,54121,1,0,0:0:0:0:
448,192,54121,1,0,0:0:0:0:
320,192,54212,1,0,0:0:0:0:
192,192,54303,1,0,0:0:0:0:
64,192,54394,1,0,0:0:0:0:
192,192,54485,1,0,0:0:0:0:
320,192,54575,1,0,0:0:0:0:
192,192,54666,1,0,0:0:0:0:
320,192,54757,1,0,0:0:0:0:
448,192,54848,1,0,0:0:0:0:
320,192,54939,1,0,0:0:0:0:
192,192,55030,1,0,0:0:0:0:
64,192,55030,1,0,0:0:0:0:
320,192,55121,1,0,0:0:0:0:
192,192,55212,1,0,0:0:0:0:
64,192,55212,1,0,0:0:0:0:
320,192,55303,1,0,0:0:0:0:
448,192,55394,1,0,0:0:0:0:
192,192,55394,1,0,0:0:0:0:
64,192,55485,1,0,0:0:0:0:
448,192,55575,1,0,0:0:0:0:
192,192,55575,1,0,0:0:0:0:
64,192,55666,1,0,0:0:0:0:
192,192,55757,1,0,0:0:0:0:
320,192,55848,1,0,0:0:0:0:
64,192,55939,1,0,0:0:0:0:
448,192,56030,1,0,0:0:0:0:
192,192,56121,1,0,0:0:0:0:
320,192,56212,1,0,0:0:0:0:
64,192,56303,1,0,0:0:0:0:
448,192,56394,1,0,0:0:0:0:
192,192,56485,1,0,0:0:0:0:
64,192,56485,1,0,0:0:0:0:
320,192,56575,1,0,0:0:0:0:
448,192,56575,1,0,0:0:0:0:
192,192,56666,1,0,0:0:0:0:
64,192,56666,1,0,0:0:0:0:
320,192,56757,1,0,0:0:0:0:
448,192,56757,1,0,0:0:0:0:
192,192,56848,1,0,0:0:0:0:
64,192,56848,1,0,0:0:0:0:
320,192,56939,1,0,0:0:0:0:
448,192,56939,1,0,0:0:0:0:
192,192,57030,1,0,0:0:0:0:
64,192,57030,1,0,0:0:0:0:
320,192,57121,1,0,0:0:0:0:
448,192,57121,1,0,0:0:0:0:
192,192,57212,1,0,0:0:0:0:
64,192,57212,1,0,0:0:0:0:
64,192,57575,128,0,57939:0:0:0:0:
192,192,57939,128,0,58303:0:0:0:0:
320,192,58303,1,0,0:0:0:0:
64,192,58485,1,0,0:0:0:0:
448,192,58530,128,0,59757:0:0:0:0:
320,192,58666,1,0,0:0:0:0:
192,192,58666,1,0,0:0:0:0:
64,192,58757,1,0,0:0:0:0:
192,192,58848,1,0,0:0:0:0:
320,192,58939,1,0,0:0:0:0:
192,192,59030,1,0,0:0:0:0:
64,192,59030,1,0,0:0:0:0:
320,192,59121,1,0,0:0:0:0:
192,192,59212,1,0,0:0:0:0:
320,192,59303,1,0,0:0:0:0:
192,192,59394,1,0,0:0:0:0:
64,192,59394,1,0,0:0:0:0:
320,192,59485,1,0,0:0:0:0:
64,192,59575,1,0,0:0:0:0:
320,192,59666,1,0,0:0:0:0:
192,192,59757,1,0,0:0:0:0:
64,192,59757,1,0,0:0:0:0:
320,192,59848,1,0,0:0:0:0:
192,192,59939,1,0,0:0:0:0:
64,192,60030,1,0,0:0:0:0:
448,192,60121,1,0,0:0:0:0:
192,192,60121,1,0,0:0:0:0:
320,192,60212,1,0,0:0:0:0:
64,192,60303,1,0,0:0:0:0:
320,192,60394,1,0,0:0:0:0:
64,192,60485,1,0,0:0:0:0:
448,192,60485,1,0,0:0:0:0:
192,192,60575,1,0,0:0:0:0:
320,192,60666,1,0,0:0:0:0:
192,192,60757,1,0,0:0:0:0:
448,192,60848,1,0,0:0:0:0:
320,192,60848,1,0,0:0:0:0:
64,192,60939,1,0,0:0:0:0:
320,192,61030,1,0,0:0:0:0:
64,192,61121,1,0,0:0:0:0:
192,192,61212,1,0,0:0:0:0:
448,192,61212,1,0,0:0:0:0:
320,192,61303,1,0,0:0:0:0:
448,192,61394,1,0,0:0:0:0:
320,192,61485,1,0,0:0:0:0:
448,192,61575,1,0,0:0:0:0:
64,192,61575,1,0,0:0:0:0:
192,192,61666,1,0,0:0:0:0:
448,192,61757,1,0,0:0:0:0:
192,192,61848,1,0,0:0:0:0:
320,192,61939,1,0,0:0:0:0:
64,192,61939,1,0,0:0:0:0:
448,192,62030,1,0,0:0:0:0:
320,192,62121,1,0,0:0:0:0:
448,192,62212,1,0,0:0:0:0:
320,192,62303,1,0,0:0:0:0:
192,192,62303,1,0,0:0:0:0:
64,192,62394,1,0,0:0:0:0:
448,192,62485,1,0,0:0:0:0:
64,192,62575,1,0,0:0:0:0:
192,192,62666,1,0,0:0:0:0:
448,192,62666,1,0,0:0:0:0:
320,192,62757,1,0,0:0:0:0:
64,192,62848,1,0,0:0:0:0:
320,192,62939,1,0,0:0:0:0:
192,192,63030,1,0,0:0:0:0:
64,192,63030,1,0,0:0:0:0:
448,192,63121,1,0,0:0:0:0:
192,192,63212,1,0,0:0:0:0:
448,192,63303,1,0,0:0:0:0:
320,192,63394,1,0,0:0:0:0:
64,192,63394,1,0,0:0:0:0:
192,192,63485,1,0,0:0:0:0:
64,192,63575,1,0,0:0:0:0:
192,192,63666,1,0,0:0:0:0:
448,192,63757,1,0,0:0:0:0:
64,192,63757,1,0,0:0:0:0:
320,192,63848,1,0,0:0:0:0:
192,192,63939,1,0,0:0:0:0:
320,192,64030,1,0,0:0:0:0:
448,192,64121,1,0,0:0:0:0:
64,192,64121,1,0,0:0:0:0:
320,192,64212,1,0,0:0:0:0:
192,192,64303,1,0,0:0:0:0:
320,192,64394,1,0,0:0:0:0:
64,192,64485,128,0,64848:0:0:0:0:
192,192,64485,1,0,0:0:0:0:
320,192,64575,1,0,0:0:0:0:
448,192,64666,1,0,0:0:0:0:
320,192,64757,1,0,0:0:0:0:
448,192,64848,1,0,0:0:0:0:
320,192,64939,1,0,0:0:0:0:
64,192,65030,128,0,65394:0:0:0:0:
192,192,65030,1,0,0:0:0:0:
320,192,65121,1,0,0:0:0:0:
448,192,65212,1,0,0:0:0:0:
320,192,65303,1,0,0:0:0:0:
448,192,65394,1,0,0:0:0:0:
320,192,65485,1,0,0:0:0:0:
64,192,65575,1,0,0:0:0:0:
192,192,65575,1,0,0:0:0:0:
320,192,65666,1,0,0:0:0:0:
448,192,65757,1,0,0:0:0:0:
64,192,65757,1,0,0:0:0:0:
192,192,65848,1,0,0:0:0:0:
448,192,65939,128,0,66303:0:0:0:0:
320,192,65939,1,0,0:0:0:0:
192,192,66030,1,0,0:0:0:0:
64,192,66121,1,0,0:0:0:0:
192,192,66212,1,0,0:0:0:0:
64,192,66303,1,0,0:0:0:0:
192,192,66394,1,0,0:0:0:0:
448,192,66485,128,0,66848:0:0:0:0:
320,192,66485,1,0,0:0:0:0:
192,192,66575,1,0,0:0:0:0:
64,192,66666,1,0,0:0:0:0:
192,192,66757,1,0,0:0:0:0:
64,192,66848,1,0,0:0:0:0:
192,192,66939,1,0,0:0:0:0:
64,192,67030,1,0,0:0:0:0:
320,192,67030,1,0,0:0:0:0:
192,192,67121,1,0,0:0:0:0:
64,192,67212,1,0,0:0:0:0:
448,192,67212,1,0,0:0:0:0:
320,192,67303,1,0,0:0:0:0:
64,192,67394,128,0,67757:0:0:0:0:
192,192,67394,1,0,0:0:0:0:
320,192,67485,1,0,0:0:0:0:
448,192,67575,1,0,0:0:0:0:
320,192,67666,1,0,0:0:0:0:
448,192,67757,1,0,0:0:0:0:
320,192,67848,1,0,0:0:0:0:
64,192,67939,128,0,68303:0:0:0:0:
192,192,67939,1,0,0:0:0:0:
320,192,68030,1,0,0:0:0:0:
448,192,68121,1,0,0:0:0:0:
320,192,68212,1,0,0:0:0:0:
448,192,68303,1,0,0:0:0:0:
320,192,68394,1,0,0:0:0:0:
64,192,68485,1,0,0:0:0:0:
448,192,68485,1,0,0:0:0:0:
192,192,68575,1,0,0:0:0:0:
64,192,68666,1,0,0:0:0:0:
448,192,68666,1,0,0:0:0:0:
320,192,68757,1,0,0:0:0:0:
192,192,68848,1,0,0:0:0:0:
64,192,68848,1,0,0:0:0:0:
320,192,68939,1,0,0:0:0:0:
448,192,69030,1,0,0:0:0:0:
320,192,69121,1,0,0:0:0:0:
64,192,69212,1,0,0:0:0:0:
448,192,69212,1,0,0:0:0:0:
192,192,69303,1,0,0:0:0:0:
320,192,69394,1,0,0:0:0:0:
448,192,69485,1,0,0:0:0:0:
320,192,69575,1,0,0:0:0:0:
64,192,69575,1,0,0:0:0:0:
192,192,69666,1,0,0:0:0:0:
64,192,69757,1,0,0:0:0:0:
192,192,69848,1,0,0:0:0:0:
320,192,69939,1,0,0:0:0:0:
448,192,69939,1,0,0:0:0:0:
192,192,70030,1,0,0:0:0:0:
320,192,70121,1,0,0:0:0:0:
448,192,70212,1,0,0:0:0:0:
320,192,70303,1,0,0:0:0:0:
64,192,70303,1,4,0:0:0:0:
192,192,70394,1,0,0:0:0:0:
448,192,70485,1,0,0:0:0:0:
192,192,70575,1,0,0:0:0:0:
64,192,70666,1,0,0:0:0:0:
448,192,70666,1,0,0:0:0:0:
320,192,70757,1,0,0:0:0:0:
64,192,70848,1,0,0:0:0:0:
320,192,70939,1,0,0:0:0:0:
192,192,71030,1,0,0:0:0:0:
64,192,71030,1,0,0:0:0:0:
448,192,71121,1,0,0:0:0:0:
192,192,71212,1,0,0:0:0:0:
448,192,71303,1,0,0:0:0:0:
320,192,71394,1,0,0:0:0:0:
64,192,71394,1,0,0:0:0:0:
192,192,71485,1,0,0:0:0:0:
448,192,71575,1,0,0:0:0:0:
192,192,71666,1,0,0:0:0:0:
64,192,71757,1,0,0:0:0:0:
448,192,71757,1,0,0:0:0:0:
320,192,71848,1,0,0:0:0:0:
192,192,71939,1,0,0:0:0:0:
320,192,72030,1,0,0:0:0:0:
64,192,72121,1,0,0:0:0:0:
448,192,72121,1,0,0:0:0:0:
192,192,72212,1,0,0:0:0:0:
320,192,72303,1,0,0:0:0:0:
192,192,72394,1,0,0:0:0:0:
64,192,72485,1,0,0:0:0:0:
448,192,72485,1,0,0:0:0:0:
320,192,72575,1,0,0:0:0:0:
448,192,72666,1,0,0:0:0:0:
320,192,72757,1,0,0:0:0:0:
192,192,72848,1,0,0:0:0:0:
448,192,72848,1,0,0:0:0:0:
320,192,72939,1,0,0:0:0:0:
64,192,73030,1,0,0:0:0:0:
320,192,73121,1,0,0:0:0:0:
64,192,73212,1,0,0:0:0:0:
448,192,73212,1,0,0:0:0:0:
192,192,73303,1,0,0:0:0:0:
64,192,73394,1,0,0:0:0:0:
192,192,73485,1,0,0:0:0:0:
448,192,73575,1,0,0:0:0:0:
64,192,73575,1,0,0:0:0:0:
192,192,73666,1,0,0:0:0:0:
448,192,73757,1,0,0:0:0:0:
192,192,73848,1,0,0:0:0:0:
320,192,73939,1,0,0:0:0:0:
448,192,73939,1,0,0:0:0:0:
64,192,74030,1,0,0:0:0:0:
320,192,74121,1,0,0:0:0:0:
64,192,74212,1,0,0:0:0:0:
192,192,74303,1,0,0:0:0:0:
448,192,74303,1,0,0:0:0:0:
64,192,74394,1,0,0:0:0:0:
320,192,74485,1,0,0:0:0:0:
64,192,74575,1,0,0:0:0:0:
448,192,74666,1,0,0:0:0:0:
192,192,74666,1,0,0:0:0:0:
320,192,74757,1,0,0:0:0:0:
192,192,74848,1,0,0:0:0:0:
320,192,74939,1,0,0:0:0:0:
64,192,75030,1,0,0:0:0:0:
448,192,75030,1,0,0:0:0:0:
192,192,75121,1,0,0:0:0:0:
320,192,75212,1,0,0:0:0:0:
192,192,75303,1,0,0:0:0:0:
64,192,75394,1,0,0:0:0:0:
448,192,75394,1,0,0:0:0:0:
192,192,75485,1,0,0:0:0:0:
320,192,75575,1,0,0:0:0:0:
448,192,75666,1,0,0:0:0:0:
320,192,75757,1,0,0:0:0:0:
64,192,75757,1,0,0:0:0:0:
448,192,75848,1,0,0:0:0:0:
320,192,75939,1,0,0:0:0:0:
192,192,76030,1,0,0:0:0:0:
448,192,76121,128,0,76485:0:0:0:0:
320,192,76121,1,0,0:0:0:0:
64,192,76212,1,0,0:0:0:0:
192,192,76303,1,0,0:0:0:0:
64,192,76394,1,0,0:0:0:0:
192,192,76485,1,0,0:0:0:0:
64,192,76575,1,0,0:0:0:0:
448,192,76666,128,0,77030:0:0:0:0:
320,192,76666,1,0,0:0:0:0:
64,192,76757,1,0,0:0:0:0:
192,192,76848,1,0,0:0:0:0:
64,192,76939,1,0,0:0:0:0:
192,192,77030,1,0,0:0:0:0:
64,192,77121,1,0,0:0:0:0:
192,192,77212,1,0,0:0:0:0:
448,192,77212,1,0,0:0:0:0:
64,192,77303,1,0,0:0:0:0:
192,192,77394,1,0,0:0:0:0:
448,192,77394,1,0,0:0:0:0:
320,192,77485,1,0,0:0:0:0:
64,192,77575,128,0,77939:0:0:0:0:
192,192,77575,1,0,0:0:0:0:
448,192,77666,1,0,0:0:0:0:
320,192,77757,1,0,0:0:0:0:
448,192,77848,1,0,0:0:0:0:
320,192,77939,1,0,0:0:0:0:
448,192,78030,1,0,0:0:0:0:
64,192,78121,128,0,78485:0:0:0:0:
192,192,78121,1,0,0:0:0:0:
448,192,78212,1,0,0:0:0:0:
320,192,78303,1,0,0:0:0:0:
448,192,78394,1,0,0:0:0:0:
320,192,78485,1,0,0:0:0:0:
448,192,78575,1,0,0:0:0:0:
320,192,78666,1,0,0:0:0:0:
192,192,78666,1,0,0:0:0:0:
64,192,78757,1,0,0:0:0:0:
448,192,78848,1,0,0:0:0:0:
320,192,78848,1,0,0:0:0:0:
192,192,78939,1,0,0:0:0:0:
448,192,79030,128,0,79394:0:0:0:0:
320,192,79030,1,0,0:0:0:0:
64,192,79121,1,0,0:0:0:0:
192,192,79212,1,0,0:0:0:0:
64,192,79303,1,0,0:0:0:0:
192,192,79394,1,0,0:0:0:0:
64,192,79485,1,0,0:0:0:0:
448,192,79575,128,0,79939:0:0:0:0:
320,192,79575,1,0,0:0:0:0:
64,192,79666,1,0,0:0:0:0:
192,192,79757,1,0,0:0:0:0:
64,192,79848,1,0,0:0:0:0:
192,192,79939,1,0,0:0:0:0:
64,192,80030,1,0,0:0:0:0:
192,192,80121,1,0,0:0:0:0:
448,192,80121,1,0,0:0:0:0:
320,192,80212,1,0,0:0:0:0:
64,192,80303,1,0,0:0:0:0:
192,192,80303,1,0,0:0:0:0:
320,192,80394,1,0,0:0:0:0:
64,192,80485,1,0,0:0:0:0:
448,192,80485,1,0,0:0:0:0:
192,192,80575,1,0,0:0:0:0:
320,192,80666,1,0,0:0:0:0:
448,192,80757,1,0,0:0:0:0:
64,192,80848,1,0,0:0:0:0:
320,192,80848,1,0,0:0:0:0:
192,192,80939,1,0,0:0:0:0:
320,192,81030,1,0,0:0:0:0:
448,192,81121,1,0,0:0:0:0:
320,192,81212,1,0,0:0:0:0:
64,192,81212,1,0,0:0:0:0:
192,192,81303,1,0,0:0:0:0:
320,192,81394,1,0,0:0:0:0:
448,192,81485,1,0,0:0:0:0:
64,192,81575,1,0,0:0:0:0:
320,192,81575,1,0,0:0:0:0:
192,192,81666,1,0,0:0:0:0:
320,192,81757,1,0,0:0:0:0:
448,192,81848,1,0,0:0:0:0:
64,192,81939,1,0,0:0:0:0:
320,192,81939,1,0,0:0:0:0:
192,192,82030,1,0,0:0:0:0:
448,192,82121,1,0,0:0:0:0:
64,192,82121,1,0,0:0:0:0:
320,192,82212,1,0,0:0:0:0:
192,192,82303,1,0,0:0:0:0:
64,192,82303,1,0,0:0:0:0:
448,192,82394,1,0,0:0:0:0:
320,192,82485,1,0,0:0:0:0:
192,192,82485,1,0,0:0:0:0:
448,192,82575,1,0,0:0:0:0:
192,192,82666,1,0,0:0:0:0:
64,192,82666,1,0,0:0:0:0:
320,192,82757,1,0,0:0:0:0:
448,192,82848,1,0,0:0:0:0:
192,192,82848,1,0,0:0:0:0:
64,192,82939,1,0,0:0:0:0:
320,192,83030,1,0,0:0:0:0:
448,192,83030,1,0,0:0:0:0:
192,192,83121,1,0,0:0:0:0:
64,192,83212,1,0,0:0:0:0:
448,192,83212,1,0,0:0:0:0:
320,192,83303,1,0,0:0:0:0:
192,192,83394,1,0,0:0:0:0:
448,192,83394,1,0,0:0:0:0:
320,192,83485,1,0,0:0:0:0:
64,192,83575,1,0,0:0:0:0:
192,192,83575,1,0,0:0:0:0:
448,192,83666,1,0,0:0:0:0:
64,192,83757,1,0,0:0:0:0:
320,192,83757,1,0,0:0:0:0:
448,192,83848,1,0,0:0:0:0:
192,192,83939,1,0,0:0:0:0:
64,192,83939,1,0,0:0:0:0:
320,192,84030,1,0,0:0:0:0:
448,192,84121,1,0,0:0:0:0:
192,192,84121,1,0,0:0:0:0:
320,192,84212,1,0,0:0:0:0:
64,192,84303,1,0,0:0:0:0:
448,192,84303,1,0,0:0:0:0:
192,192,84394,1,0,0:0:0:0:
64,192,84485,1,0,0:0:0:0:
448,192,84485,1,0,0:0:0:0:
320,192,84575,1,0,0:0:0:0:
448,192,84666,1,0,0:0:0:0:
192,192,84666,1,0,0:0:0:0:
64,192,84757,1,0,0:0:0:0:
320,192,84848,1,0,0:0:0:0:
448,192,84848,1,0,0:0:0:0:
192,192,84939,1,0,0:0:0:0:
64,192,85030,1,0,0:0:0:0:
320,192,85030,1,0,0:0:0:0:
192,192,85121,1,0,0:0:0:0:
448,192,85212,1,0,0:0:0:0:
320,192,85212,1,0,0:0:0:0:
192,192,85303,1,0,0:0:0:0:
448,192,85394,1,0,0:0:0:0:
64,192,85394,1,0,0:0:0:0:
192,192,85485,1,0,0:0:0:0:
320,192,85575,1,0,0:0:0:0:
448,192,85575,1,0,0:0:0:0:
64,192,85666,1,0,0:0:0:0:
320,192,85757,1,0,0:0:0:0:
64,192,85848,1,0,0:0:0:0:
192,192,85848,1,0,0:0:0:0:
448,192,85939,1,0,0:0:0:0:
320,192,85939,1,0,0:0:0:0:
64,192,86030,1,0,0:0:0:0:
320,192,86121,1,0,0:0:0:0:
64,192,86212,1,0,0:0:0:0:
192,192,86212,1,0,0:0:0:0:
320,192,86303,1,0,0:0:0:0:
448,192,86303,1,0,0:0:0:0:
192,192,86394,1,0,0:0:0:0:
64,192,86485,1,0,0:0:0:0:
320,192,86485,1,0,0:0:0:0:
448,192,86575,1,0,0:0:0:0:
320,192,86666,1,0,0:0:0:0:
192,192,86666,1,0,0:0:0:0:
64,192,86757,1,0,0:0:0:0:
192,192,86848,1,0,0:0:0:0:
448,192,86848,1,0,0:0:0:0:
320,192,86939,1,0,0:0:0:0:
192,192,87030,1,0,0:0:0:0:
64,192,87030,1,0,0:0:0:0:
320,192,87121,1,0,0:0:0:0:
448,192,87212,1,0,0:0:0:0:
64,192,87212,1,0,0:0:0:0:
192,192,87303,1,0,0:0:0:0:
320,192,87394,1,0,0:0:0:0:
448,192,87394,1,0,0:0:0:0:
192,192,87485,1,0,0:0:0:0:
64,192,87575,1,0,0:0:0:0:
320,192,87575,1,0,0:0:0:0:
448,192,87666,1,0,0:0:0:0:
320,192,87757,1,0,0:0:0:0:
192,192,87757,1,0,0:0:0:0:
448,192,87848,1,0,0:0:0:0:
64,192,87939,1,0,0:0:0:0:
192,192,87939,1,0,0:0:0:0:
320,192,88030,1,0,0:0:0:0:
192,192,88121,1,0,0:0:0:0:
448,192,88121,1,0,0:0:0:0:
320,192,88212,1,0,0:0:0:0:
192,192,88303,1,0,0:0:0:0:
448,192,88394,1,0,0:0:0:0:
320,192,88394,1,0,0:0:0:0:
64,192,88485,1,0,0:0:0:0:
192,192,88485,1,0,0:0:0:0:
320,192,88575,1,0,0:0:0:0:
64,192,88666,1,0,0:0:0:0:
448,192,88757,1,0,0:0:0:0:
320,192,88757,1,0,0:0:0:0:
192,192,88848,1,0,0:0:0:0:
64,192,88848,1,0,0:0:0:0:
448,192,88939,1,0,0:0:0:0:
192,192,89030,1,0,0:0:0:0:
320,192,89121,1,0,0:0:0:0:
448,192,89121,1,0,0:0:0:0:
64,192,89212,128,0,89575:0:0:0:0:
192,192,89212,128,0,89575:0:0:0:0:
448,192,89575,1,0,0:0:0:0:
320,192,89666,1,0,0:0:0:0:
192,192,89757,1,0,0:0:0:0:
64,192,89848,1,0,0:0:0:0:
192,192,89939,1,0,0:0:0:0:
448,192,89939,1,0,0:0:0:0:
64,192,90030,1,0,0:0:0:0:
320,192,90121,1,0,0:0:0:0:
192,192,90212,1,0,0:0:0:0:
64,192,90212,1,0,0:0:0:0:
448,192,90303,1,0,0:0:0:0:
320,192,90303,1,0,0:0:0:0:
192,192,90394,1,0,0:0:0:0:
448,192,90485,1,0,0:0:0:0:
64,192,90575,1,0,0:0:0:0:
320,192,90575,1,0,0:0:0:0:
192,192,90666,1,0,0:0:0:0:
448,192,90666,1,0,0:0:0:0:
320,192,90757,1,0,0:0:0:0:
192,192,90848,1,0,0:0:0:0:
64,192,90939,1,0,0:0:0:0:
320,192,90939,1,0,0:0:0:0:
192,192,91030,1,0,0:0:0:0:
448,192,91030,1,0,0:0:0:0:
320,192,91121,1,0,0:0:0:0:
192,192,91212,1,0,0:0:0:0:
64,192,91303,1,0,0:0:0:0:
320,192,91303,1,0,0:0:0:0:
192,192,91394,1,0,0:0:0:0:
448,192,91394,1,0,0:0:0:0:
64,192,91485,1,0,0:0:0:0:
192,192,91575,1,0,0:0:0:0:
448,192,91575,1,0,0:0:0:0:
320,192,91666,1,0,0:0:0:0:
64,192,91666,1,0,0:0:0:0:
192,192,91757,1,0,0:0:0:0:
448,192,91757,1,0,0:0:0:0:
320,192,91848,1,0,0:0:0:0:
192,192,91939,1,0,0:0:0:0:
64,192,92030,1,0,0:0:0:0:
192,192,92121,1,0,0:0:0:0:
448,192,92121,1,0,0:0:0:0:
320,192,92212,1,0,0:0:0:0:
64,192,92303,1,0,0:0:0:0:
192,192,92394,1,0,0:0:0:0:
448,192,92394,1,0,0:0:0:0:
320,192,92485,1,0,0:0:0:0:
64,192,92485,1,0,0:0:0:0:
192,192,92575,1,0,0:0:0:0:
320,192,92666,1,0,0:0:0:0:
64,192,92666,1,0,0:0:0:0:
192,192,92757,1,0,0:0:0:0:
448,192,92757,1,0,0:0:0:0:
320,192,92848,1,0,0:0:0:0:
64,192,92848,1,0,0:0:0:0:
192,192,92939,1,0,0:0:0:0:
320,192,93030,1,0,0:0:0:0:
448,192,93121,1,0,0:0:0:0:
320,192,93212,1,0,0:0:0:0:
64,192,93212,1,0,0:0:0:0:
192,192,93303,1,0,0:0:0:0:
320,192,93394,1,0,0:0:0:0:
64,192,93394,1,0,0:0:0:0:
448,192,93485,1,0,0:0:0:0:
192,192,93485,1,0,0:0:0:0:
64,192,93575,128,0,93939:0:0:0:0:
320,192,93575,128,0,93939:0:0:0:0:
448,192,93939,1,0,0:0:0:0:
192,192,94030,1,0,0:0:0:0:
320,192,94121,1,0,0:0:0:0:
448,192,94212,1,0,0:0:0:0:
64,192,94303,1,0,0:0:0:0:
320,192,94303,1,0,0:0:0:0:
192,192,94394,1,0,0:0:0:0:
320,192,94485,1,0,0:0:0:0:
448,192,94575,1,0,0:0:0:0:
192,192,94575,1,0,0:0:0:0:
320,192,94666,1,0,0:0:0:0:
64,192,94666,1,0,0:0:0:0:
448,192,94757,1,0,0:0:0:0:
192,192,94757,1,0,0:0:0:0:
64,192,94848,1,0,0:0:0:0:
192,192,94939,1,0,0:0:0:0:
448,192,94939,1,0,0:0:0:0:
320,192,95030,1,0,0:0:0:0:
64,192,95030,1,0,0:0:0:0:
448,192,95121,1,0,0:0:0:0:
320,192,95212,1,0,0:0:0:0:
192,192,95303,1,0,0:0:0:0:
448,192,95303,1,0,0:0:0:0:
64,192,95394,1,0,0:0:0:0:
320,192,95394,1,0,0:0:0:0:
192,192,95485,1,0,0:0:0:0:
64,192,95575,1,0,0:0:0:0:
320,192,95575,1,0,0:0:0:0:
448,192,95666,1,0,0:0:0:0:
192,192,95666,1,0,0:0:0:0:
64,192,95757,1,0,0:0:0:0:
320,192,95757,1,0,0:0:0:0:
192,192,95848,1,0,0:0:0:0:
448,192,95939,1,0,0:0:0:0:
64,192,95939,1,0,0:0:0:0:
320,192,96030,1,0,0:0:0:0:
192,192,96121,1,0,0:0:0:0:
448,192,96121,1,0,0:0:0:0:
64,192,96212,1,0,0:0:0:0:
320,192,96212,1,0,0:0:0:0:
192,192,96303,1,0,0:0:0:0:
448,192,96303,1,0,0:0:0:0:
64,192,96394,1,0,0:0:0:0:
192,192,96485,1,0,0:0:0:0:
448,192,96485,1,0,0:0:0:0:
320,192,96575,1,0,0:0:0:0:
192,192,96666,1,0,0:0:0:0:
64,192,96757,1,0,0:0:0:0:
448,192,96848,1,0,0:0:0:0:
192,192,96848,1,0,0:0:0:0:
320,192,96939,1,0,0:0:0:0:
64,192,96939,1,0,0:0:0:0:
192,192,97030,1,0,0:0:0:0:
320,192,97121,1,0,0:0:0:0:
448,192,97212,1,0,0:0:0:0:
192,192,97212,1,0,0:0:0:0:
320,192,97303,1,0,0:0:0:0:
64,192,97303,1,0,0:0:0:0:
448,192,97394,1,0,0:0:0:0:
320,192,97485,1,0,0:0:0:0:
192,192,97575,1,0,0:0:0:0:
64,192,97575,1,0,0:0:0:0:
448,192,97666,1,0,0:0:0:0:
320,192,97757,1,0,0:0:0:0:
192,192,97848,1,0,0:0:0:0:
448,192,97939,1,0,0:0:0:0:
64,192,97939,1,0,0:0:0:0:
192,192,98666,1,0,0:0:0:0:
64,192,98666,1,0,0:0:0:0:
448,192,98757,1,0,0:0:0:0:
320,192,98848,1,0,0:0:0:0:
192,192,98848,1,0,0:0:0:0:
448,192,98939,1,0,0:0:0:0:
320,192,99030,1,0,0:0:0:0:
64,192,99030,1,0,0:0:0:0:
192,192,99121,1,0,0:0:0:0:
320,192,99212,1,0,0:0:0:0:
64,192,99212,1,0,0:0:0:0:
448,192,99303,1,0,0:0:0:0:
320,192,99394,1,0,0:0:0:0:
64,192,99394,1,0,0:0:0:0:
192,192,99485,1,0,0:0:0:0:
448,192,99485,1,0,0:0:0:0:
64,192,99575,1,0,0:0:0:0:
320,192,99575,1,0,0:0:0:0:
448,192,99666,1,0,0:0:0:0:
192,192,99666,1,0,0:0:0:0:
64,192,99757,1,0,0:0:0:0:
192,192,99757,1,0,0:0:0:0:
320,192,99848,1,0,0:0:0:0:
448,192,99848,1,0,0:0:0:0:
192,192,99939,1,0,0:0:0:0:
64,192,99939,1,0,0:0:0:0:
320,192,100030,1,0,0:0:0:0:
448,192,100030,1,0,0:0:0:0:
64,192,100121,1,0,0:0:0:0:
448,192,100121,1,0,0:0:0:0:
320,192,100212,1,0,0:0:0:0:
192,192,100212,1,0,0:0:0:0:
64,192,100303,1,0,0:0:0:0:
448,192,100303,1,0,0:0:0:0:
320,192,100394,1,0,0:0:0:0:
192,192,100394,1,0,0:0:0:0:
448,192,100485,1,0,0:0:0:0:
320,192,100485,1,0,0:0:0:0:
192,192,100575,1,0,0:0:0:0:
64,192,100575,1,0,0:0:0:0:
448,192,100666,1,0,0:0:0:0:
320,192,100666,1,0,0:0:0:0:
192,192,100757,1,0,0:0:0:0:
64,192,100757,1,0,0:0:0:0:
448,192,100848,1,0,0:0:0:0:
320,192,100848,1,0,0:0:0:0:
192,192,100939,1,0,0:0:0:0:
64,192,101030,1,0,0:0:0:0:
192,192,101121,1,0,0:0:0:0:
320,192,101212,1,0,0:0:0:0:
448,192,101212,1,0,0:0:0:0:
192,192,101303,1,0,0:0:0:0:
64,192,101394,1,0,0:0:0:0:
192,192,101485,1,0,0:0:0:0:
320,192,101575,1,0,0:0:0:0:
448,192,101575,1,0,0:0:0:0:
320,192,101666,1,0,0:0:0:0:
448,192,101666,1,0,0:0:0:0:
64,192,101757,1,0,0:0:0:0:
192,192,101757,1,0,0:0:0:0:
64,192,101848,1,0,0:0:0:0:
192,192,101848,1,0,0:0:0:0:
448,192,101939,1,0,0:0:0:0:
320,192,101939,1,0,0:0:0:0:
64,192,102030,1,0,0:0:0:0:
192,192,102030,1,0,0:0:0:0:
448,192,102121,1,0,0:0:0:0:
192,192,102212,1,0,0:0:0:0:
320,192,102303,1,0,0:0:0:0:
64,192,102303,128,0,102485:0:0:0:0:
448,192,102485,1,0,0:0:0:0:
320,192,102575,1,0,0:0:0:0:
64,192,102666,128,0,102848:0:0:0:0:
192,192,102666,1,0,0:0:0:0:
448,192,102848,1,0,0:0:0:0:
320,192,102939,1,0,0:0:0:0:
192,192,103030,1,0,0:0:0:0:
64,192,103030,1,0,0:0:0:0:
320,192,103121,1,0,0:0:0:0:
448,192,103121,1,0,0:0:0:0:
192,192,103212,1,0,0:0:0:0:
64,192,103212,1,0,0:0:0:0:
320,192,103303,1,0,0:0:0:0:
448,192,103303,1,0,0:0:0:0:
64,192,103394,1,0,0:0:0:0:
448,192,103394,1,0,0:0:0:0:
320,192,103485,1,0,0:0:0:0:
192,192,103485,1,0,0:0:0:0:
64,192,103575,1,0,0:0:0:0:
448,192,103575,1,0,0:0:0:0:
192,192,103666,1,0,0:0:0:0:
320,192,103757,1,0,0:0:0:0:
64,192,103757,1,0,0:0:0:0:
448,192,103848,1,0,0:0:0:0:
320,192,103939,1,0,0:0:0:0:
448,192,104030,1,0,0:0:0:0:
64,192,104030,1,0,0:0:0:0:
320,192,104121,1,0,0:0:0:0:
192,192,104212,1,0,0:0:0:0:
320,192,104303,1,0,0:0:0:0:
64,192,104303,1,0,0:0:0:0:
448,192,104394,1,0,0:0:0:0:
320,192,104485,1,0,0:0:0:0:
64,192,104485,1,0,0:0:0:0:
192,192,104575,1,0,0:0:0:0:
320,192,104666,1,0,0:0:0:0:
448,192,104666,1,0,0:0:0:0:
192,192,104757,1,0,0:0:0:0:
64,192,104757,1,0,0:0:0:0:
448,192,104848,1,0,0:0:0:0:
320,192,104848,1,0,0:0:0:0:
192,192,104939,1,0,0:0:0:0:
64,192,105030,1,0,0:0:0:0:
192,192,105121,1,0,0:0:0:0:
448,192,105212,1,0,0:0:0:0:
64,192,105212,1,0,0:0:0:0:
320,192,105303,1,0,0:0:0:0:
192,192,105394,1,0,0:0:0:0:
320,192,105485,1,0,0:0:0:0:
448,192,105575,128,0,105757:0:0:0:0:
64,192,105575,1,0,0:0:0:0:
192,192,105757,1,0,0:0:0:0:
320,192,105848,1,0,0:0:0:0:
448,192,105939,1,0,0:0:0:0:
64,192,105939,1,0,0:0:0:0:
320,192,106030,1,0,0:0:0:0:
64,192,106121,1,0,0:0:0:0:
192,192,106212,1,0,0:0:0:0:
448,192,106303,1,0,0:0:0:0:
64,192,106303,1,0,0:0:0:0:
320,192,106394,1,0,0:0:0:0:
64,192,106485,1,0,0:0:0:0:
192,192,106575,1,0,0:0:0:0:
448,192,106666,1,0,0:0:0:0:
64,192,106666,1,0,0:0:0:0:
320,192,106757,1,0,0:0:0:0:
192,192,106757,1,0,0:0:0:0:
448,192,106848,1,0,0:0:0:0:
64,192,106848,1,0,0:0:0:0:
192,192,106939,1,0,0:0:0:0:
64,192,107030,1,0,0:0:0:0:
448,192,107030,1,0,0:0:0:0:
192,192,107121,1,0,0:0:0:0:
320,192,107121,1,0,0:0:0:0:
64,192,107212,1,0,0:0:0:0:
448,192,107212,1,0,0:0:0:0:
320,192,107303,1,0,0:0:0:0:
192,192,107394,1,0,0:0:0:0:
64,192,107394,1,0,0:0:0:0:
320,192,107485,1,0,0:0:0:0:
448,192,107485,1,0,0:0:0:0:
192,192,107575,1,0,0:0:0:0:
64,192,107575,1,0,0:0:0:0:
448,192,107666,1,0,0:0:0:0:
192,192,107757,1,0,0:0:0:0:
64,192,107757,1,0,0:0:0:0:
320,192,107848,1,0,0:0:0:0:
448,192,107848,1,0,0:0:0:0:
192,192,107939,1,0,0:0:0:0:
64,192,107939,1,0,0:0:0:0:
320,192,108030,1,0,0:0:0:0:
64,192,108121,128,0,108303:0:0:0:0:
448,192,108121,1,0,0:0:0:0:
192,192,108303,1,0,0:0:0:0:
320,192,108394,1,0,0:0:0:0:
448,192,108485,1,0,0:0:0:0:
64,192,108485,1,0,0:0:0:0:
320,192,108575,1,0,0:0:0:0:
192,192,108666,1,0,0:0:0:0:
64,192,108666,1,0,0:0:0:0:
320,192,108757,1,0,0:0:0:0:
448,192,108848,1,0,0:0:0:0:
192,192,108848,1,0,0:0:0:0:
320,192,108939,1,0,0:0:0:0:
64,192,109030,1,0,0:0:0:0:
448,192,109030,1,0,0:0:0:0:
192,192,109121,1,0,0:0:0:0:
448,192,109212,1,0,0:0:0:0:
320,192,109212,1,0,0:0:0:0:
192,192,109303,1,0,0:0:0:0:
320,192,109394,1,0,0:0:0:0:
64,192,109394,1,0,0:0:0:0:
448,192,109485,1,0,0:0:0:0:
320,192,109575,1,0,0:0:0:0:
64,192,109575,1,0,0:0:0:0:
192,192,109666,1,0,0:0:0:0:
64,192,109757,1,0,0:0:0:0:
448,192,109757,1,0,0:0:0:0:
192,192,109848,1,0,0:0:0:0:
320,192,109939,1,0,0:0:0:0:
448,192,109939,128,0,110121:0:0:0:0:
64,192,110121,1,0,0:0:0:0:
192,192,110212,1,0,0:0:0:0:
64,192,110303,1,0,0:0:0:0:
320,192,110303,1,0,0:0:0:0:
448,192,110394,1,0,0:0:0:0:
320,192,110485,1,0,0:0:0:0:
192,192,110485,1,0,0:0:0:0:
448,192,110575,1,0,0:0:0:0:
320,192,110666,1,0,0:0:0:0:
64,192,110666,1,0,0:0:0:0:
192,192,110757,1,0,0:0:0:0:
448,192,110757,1,0,0:0:0:0:
320,192,110848,1,0,0:0:0:0:
64,192,110848,1,0,0:0:0:0:
192,192,110939,1,0,0:0:0:0:
448,192,110939,1,0,0:0:0:0:
320,192,111030,1,0,0:0:0:0:
448,192,111030,1,0,0:0:0:0:
192,192,111121,1,0,0:0:0:0:
64,192,111121,1,0,0:0:0:0:
448,192,111212,1,0,0:0:0:0:
320,192,111212,1,0,0:0:0:0:
192,192,111303,1,0,0:0:0:0:
64,192,111303,1,0,0:0:0:0:
448,192,111394,1,0,0:0:0:0:
64,192,111394,1,0,0:0:0:0:
320,192,111485,1,0,0:0:0:0:
192,192,111485,1,0,0:0:0:0:
448,192,111575,1,0,0:0:0:0:
320,192,111666,1,0,0:0:0:0:
192,192,111757,1,0,0:0:0:0:
64,192,111757,1,0,0:0:0:0:
448,192,111848,1,0,0:0:0:0:
192,192,111939,1,0,0:0:0:0:
64,192,111939,1,0,0:0:0:0:
320,192,112030,1,0,0:0:0:0:
192,192,112121,1,0,0:0:0:0:
448,192,112121,1,0,0:0:0:0:
64,192,112212,1,0,0:0:0:0:
448,192,112303,1,0,0:0:0:0:
320,192,112303,1,0,0:0:0:0:
192,192,112394,1,0,0:0:0:0:
64,192,112485,1,0,0:0:0:0:
320,192,112485,1,0,0:0:0:0:
448,192,112575,1,0,0:0:0:0:
320,192,112666,1,0,0:0:0:0:
192,192,112666,1,0,0:0:0:0:
448,192,112757,1,0,0:0:0:0:
320,192,112848,1,0,0:0:0:0:
64,192,112848,1,0,0:0:0:0:
192,192,112939,1,0,0:0:0:0:
448,192,113030,1,0,0:0:0:0:
64,192,113030,1,0,0:0:0:0:
192,192,113121,1,0,0:0:0:0:
320,192,113212,1,0,0:0:0:0:
64,192,113212,1,0,0:0:0:0:
448,192,113303,1,0,0:0:0:0:
192,192,113303,1,0,0:0:0:0:
320,192,113394,1,0,0:0:0:0:
64,192,113394,1,0,0:0:0:0:
192,192,113485,1,0,0:0:0:0:
448,192,113485,1,0,0:0:0:0:
320,192,113575,1,0,0:0:0:0:
448,192,113575,1,0,0:0:0:0:
192,192,113666,1,0,0:0:0:0:
64,192,113666,1,0,0:0:0:0:
320,192,113757,1,0,0:0:0:0:
448,192,113757,1,0,0:0:0:0:
192,192,113848,1,0,0:0:0:0:
64,192,113848,1,0,0:0:0:0:
448,192,113939,128,0,114121:0:0:0:0:
320,192,113939,1,0,0:0:0:0:
192,192,114121,1,0,0:0:0:0:
320,192,114212,1,0,0:0:0:0:
64,192,114303,1,0,0:0:0:0:
448,192,114303,128,0,114485:0:0:0:0:
192,192,114485,1,0,0:0:0:0:
320,192,114575,1,0,0:0:0:0:
192,192,114666,1,0,0:0:0:0:
64,192,114666,1,0,0:0:0:0:
320,192,114757,1,0,0:0:0:0:
448,192,114757,1,0,0:0:0:0:
192,192,114848,1,0,0:0:0:0:
64,192,114848,1,0,0:0:0:0:
320,192,114939,1,0,0:0:0:0:
448,192,114939,1,0,0:0:0:0:
64,192,115030,1,0,0:0:0:0:
320,192,115030,1,0,0:0:0:0:
192,192,115121,1,0,0:0:0:0:
448,192,115121,1,0,0:0:0:0:
64,192,115212,1,0,0:0:0:0:
320,192,115212,1,0,0:0:0:0:
192,192,115303,1,0,0:0:0:0:
448,192,115303,1,0,0:0:0:0:
192,192,115394,1,0,0:0:0:0:
320,192,115394,1,0,0:0:0:0:
64,192,115485,1,0,0:0:0:0:
448,192,115485,1,0,0:0:0:0:
192,192,115575,1,0,0:0:0:0:
320,192,115575,1,0,0:0:0:0:
64,192,115666,1,0,0:0:0:0:
192,192,115757,1,0,0:0:0:0:
320,192,115757,1,0,0:0:0:0:
448,192,115848,1,0,0:0:0:0:
64,192,115848,1,0,0:0:0:0:
192,192,115939,1,0,0:0:0:0:
320,192,115939,1,0,0:0:0:0:
448,192,116030,1,0,0:0:0:0:
320,192,116121,1,0,0:0:0:0:
64,192,116121,1,0,0:0:0:0:
448,192,116212,1,0,0:0:0:0:
320,192,116303,1,0,0:0:0:0:
192,192,116303,1,0,0:0:0:0:
64,192,116394,1,0,0:0:0:0:
192,192,116485,1,0,0:0:0:0:
448,192,116485,1,0,0:0:0:0:
320,192,116575,1,0,0:0:0:0:
192,192,116666,1,0,0:0:0:0:
64,192,116666,1,0,0:0:0:0:
320,192,116757,1,0,0:0:0:0:
448,192,116848,1,0,0:0:0:0:
192,192,116848,1,0,0:0:0:0:
320,192,116939,1,0,0:0:0:0:
192,192,117030,1,0,0:0:0:0:
448,192,117030,1,0,0:0:0:0:
64,192,117121,1,0,0:0:0:0:
320,192,117212,1,0,0:0:0:0:
192,192,117212,1,0,0:0:0:0:
64,192,117303,1,0,0:0:0:0:
192,192,117394,1,0,0:0:0:0:
320,192,117394,1,0,0:0:0:0:
448,192,117485,1,0,0:0:0:0:
320,192,117575,1,0,0:0:0:0:
64,192,117575,1,0,0:0:0:0:
448,192,117666,1,0,0:0:0:0:
320,192,117757,1,0,0:0:0:0:
64,192,117757,1,0,0:0:0:0:
192,192,117848,1,0,0:0:0:0:
448,192,117939,1,0,0:0:0:0:
320,192,117939,1,0,0:0:0:0:
192,192,118030,1,0,0:0:0:0:
64,192,118121,1,0,0:0:0:0:
448,192,118121,1,0,0:0:0:0:
320,192,118212,1,0,0:0:0:0:
192,192,118303,1,0,0:0:0:0:
64,192,118303,1,0,0:0:0:0:
320,192,118394,1,0,0:0:0:0:
448,192,118394,1,0,0:0:0:0:
64,192,118485,1,0,0:0:0:0:
192,192,118485,1,0,0:0:0:0:
320,192,118575,1,0,0:0:0:0:
192,192,118666,1,0,0:0:0:0:
448,192,118666,1,0,0:0:0:0:
64,192,118757,1,0,0:0:0:0:
320,192,118757,1,0,0:0:0:0:
448,192,118848,1,0,0:0:0:0:
192,192,118848,1,0,0:0:0:0:
64,192,118939,1,0,0:0:0:0:
192,192,119030,1,0,0:0:0:0:
448,192,119030,1,0,0:0:0:0:
320,192,119121,1,0,0:0:0:0:
64,192,119121,1,0,0:0:0:0:
192,192,119212,1,0,0:0:0:0:
448,192,119212,1,0,0:0:0:0:
320,192,119303,1,0,0:0:0:0:
64,192,119394,1,0,0:0:0:0:
448,192,119394,1,0,0:0:0:0:
192,192,119485,1,0,0:0:0:0:
320,192,119485,1,0,0:0:0:0:
448,192,119575,1,0,0:0:0:0:
64,192,119575,1,0,0:0:0:0:
192,192,119666,1,0,0:0:0:0:
320,192,119666,1,0,0:0:0:0:
64,192,119757,1,0,0:0:0:0:
448,192,119757,1,0,0:0:0:0:
192,192,119848,1,0,0:0:0:0:
448,192,119939,1,0,0:0:0:0:
320,192,120030,1,0,0:0:0:0:
64,192,120121,1,0,0:0:0:0:
192,192,120121,1,0,0:0:0:0:
448,192,120212,1,0,0:0:0:0:
320,192,120303,1,0,0:0:0:0:
64,192,120303,1,0,0:0:0:0:
192,192,120394,1,0,0:0:0:0:
320,192,120485,1,0,0:0:0:0:
448,192,120485,1,0,0:0:0:0:
192,192,120575,1,0,0:0:0:0:
448,192,120666,1,0,0:0:0:0:
64,192,120666,1,0,0:0:0:0:
320,192,120757,1,0,0:0:0:0:
192,192,120848,1,0,0:0:0:0:
64,192,120848,1,0,0:0:0:0:
320,192,120939,1,0,0:0:0:0:
448,192,121030,1,0,0:0:0:0:
192,192,121030,1,0,0:0:0:0:
64,192,121121,1,0,0:0:0:0:
192,192,121212,1,0,0:0:0:0:
448,192,121212,1,0,0:0:0:0:
320,192,121303,1,0,0:0:0:0:
64,192,121303,1,0,0:0:0:0:
192,192,121394,1,0,0:0:0:0:
448,192,121394,1,0,0:0:0:0:
320,192,121485,1,0,0:0:0:0:
64,192,121485,1,0,0:0:0:0:
448,192,121575,128,0,121757:0:0:0:0:
192,192,121575,1,0,0:0:0:0:
64,192,121757,1,0,0:0:0:0:
192,192,121848,1,0,0:0:0:0:
64,192,121939,1,0,0:0:0:0:
320,192,121939,1,0,0:0:0:0:
192,192,122030,1,0,0:0:0:0:
320,192,122121,1,0,0:0:0:0:
448,192,122121,1,0,0:0:0:0:
192,192,122212,1,0,0:0:0:0:
64,192,122303,1,0,0:0:0:0:
448,192,122303,1,0,0:0:0:0:
320,192,122394,1,0,0:0:0:0:
192,192,122485,1,0,0:0:0:0:
64,192,122485,1,0,0:0:0:0:
320,192,122575,1,0,0:0:0:0:
192,192,122666,1,0,0:0:0:0:
448,192,122666,1,0,0:0:0:0:
320,192,122757,1,0,0:0:0:0:
64,192,122757,1,0,0:0:0:0:
192,192,122848,1,0,0:0:0:0:
448,192,122848,1,0,0:0:0:0:
64,192,122939,1,0,0:0:0:0:
320,192,122939,1,0,0:0:0:0:
64,192,123030,1,0,0:0:0:0:
448,192,123030,1,0,0:0:0:0:
192,192,123121,1,0,0:0:0:0:
320,192,123121,1,0,0:0:0:0:
64,192,123212,1,0,0:0:0:0:
448,192,123212,1,0,0:0:0:0:
192,192,123303,1,0,0:0:0:0:
320,192,123303,1,0,0:0:0:0:
64,192,123394,1,0,0:0:0:0:
320,192,123394,1,0,0:0:0:0:
192,192,123485,1,0,0:0:0:0:
448,192,123485,1,0,0:0:0:0:
320,192,123575,1,0,0:0:0:0:
64,192,123575,1,0,0:0:0:0:
192,192,123666,1,0,0:0:0:0:
448,192,123666,1,0,0:0:0:0:
64,192,123757,1,0,0:0:0:0:
448,192,123757,1,0,0:0:0:0:
192,192,123848,1,0,0:0:0:0:
320,192,123848,1,0,0:0:0:0:
64,192,123939,1,0,0:0:0:0:
448,192,123939,1,0,0:0:0:0:
320,192,124030,1,0,0:0:0:0:
192,192,124030,1,0,0:0:0:0:
192,192,124121,1,0,0:0:0:0:
64,192,124121,1,0,0:0:0:0:
320,192,124212,1,0,0:0:0:0:
448,192,124212,1,0,0:0:0:0:
192,192,124303,1,0,0:0:0:0:
64,192,124303,1,0,0:0:0:0:
448,192,124394,1,0,0:0:0:0:
320,192,124394,1,0,0:0:0:0:
64,192,124485,1,0,0:0:0:0:
192,192,124485,1,0,0:0:0:0:
448,192,124575,1,0,0:0:0:0:
320,192,124575,1,0,0:0:0:0:
192,192,124666,1,0,0:0:0:0:
64,192,124666,1,0,0:0:0:0:
448,192,124757,1,0,0:0:0:0:
320,192,124757,1,0,0:0:0:0:
64,192,124848,1,0,0:0:0:0:
192,192,124848,1,0,0:0:0:0:
320,192,124939,1,0,0:0:0:0:
448,192,124939,1,0,0:0:0:0:
64,192,125030,1,0,0:0:0:0:
192,192,125030,1,0,0:0:0:0:
320,192,125121,1,0,0:0:0:0:
448,192,125121,1,0,0:0:0:0:
64,192,125212,1,0,0:0:0:0:
192,192,125212,1,0,0:0:0:0:
320,192,125303,1,0,0:0:0:0:
192,192,125394,1,0,0:0:0:0:
64,192,125485,1,0,0:0:0:0:
192,192,125575,1,0,0:0:0:0:
320,192,125575,1,0,0:0:0:0:
448,192,125757,1,0,0:0:0:0:
320,192,125848,1,0,0:0:0:0:
192,192,125939,1,0,0:0:0:0:
64,192,126030,1,0,0:0:0:0:
192,192,126121,1,0,0:0:0:0:
320,192,126212,1,0,0:0:0:0:
448,192,126303,1,0,0:0:0:0:
320,192,126394,1,0,0:0:0:0:
192,192,126485,1,0,0:0:0:0:
320,192,126575,1,0,0:0:0:0:
448,192,126666,1,0,0:0:0:0:
64,192,126757,1,0,0:0:0:0:
192,192,126848,1,0,0:0:0:0:
320,192,126939,1,0,0:0:0:0:
448,192,127030,1,0,0:0:0:0:
320,192,127121,1,0,0:0:0:0:
448,192,127212,1,0,0:0:0:0:
192,192,127303,1,0,0:0:0:0:
320,192,127394,1,0,0:0:0:0:
64,192,127485,1,0,0:0:0:0:
192,192,127575,1,0,0:0:0:0:
64,192,127666,1,0,0:0:0:0:
320,192,127757,1,0,0:0:0:0:
192,192,127848,1,0,0:0:0:0:
448,192,127939,1,0,0:0:0:0:
320,192,128030,1,0,0:0:0:0:
448,192,128121,1,0,0:0:0:0:
320,192,128212,1,0,0:0:0:0:
192,192,128303,1,0,0:0:0:0:
320,192,128394,1,0,0:0:0:0:
64,192,128485,1,0,0:0:0:0:
192,192,128575,1,0,0:0:0:0:
320,192,128666,1,0,0:0:0:0:
192,192,128757,1,0,0:0:0:0:
320,192,128848,1,0,0:0:0:0:
64,192,128848,1,0,0:0:0:0:
448,192,128939,1,0,0:0:0:0:
320,192,129030,1,0,0:0:0:0:
192,192,129121,1,0,0:0:0:0:
64,192,129212,1,0,0:0:0:0:
192,192,129303,1,0,0:0:0:0:
320,192,129394,1,0,0:0:0:0:
192,192,129485,1,0,0:0:0:0:
64,192,129575,1,0,0:0:0:0:
192,192,129666,1,0,0:0:0:0:
320,192,129757,1,0,0:0:0:0:
448,192,129848,1,0,0:0:0:0:
64,192,129939,1,0,0:0:0:0:
192,192,130030,1,0,0:0:0:0:
64,192,130121,1,0,0:0:0:0:
320,192,130212,1,0,0:0:0:0:
192,192,130303,1,0,0:0:0:0:
448,192,130394,1,0,0:0:0:0:
320,192,130485,1,0,0:0:0:0:
448,192,130575,1,0,0:0:0:0:
192,192,130666,1,0,0:0:0:0:
320,192,130757,1,0,0:0:0:0:
64,192,130848,1,0,0:0:0:0:
192,192,130939,1,0,0:0:0:0:
64,192,131030,1,0,0:0:0:0:
320,192,131121,1,0,0:0:0:0:
192,192,131212,1,0,0:0:0:0:
448,192,131303,1,0,0:0:0:0:
320,192,131394,1,0,0:0:0:0:
