osu file format v14

[General]
AudioFilename: audio.mp3
AudioLeadIn: 0
PreviewTime: 99695
Countdown: 0
SampleSet: Soft
StackLeniency: 0.7
Mode: 3
LetterboxInBreaks: 0
SpecialStyle: 0
WidescreenStoryboard: 1

[Editor]
Bookmarks: 197149,209877,287240
DistanceSpacing: 1.1
BeatDivisor: 4
GridSize: 4
TimelineZoom: 2.899999

[Metadata]
Title:TIEFSEE
TitleUnicode:TIEFSEE
Artist:SOUND HOLIC vs. dj TAKA feat. YURiCa
ArtistUnicode:SOUND HOLIC vs. dj TAKA feat. YURiCa
Creator:-Rem-
Version:Twilight
Source:
Tags:斬 -ZAN- SOUND HOLIC YURiCa dj TAKA
BeatmapID:1990431
BeatmapSetID:953297

[Difficulty]
HPDrainRate:7
CircleSize:4
OverallDifficulty:7
ApproachRate:5
SliderMultiplier:1.4
SliderTickRate:1

[Events]
//Background and Video events
0,0,"wp1865011.jpg",0,0
//Break Periods
//Storyboard Layer 0 (Background)
//Storyboard Layer 1 (Fail)
//Storyboard Layer 2 (Pass)
//Storyboard Layer 3 (Foreground)
//Storyboard Layer 4 (Overlay)
//Storyboard Sound Samples

[TimingPoints]
1877,363.636363636364,4,2,0,12,1,0

[HitObjects]
64,192,1877,128,0,2240:0:0:0:0:
320,192,2058,128,0,2240:0:0:0:0:
192,192,2240,128,0,2604:0:0:0:0:
448,192,2422,128,0,2604:0:0:0:0:
64,192,2604,128,0,2877:0:0:0:0:
192,192,2786,128,0,3149:0:0:0:0:
64,192,2967,128,0,3331:0:0:0:0:
320,192,3149,128,0,3422:0:0:0:0:
448,192,3331,128,0,3604:0:0:0:0:
320,192,3513,128,0,3877:0:0:0:0:
448,192,3695,128,0,3877:0:0:0:0:
192,192,3877,128,0,4149:0:0:0:0:
64,192,4058,128,0,4422:0:0:0:0:
192,192,4240,128,0,4604:0:0:0:0:
320,192,4422,128,0,4786:0:0:0:0:
448,192,4604,128,0,4786:0:0:0:0:
64,192,4786,128,0,5149:0:0:0:0:
192,192,4967,128,0,5331:0:0:0:0:
320,192,5149,128,0,5513:0:0:0:0:
448,192,5331,128,0,5513:0:0:0:0:
64,192,5513,128,0,5877:0:0:0:0:
448,192,5695,128,0,6058:0:0:0:0:
320,192,5877,128,0,6058:0:0:0:0:
192,192,6058,128,0,6240:0:0:0:0:
320,192,6240,128,0,6695:0:0:0:0:
64,192,6240,128,0,6422:0:0:0:0:
192,192,6422,128,0,6695:0:0:0:0:
64,192,6604,128,0,6967:0:0:0:0:
320,192,6786,128,0,6967:0:0:0:0:
192,192,6967,128,0,7240:0:0:0:0:
448,192,6967,128,0,7331:0:0:0:0:
320,192,7149,128,0,7422:0:0:0:0:
192,192,7331,128,0,7604:0:0:0:0:
320,192,7513,128,0,7786:0:0:0:0:
64,192,7695,128,0,8058:0:0:0:0:
192,192,7695,128,0,7877:0:0:0:0:
320,192,7877,128,0,8058:0:0:0:0:
192,192,8058,128,0,8422:0:0:0:0:
320,192,8240,128,0,8422:0:0:0:0:
448,192,8422,128,0,8967:0:0:0:0:
320,192,8604,128,0,8786:0:0:0:0:
192,192,8786,128,0,8967:0:0:0:0:
64,192,8967,128,0,9149:0:0:0:0:
192,192,9149,128,0,9331:0:0:0:0:
448,192,9149,128,0,9513:0:0:0:0:
320,192,9331,128,0,9513:0:0:0:0:
192,192,9513,128,0,9877:0:0:0:0:
320,192,9695,128,0,9877:0:0:0:0:
448,192,9877,128,0,10240:0:0:0:0:
320,192,10058,128,0,10604:0:0:0:0:
192,192,10240,128,0,10513:0:0:0:0:
64,192,10604,128,0,10877:0:0:0:0:
448,192,10604,128,0,10967:0:0:0:0:
192,192,10786,128,0,11149:0:0:0:0:
64,192,10967,128,0,11331:0:0:0:0:
448,192,11149,128,0,11604:0:0:0:0:
320,192,11331,128,0,11513:0:0:0:0:
192,192,11513,128,0,11877:0:0:0:0:
448,192,11695,128,0,11877:0:0:0:0:
320,192,11877,128,0,12058:0:0:0:0:
192,192,12058,128,0,12331:0:0:0:0:
448,192,12058,128,0,12240:0:0:0:0:
320,192,12240,128,0,12604:0:0:0:0:
192,192,12422,128,0,12786:0:0:0:0:
64,192,12604,128,0,12786:0:0:0:0:
320,192,12786,128,0,13149:0:0:0:0:
448,192,12786,128,0,12967:0:0:0:0:
64,192,12967,128,0,13331:0:0:0:0:
192,192,13149,128,0,13513:0:0:0:0:
320,192,13331,128,0,13513:0:0:0:0:
448,192,13513,128,0,13877:0:0:0:0:
64,192,13513,128,0,13695:0:0:0:0:
192,192,13695,128,0,13877:0:0:0:0:
320,192,13877,128,0,14149:0:0:0:0:
448,192,14058,128,0,14240:0:0:0:0:
320,192,14240,128,0,14422:0:0:0:0:
64,192,14240,128,0,14604:0:0:0:0:
192,192,14422,128,0,14604:0:0:0:0:
320,192,14604,128,0,14786:0:0:0:0:
192,192,14786,128,0,14967:0:0:0:0:
320,192,14967,128,0,15331:0:0:0:0:
448,192,14967,128,0,15513:0:0:0:0:
64,192,15149,128,0,15513:0:0:0:0:
192,192,15331,128,0,15695:0:0:0:0:
320,192,15513,128,0,15877:0:0:0:0:
448,192,15695,128,0,15877:0:0:0:0:
64,192,15695,128,0,15877:0:0:0:0:
192,192,15877,128,0,16240:0:0:0:0:
64,192,16058,128,0,16240:0:0:0:0:
320,192,16240,128,0,16422:0:0:0:0:
192,192,16422,128,0,16786:0:0:0:0:
448,192,16422,128,0,16967:0:0:0:0:
320,192,16604,128,0,16877:0:0:0:0:
64,192,16786,128,0,17149:0:0:0:0:
192,192,16967,128,0,17331:0:0:0:0:
320,192,17149,128,0,17331:0:0:0:0:
448,192,17331,128,0,17695:0:0:0:0:
320,192,17513,128,0,17695:0:0:0:0:
192,192,17695,128,0,18058:0:0:0:0:
448,192,17877,128,0,18058:0:0:0:0:
64,192,17877,128,0,18240:0:0:0:0:
320,192,18058,128,0,18422:0:0:0:0:
192,192,18240,128,0,18422:0:0:0:0:
448,192,18422,128,0,18786:0:0:0:0:
192,192,18604,128,0,18967:0:0:0:0:
320,192,18604,128,0,18786:0:0:0:0:
64,192,18786,128,0,19331:0:0:0:0:
320,192,18967,128,0,19149:0:0:0:0:
192,192,19149,128,0,19331:0:0:0:0:
448,192,19331,128,0,19695:0:0:0:0:
320,192,19331,128,0,19513:0:0:0:0:
192,192,19513,128,0,19877:0:0:0:0:
320,192,19695,128,0,19877:0:0:0:0:
64,192,19877,128,0,20058:0:0:0:0:
192,192,20058,128,0,20240:0:0:0:0:
448,192,20058,128,0,20422:0:0:0:0:
64,192,20240,128,0,20422:0:0:0:0:
320,192,20422,128,0,20786:0:0:0:0:
192,192,20604,128,0,20786:0:0:0:0:
448,192,20786,128,0,21149:0:0:0:0:
64,192,20786,128,0,20967:0:0:0:0:
320,192,20967,128,0,21331:0:0:0:0:
64,192,21149,128,0,21513:0:0:0:0:
192,192,21331,128,0,21513:0:0:0:0:
448,192,21513,128,0,22058:0:0:0:0:
192,192,21695,128,0,22058:0:0:0:0:
320,192,21877,128,0,22240:0:0:0:0:
64,192,22058,128,0,22240:0:0:0:0:
192,192,22240,128,0,22604:0:0:0:0:
448,192,22240,128,0,22604:0:0:0:0:
64,192,22604,128,0,22786:0:0:0:0:
192,192,22695,128,0,22786:0:0:0:0:
448,192,22786,128,0,22967:0:0:0:0:
192,192,22877,128,0,22967:0:0:0:0:
320,192,22967,128,0,23149:0:0:0:0:
64,192,23058,128,0,23149:0:0:0:0:
192,192,23149,128,0,23331:0:0:0:0:
320,192,23240,128,0,23331:0:0:0:0:
64,192,23331,128,0,23513:0:0:0:0:
448,192,23422,128,0,23513:0:0:0:0:
192,192,23513,128,0,23604:0:0:0:0:
320,192,23604,128,0,23695:0:0:0:0:
64,192,23695,1,0,0:0:0:0:
192,192,23695,1,0,0:0:0:0:
448,192,23695,1,0,0:0:0:0:
64,192,24422,128,0,24786:0:0:0:0:
192,192,24604,128,0,24967:0:0:0:0:
448,192,24786,128,0,24967:0:0:0:0:
320,192,24967,128,0,25149:0:0:0:0:
64,192,25149,128,0,25513:0:0:0:0:
448,192,25149,128,0,25331:0:0:0:0:
192,192,25331,128,0,25513:0:0:0:0:
320,192,25513,128,0,25877:0:0:0:0:
192,192,25695,128,0,25877:0:0:0:0:
448,192,25877,128,0,26240:0:0:0:0:
64,192,26058,128,0,26422:0:0:0:0:
320,192,26240,128,0,26422:0:0:0:0:
192,192,26422,128,0,26604:0:0:0:0:
320,192,26604,128,0,26786:0:0:0:0:
448,192,26604,128,0,26967:0:0:0:0:
192,192,26967,128,0,27149:0:0:0:0:
320,192,27149,128,0,27331:0:0:0:0:
64,192,27331,128,0,27695:0:0:0:0:
448,192,27331,128,0,27513:0:0:0:0:
320,192,27513,128,0,27695:0:0:0:0:
192,192,27695,128,0,27877:0:0:0:0:
320,192,27877,128,0,28058:0:0:0:0:
192,192,28058,128,0,28331:0:0:0:0:
448,192,28058,128,0,28604:0:0:0:0:
64,192,28240,128,0,28513:0:0:0:0:
320,192,28422,128,0,28695:0:0:0:0:
192,192,28604,128,0,28877:0:0:0:0:
64,192,28786,128,0,29058:0:0:0:0:
192,192,28967,128,0,29240:0:0:0:0:
320,192,29149,128,0,29513:0:0:0:0:
448,192,29513,1,0,0:0:0:0:
192,192,29513,1,0,0:0:0:0:
64,192,29513,128,0,30058:0:0:0:0:
192,192,29695,128,0,29877:0:0:0:0:
448,192,29877,128,0,30058:0:0:0:0:
320,192,30058,128,0,30240:0:0:0:0:
192,192,30240,128,0,30422:0:0:0:0:
448,192,30240,128,0,30604:0:0:0:0:
64,192,30422,128,0,30604:0:0:0:0:
320,192,30604,128,0,30967:0:0:0:0:
192,192,30786,128,0,30967:0:0:0:0:
64,192,30967,128,0,31149:0:0:0:0:
448,192,30967,128,0,31331:0:0:0:0:
320,192,31149,128,0,31331:0:0:0:0:
192,192,31331,128,0,31877:0:0:0:0:
448,192,31513,128,0,31877:0:0:0:0:
320,192,31877,128,0,32058:0:0:0:0:
64,192,32058,128,0,32240:0:0:0:0:
448,192,32240,128,0,32422:0:0:0:0:
64,192,32422,128,0,32786:0:0:0:0:
320,192,32422,1,0,0:0:0:0:
448,192,32604,1,0,0:0:0:0:
192,192,32604,128,0,32967:0:0:0:0:
320,192,32786,128,0,32967:0:0:0:0:
448,192,32967,128,0,33149:0:0:0:0:
320,192,33149,128,0,33513:0:0:0:0:
192,192,33331,128,0,33695:0:0:0:0:
64,192,33331,1,0,0:0:0:0:
448,192,33513,128,0,33695:0:0:0:0:
320,192,33695,128,0,33877:0:0:0:0:
64,192,33877,128,0,34058:0:0:0:0:
448,192,33877,1,0,0:0:0:0:
192,192,34058,128,0,34422:0:0:0:0:
64,192,34240,128,0,34422:0:0:0:0:
448,192,34422,128,0,34967:0:0:0:0:
64,192,34604,128,0,34967:0:0:0:0:
192,192,34786,128,0,34967:0:0:0:0:
320,192,34967,128,0,35331:0:0:0:0:
192,192,35149,128,0,35331:0:0:0:0:
64,192,35331,128,0,36422:0:0:0:0:
448,192,35331,128,0,36422:0:0:0:0:
320,192,36604,1,0,0:0:0:0:
192,192,36695,1,0,0:0:0:0:
64,192,36786,1,0,0:0:0:0:
448,192,36786,1,0,0:0:0:0:
320,192,36877,1,0,0:0:0:0:
192,192,36967,1,0,0:0:0:0:
320,192,37058,1,0,0:0:0:0:
64,192,37149,1,0,0:0:0:0:
448,192,37149,1,0,0:0:0:0:
192,192,37240,1,0,0:0:0:0:
448,192,37331,1,0,0:0:0:0:
320,192,37422,1,0,0:0:0:0:
64,192,37513,1,0,0:0:0:0:
448,192,37513,1,0,0:0:0:0:
192,192,37604,1,0,0:0:0:0:
448,192,37695,1,0,0:0:0:0:
192,192,37786,1,0,0:0:0:0:
64,192,37877,1,0,0:0:0:0:
320,192,37877,1,0,0:0:0:0:
448,192,37967,1,0,0:0:0:0:
192,192,38058,1,0,0:0:0:0:
320,192,38149,1,0,0:0:0:0:
192,192,38240,1,0,0:0:0:0:
448,192,38240,1,0,0:0:0:0:
64,192,38331,1,0,0:0:0:0:
192,192,38422,1,0,0:0:0:0:
448,192,38513,1,0,0:0:0:0:
320,192,38604,1,0,0:0:0:0:
64,192,38604,1,0,0:0:0:0:
448,192,38695,1,0,0:0:0:0:
320,192,38786,1,0,0:0:0:0:
192,192,38877,1,0,0:0:0:0:
64,192,38967,1,0,0:0:0:0:
448,192,38967,1,0,0:0:0:0:
320,192,39058,1,0,0:0:0:0:
64,192,39149,1,0,0:0:0:0:
192,192,39240,1,0,0:0:0:0:
64,192,39331,1,0,0:0:0:0:
448,192,39331,1,0,0:0:0:0:
320,192,39422,1,0,0:0:0:0:
448,192,39513,1,0,0:0:0:0:
192,192,39604,1,0,0:0:0:0:
64,192,39695,1,0,0:0:0:0:
448,192,39695,1,0,0:0:0:0:
320,192,39786,1,0,0:0:0:0:
192,192,39877,1,0,0:0:0:0:
320,192,39967,1,0,0:0:0:0:
64,192,40058,1,0,0:0:0:0:
448,192,40058,1,0,0:0:0:0:
192,192,40149,1,0,0:0:0:0:
448,192,40240,1,0,0:0:0:0:
192,192,40331,1,0,0:0:0:0:
64,192,40422,1,0,0:0:0:0:
448,192,40422,1,0,0:0:0:0:
320,192,40513,1,0,0:0:0:0:
192,192,40604,1,0,0:0:0:0:
448,192,40695,1,0,0:0:0:0:
64,192,40786,1,0,0:0:0:0:
320,192,40786,1,0,0:0:0:0:
448,192,40877,1,0,0:0:0:0:
192,192,40967,1,0,0:0:0:0:
320,192,41058,1,0,0:0:0:0:
64,192,41149,1,0,0:0:0:0:
448,192,41149,1,0,0:0:0:0:
192,192,41240,1,0,0:0:0:0:
448,192,41331,1,0,0:0:0:0:
320,192,41422,1,0,0:0:0:0:
192,192,41513,1,0,0:0:0:0:
448,192,41513,1,0,0:0:0:0:
64,192,41604,1,0,0:0:0:0:
192,192,41695,1,0,0:0:0:0:
448,192,41786,1,0,0:0:0:0:
320,192,41877,1,0,0:0:0:0:
64,192,41877,1,0,0:0:0:0:
192,192,41967,1,0,0:0:0:0:
448,192,42058,1,0,0:0:0:0:
192,192,42149,1,0,0:0:0:0:
64,192,42240,1,0,0:0:0:0:
448,192,42240,1,0,0:0:0:0:
320,192,42240,1,0,0:0:0:0:
192,192,42331,1,0,0:0:0:0:
320,192,42422,1,0,0:0:0:0:
64,192,42513,1,0,0:0:0:0:
192,192,42604,1,0,0:0:0:0:
320,192,42604,1,0,0:0:0:0:
448,192,42604,1,0,0:0:0:0:
64,192,42695,1,0,0:0:0:0:
448,192,42786,1,0,0:0:0:0:
192,192,42786,1,0,0:0:0:0:
320,192,42877,1,0,0:0:0:0:
64,192,42967,1,0,0:0:0:0:
448,192,42967,1,0,0:0:0:0:
320,192,43058,1,0,0:0:0:0:
64,192,43149,1,0,0:0:0:0:
192,192,43149,1,0,0:0:0:0:
320,192,43240,1,0,0:0:0:0:
192,192,43331,1,0,0:0:0:0:
448,192,43331,1,0,0:0:0:0:
320,192,43422,1,0,0:0:0:0:
64,192,43513,1,0,0:0:0:0:
192,192,43513,1,0,0:0:0:0:
320,192,43604,1,0,0:0:0:0:
448,192,43695,1,0,0:0:0:0:
64,192,43695,1,0,0:0:0:0:
320,192,43786,1,0,0:0:0:0:
448,192,43877,1,0,0:0:0:0:
64,192,43877,1,0,0:0:0:0:
192,192,43877,1,0,0:0:0:0:
320,192,43967,1,0,0:0:0:0:
64,192,44058,1,0,0:0:0:0:
192,192,44058,1,0,0:0:0:0:
448,192,44058,1,0,0:0:0:0:
320,192,44149,1,0,0:0:0:0:
64,192,44240,1,0,0:0:0:0:
448,192,44240,1,0,0:0:0:0:
192,192,44331,1,0,0:0:0:0:
320,192,44422,1,0,0:0:0:0:
448,192,44422,1,0,0:0:0:0:
192,192,44513,1,0,0:0:0:0:
320,192,44604,1,0,0:0:0:0:
64,192,44604,1,0,0:0:0:0:
192,192,44695,1,0,0:0:0:0:
448,192,44786,1,0,0:0:0:0:
320,192,44786,1,0,0:0:0:0:
64,192,44877,1,0,0:0:0:0:
192,192,44967,1,0,0:0:0:0:
320,192,44967,1,0,0:0:0:0:
448,192,45058,1,0,0:0:0:0:
64,192,45149,1,0,0:0:0:0:
320,192,45149,1,0,0:0:0:0:
192,192,45240,1,0,0:0:0:0:
448,192,45331,1,0,0:0:0:0:
320,192,45331,1,0,0:0:0:0:
64,192,45331,1,0,0:0:0:0:
192,192,45422,1,0,0:0:0:0:
64,192,45513,1,0,0:0:0:0:
320,192,45513,1,0,0:0:0:0:
448,192,45513,1,0,0:0:0:0:
192,192,45604,1,0,0:0:0:0:
320,192,45695,1,0,0:0:0:0:
448,192,45695,1,0,0:0:0:0:
192,192,45786,1,0,0:0:0:0:
64,192,45877,1,0,0:0:0:0:
320,192,45877,1,0,0:0:0:0:
448,192,45967,1,0,0:0:0:0:
320,192,46058,1,0,0:0:0:0:
192,192,46058,1,0,0:0:0:0:
64,192,46058,1,0,0:0:0:0:
448,192,46149,1,0,0:0:0:0:
64,192,46240,1,0,0:0:0:0:
192,192,46240,1,0,0:0:0:0:
320,192,46240,1,0,0:0:0:0:
448,192,46331,1,0,0:0:0:0:
192,192,46422,1,0,0:0:0:0:
64,192,46422,1,0,0:0:0:0:
320,192,46513,1,0,0:0:0:0:
64,192,46604,1,0,0:0:0:0:
448,192,46604,1,0,0:0:0:0:
192,192,46695,1,0,0:0:0:0:
64,192,46786,1,0,0:0:0:0:
320,192,46786,1,0,0:0:0:0:
448,192,46786,1,0,0:0:0:0:
64,192,46877,1,0,0:0:0:0:
320,192,46877,1,0,0:0:0:0:
448,192,46877,1,0,0:0:0:0:
64,192,46967,1,0,0:0:0:0:
320,192,46967,1,0,0:0:0:0:
448,192,46967,1,0,0:0:0:0:
64,192,47331,128,0,47695:0:0:0:0:
448,192,47331,128,0,47695:0:0:0:0:
192,192,47695,128,0,47877:0:0:0:0:
320,192,47695,128,0,47877:0:0:0:0:
448,192,47877,1,0,0:0:0:0:
320,192,47922,1,0,0:0:0:0:
192,192,47967,1,0,0:0:0:0:
64,192,48013,1,0,0:0:0:0:
320,192,48058,1,0,0:0:0:0:
448,192,48058,128,0,48240:0:0:0:0:
192,192,48149,1,0,0:0:0:0:
320,192,48240,128,0,48422:0:0:0:0:
64,192,48240,1,0,0:0:0:0:
192,192,48331,1,0,0:0:0:0:
448,192,48422,1,0,0:0:0:0:
64,192,48422,128,0,48695:0:0:0:0:
192,192,48513,128,0,48604:0:0:0:0:
320,192,48604,128,0,48786:0:0:0:0:
192,192,48695,128,0,48786:0:0:0:0:
448,192,48786,1,0,0:0:0:0:
64,192,48786,1,0,0:0:0:0:
320,192,48877,1,0,0:0:0:0:
192,192,48967,1,0,0:0:0:0:
320,192,49058,1,0,0:0:0:0:
192,192,49149,1,0,0:0:0:0:
64,192,49149,128,0,49331:0:0:0:0:
448,192,49240,128,0,49422:0:0:0:0:
192,192,49331,128,0,49422:0:0:0:0:
320,192,49422,128,0,49513:0:0:0:0:
192,192,49513,1,0,0:0:0:0:
448,192,49513,128,0,49786:0:0:0:0:
64,192,49604,128,0,49786:0:0:0:0:
192,192,49695,128,0,49786:0:0:0:0:
320,192,49786,128,0,49877:0:0:0:0:
64,192,49877,1,0,0:0:0:0:
448,192,49877,128,0,50149:0:0:0:0:
320,192,49967,128,0,50149:0:0:0:0:
192,192,50058,128,0,50240:0:0:0:0:
64,192,50149,128,0,50240:0:0:0:0:
320,192,50240,1,0,0:0:0:0:
448,192,50240,128,0,50513:0:0:0:0:
192,192,50331,128,0,50513:0:0:0:0:
64,192,50422,128,0,50513:0:0:0:0:
320,192,50513,1,0,0:0:0:0:
64,192,50604,128,0,50877:0:0:0:0:
192,192,50604,128,0,50786:0:0:0:0:
320,192,50695,128,0,50877:0:0:0:0:
448,192,50786,128,0,50967:0:0:0:0:
192,192,50877,1,0,0:0:0:0:
320,192,50967,1,0,0:0:0:0:
64,192,50967,128,0,51149:0:0:0:0:
192,192,51058,1,0,0:0:0:0:
448,192,51149,128,0,51422:0:0:0:0:
320,192,51240,128,0,51331:0:0:0:0:
64,192,51331,128,0,51604:0:0:0:0:
192,192,51331,128,0,51513:0:0:0:0:
320,192,51422,1,0,0:0:0:0:
448,192,51513,128,0,51604:0:0:0:0:
320,192,51604,128,0,51695:0:0:0:0:
192,192,51695,1,0,0:0:0:0:
64,192,51695,128,0,51877:0:0:0:0:
320,192,51786,128,0,52058:0:0:0:0:
192,192,51877,128,0,51967:0:0:0:0:
64,192,51967,128,0,52331:0:0:0:0:
192,192,52058,1,0,0:0:0:0:
448,192,52058,128,0,52149:0:0:0:0:
320,192,52149,1,0,0:0:0:0:
448,192,52240,1,0,0:0:0:0:
320,192,52331,1,0,0:0:0:0:
64,192,52422,1,0,0:0:0:0:
448,192,52422,128,0,52604:0:0:0:0:
192,192,52513,128,0,52695:0:0:0:0:
64,192,52604,128,0,52786:0:0:0:0:
448,192,52695,128,0,52786:0:0:0:0:
192,192,52786,128,0,53058:0:0:0:0:
320,192,52786,128,0,52877:0:0:0:0:
448,192,52877,128,0,52967:0:0:0:0:
320,192,52967,128,0,53149:0:0:0:0:
64,192,53058,1,0,0:0:0:0:
192,192,53149,1,0,0:0:0:0:
448,192,53149,128,0,53331:0:0:0:0:
320,192,53240,1,0,0:0:0:0:
64,192,53331,128,0,53422:0:0:0:0:
448,192,53422,128,0,53604:0:0:0:0:
64,192,53513,1,0,0:0:0:0:
320,192,53513,128,0,53604:0:0:0:0:
192,192,53604,1,0,0:0:0:0:
448,192,53695,1,0,0:0:0:0:
192,192,53786,1,0,0:0:0:0:
64,192,53877,1,0,0:0:0:0:
320,192,53877,1,0,0:0:0:0:
448,192,53877,1,0,0:0:0:0:
192,192,53967,1,0,0:0:0:0:
448,192,54058,1,0,0:0:0:0:
320,192,54058,1,0,0:0:0:0:
64,192,54058,1,0,0:0:0:0:
192,192,54149,1,0,0:0:0:0:
320,192,54240,1,0,0:0:0:0:
448,192,54240,1,0,0:0:0:0:
64,192,54240,128,0,54331:0:0:0:0:
192,192,54331,1,0,0:0:0:0:
448,192,54422,1,0,0:0:0:0:
192,192,54513,1,0,0:0:0:0:
64,192,54604,1,0,0:0:0:0:
448,192,54604,128,0,54695:0:0:0:0:
192,192,54695,1,0,0:0:0:0:
320,192,54786,128,0,54877:0:0:0:0:
448,192,54877,1,0,0:0:0:0:
64,192,54967,1,0,0:0:0:0:
192,192,54967,1,0,0:0:0:0:
320,192,55058,1,0,0:0:0:0:
64,192,55149,128,0,55240:0:0:0:0:
320,192,55240,1,0,0:0:0:0:
448,192,55331,1,0,0:0:0:0:
192,192,55331,1,0,0:0:0:0:
320,192,55422,1,0,0:0:0:0:
192,192,55513,128,0,55604:0:0:0:0:
64,192,55604,1,0,0:0:0:0:
320,192,55695,1,0,0:0:0:0:
448,192,55695,1,0,0:0:0:0:
192,192,55786,1,0,0:0:0:0:
64,192,55877,1,0,0:0:0:0:
320,192,55967,1,0,0:0:0:0:
192,192,56058,1,0,0:0:0:0:
448,192,56058,128,0,56149:0:0:0:0:
64,192,56149,1,0,0:0:0:0:
320,192,56240,1,0,0:0:0:0:
448,192,56331,1,0,0:0:0:0:
192,192,56422,1,0,0:0:0:0:
320,192,56422,128,0,56513:0:0:0:0:
448,192,56513,1,0,0:0:0:0:
192,192,56604,1,0,0:0:0:0:
64,192,56695,1,0,0:0:0:0:
448,192,56786,1,0,0:0:0:0:
192,192,56786,128,0,56877:0:0:0:0:
320,192,56877,1,0,0:0:0:0:
64,192,56967,1,0,0:0:0:0:
192,192,57058,1,0,0:0:0:0:
448,192,57149,1,0,0:0:0:0:
64,192,57149,128,0,57240:0:0:0:0:
192,192,57240,1,0,0:0:0:0:
448,192,57331,1,0,0:0:0:0:
320,192,57422,1,0,0:0:0:0:
64,192,57513,1,0,0:0:0:0:
192,192,57513,128,0,57604:0:0:0:0:
320,192,57604,1,0,0:0:0:0:
64,192,57695,128,0,57786:0:0:0:0:
320,192,57786,1,0,0:0:0:0:
192,192,57877,1,0,0:0:0:0:
448,192,57877,1,0,0:0:0:0:
320,192,57967,1,0,0:0:0:0:
64,192,58058,1,0,0:0:0:0:
192,192,58149,1,0,0:0:0:0:
64,192,58240,1,0,0:0:0:0:
448,192,58240,1,0,0:0:0:0:
192,192,58331,1,0,0:0:0:0:
320,192,58422,1,0,0:0:0:0:
448,192,58513,1,0,0:0:0:0:
64,192,58604,1,0,0:0:0:0:
320,192,58604,128,0,58786:0:0:0:0:
448,192,58695,1,0,0:0:0:0:
192,192,58786,1,0,0:0:0:0:
320,192,58877,128,0,59058:0:0:0:0:
192,192,58967,1,0,0:0:0:0:
448,192,58967,1,0,0:0:0:0:
64,192,59058,1,0,0:0:0:0:
192,192,59149,128,0,59331:0:0:0:0:
320,192,59240,1,0,0:0:0:0:
448,192,59331,1,0,0:0:0:0:
64,192,59331,1,0,0:0:0:0:
192,192,59422,128,0,59604:0:0:0:0:
448,192,59513,1,0,0:0:0:0:
320,192,59604,1,0,0:0:0:0:
192,192,59695,1,0,0:0:0:0:
64,192,59695,128,0,59786:0:0:0:0:
448,192,59786,1,0,0:0:0:0:
192,192,59877,1,0,0:0:0:0:
64,192,59967,128,0,60058:0:0:0:0:
192,192,60058,1,0,0:0:0:0:
448,192,60058,128,0,60149:0:0:0:0:
64,192,60149,1,0,0:0:0:0:
192,192,60240,1,0,0:0:0:0:
448,192,60331,1,0,0:0:0:0:
320,192,60422,1,0,0:0:0:0:
192,192,60422,128,0,60513:0:0:0:0:
64,192,60513,1,0,0:0:0:0:
320,192,60604,128,0,60695:0:0:0:0:
448,192,60695,1,0,0:0:0:0:
64,192,60786,1,0,0:0:0:0:
320,192,60786,1,0,0:0:0:0:
192,192,60877,1,0,0:0:0:0:
448,192,60967,128,0,61058:0:0:0:0:
192,192,61058,1,0,0:0:0:0:
64,192,61149,1,0,0:0:0:0:
320,192,61149,1,0,0:0:0:0:
448,192,61240,1,0,0:0:0:0:
192,192,61331,128,0,61422:0:0:0:0:
320,192,61422,1,0,0:0:0:0:
64,192,61513,1,0,0:0:0:0:
192,192,61513,1,0,0:0:0:0:
448,192,61604,1,0,0:0:0:0:
192,192,61695,1,0,0:0:0:0:
448,192,61786,1,0,0:0:0:0:
192,192,61877,1,0,0:0:0:0:
320,192,61877,128,0,61967:0:0:0:0:
64,192,61967,1,0,0:0:0:0:
192,192,62058,1,0,0:0:0:0:
64,192,62149,1,0,0:0:0:0:
448,192,62240,1,0,0:0:0:0:
320,192,62240,128,0,62331:0:0:0:0:
192,192,62331,1,0,0:0:0:0:
448,192,62422,1,0,0:0:0:0:
192,192,62513,1,0,0:0:0:0:
64,192,62604,1,0,0:0:0:0:
320,192,62604,128,0,62695:0:0:0:0:
192,192,62695,1,0,0:0:0:0:
448,192,62786,128,0,62877:0:0:0:0:
320,192,62877,1,0,0:0:0:0:
64,192,62967,1,0,0:0:0:0:
192,192,62967,1,0,0:0:0:0:
320,192,63058,1,0,0:0:0:0:
192,192,63149,1,0,0:0:0:0:
64,192,63240,1,0,0:0:0:0:
320,192,63331,1,0,0:0:0:0:
448,192,63331,1,0,0:0:0:0:
64,192,63422,1,0,0:0:0:0:
192,192,63513,1,0,0:0:0:0:
448,192,63604,1,0,0:0:0:0:
320,192,63695,1,0,0:0:0:0:
64,192,63695,1,0,0:0:0:0:
448,192,63786,1,0,0:0:0:0:
192,192,63877,1,0,0:0:0:0:
64,192,63967,1,0,0:0:0:0:
320,192,64058,1,0,0:0:0:0:
448,192,64058,1,0,0:0:0:0:
192,192,64149,1,0,0:0:0:0:
64,192,64240,1,0,0:0:0:0:
320,192,64331,1,0,0:0:0:0:
448,192,64422,1,0,0:0:0:0:
192,192,64422,128,0,64604:0:0:0:0:
64,192,64513,1,0,0:0:0:0:
320,192,64604,1,0,0:0:0:0:
192,192,64695,128,0,64877:0:0:0:0:
64,192,64786,1,0,0:0:0:0:
320,192,64786,1,0,0:0:0:0:
448,192,64877,1,0,0:0:0:0:
64,192,64967,128,0,65149:0:0:0:0:
448,192,65058,1,0,0:0:0:0:
192,192,65149,1,0,0:0:0:0:
320,192,65149,1,0,0:0:0:0:
448,192,65240,1,0,0:0:0:0:
64,192,65240,128,0,65422:0:0:0:0:
448,192,65422,1,0,0:0:0:0:
320,192,65513,1,0,0:0:0:0:
192,192,65513,128,0,65695:0:0:0:0:
448,192,65604,1,0,0:0:0:0:
320,192,65695,1,0,0:0:0:0:
64,192,65786,128,0,65877:0:0:0:0:
320,192,65877,1,0,0:0:0:0:
448,192,65877,128,0,65967:0:0:0:0:
192,192,65967,1,0,0:0:0:0:
320,192,66058,1,0,0:0:0:0:
448,192,66149,1,0,0:0:0:0:
320,192,66240,1,0,0:0:0:0:
64,192,66240,128,0,66331:0:0:0:0:
192,192,66331,1,0,0:0:0:0:
320,192,66422,128,0,66513:0:0:0:0:
448,192,66513,1,0,0:0:0:0:
64,192,66604,1,0,0:0:0:0:
192,192,66604,1,0,0:0:0:0:
320,192,66695,1,0,0:0:0:0:
448,192,66786,128,0,66877:0:0:0:0:
64,192,66877,1,0,0:0:0:0:
192,192,66967,1,0,0:0:0:0:
448,192,66967,1,0,0:0:0:0:
320,192,67058,1,0,0:0:0:0:
192,192,67149,128,0,67240:0:0:0:0:
448,192,67240,1,0,0:0:0:0:
64,192,67331,1,0,0:0:0:0:
320,192,67331,1,0,0:0:0:0:
192,192,67422,1,0,0:0:0:0:
448,192,67513,1,0,0:0:0:0:
64,192,67604,1,0,0:0:0:0:
192,192,67695,1,0,0:0:0:0:
448,192,67695,128,0,67786:0:0:0:0:
320,192,67786,1,0,0:0:0:0:
64,192,67877,1,0,0:0:0:0:
448,192,67967,128,0,68058:0:0:0:0:
64,192,68058,1,0,0:0:0:0:
320,192,68058,128,0,68149:0:0:0:0:
192,192,68149,1,0,0:0:0:0:
448,192,68240,1,0,0:0:0:0:
320,192,68331,128,0,68422:0:0:0:0:
448,192,68422,1,0,0:0:0:0:
192,192,68422,128,0,68513:0:0:0:0:
64,192,68513,1,0,0:0:0:0:
192,192,68604,1,0,0:0:0:0:
64,192,68695,128,0,68786:0:0:0:0:
192,192,68786,1,0,0:0:0:0:
448,192,68786,128,0,68877:0:0:0:0:
320,192,68877,1,0,0:0:0:0:
64,192,68967,1,0,0:0:0:0:
192,192,69058,1,0,0:0:0:0:
320,192,69149,1,0,0:0:0:0:
64,192,69149,128,0,69240:0:0:0:0:
192,192,69240,1,0,0:0:0:0:
320,192,69331,128,0,69422:0:0:0:0:
448,192,69422,1,0,0:0:0:0:
64,192,69513,1,0,0:0:0:0:
192,192,69513,1,0,0:0:0:0:
320,192,69604,1,0,0:0:0:0:
448,192,69695,128,0,69786:0:0:0:0:
192,192,69786,1,0,0:0:0:0:
64,192,69877,1,0,0:0:0:0:
448,192,69877,1,0,0:0:0:0:
320,192,69967,1,0,0:0:0:0:
64,192,70058,128,0,70149:0:0:0:0:
192,192,70149,1,0,0:0:0:0:
448,192,70240,1,0,0:0:0:0:
320,192,70240,1,0,0:0:0:0:
64,192,70331,1,0,0:0:0:0:
192,192,70422,1,0,0:0:0:0:
448,192,70513,1,0,0:0:0:0:
192,192,70604,1,0,0:0:0:0:
320,192,70604,128,0,70695:0:0:0:0:
64,192,70695,1,0,0:0:0:0:
448,192,70786,1,0,0:0:0:0:
64,192,70877,128,0,70967:0:0:0:0:
320,192,70967,1,0,0:0:0:0:
192,192,70967,128,0,71058:0:0:0:0:
448,192,71058,1,0,0:0:0:0:
192,192,71149,1,0,0:0:0:0:
320,192,71240,128,0,71331:0:0:0:0:
64,192,71331,128,0,71422:0:0:0:0:
192,192,71331,1,0,0:0:0:0:
448,192,71422,1,0,0:0:0:0:
320,192,71513,1,0,0:0:0:0:
64,192,71604,1,0,0:0:0:0:
192,192,71695,1,0,0:0:0:0:
448,192,71695,128,0,71786:0:0:0:0:
320,192,71786,1,0,0:0:0:0:
64,192,71877,1,0,0:0:0:0:
192,192,71967,1,0,0:0:0:0:
448,192,72058,1,0,0:0:0:0:
320,192,72058,128,0,72149:0:0:0:0:
64,192,72149,1,0,0:0:0:0:
448,192,72240,128,0,72331:0:0:0:0:
320,192,72331,1,0,0:0:0:0:
64,192,72422,1,0,0:0:0:0:
448,192,72422,1,0,0:0:0:0:
320,192,72513,1,0,0:0:0:0:
64,192,72604,128,0,72695:0:0:0:0:
192,192,72695,1,0,0:0:0:0:
320,192,72786,1,0,0:0:0:0:
448,192,72786,1,0,0:0:0:0:
192,192,72877,1,0,0:0:0:0:
448,192,72967,128,0,73058:0:0:0:0:
64,192,73058,1,0,0:0:0:0:
320,192,73149,1,0,0:0:0:0:
192,192,73149,128,0,73240:0:0:0:0:
448,192,73240,1,0,0:0:0:0:
64,192,73331,1,0,0:0:0:0:
192,192,73422,1,0,0:0:0:0:
448,192,73513,1,0,0:0:0:0:
320,192,73513,1,0,0:0:0:0:
192,192,73604,1,0,0:0:0:0:
448,192,73695,1,0,0:0:0:0:
64,192,73786,1,0,0:0:0:0:
192,192,73877,1,0,0:0:0:0:
320,192,73877,1,0,0:0:0:0:
448,192,73967,1,0,0:0:0:0:
192,192,74058,1,0,0:0:0:0:
320,192,74149,1,0,0:0:0:0:
64,192,74240,1,0,0:0:0:0:
192,192,74240,1,0,0:0:0:0:
448,192,74331,1,0,0:0:0:0:
192,192,74422,1,0,0:0:0:0:
320,192,74513,1,0,0:0:0:0:
448,192,74604,1,0,0:0:0:0:
64,192,74604,128,0,74695:0:0:0:0:
320,192,74695,1,0,0:0:0:0:
192,192,74786,1,0,0:0:0:0:
448,192,74786,1,0,0:0:0:0:
64,192,74877,1,0,0:0:0:0:
192,192,74967,1,0,0:0:0:0:
320,192,74967,128,0,75058:0:0:0:0:
448,192,75058,1,0,0:0:0:0:
192,192,75149,1,0,0:0:0:0:
64,192,75149,128,0,75240:0:0:0:0:
320,192,75240,1,0,0:0:0:0:
192,192,75331,1,0,0:0:0:0:
448,192,75331,1,0,0:0:0:0:
64,192,75422,1,0,0:0:0:0:
320,192,75513,1,0,0:0:0:0:
192,192,75513,128,0,75604:0:0:0:0:
448,192,75604,1,0,0:0:0:0:
320,192,75695,1,0,0:0:0:0:
64,192,75695,1,0,0:0:0:0:
192,192,75786,1,0,0:0:0:0:
64,192,75877,1,0,0:0:0:0:
448,192,75877,128,0,75967:0:0:0:0:
192,192,75967,1,0,0:0:0:0:
320,192,76058,1,0,0:0:0:0:
448,192,76058,1,0,0:0:0:0:
64,192,76149,1,0,0:0:0:0:
320,192,76240,1,0,0:0:0:0:
448,192,76240,1,0,0:0:0:0:
192,192,76331,1,0,0:0:0:0:
320,192,76422,1,0,0:0:0:0:
448,192,76422,1,0,0:0:0:0:
64,192,76513,1,0,0:0:0:0:
320,192,76604,1,0,0:0:0:0:
448,192,76604,1,0,0:0:0:0:
192,192,76695,1,0,0:0:0:0:
320,192,76786,1,0,0:0:0:0:
448,192,76786,1,0,0:0:0:0:
64,192,76877,1,0,0:0:0:0:
320,192,76967,1,0,0:0:0:0:
448,192,76967,1,0,0:0:0:0:
192,192,77058,1,0,0:0:0:0:
64,192,77149,1,0,0:0:0:0:
448,192,77149,1,0,0:0:0:0:
192,192,77210,1,0,0:0:0:0:
320,192,77270,1,0,0:0:0:0:
448,192,77331,1,0,0:0:0:0:
192,192,77331,1,0,0:0:0:0:
320,192,77422,1,0,0:0:0:0:
448,192,77513,1,0,0:0:0:0:
64,192,77513,128,0,78058:0:0:0:0:
192,192,77877,128,0,78240:0:0:0:0:
320,192,78058,128,0,78240:0:0:0:0:
448,192,78240,128,0,78604:0:0:0:0:
192,192,78422,128,0,78604:0:0:0:0:
320,192,78604,128,0,78967:0:0:0:0:
192,192,78786,128,0,79149:0:0:0:0:
64,192,78967,128,0,79331:0:0:0:0:
320,192,79149,128,0,79695:0:0:0:0:
192,192,79331,128,0,79877:0:0:0:0:
64,192,79513,128,0,80058:0:0:0:0:
64,192,80422,128,0,80967:0:0:0:0:
192,192,80786,128,0,80967:0:0:0:0:
448,192,80967,128,0,81331:0:0:0:0:
320,192,81331,128,0,81513:0:0:0:0:
192,192,81513,128,0,81695:0:0:0:0:
64,192,81695,128,0,81877:0:0:0:0:
192,192,81877,128,0,82604:0:0:0:0:
320,192,82604,128,0,83331:0:0:0:0:
64,192,82967,128,0,83331:0:0:0:0:
448,192,83331,128,0,83695:0:0:0:0:
192,192,83513,128,0,83877:0:0:0:0:
320,192,83695,128,0,84058:0:0:0:0:
64,192,83877,128,0,84422:0:0:0:0:
192,192,84058,128,0,84240:0:0:0:0:
320,192,84240,128,0,84422:0:0:0:0:
448,192,84422,128,0,84786:0:0:0:0:
320,192,84604,128,0,84786:0:0:0:0:
64,192,84786,128,0,85331:0:0:0:0:
320,192,84967,128,0,85149:0:0:0:0:
448,192,85149,128,0,85695:0:0:0:0:
192,192,85331,128,0,85877:0:0:0:0:
64,192,85513,128,0,86058:0:0:0:0:
320,192,85877,128,0,86240:0:0:0:0:
192,192,86058,128,0,86240:0:0:0:0:
64,192,86240,128,0,86786:0:0:0:0:
192,192,86422,128,0,86604:0:0:0:0:
448,192,86604,128,0,86967:0:0:0:0:
320,192,86786,128,0,87149:0:0:0:0:
192,192,86967,128,0,87331:0:0:0:0:
448,192,87149,128,0,87513:0:0:0:0:
64,192,87331,128,0,87513:0:0:0:0:
320,192,87513,128,0,87695:0:0:0:0:
64,192,87695,128,0,88422:0:0:0:0:
192,192,88058,128,0,88422:0:0:0:0:
448,192,88422,128,0,89149:0:0:0:0:
320,192,88786,128,0,89149:0:0:0:0:
192,192,89149,128,0,89331:0:0:0:0:
64,192,89149,1,0,0:0:0:0:
320,192,89331,128,0,89513:0:0:0:0:
448,192,89513,128,0,89695:0:0:0:0:
64,192,89513,1,0,0:0:0:0:
320,192,89695,128,0,89877:0:0:0:0:
192,192,89877,1,0,0:0:0:0:
320,192,90058,128,0,90240:0:0:0:0:
448,192,90240,128,0,90422:0:0:0:0:
192,192,90240,1,0,0:0:0:0:
192,192,90604,128,0,90786:0:0:0:0:
64,192,90604,1,0,0:0:0:0:
320,192,90786,128,0,90967:0:0:0:0:
448,192,90967,128,0,91149:0:0:0:0:
64,192,90967,1,0,0:0:0:0:
320,192,91149,128,0,91331:0:0:0:0:
192,192,91331,1,0,0:0:0:0:
320,192,91513,128,0,91695:0:0:0:0:
448,192,91695,128,0,91877:0:0:0:0:
192,192,91695,1,0,0:0:0:0:
192,192,92058,128,0,92240:0:0:0:0:
64,192,92058,1,0,0:0:0:0:
448,192,92240,128,0,92422:0:0:0:0:
320,192,92422,128,0,92604:0:0:0:0:
64,192,92422,1,0,0:0:0:0:
192,192,92604,128,0,92967:0:0:0:0:
320,192,92786,1,0,0:0:0:0:
448,192,92967,128,0,93149:0:0:0:0:
320,192,93149,128,0,93331:0:0:0:0:
192,192,93149,1,0,0:0:0:0:
192,192,93331,128,0,93513:0:0:0:0:
448,192,93331,1,0,0:0:0:0:
64,192,93513,128,0,94240:0:0:0:0:
448,192,93513,1,0,0:0:0:0:
448,192,93877,1,0,0:0:0:0:
448,192,94240,1,0,0:0:0:0:
448,192,94422,1,0,0:0:0:0:
320,192,94422,1,0,0:0:0:0:
320,192,94604,1,0,0:0:0:0:
64,192,94786,1,0,0:0:0:0:
192,192,94786,1,0,0:0:0:0:
320,192,94967,128,0,95058:0:0:0:0:
64,192,94967,1,0,0:0:0:0:
320,192,95149,128,0,95422:0:0:0:0:
64,192,95331,1,0,0:0:0:0:
192,192,95331,1,0,0:0:0:0:
320,192,95513,128,0,95786:0:0:0:0:
64,192,95695,1,0,0:0:0:0:
192,192,95877,128,0,96058:0:0:0:0:
320,192,96058,128,0,96240:0:0:0:0:
64,192,96058,1,0,0:0:0:0:
448,192,96240,128,0,96422:0:0:0:0:
192,192,96240,1,0,0:0:0:0:
320,192,96422,128,0,96786:0:0:0:0:
192,192,96422,1,0,0:0:0:0:
64,192,96786,1,0,0:0:0:0:
448,192,96967,128,0,97331:0:0:0:0:
64,192,97149,1,0,0:0:0:0:
192,192,97331,128,0,97513:0:0:0:0:
320,192,97513,128,0,97695:0:0:0:0:
64,192,97513,1,0,0:0:0:0:
448,192,97695,128,0,98604:0:0:0:0:
192,192,97695,1,0,0:0:0:0:
320,192,97877,128,0,99331:0:0:0:0:
64,192,97877,1,0,0:0:0:0:
192,192,97877,1,0,0:0:0:0:
64,192,98240,1,0,0:0:0:0:
192,192,98240,1,0,0:0:0:0:
64,192,98604,5,0,0:0:0:0:
192,192,98604,1,0,0:0:0:0:
64,192,98786,1,0,0:0:0:0:
192,192,98786,1,0,0:0:0:0:
64,192,98967,1,0,0:0:0:0:
192,192,98967,1,0,0:0:0:0:
64,192,99149,1,0,0:0:0:0:
192,192,99149,1,0,0:0:0:0:
64,192,99331,1,0,0:0:0:0:
192,192,99331,1,0,0:0:0:0:
448,192,99331,1,0,0:0:0:0:
64,192,99695,128,0,100422:0:0:0:0:
192,192,100058,128,0,100422:0:0:0:0:
320,192,100422,128,0,100786:0:0:0:0:
192,192,100604,128,0,100786:0:0:0:0:
448,192,100786,128,0,101149:0:0:0:0:
64,192,100786,1,0,0:0:0:0:
192,192,100877,1,0,0:0:0:0:
320,192,100967,1,0,0:0:0:0:
64,192,100967,1,0,0:0:0:0:
192,192,101058,1,0,0:0:0:0:
64,192,101149,128,0,101695:0:0:0:0:
320,192,101149,1,0,0:0:0:0:
192,192,101240,1,0,0:0:0:0:
320,192,101331,1,0,0:0:0:0:
448,192,101331,1,0,0:0:0:0:
192,192,101422,1,0,0:0:0:0:
320,192,101513,1,0,0:0:0:0:
448,192,101604,1,0,0:0:0:0:
320,192,101695,1,0,0:0:0:0:
192,192,101786,1,0,0:0:0:0:
64,192,101877,1,0,0:0:0:0:
448,192,101877,1,0,0:0:0:0:
320,192,101967,1,0,0:0:0:0:
192,192,102058,128,0,102240:0:0:0:0:
64,192,102058,1,0,0:0:0:0:
448,192,102149,1,0,0:0:0:0:
320,192,102240,128,0,102422:0:0:0:0:
64,192,102240,1,0,0:0:0:0:
192,192,102331,1,0,0:0:0:0:
448,192,102422,128,0,102786:0:0:0:0:
64,192,102422,1,0,0:0:0:0:
320,192,102513,1,0,0:0:0:0:
192,192,102604,1,0,0:0:0:0:
64,192,102604,1,0,0:0:0:0:
320,192,102695,1,0,0:0:0:0:
192,192,102786,128,0,102967:0:0:0:0:
64,192,102786,1,0,0:0:0:0:
448,192,102877,1,0,0:0:0:0:
320,192,102967,128,0,103149:0:0:0:0:
64,192,102967,1,0,0:0:0:0:
448,192,103058,1,0,0:0:0:0:
64,192,103149,128,0,103331:0:0:0:0:
192,192,103149,1,0,0:0:0:0:
448,192,103240,1,0,0:0:0:0:
192,192,103331,128,0,103513:0:0:0:0:
320,192,103331,1,0,0:0:0:0:
448,192,103422,1,0,0:0:0:0:
64,192,103513,128,0,103786:0:0:0:0:
320,192,103513,1,0,0:0:0:0:
192,192,103604,1,0,0:0:0:0:
448,192,103695,1,0,0:0:0:0:
320,192,103695,1,0,0:0:0:0:
192,192,103786,1,0,0:0:0:0:
448,192,103877,128,0,103967:0:0:0:0:
320,192,103877,1,0,0:0:0:0:
192,192,103967,1,0,0:0:0:0:
448,192,104058,128,0,104786:0:0:0:0:
64,192,104058,1,0,0:0:0:0:
192,192,104149,1,0,0:0:0:0:
320,192,104240,1,0,0:0:0:0:
64,192,104240,1,0,0:0:0:0:
192,192,104331,1,0,0:0:0:0:
64,192,104422,1,0,0:0:0:0:
192,192,104513,1,0,0:0:0:0:
320,192,104604,1,0,0:0:0:0:
64,192,104604,1,0,0:0:0:0:
192,192,104695,1,0,0:0:0:0:
320,192,104786,1,0,0:0:0:0:
64,192,104877,1,0,0:0:0:0:
320,192,104967,128,0,105331:0:0:0:0:
448,192,104967,1,0,0:0:0:0:
192,192,105058,1,0,0:0:0:0:
448,192,105149,1,0,0:0:0:0:
64,192,105149,1,0,0:0:0:0:
192,192,105240,1,0,0:0:0:0:
64,192,105331,128,0,105513:0:0:0:0:
448,192,105331,1,0,0:0:0:0:
320,192,105422,1,0,0:0:0:0:
448,192,105513,128,0,105877:0:0:0:0:
192,192,105513,1,0,0:0:0:0:
320,192,105604,1,0,0:0:0:0:
64,192,105695,1,0,0:0:0:0:
192,192,105695,1,0,0:0:0:0:
320,192,105786,1,0,0:0:0:0:
192,192,105877,128,0,106240:0:0:0:0:
64,192,105877,1,0,0:0:0:0:
448,192,105967,1,0,0:0:0:0:
320,192,106058,128,0,106240:0:0:0:0:
64,192,106058,1,0,0:0:0:0:
448,192,106149,1,0,0:0:0:0:
64,192,106240,1,0,0:0:0:0:
320,192,106331,1,0,0:0:0:0:
192,192,106422,128,0,106604:0:0:0:0:
448,192,106422,1,0,0:0:0:0:
64,192,106513,1,0,0:0:0:0:
448,192,106604,128,0,106967:0:0:0:0:
320,192,106604,1,0,0:0:0:0:
64,192,106695,1,0,0:0:0:0:
192,192,106786,1,0,0:0:0:0:
320,192,106786,1,0,0:0:0:0:
64,192,106877,1,0,0:0:0:0:
192,192,106967,128,0,107149:0:0:0:0:
320,192,106967,1,0,0:0:0:0:
64,192,107058,1,0,0:0:0:0:
320,192,107149,128,0,107695:0:0:0:0:
448,192,107149,1,0,0:0:0:0:
192,192,107240,1,0,0:0:0:0:
64,192,107331,1,0,0:0:0:0:
448,192,107331,1,0,0:0:0:0:
192,192,107422,1,0,0:0:0:0:
448,192,107513,1,0,0:0:0:0:
192,192,107604,1,0,0:0:0:0:
64,192,107695,1,0,0:0:0:0:
448,192,107695,1,0,0:0:0:0:
192,192,107786,1,0,0:0:0:0:
448,192,107877,128,0,107967:0:0:0:0:
64,192,107877,1,0,0:0:0:0:
320,192,107967,128,0,108058:0:0:0:0:
192,192,107967,1,0,0:0:0:0:
64,192,108058,128,0,108422:0:0:0:0:
448,192,108058,1,0,0:0:0:0:
192,192,108149,1,0,0:0:0:0:
320,192,108240,1,0,0:0:0:0:
448,192,108240,1,0,0:0:0:0:
192,192,108331,1,0,0:0:0:0:
320,192,108422,128,0,108604:0:0:0:0:
448,192,108422,1,0,0:0:0:0:
64,192,108513,1,0,0:0:0:0:
192,192,108604,128,0,109149:0:0:0:0:
448,192,108604,1,0,0:0:0:0:
320,192,108695,1,0,0:0:0:0:
64,192,108786,1,0,0:0:0:0:
448,192,108786,1,0,0:0:0:0:
320,192,108877,1,0,0:0:0:0:
64,192,108967,1,0,0:0:0:0:
448,192,109058,1,0,0:0:0:0:
320,192,109149,1,0,0:0:0:0:
64,192,109149,1,0,0:0:0:0:
192,192,109240,1,0,0:0:0:0:
64,192,109331,128,0,109422:0:0:0:0:
320,192,109331,1,0,0:0:0:0:
192,192,109422,128,0,109513:0:0:0:0:
448,192,109422,1,0,0:0:0:0:
320,192,109513,128,0,109877:0:0:0:0:
64,192,109513,1,0,0:0:0:0:
448,192,109604,1,0,0:0:0:0:
192,192,109695,1,0,0:0:0:0:
64,192,109695,1,0,0:0:0:0:
448,192,109786,1,0,0:0:0:0:
192,192,109877,128,0,110058:0:0:0:0:
64,192,109877,1,0,0:0:0:0:
320,192,109967,1,0,0:0:0:0:
448,192,110058,128,0,110422:0:0:0:0:
64,192,110058,1,0,0:0:0:0:
320,192,110149,1,0,0:0:0:0:
64,192,110240,1,0,0:0:0:0:
192,192,110240,1,0,0:0:0:0:
320,192,110331,1,0,0:0:0:0:
192,192,110422,128,0,110604:0:0:0:0:
64,192,110422,1,0,0:0:0:0:
448,192,110513,1,0,0:0:0:0:
320,192,110604,128,0,110786:0:0:0:0:
64,192,110604,1,0,0:0:0:0:
192,192,110695,1,0,0:0:0:0:
448,192,110786,128,0,110967:0:0:0:0:
64,192,110786,1,0,0:0:0:0:
192,192,110877,1,0,0:0:0:0:
64,192,110967,128,0,111149:0:0:0:0:
320,192,110967,1,0,0:0:0:0:
192,192,111058,1,0,0:0:0:0:
448,192,111149,128,0,111513:0:0:0:0:
320,192,111149,1,0,0:0:0:0:
192,192,111240,1,0,0:0:0:0:
64,192,111331,1,0,0:0:0:0:
320,192,111331,1,0,0:0:0:0:
192,192,111422,1,0,0:0:0:0:
64,192,111513,128,0,111695:0:0:0:0:
320,192,111513,1,0,0:0:0:0:
448,192,111604,1,0,0:0:0:0:
320,192,111695,1,0,0:0:0:0:
192,192,111695,1,0,0:0:0:0:
64,192,111786,1,0,0:0:0:0:
448,192,111877,128,0,112058:0:0:0:0:
192,192,111877,1,0,0:0:0:0:
64,192,111967,1,0,0:0:0:0:
320,192,112058,128,0,112240:0:0:0:0:
192,192,112058,1,0,0:0:0:0:
448,192,112149,1,0,0:0:0:0:
192,192,112240,128,0,112604:0:0:0:0:
64,192,112240,1,0,0:0:0:0:
448,192,112331,1,0,0:0:0:0:
64,192,112422,1,0,0:0:0:0:
320,192,112422,1,0,0:0:0:0:
448,192,112513,1,0,0:0:0:0:
320,192,112604,128,0,112786:0:0:0:0:
64,192,112604,1,0,0:0:0:0:
448,192,112695,1,0,0:0:0:0:
64,192,112786,128,0,113513:0:0:0:0:
192,192,112786,1,0,0:0:0:0:
320,192,112877,1,0,0:0:0:0:
448,192,112967,1,0,0:0:0:0:
192,192,112967,1,0,0:0:0:0:
320,192,113058,1,0,0:0:0:0:
192,192,113149,1,0,0:0:0:0:
448,192,113240,1,0,0:0:0:0:
320,192,113331,1,0,0:0:0:0:
192,192,113331,1,0,0:0:0:0:
448,192,113422,1,0,0:0:0:0:
320,192,113513,1,0,0:0:0:0:
448,192,113604,1,0,0:0:0:0:
192,192,113695,128,0,113786:0:0:0:0:
64,192,113695,1,0,0:0:0:0:
320,192,113786,128,0,113877:0:0:0:0:
448,192,113877,128,0,114058:0:0:0:0:
64,192,113877,1,0,0:0:0:0:
192,192,113967,1,0,0:0:0:0:
320,192,114058,128,0,114422:0:0:0:0:
64,192,114058,1,0,0:0:0:0:
192,192,114149,1,0,0:0:0:0:
64,192,114240,1,0,0:0:0:0:
448,192,114240,1,0,0:0:0:0:
192,192,114331,1,0,0:0:0:0:
448,192,114422,128,0,114604:0:0:0:0:
64,192,114422,1,0,0:0:0:0:
192,192,114513,1,0,0:0:0:0:
320,192,114604,128,0,114786:0:0:0:0:
64,192,114604,1,0,0:0:0:0:
448,192,114695,1,0,0:0:0:0:
192,192,114786,128,0,114967:0:0:0:0:
64,192,114786,1,0,0:0:0:0:
320,192,114877,1,0,0:0:0:0:
64,192,114967,128,0,115149:0:0:0:0:
448,192,114967,1,0,0:0:0:0:
320,192,115058,1,0,0:0:0:0:
192,192,115149,128,0,115513:0:0:0:0:
448,192,115149,1,0,0:0:0:0:
64,192,115240,1,0,0:0:0:0:
320,192,115331,1,0,0:0:0:0:
448,192,115331,1,0,0:0:0:0:
64,192,115422,1,0,0:0:0:0:
320,192,115513,128,0,115604:0:0:0:0:
448,192,115513,1,0,0:0:0:0:
192,192,115604,1,0,0:0:0:0:
320,192,115695,128,0,116422:0:0:0:0:
64,192,115695,1,0,0:0:0:0:
448,192,115786,1,0,0:0:0:0:
64,192,115877,1,0,0:0:0:0:
192,192,115877,1,0,0:0:0:0:
448,192,115967,1,0,0:0:0:0:
192,192,116058,1,0,0:0:0:0:
64,192,116149,1,0,0:0:0:0:
192,192,116240,1,0,0:0:0:0:
448,192,116240,1,0,0:0:0:0:
64,192,116331,1,0,0:0:0:0:
448,192,116422,1,0,0:0:0:0:
64,192,116513,1,0,0:0:0:0:
192,192,116604,128,0,116786:0:0:0:0:
448,192,116604,1,0,0:0:0:0:
64,192,116695,1,0,0:0:0:0:
448,192,116786,1,0,0:0:0:0:
320,192,116786,1,0,0:0:0:0:
64,192,116877,1,0,0:0:0:0:
320,192,116967,128,0,117149:0:0:0:0:
448,192,116967,1,0,0:0:0:0:
192,192,117058,1,0,0:0:0:0:
64,192,117149,128,0,117513:0:0:0:0:
448,192,117149,1,0,0:0:0:0:
192,192,117240,1,0,0:0:0:0:
320,192,117331,1,0,0:0:0:0:
448,192,117331,1,0,0:0:0:0:
192,192,117422,1,0,0:0:0:0:
448,192,117513,128,0,117695:0:0:0:0:
320,192,117513,1,0,0:0:0:0:
192,192,117604,1,0,0:0:0:0:
64,192,117695,128,0,117877:0:0:0:0:
320,192,117695,1,0,0:0:0:0:
448,192,117786,1,0,0:0:0:0:
192,192,117877,1,0,0:0:0:0:
448,192,117967,1,0,0:0:0:0:
320,192,118058,128,0,118240:0:0:0:0:
64,192,118058,1,0,0:0:0:0:
448,192,118149,1,0,0:0:0:0:
192,192,118240,128,0,118604:0:0:0:0:
64,192,118240,1,0,0:0:0:0:
320,192,118331,1,0,0:0:0:0:
448,192,118422,1,0,0:0:0:0:
64,192,118422,1,0,0:0:0:0:
320,192,118513,1,0,0:0:0:0:
64,192,118604,128,0,118786:0:0:0:0:
448,192,118604,1,0,0:0:0:0:
320,192,118695,1,0,0:0:0:0:
192,192,118786,128,0,119331:0:0:0:0:
448,192,118786,1,0,0:0:0:0:
320,192,118877,1,0,0:0:0:0:
64,192,118967,1,0,0:0:0:0:
448,192,118967,1,0,0:0:0:0:
320,192,119058,1,0,0:0:0:0:
64,192,119149,1,0,0:0:0:0:
320,192,119240,1,0,0:0:0:0:
64,192,119331,1,0,0:0:0:0:
448,192,119331,1,0,0:0:0:0:
320,192,119422,1,0,0:0:0:0:
192,192,119513,128,0,119604:0:0:0:0:
64,192,119513,1,0,0:0:0:0:
320,192,119604,128,0,119695:0:0:0:0:
448,192,119695,128,0,120058:0:0:0:0:
192,192,119695,1,0,0:0:0:0:
64,192,119786,1,0,0:0:0:0:
320,192,119877,1,0,0:0:0:0:
192,192,119877,1,0,0:0:0:0:
64,192,119967,1,0,0:0:0:0:
320,192,120058,128,0,120240:0:0:0:0:
192,192,120058,1,0,0:0:0:0:
64,192,120149,1,0,0:0:0:0:
448,192,120240,128,0,120604:0:0:0:0:
192,192,120240,1,0,0:0:0:0:
320,192,120331,1,0,0:0:0:0:
64,192,120422,1,0,0:0:0:0:
192,192,120422,1,0,0:0:0:0:
320,192,120513,1,0,0:0:0:0:
64,192,120604,1,0,0:0:0:0:
192,192,120604,1,0,0:0:0:0:
320,192,120695,1,0,0:0:0:0:
64,192,120786,1,0,0:0:0:0:
192,192,120786,1,0,0:0:0:0:
448,192,120877,1,0,0:0:0:0:
192,192,120967,128,0,121149:0:0:0:0:
64,192,120967,1,0,0:0:0:0:
320,192,120967,1,0,0:0:0:0:
448,192,121058,1,0,0:0:0:0:
320,192,121149,128,0,121513:0:0:0:0:
64,192,121149,1,0,0:0:0:0:
192,192,121240,1,0,0:0:0:0:
448,192,121331,1,0,0:0:0:0:
64,192,121331,1,0,0:0:0:0:
192,192,121422,1,0,0:0:0:0:
64,192,121513,128,0,121695:0:0:0:0:
448,192,121513,1,0,0:0:0:0:
320,192,121604,1,0,0:0:0:0:
192,192,121695,128,0,122058:0:0:0:0:
448,192,121695,1,0,0:0:0:0:
64,192,121786,1,0,0:0:0:0:
320,192,121877,1,0,0:0:0:0:
448,192,121877,1,0,0:0:0:0:
64,192,121967,1,0,0:0:0:0:
448,192,122058,128,0,122240:0:0:0:0:
320,192,122058,1,0,0:0:0:0:
192,192,122149,1,0,0:0:0:0:
320,192,122240,128,0,122422:0:0:0:0:
64,192,122240,1,0,0:0:0:0:
448,192,122331,1,0,0:0:0:0:
192,192,122422,128,0,122604:0:0:0:0:
64,192,122422,1,0,0:0:0:0:
320,192,122513,1,0,0:0:0:0:
448,192,122604,1,0,0:0:0:0:
64,192,122604,1,0,0:0:0:0:
192,192,122664,1,0,0:0:0:0:
448,192,122725,1,0,0:0:0:0:
192,192,122786,1,0,0:0:0:0:
320,192,122877,1,0,0:0:0:0:
448,192,122967,1,0,0:0:0:0:
64,192,122967,1,0,0:0:0:0:
320,192,123028,1,0,0:0:0:0:
64,192,123089,1,0,0:0:0:0:
320,192,123149,1,0,0:0:0:0:
192,192,123240,1,0,0:0:0:0:
64,192,123331,1,0,0:0:0:0:
448,192,123331,1,0,0:0:0:0:
192,192,123392,1,0,0:0:0:0:
448,192,123452,1,0,0:0:0:0:
64,192,123513,1,0,0:0:0:0:
192,192,123513,1,0,0:0:0:0:
320,192,123604,1,0,0:0:0:0:
448,192,123695,1,0,0:0:0:0:
192,192,123695,1,0,0:0:0:0:
64,192,123695,1,0,0:0:0:0:
320,192,123786,1,0,0:0:0:0:
64,192,123877,1,0,0:0:0:0:
192,192,123877,1,0,0:0:0:0:
320,192,123967,1,0,0:0:0:0:
192,192,124058,1,0,0:0:0:0:
448,192,124058,128,0,124119:0:0:0:0:
64,192,124058,128,0,124119:0:0:0:0:
320,192,124149,1,0,0:0:0:0:
192,192,124240,1,0,0:0:0:0:
448,192,124240,1,0,0:0:0:0:
320,192,124331,1,0,0:0:0:0:
64,192,124422,1,0,0:0:0:0:
192,192,124422,1,0,0:0:0:0:
448,192,124422,1,0,0:0:0:0:
320,192,124513,1,0,0:0:0:0:
64,192,124604,1,0,0:0:0:0:
192,192,124604,1,0,0:0:0:0:
320,192,124695,1,0,0:0:0:0:
64,192,124786,1,0,0:0:0:0:
448,192,124786,128,0,124846:0:0:0:0:
192,192,124786,128,0,124846:0:0:0:0:
320,192,124877,1,0,0:0:0:0:
192,192,124967,1,0,0:0:0:0:
448,192,124967,1,0,0:0:0:0:
64,192,125058,1,0,0:0:0:0:
192,192,125149,1,0,0:0:0:0:
320,192,125149,1,0,0:0:0:0:
448,192,125149,1,0,0:0:0:0:
64,192,125240,1,0,0:0:0:0:
192,192,125331,1,0,0:0:0:0:
320,192,125331,1,0,0:0:0:0:
448,192,125422,1,0,0:0:0:0:
320,192,125513,1,0,0:0:0:0:
192,192,125513,128,0,125573:0:0:0:0:
64,192,125513,128,0,125573:0:0:0:0:
448,192,125604,1,0,0:0:0:0:
192,192,125695,1,0,0:0:0:0:
64,192,125786,1,0,0:0:0:0:
320,192,125786,128,0,125846:0:0:0:0:
448,192,125786,128,0,125846:0:0:0:0:
192,192,125877,1,0,0:0:0:0:
320,192,125967,1,0,0:0:0:0:
448,192,126058,1,0,0:0:0:0:
192,192,126058,128,0,126119:0:0:0:0:
64,192,126058,128,0,126119:0:0:0:0:
320,192,126149,1,0,0:0:0:0:
448,192,126240,1,0,0:0:0:0:
192,192,126240,1,0,0:0:0:0:
64,192,126240,128,0,126422:0:0:0:0:
320,192,126331,128,0,126422:0:0:0:0:
448,192,126422,1,0,0:0:0:0:
192,192,126422,128,0,126513:0:0:0:0:
64,192,126513,128,0,126604:0:0:0:0:
192,192,126604,1,0,0:0:0:0:
320,192,126604,128,0,126786:0:0:0:0:
448,192,126604,128,0,126695:0:0:0:0:
64,192,126695,128,0,126786:0:0:0:0:
192,192,126786,1,0,0:0:0:0:
448,192,126786,128,0,126877:0:0:0:0:
320,192,126877,128,0,126967:0:0:0:0:
64,192,126967,128,0,127058:0:0:0:0:
192,192,126967,128,0,127058:0:0:0:0:
448,192,126967,128,0,127058:0:0:0:0:
320,192,127058,1,0,0:0:0:0:
448,192,127149,1,0,0:0:0:0:
64,192,127149,1,0,0:0:0:0:
192,192,127240,1,0,0:0:0:0:
320,192,127331,1,0,0:0:0:0:
64,192,127331,1,0,0:0:0:0:
448,192,127331,1,0,0:0:0:0:
192,192,127422,1,0,0:0:0:0:
320,192,127513,1,0,0:0:0:0:
448,192,127513,1,0,0:0:0:0:
64,192,127604,1,0,0:0:0:0:
192,192,127695,1,0,0:0:0:0:
320,192,127695,128,0,127755:0:0:0:0:
448,192,127695,128,0,127755:0:0:0:0:
64,192,127786,1,0,0:0:0:0:
192,192,127877,1,0,0:0:0:0:
448,192,127877,1,0,0:0:0:0:
320,192,127967,1,0,0:0:0:0:
64,192,128058,1,0,0:0:0:0:
192,192,128058,1,0,0:0:0:0:
448,192,128058,1,0,0:0:0:0:
320,192,128149,1,0,0:0:0:0:
192,192,128240,1,0,0:0:0:0:
64,192,128240,1,0,0:0:0:0:
320,192,128331,1,0,0:0:0:0:
192,192,128422,128,0,128483:0:0:0:0:
64,192,128422,128,0,128483:0:0:0:0:
448,192,128422,1,0,0:0:0:0:
320,192,128513,1,0,0:0:0:0:
64,192,128604,1,0,0:0:0:0:
192,192,128695,1,0,0:0:0:0:
320,192,128695,128,0,128755:0:0:0:0:
448,192,128695,128,0,128755:0:0:0:0:
64,192,128786,1,0,0:0:0:0:
448,192,128877,1,0,0:0:0:0:
320,192,128967,1,0,0:0:0:0:
192,192,128967,128,0,129028:0:0:0:0:
64,192,128967,128,0,129028:0:0:0:0:
448,192,129058,1,0,0:0:0:0:
192,192,129149,1,0,0:0:0:0:
64,192,129149,1,0,0:0:0:0:
320,192,129149,128,0,129240:0:0:0:0:
448,192,129240,128,0,129331:0:0:0:0:
64,192,129331,1,0,0:0:0:0:
192,192,129331,128,0,129422:0:0:0:0:
320,192,129422,128,0,129513:0:0:0:0:
448,192,129513,1,0,0:0:0:0:
64,192,129513,1,0,0:0:0:0:
192,192,129513,128,0,129695:0:0:0:0:
320,192,129604,128,0,129695:0:0:0:0:
448,192,129695,1,0,0:0:0:0:
64,192,129695,128,0,129786:0:0:0:0:
192,192,129786,128,0,129877:0:0:0:0:
320,192,129877,1,0,0:0:0:0:
448,192,129877,1,0,0:0:0:0:
64,192,129877,128,0,130058:0:0:0:0:
192,192,129967,128,0,130149:0:0:0:0:
448,192,130058,1,0,0:0:0:0:
320,192,130058,128,0,130149:0:0:0:0:
64,192,130149,128,0,130240:0:0:0:0:
320,192,130240,1,0,0:0:0:0:
448,192,130240,1,0,0:0:0:0:
192,192,130240,128,0,130422:0:0:0:0:
64,192,130331,128,0,130422:0:0:0:0:
320,192,130422,1,0,0:0:0:0:
448,192,130422,128,0,130513:0:0:0:0:
192,192,130513,128,0,130604:0:0:0:0:
64,192,130604,1,0,0:0:0:0:
448,192,130604,1,0,0:0:0:0:
320,192,130604,128,0,130695:0:0:0:0:
192,192,130695,128,0,130877:0:0:0:0:
320,192,130786,1,0,0:0:0:0:
448,192,130786,128,0,130877:0:0:0:0:
64,192,130877,128,0,130967:0:0:0:0:
192,192,130967,1,0,0:0:0:0:
448,192,130967,1,0,0:0:0:0:
320,192,130967,128,0,131149:0:0:0:0:
64,192,131058,128,0,131149:0:0:0:0:
192,192,131149,1,0,0:0:0:0:
448,192,131149,128,0,131240:0:0:0:0:
320,192,131240,128,0,131331:0:0:0:0:
64,192,131331,1,0,0:0:0:0:
448,192,131331,1,0,0:0:0:0:
192,192,131331,128,0,131513:0:0:0:0:
320,192,131422,128,0,131513:0:0:0:0:
448,192,131513,1,0,0:0:0:0:
64,192,131513,128,0,131604:0:0:0:0:
192,192,131604,128,0,131695:0:0:0:0:
320,192,131695,1,0,0:0:0:0:
448,192,131695,1,0,0:0:0:0:
64,192,131695,128,0,131877:0:0:0:0:
192,192,131786,128,0,131877:0:0:0:0:
320,192,131877,1,0,0:0:0:0:
448,192,131877,128,0,131967:0:0:0:0:
64,192,131967,128,0,132058:0:0:0:0:
320,192,132058,1,0,0:0:0:0:
192,192,132058,128,0,132240:0:0:0:0:
448,192,132058,128,0,132149:0:0:0:0:
64,192,132149,1,0,0:0:0:0:
448,192,132240,1,0,0:0:0:0:
320,192,132240,128,0,132331:0:0:0:0:
192,192,132331,128,0,132422:0:0:0:0:
448,192,132422,1,0,0:0:0:0:
320,192,132422,128,0,132604:0:0:0:0:
64,192,132422,128,0,132513:0:0:0:0:
192,192,132513,128,0,132695:0:0:0:0:
448,192,132604,1,0,0:0:0:0:
64,192,132604,1,0,0:0:0:0:
320,192,132695,128,0,132786:0:0:0:0:
64,192,132786,1,0,0:0:0:0:
192,192,132786,1,0,0:0:0:0:
448,192,132786,128,0,132877:0:0:0:0:
320,192,132877,128,0,133058:0:0:0:0:
448,192,132967,1,0,0:0:0:0:
64,192,132967,128,0,133058:0:0:0:0:
192,192,133058,128,0,133149:0:0:0:0:
448,192,133149,1,0,0:0:0:0:
64,192,133149,1,0,0:0:0:0:
320,192,133149,128,0,133240:0:0:0:0:
192,192,133240,128,0,133422:0:0:0:0:
320,192,133331,1,0,0:0:0:0:
448,192,133331,128,0,133422:0:0:0:0:
64,192,133422,128,0,133513:0:0:0:0:
448,192,133513,1,0,0:0:0:0:
192,192,133513,128,0,133695:0:0:0:0:
320,192,133513,1,0,0:0:0:0:
64,192,133604,128,0,133786:0:0:0:0:
448,192,133695,1,0,0:0:0:0:
320,192,133695,128,0,133786:0:0:0:0:
192,192,133786,128,0,133877:0:0:0:0:
64,192,133877,1,0,0:0:0:0:
320,192,133877,1,0,0:0:0:0:
448,192,133877,128,0,134058:0:0:0:0:
192,192,133967,128,0,134058:0:0:0:0:
64,192,134058,1,0,0:0:0:0:
320,192,134058,128,0,134149:0:0:0:0:
448,192,134149,128,0,134240:0:0:0:0:
64,192,134240,1,0,0:0:0:0:
192,192,134240,1,0,0:0:0:0:
320,192,134240,128,0,134422:0:0:0:0:
448,192,134331,128,0,134422:0:0:0:0:
64,192,134422,1,0,0:0:0:0:
192,192,134422,128,0,134513:0:0:0:0:
320,192,134513,128,0,134604:0:0:0:0:
64,192,134604,1,0,0:0:0:0:
192,192,134604,1,0,0:0:0:0:
448,192,134604,128,0,135058:0:0:0:0:
320,192,134695,128,0,134967:0:0:0:0:
192,192,134786,128,0,134877:0:0:0:0:
64,192,134877,128,0,134967:0:0:0:0:
192,192,134967,128,0,135058:0:0:0:0:
320,192,135058,128,0,135149:0:0:0:0:
448,192,135149,128,0,135240:0:0:0:0:
192,192,135149,128,0,135331:0:0:0:0:
64,192,135149,1,0,0:0:0:0:
320,192,135240,128,0,135422:0:0:0:0:
448,192,135331,1,0,0:0:0:0:
64,192,135331,128,0,135604:0:0:0:0:
192,192,135422,128,0,135604:0:0:0:0:
320,192,135513,128,0,135604:0:0:0:0:
448,192,135604,1,0,0:0:0:0:
320,192,135695,1,0,0:0:0:0:
64,192,135695,128,0,135755:0:0:0:0:
192,192,135695,128,0,135755:0:0:0:0:
448,192,135786,1,0,0:0:0:0:
192,192,135877,1,0,0:0:0:0:
320,192,135877,1,0,0:0:0:0:
64,192,135967,1,0,0:0:0:0:
192,192,136058,1,0,0:0:0:0:
448,192,136058,1,0,0:0:0:0:
320,192,136058,1,0,0:0:0:0:
64,192,136149,1,0,0:0:0:0:
192,192,136240,1,0,0:0:0:0:
448,192,136240,1,0,0:0:0:0:
320,192,136331,1,0,0:0:0:0:
64,192,136422,1,0,0:0:0:0:
192,192,136422,128,0,136483:0:0:0:0:
448,192,136422,128,0,136483:0:0:0:0:
320,192,136513,1,0,0:0:0:0:
192,192,136604,1,0,0:0:0:0:
448,192,136604,1,0,0:0:0:0:
64,192,136695,1,0,0:0:0:0:
192,192,136786,1,0,0:0:0:0:
320,192,136786,1,0,0:0:0:0:
448,192,136786,1,0,0:0:0:0:
64,192,136877,1,0,0:0:0:0:
192,192,136967,1,0,0:0:0:0:
448,192,136967,1,0,0:0:0:0:
320,192,137058,1,0,0:0:0:0:
64,192,137149,1,0,0:0:0:0:
192,192,137149,128,0,137210:0:0:0:0:
448,192,137149,128,0,137210:0:0:0:0:
320,192,137240,1,0,0:0:0:0:
192,192,137331,1,0,0:0:0:0:
448,192,137422,1,0,0:0:0:0:
64,192,137422,128,0,137483:0:0:0:0:
320,192,137422,128,0,137483:0:0:0:0:
192,192,137513,1,0,0:0:0:0:
320,192,137604,1,0,0:0:0:0:
64,192,137695,1,0,0:0:0:0:
192,192,137695,128,0,137755:0:0:0:0:
448,192,137695,128,0,137755:0:0:0:0:
320,192,137786,1,0,0:0:0:0:
64,192,137877,1,0,0:0:0:0:
448,192,137877,1,0,0:0:0:0:
192,192,137877,128,0,138058:0:0:0:0:
320,192,137967,128,0,138058:0:0:0:0:
64,192,138058,1,0,0:0:0:0:
448,192,138058,128,0,138149:0:0:0:0:
192,192,138149,128,0,138240:0:0:0:0:
320,192,138240,1,0,0:0:0:0:
448,192,138240,1,0,0:0:0:0:
64,192,138240,128,0,138422:0:0:0:0:
192,192,138331,128,0,138422:0:0:0:0:
448,192,138422,1,0,0:0:0:0:
320,192,138422,128,0,138513:0:0:0:0:
192,192,138513,128,0,138604:0:0:0:0:
64,192,138604,128,0,138664:0:0:0:0:
320,192,138604,1,0,0:0:0:0:
448,192,138604,128,0,138664:0:0:0:0:
192,192,138695,1,0,0:0:0:0:
448,192,138786,1,0,0:0:0:0:
64,192,138786,1,0,0:0:0:0:
320,192,138877,1,0,0:0:0:0:
64,192,138967,1,0,0:0:0:0:
192,192,138967,1,0,0:0:0:0:
448,192,138967,1,0,0:0:0:0:
320,192,139058,1,0,0:0:0:0:
64,192,139149,1,0,0:0:0:0:
192,192,139149,1,0,0:0:0:0:
448,192,139240,1,0,0:0:0:0:
64,192,139331,1,0,0:0:0:0:
192,192,139331,128,0,139392:0:0:0:0:
320,192,139331,128,0,139392:0:0:0:0:
448,192,139422,1,0,0:0:0:0:
192,192,139513,1,0,0:0:0:0:
320,192,139513,1,0,0:0:0:0:
64,192,139604,1,0,0:0:0:0:
192,192,139695,1,0,0:0:0:0:
320,192,139695,1,0,0:0:0:0:
448,192,139695,1,0,0:0:0:0:
64,192,139786,1,0,0:0:0:0:
192,192,139877,1,0,0:0:0:0:
320,192,139877,1,0,0:0:0:0:
64,192,139967,1,0,0:0:0:0:
192,192,140058,1,0,0:0:0:0:
320,192,140058,128,0,140119:0:0:0:0:
448,192,140058,128,0,140119:0:0:0:0:
64,192,140149,1,0,0:0:0:0:
192,192,140240,1,0,0:0:0:0:
448,192,140331,1,0,0:0:0:0:
64,192,140331,128,0,140392:0:0:0:0:
320,192,140331,128,0,140392:0:0:0:0:
192,192,140422,1,0,0:0:0:0:
448,192,140513,1,0,0:0:0:0:
320,192,140604,1,0,0:0:0:0:
64,192,140604,128,0,140664:0:0:0:0:
192,192,140604,128,0,140664:0:0:0:0:
448,192,140695,1,0,0:0:0:0:
320,192,140786,1,0,0:0:0:0:
64,192,140786,1,0,0:0:0:0:
192,192,140786,128,0,140967:0:0:0:0:
448,192,140877,128,0,140967:0:0:0:0:
320,192,140967,1,0,0:0:0:0:
64,192,140967,128,0,141058:0:0:0:0:
192,192,141058,128,0,141149:0:0:0:0:
64,192,141149,1,0,0:0:0:0:
320,192,141149,1,0,0:0:0:0:
448,192,141149,128,0,141240:0:0:0:0:
192,192,141240,128,0,141331:0:0:0:0:
448,192,141331,1,0,0:0:0:0:
320,192,141331,1,0,0:0:0:0:
64,192,141331,128,0,141422:0:0:0:0:
192,192,141422,128,0,141513:0:0:0:0:
448,192,141513,1,0,0:0:0:0:
320,192,141513,1,0,0:0:0:0:
64,192,141513,128,0,141786:0:0:0:0:
192,192,141604,128,0,141695:0:0:0:0:
320,192,141695,128,0,141786:0:0:0:0:
448,192,141695,1,0,0:0:0:0:
192,192,141786,128,0,141877:0:0:0:0:
320,192,141877,128,0,141967:0:0:0:0:
64,192,141877,128,0,142058:0:0:0:0:
448,192,141967,128,0,142149:0:0:0:0:
192,192,142058,128,0,142149:0:0:0:0:
320,192,142058,1,0,0:0:0:0:
64,192,142149,128,0,142240:0:0:0:0:
320,192,142240,1,0,0:0:0:0:
448,192,142240,1,0,0:0:0:0:
192,192,142240,128,0,142422:0:0:0:0:
64,192,142331,128,0,142513:0:0:0:0:
320,192,142422,1,0,0:0:0:0:
448,192,142422,128,0,142513:0:0:0:0:
192,192,142513,128,0,142604:0:0:0:0:
64,192,142604,1,0,0:0:0:0:
448,192,142604,1,0,0:0:0:0:
320,192,142604,128,0,142695:0:0:0:0:
192,192,142695,128,0,142877:0:0:0:0:
448,192,142786,1,0,0:0:0:0:
320,192,142786,128,0,142877:0:0:0:0:
64,192,142877,128,0,142967:0:0:0:0:
320,192,142967,1,0,0:0:0:0:
192,192,142967,128,0,143058:0:0:0:0:
448,192,142967,1,0,0:0:0:0:
64,192,143058,128,0,143240:0:0:0:0:
448,192,143149,1,0,0:0:0:0:
320,192,143149,128,0,143240:0:0:0:0:
192,192,143240,128,0,143331:0:0:0:0:
64,192,143331,1,0,0:0:0:0:
448,192,143331,1,0,0:0:0:0:
320,192,143331,128,0,143513:0:0:0:0:
192,192,143422,128,0,143513:0:0:0:0:
448,192,143513,1,0,0:0:0:0:
64,192,143513,128,0,143604:0:0:0:0:
320,192,143604,128,0,143695:0:0:0:0:
192,192,143695,1,0,0:0:0:0:
64,192,143695,1,0,0:0:0:0:
448,192,143695,128,0,143786:0:0:0:0:
320,192,143786,128,0,143877:0:0:0:0:
448,192,143877,1,0,0:0:0:0:
192,192,143877,128,0,143967:0:0:0:0:
64,192,143967,128,0,144058:0:0:0:0:
192,192,144058,1,0,0:0:0:0:
320,192,144058,1,0,0:0:0:0:
448,192,144058,128,0,144240:0:0:0:0:
64,192,144149,128,0,144240:0:0:0:0:
192,192,144240,1,0,0:0:0:0:
320,192,144240,128,0,144331:0:0:0:0:
448,192,144331,128,0,144422:0:0:0:0:
64,192,144422,1,0,0:0:0:0:
320,192,144422,1,0,0:0:0:0:
192,192,144422,128,0,144513:0:0:0:0:
448,192,144513,128,0,144604:0:0:0:0:
192,192,144604,1,0,0:0:0:0:
320,192,144604,128,0,144695:0:0:0:0:
64,192,144695,128,0,144786:0:0:0:0:
192,192,144786,1,0,0:0:0:0:
448,192,144786,1,0,0:0:0:0:
320,192,144786,128,0,144967:0:0:0:0:
64,192,144877,128,0,144967:0:0:0:0:
192,192,144967,1,0,0:0:0:0:
448,192,144967,128,0,145058:0:0:0:0:
320,192,145058,128,0,145149:0:0:0:0:
64,192,145149,1,0,0:0:0:0:
448,192,145149,1,0,0:0:0:0:
192,192,145149,128,0,145240:0:0:0:0:
320,192,145240,128,0,145422:0:0:0:0:
64,192,145331,1,0,0:0:0:0:
192,192,145331,128,0,145422:0:0:0:0:
448,192,145422,128,0,145513:0:0:0:0:
320,192,145513,1,0,0:0:0:0:
192,192,145513,1,0,0:0:0:0:
64,192,145513,128,0,145695:0:0:0:0:
448,192,145604,128,0,145695:0:0:0:0:
192,192,145695,1,0,0:0:0:0:
320,192,145695,128,0,145786:0:0:0:0:
64,192,145786,128,0,145877:0:0:0:0:
192,192,145877,1,0,0:0:0:0:
448,192,145877,1,0,0:0:0:0:
320,192,145877,128,0,145967:0:0:0:0:
64,192,145967,1,0,0:0:0:0:
192,192,146058,1,0,0:0:0:0:
320,192,146058,1,0,0:0:0:0:
448,192,146149,1,0,0:0:0:0:
64,192,146149,128,0,146240:0:0:0:0:
320,192,146240,1,0,0:0:0:0:
448,192,146240,1,0,0:0:0:0:
192,192,146240,128,0,146331:0:0:0:0:
64,192,146331,1,0,0:0:0:0:
448,192,146422,1,0,0:0:0:0:
192,192,146422,1,0,0:0:0:0:
64,192,146513,1,0,0:0:0:0:
320,192,146513,128,0,146604:0:0:0:0:
64,192,146604,1,0,0:0:0:0:
448,192,146604,1,0,0:0:0:0:
192,192,146604,128,0,146695:0:0:0:0:
320,192,146695,128,0,146786:0:0:0:0:
64,192,146786,1,0,0:0:0:0:
192,192,146786,1,0,0:0:0:0:
448,192,146786,128,0,146877:0:0:0:0:
320,192,146877,128,0,146967:0:0:0:0:
448,192,146967,1,0,0:0:0:0:
64,192,146967,1,0,0:0:0:0:
192,192,146967,128,0,147013:0:0:0:0:
192,192,147058,128,0,147104:0:0:0:0:
320,192,147149,128,0,147195:0:0:0:0:
320,192,147240,128,0,147286:0:0:0:0:
448,192,147331,1,0,0:0:0:0:
64,192,147331,128,0,147422:0:0:0:0:
192,192,147331,1,0,0:0:0:0:
320,192,147422,1,0,0:0:0:0:
448,192,147513,1,0,0:0:0:0:
192,192,147604,1,0,0:0:0:0:
448,192,147695,128,0,147786:0:0:0:0:
64,192,147695,128,0,147877:0:0:0:0:
192,192,147786,128,0,147967:0:0:0:0:
320,192,147877,128,0,147967:0:0:0:0:
448,192,147967,128,0,148058:0:0:0:0:
192,192,148058,1,0,0:0:0:0:
64,192,148058,128,0,148104:0:0:0:0:
320,192,148149,1,0,0:0:0:0:
64,192,148240,128,0,148331:0:0:0:0:
320,192,148331,1,0,0:0:0:0:
192,192,148422,1,0,0:0:0:0:
448,192,148422,128,0,148604:0:0:0:0:
320,192,148513,128,0,148695:0:0:0:0:
192,192,148604,128,0,148695:0:0:0:0:
64,192,148695,128,0,148786:0:0:0:0:
320,192,148786,1,0,0:0:0:0:
448,192,148786,128,0,148877:0:0:0:0:
192,192,148877,1,0,0:0:0:0:
64,192,148967,1,0,0:0:0:0:
320,192,149058,1,0,0:0:0:0:
192,192,149149,1,0,0:0:0:0:
448,192,149149,128,0,149331:0:0:0:0:
64,192,149240,128,0,149422:0:0:0:0:
192,192,149331,128,0,149422:0:0:0:0:
448,192,149422,128,0,149513:0:0:0:0:
320,192,149513,128,0,149604:0:0:0:0:
64,192,149513,1,0,0:0:0:0:
448,192,149604,1,0,0:0:0:0:
192,192,149695,1,0,0:0:0:0:
64,192,149786,1,0,0:0:0:0:
448,192,149877,1,0,0:0:0:0:
192,192,149877,128,0,150058:0:0:0:0:
320,192,149967,128,0,150149:0:0:0:0:
64,192,150058,1,0,0:0:0:0:
448,192,150058,128,0,150240:0:0:0:0:
192,192,150149,128,0,150240:0:0:0:0:
64,192,150240,128,0,150331:0:0:0:0:
320,192,150240,1,0,0:0:0:0:
192,192,150331,1,0,0:0:0:0:
448,192,150422,1,0,0:0:0:0:
64,192,150513,1,0,0:0:0:0:
320,192,150604,128,0,150786:0:0:0:0:
448,192,150604,1,0,0:0:0:0:
192,192,150695,128,0,150877:0:0:0:0:
64,192,150786,128,0,150967:0:0:0:0:
320,192,150877,128,0,150967:0:0:0:0:
192,192,150967,1,0,0:0:0:0:
448,192,150967,128,0,151058:0:0:0:0:
320,192,151058,1,0,0:0:0:0:
64,192,151149,1,0,0:0:0:0:
192,192,151240,1,0,0:0:0:0:
448,192,151331,1,0,0:0:0:0:
64,192,151331,128,0,151513:0:0:0:0:
192,192,151422,128,0,151604:0:0:0:0:
320,192,151513,128,0,151604:0:0:0:0:
448,192,151604,128,0,151695:0:0:0:0:
320,192,151695,128,0,151877:0:0:0:0:
64,192,151695,128,0,151786:0:0:0:0:
192,192,151695,1,0,0:0:0:0:
448,192,151786,128,0,151877:0:0:0:0:
192,192,151877,128,0,152058:0:0:0:0:
320,192,151967,128,0,152149:0:0:0:0:
64,192,151967,1,0,0:0:0:0:
448,192,152058,128,0,152240:0:0:0:0:
64,192,152149,128,0,152331:0:0:0:0:
192,192,152240,128,0,152422:0:0:0:0:
320,192,152240,1,0,0:0:0:0:
448,192,152331,128,0,152513:0:0:0:0:
320,192,152422,128,0,152513:0:0:0:0:
192,192,152513,128,0,152695:0:0:0:0:
64,192,152513,1,0,0:0:0:0:
448,192,152604,128,0,152695:0:0:0:0:
320,192,152695,128,0,152877:0:0:0:0:
192,192,152786,1,0,0:0:0:0:
64,192,152786,128,0,152967:0:0:0:0:
448,192,152877,128,0,153058:0:0:0:0:
320,192,152967,128,0,153058:0:0:0:0:
64,192,153058,128,0,153149:0:0:0:0:
192,192,153058,1,0,0:0:0:0:
448,192,153149,128,0,153240:0:0:0:0:
320,192,153149,1,0,0:0:0:0:
64,192,153240,1,0,0:0:0:0:
192,192,153331,1,0,0:0:0:0:
448,192,153422,1,0,0:0:0:0:
320,192,153513,1,0,0:0:0:0:
192,192,153513,128,0,153695:0:0:0:0:
64,192,153604,128,0,153786:0:0:0:0:
320,192,153695,128,0,153786:0:0:0:0:
448,192,153786,128,0,153877:0:0:0:0:
320,192,153877,1,0,0:0:0:0:
64,192,153877,128,0,153922:0:0:0:0:
192,192,153967,1,0,0:0:0:0:
448,192,154058,128,0,154149:0:0:0:0:
192,192,154149,1,0,0:0:0:0:
320,192,154240,1,0,0:0:0:0:
64,192,154240,128,0,154422:0:0:0:0:
448,192,154331,128,0,154513:0:0:0:0:
192,192,154422,128,0,154513:0:0:0:0:
320,192,154513,128,0,154604:0:0:0:0:
192,192,154604,1,0,0:0:0:0:
64,192,154604,128,0,154649:0:0:0:0:
448,192,154695,1,0,0:0:0:0:
192,192,154786,1,0,0:0:0:0:
448,192,154877,1,0,0:0:0:0:
192,192,154967,1,0,0:0:0:0:
320,192,154967,128,0,155149:0:0:0:0:
448,192,155058,128,0,155240:0:0:0:0:
192,192,155149,128,0,155240:0:0:0:0:
64,192,155240,128,0,155331:0:0:0:0:
448,192,155331,1,0,0:0:0:0:
320,192,155331,128,0,155377:0:0:0:0:
192,192,155422,1,0,0:0:0:0:
448,192,155513,1,0,0:0:0:0:
192,192,155604,1,0,0:0:0:0:
320,192,155695,128,0,155786:0:0:0:0:
64,192,155695,128,0,155877:0:0:0:0:
192,192,155786,128,0,155967:0:0:0:0:
448,192,155877,128,0,155967:0:0:0:0:
320,192,155967,128,0,156058:0:0:0:0:
192,192,156058,1,0,0:0:0:0:
64,192,156058,128,0,156104:0:0:0:0:
320,192,156149,1,0,0:0:0:0:
192,192,156240,1,0,0:0:0:0:
64,192,156331,1,0,0:0:0:0:
320,192,156422,1,0,0:0:0:0:
448,192,156422,128,0,156604:0:0:0:0:
64,192,156513,128,0,156695:0:0:0:0:
192,192,156604,128,0,156695:0:0:0:0:
320,192,156695,128,0,156786:0:0:0:0:
64,192,156786,1,0,0:0:0:0:
448,192,156786,128,0,156831:0:0:0:0:
320,192,156877,1,0,0:0:0:0:
192,192,156967,1,0,0:0:0:0:
64,192,157058,1,0,0:0:0:0:
320,192,157149,1,0,0:0:0:0:
448,192,157149,128,0,157331:0:0:0:0:
64,192,157240,128,0,157422:0:0:0:0:
192,192,157331,128,0,157422:0:0:0:0:
320,192,157422,128,0,157513:0:0:0:0:
192,192,157513,128,0,157695:0:0:0:0:
64,192,157513,1,0,0:0:0:0:
448,192,157513,128,0,157604:0:0:0:0:
320,192,157604,128,0,157695:0:0:0:0:
64,192,157695,128,0,157786:0:0:0:0:
192,192,157786,128,0,157967:0:0:0:0:
448,192,157786,128,0,157877:0:0:0:0:
320,192,157786,1,0,0:0:0:0:
64,192,157877,128,0,157967:0:0:0:0:
320,192,157967,128,0,158058:0:0:0:0:
64,192,158058,128,0,158240:0:0:0:0:
448,192,158058,1,0,0:0:0:0:
192,192,158058,128,0,158149:0:0:0:0:
320,192,158149,128,0,158240:0:0:0:0:
192,192,158240,128,0,158331:0:0:0:0:
64,192,158331,128,0,158513:0:0:0:0:
320,192,158331,1,0,0:0:0:0:
448,192,158331,128,0,158422:0:0:0:0:
192,192,158422,128,0,158513:0:0:0:0:
448,192,158513,128,0,158604:0:0:0:0:
320,192,158604,1,0,0:0:0:0:
192,192,158604,128,0,158786:0:0:0:0:
64,192,158604,128,0,158695:0:0:0:0:
448,192,158695,128,0,158877:0:0:0:0:
320,192,158786,128,0,158877:0:0:0:0:
64,192,158877,128,0,158967:0:0:0:0:
192,192,158877,1,0,0:0:0:0:
320,192,158967,1,0,0:0:0:0:
448,192,158967,128,0,159149:0:0:0:0:
192,192,159058,1,0,0:0:0:0:
320,192,159149,1,0,0:0:0:0:
448,192,159240,1,0,0:0:0:0:
320,192,159331,1,0,0:0:0:0:
64,192,159331,128,0,159422:0:0:0:0:
192,192,159422,1,0,0:0:0:0:
320,192,159513,128,0,159604:0:0:0:0:
448,192,159604,1,0,0:0:0:0:
64,192,159695,1,0,0:0:0:0:
192,192,159695,1,0,0:0:0:0:
320,192,159786,1,0,0:0:0:0:
448,192,159877,128,0,159967:0:0:0:0:
64,192,159967,1,0,0:0:0:0:
192,192,160058,1,0,0:0:0:0:
448,192,160058,1,0,0:0:0:0:
320,192,160149,1,0,0:0:0:0:
192,192,160240,128,0,160331:0:0:0:0:
448,192,160331,1,0,0:0:0:0:
64,192,160422,1,0,0:0:0:0:
320,192,160422,1,0,0:0:0:0:
192,192,160513,1,0,0:0:0:0:
448,192,160604,1,0,0:0:0:0:
64,192,160695,1,0,0:0:0:0:
192,192,160786,1,0,0:0:0:0:
448,192,160786,128,0,160877:0:0:0:0:
320,192,160877,1,0,0:0:0:0:
64,192,160967,1,0,0:0:0:0:
448,192,161058,128,0,161149:0:0:0:0:
64,192,161149,1,0,0:0:0:0:
320,192,161149,128,0,161240:0:0:0:0:
192,192,161240,1,0,0:0:0:0:
448,192,161331,1,0,0:0:0:0:
320,192,161422,128,0,161513:0:0:0:0:
448,192,161513,1,0,0:0:0:0:
192,192,161513,128,0,161604:0:0:0:0:
64,192,161604,1,0,0:0:0:0:
192,192,161695,1,0,0:0:0:0:
64,192,161786,128,0,161877:0:0:0:0:
192,192,161877,1,0,0:0:0:0:
448,192,161877,128,0,161967:0:0:0:0:
320,192,161967,1,0,0:0:0:0:
64,192,162058,1,0,0:0:0:0:
192,192,162149,1,0,0:0:0:0:
320,192,162240,1,0,0:0:0:0:
64,192,162240,128,0,162331:0:0:0:0:
192,192,162331,1,0,0:0:0:0:
320,192,162422,128,0,162513:0:0:0:0:
448,192,162513,1,0,0:0:0:0:
64,192,162604,1,0,0:0:0:0:
192,192,162604,1,0,0:0:0:0:
320,192,162695,1,0,0:0:0:0:
448,192,162786,128,0,162877:0:0:0:0:
192,192,162877,1,0,0:0:0:0:
64,192,162967,1,0,0:0:0:0:
448,192,162967,1,0,0:0:0:0:
320,192,163058,1,0,0:0:0:0:
64,192,163149,128,0,163240:0:0:0:0:
192,192,163240,1,0,0:0:0:0:
448,192,163331,1,0,0:0:0:0:
320,192,163331,1,0,0:0:0:0:
64,192,163422,1,0,0:0:0:0:
192,192,163513,1,0,0:0:0:0:
448,192,163604,1,0,0:0:0:0:
192,192,163695,1,0,0:0:0:0:
320,192,163695,128,0,163786:0:0:0:0:
64,192,163786,1,0,0:0:0:0:
448,192,163877,1,0,0:0:0:0:
64,192,163967,128,0,164058:0:0:0:0:
320,192,164058,1,0,0:0:0:0:
192,192,164058,128,0,164149:0:0:0:0:
448,192,164149,1,0,0:0:0:0:
192,192,164240,1,0,0:0:0:0:
320,192,164331,128,0,164422:0:0:0:0:
64,192,164422,128,0,164513:0:0:0:0:
192,192,164422,1,0,0:0:0:0:
448,192,164513,1,0,0:0:0:0:
320,192,164604,1,0,0:0:0:0:
64,192,164695,1,0,0:0:0:0:
192,192,164786,1,0,0:0:0:0:
448,192,164786,128,0,164877:0:0:0:0:
320,192,164877,1,0,0:0:0:0:
64,192,164967,1,0,0:0:0:0:
192,192,165058,1,0,0:0:0:0:
448,192,165149,1,0,0:0:0:0:
320,192,165149,128,0,165240:0:0:0:0:
64,192,165240,1,0,0:0:0:0:
448,192,165331,128,0,165422:0:0:0:0:
320,192,165422,1,0,0:0:0:0:
64,192,165513,1,0,0:0:0:0:
448,192,165513,1,0,0:0:0:0:
320,192,165604,1,0,0:0:0:0:
64,192,165695,128,0,165786:0:0:0:0:
192,192,165786,1,0,0:0:0:0:
320,192,165877,1,0,0:0:0:0:
448,192,165877,1,0,0:0:0:0:
192,192,165967,1,0,0:0:0:0:
448,192,166058,128,0,166149:0:0:0:0:
64,192,166149,1,0,0:0:0:0:
320,192,166240,1,0,0:0:0:0:
192,192,166240,128,0,166331:0:0:0:0:
448,192,166331,1,0,0:0:0:0:
64,192,166422,1,0,0:0:0:0:
192,192,166513,1,0,0:0:0:0:
448,192,166604,1,0,0:0:0:0:
320,192,166604,1,0,0:0:0:0:
192,192,166695,1,0,0:0:0:0:
448,192,166786,1,0,0:0:0:0:
64,192,166877,1,0,0:0:0:0:
192,192,166967,1,0,0:0:0:0:
320,192,166967,128,0,167149:0:0:0:0:
448,192,167058,1,0,0:0:0:0:
192,192,167149,1,0,0:0:0:0:
320,192,167240,1,0,0:0:0:0:
64,192,167331,1,0,0:0:0:0:
192,192,167331,1,0,0:0:0:0:
448,192,167422,1,0,0:0:0:0:
192,192,167513,1,0,0:0:0:0:
320,192,167604,1,0,0:0:0:0:
448,192,167695,1,0,0:0:0:0:
64,192,167695,128,0,167786:0:0:0:0:
320,192,167786,1,0,0:0:0:0:
192,192,167877,1,0,0:0:0:0:
448,192,167877,1,0,0:0:0:0:
64,192,167967,1,0,0:0:0:0:
192,192,168058,1,0,0:0:0:0:
320,192,168058,128,0,168149:0:0:0:0:
448,192,168149,1,0,0:0:0:0:
192,192,168240,1,0,0:0:0:0:
64,192,168240,128,0,168331:0:0:0:0:
320,192,168331,128,0,168422:0:0:0:0:
192,192,168422,1,0,0:0:0:0:
448,192,168422,128,0,168604:0:0:0:0:
64,192,168513,1,0,0:0:0:0:
320,192,168604,1,0,0:0:0:0:
192,192,168604,128,0,168695:0:0:0:0:
448,192,168695,1,0,0:0:0:0:
320,192,168786,1,0,0:0:0:0:
64,192,168786,1,0,0:0:0:0:
192,192,168877,1,0,0:0:0:0:
64,192,168967,1,0,0:0:0:0:
448,192,168967,128,0,169058:0:0:0:0:
192,192,169058,1,0,0:0:0:0:
320,192,169149,1,0,0:0:0:0:
448,192,169149,1,0,0:0:0:0:
64,192,169240,1,0,0:0:0:0:
320,192,169331,1,0,0:0:0:0:
448,192,169331,1,0,0:0:0:0:
192,192,169422,1,0,0:0:0:0:
320,192,169513,1,0,0:0:0:0:
448,192,169513,1,0,0:0:0:0:
64,192,169604,1,0,0:0:0:0:
192,192,169695,1,0,0:0:0:0:
320,192,169695,1,0,0:0:0:0:
448,192,169786,1,0,0:0:0:0:
64,192,169877,1,0,0:0:0:0:
192,192,169877,1,0,0:0:0:0:
320,192,169967,1,0,0:0:0:0:
192,192,170058,1,0,0:0:0:0:
64,192,170058,1,0,0:0:0:0:
320,192,170149,1,0,0:0:0:0:
64,192,170240,1,0,0:0:0:0:
448,192,170240,1,0,0:0:0:0:
192,192,170301,1,0,0:0:0:0:
320,192,170361,1,0,0:0:0:0:
448,192,170422,1,0,0:0:0:0:
192,192,170422,1,0,0:0:0:0:
320,192,170513,1,0,0:0:0:0:
64,192,170604,1,0,0:0:0:0:
192,192,170604,1,0,0:0:0:0:
448,192,170604,128,0,170786:0:0:0:0:
320,192,170695,1,0,0:0:0:0:
64,192,170786,1,0,0:0:0:0:
192,192,170786,1,0,0:0:0:0:
448,192,170877,1,0,0:0:0:0:
64,192,170967,1,0,0:0:0:0:
192,192,170967,1,0,0:0:0:0:
320,192,170967,128,0,171058:0:0:0:0:
448,192,171058,1,0,0:0:0:0:
192,192,171149,1,0,0:0:0:0:
64,192,171149,128,0,171240:0:0:0:0:
320,192,171240,1,0,0:0:0:0:
64,192,171331,1,0,0:0:0:0:
192,192,171331,1,0,0:0:0:0:
448,192,171331,128,0,171422:0:0:0:0:
320,192,171422,1,0,0:0:0:0:
448,192,171513,1,0,0:0:0:0:
192,192,171513,128,0,171604:0:0:0:0:
64,192,171604,1,0,0:0:0:0:
192,192,171695,1,0,0:0:0:0:
448,192,171695,1,0,0:0:0:0:
320,192,171695,128,0,171786:0:0:0:0:
64,192,171786,1,0,0:0:0:0:
192,192,171877,1,0,0:0:0:0:
448,192,171877,128,0,171967:0:0:0:0:
320,192,171967,1,0,0:0:0:0:
64,192,172058,1,0,0:0:0:0:
448,192,172058,1,0,0:0:0:0:
192,192,172058,128,0,172149:0:0:0:0:
320,192,172149,128,0,172240:0:0:0:0:
192,192,172240,1,0,0:0:0:0:
64,192,172240,128,0,172331:0:0:0:0:
448,192,172331,1,0,0:0:0:0:
64,192,172422,1,0,0:0:0:0:
192,192,172422,1,0,0:0:0:0:
320,192,172422,128,0,172513:0:0:0:0:
448,192,172513,1,0,0:0:0:0:
320,192,172604,1,0,0:0:0:0:
64,192,172604,128,0,172695:0:0:0:0:
192,192,172695,128,0,172786:0:0:0:0:
448,192,172786,1,0,0:0:0:0:
320,192,172786,1,0,0:0:0:0:
64,192,172786,128,0,172877:0:0:0:0:
192,192,172877,128,0,172967:0:0:0:0:
448,192,172967,1,0,0:0:0:0:
64,192,172967,128,0,173058:0:0:0:0:
192,192,173058,128,0,173149:0:0:0:0:
320,192,173149,1,0,0:0:0:0:
64,192,173149,1,0,0:0:0:0:
448,192,173149,128,0,173240:0:0:0:0:
192,192,173240,1,0,0:0:0:0:
448,192,173331,1,0,0:0:0:0:
320,192,173331,1,0,0:0:0:0:
64,192,173422,1,0,0:0:0:0:
320,192,173513,1,0,0:0:0:0:
448,192,173513,1,0,0:0:0:0:
192,192,173513,128,0,173604:0:0:0:0:
64,192,173604,1,0,0:0:0:0:
320,192,173695,1,0,0:0:0:0:
448,192,173695,1,0,0:0:0:0:
192,192,173786,1,0,0:0:0:0:
64,192,173877,1,0,0:0:0:0:
320,192,173877,1,0,0:0:0:0:
448,192,173877,128,0,173967:0:0:0:0:
192,192,173967,1,0,0:0:0:0:
448,192,174058,1,0,0:0:0:0:
320,192,174058,128,0,174149:0:0:0:0:
64,192,174149,1,0,0:0:0:0:
192,192,174240,1,0,0:0:0:0:
320,192,174240,1,0,0:0:0:0:
448,192,174240,1,0,0:0:0:0:
64,192,174331,1,0,0:0:0:0:
320,192,174422,1,0,0:0:0:0:
192,192,174422,128,0,174513:0:0:0:0:
448,192,174513,1,0,0:0:0:0:
64,192,174604,1,0,0:0:0:0:
192,192,174604,1,0,0:0:0:0:
320,192,174604,128,0,174695:0:0:0:0:
448,192,174695,1,0,0:0:0:0:
320,192,174786,1,0,0:0:0:0:
64,192,174786,128,0,174877:0:0:0:0:
192,192,174877,128,0,174967:0:0:0:0:
320,192,174967,1,0,0:0:0:0:
448,192,174967,1,0,0:0:0:0:
64,192,174967,128,0,175058:0:0:0:0:
192,192,175058,128,0,175149:0:0:0:0:
448,192,175149,1,0,0:0:0:0:
64,192,175149,128,0,175240:0:0:0:0:
320,192,175240,128,0,175331:0:0:0:0:
192,192,175331,1,0,0:0:0:0:
448,192,175331,1,0,0:0:0:0:
64,192,175331,128,0,175422:0:0:0:0:
320,192,175422,128,0,175513:0:0:0:0:
64,192,175513,1,0,0:0:0:0:
448,192,175513,128,0,175604:0:0:0:0:
192,192,175604,128,0,175695:0:0:0:0:
64,192,175695,1,0,0:0:0:0:
320,192,175695,1,0,0:0:0:0:
448,192,175695,128,0,175786:0:0:0:0:
192,192,175786,128,0,175877:0:0:0:0:
320,192,175877,1,0,0:0:0:0:
448,192,175877,128,0,175967:0:0:0:0:
64,192,175967,128,0,176058:0:0:0:0:
192,192,176058,1,0,0:0:0:0:
320,192,176058,1,0,0:0:0:0:
448,192,176058,128,0,176149:0:0:0:0:
64,192,176149,1,0,0:0:0:0:
448,192,176240,1,0,0:0:0:0:
192,192,176240,1,0,0:0:0:0:
320,192,176331,1,0,0:0:0:0:
192,192,176422,1,0,0:0:0:0:
448,192,176422,1,0,0:0:0:0:
64,192,176422,128,0,176513:0:0:0:0:
320,192,176513,1,0,0:0:0:0:
448,192,176604,1,0,0:0:0:0:
192,192,176604,128,0,176695:0:0:0:0:
64,192,176695,1,0,0:0:0:0:
192,192,176786,1,0,0:0:0:0:
320,192,176786,1,0,0:0:0:0:
448,192,176786,128,0,176877:0:0:0:0:
64,192,176877,1,0,0:0:0:0:
448,192,176967,1,0,0:0:0:0:
320,192,176967,128,0,177058:0:0:0:0:
192,192,177058,1,0,0:0:0:0:
64,192,177149,1,0,0:0:0:0:
320,192,177149,1,0,0:0:0:0:
448,192,177149,1,0,0:0:0:0:
192,192,177240,1,0,0:0:0:0:
448,192,177331,1,0,0:0:0:0:
64,192,177331,128,0,177422:0:0:0:0:
320,192,177422,1,0,0:0:0:0:
64,192,177513,1,0,0:0:0:0:
192,192,177513,1,0,0:0:0:0:
448,192,177513,128,0,177604:0:0:0:0:
320,192,177604,1,0,0:0:0:0:
64,192,177695,1,0,0:0:0:0:
192,192,177695,128,0,177786:0:0:0:0:
448,192,177786,1,0,0:0:0:0:
192,192,177877,1,0,0:0:0:0:
64,192,177877,1,0,0:0:0:0:
320,192,177877,128,0,177967:0:0:0:0:
448,192,177967,1,0,0:0:0:0:
320,192,178058,1,0,0:0:0:0:
192,192,178058,128,0,178149:0:0:0:0:
64,192,178149,1,0,0:0:0:0:
192,192,178240,1,0,0:0:0:0:
320,192,178240,1,0,0:0:0:0:
448,192,178240,128,0,178331:0:0:0:0:
64,192,178331,1,0,0:0:0:0:
192,192,178422,1,0,0:0:0:0:
320,192,178422,128,0,178513:0:0:0:0:
64,192,178513,1,0,0:0:0:0:
448,192,178604,1,0,0:0:0:0:
320,192,178604,1,0,0:0:0:0:
192,192,178604,128,0,178695:0:0:0:0:
64,192,178695,128,0,178786:0:0:0:0:
448,192,178786,1,0,0:0:0:0:
320,192,178786,128,0,178877:0:0:0:0:
192,192,178877,128,0,178967:0:0:0:0:
64,192,178967,1,0,0:0:0:0:
320,192,178967,1,0,0:0:0:0:
448,192,178967,1,0,0:0:0:0:
192,192,179058,1,0,0:0:0:0:
320,192,179149,1,0,0:0:0:0:
64,192,179149,1,0,0:0:0:0:
448,192,179240,1,0,0:0:0:0:
64,192,179331,1,0,0:0:0:0:
192,192,179331,1,0,0:0:0:0:
320,192,179331,128,0,179422:0:0:0:0:
448,192,179422,1,0,0:0:0:0:
320,192,179513,1,0,0:0:0:0:
64,192,179513,128,0,179604:0:0:0:0:
192,192,179604,1,0,0:0:0:0:
64,192,179695,1,0,0:0:0:0:
448,192,179695,1,0,0:0:0:0:
320,192,179695,128,0,179786:0:0:0:0:
192,192,179786,1,0,0:0:0:0:
320,192,179877,1,0,0:0:0:0:
64,192,179877,128,0,179967:0:0:0:0:
192,192,179967,1,0,0:0:0:0:
64,192,180058,1,0,0:0:0:0:
320,192,180058,1,0,0:0:0:0:
448,192,180058,1,0,0:0:0:0:
192,192,180149,1,0,0:0:0:0:
448,192,180240,1,0,0:0:0:0:
320,192,180240,128,0,180331:0:0:0:0:
64,192,180331,1,0,0:0:0:0:
320,192,180422,1,0,0:0:0:0:
448,192,180422,1,0,0:0:0:0:
192,192,180422,128,0,180513:0:0:0:0:
64,192,180513,1,0,0:0:0:0:
192,192,180604,128,0,180695:0:0:0:0:
448,192,180604,1,0,0:0:0:0:
320,192,180695,1,0,0:0:0:0:
192,192,180786,1,0,0:0:0:0:
64,192,180786,1,0,0:0:0:0:
448,192,180786,128,0,180967:0:0:0:0:
320,192,180877,1,0,0:0:0:0:
64,192,180967,1,0,0:0:0:0:
192,192,180967,1,0,0:0:0:0:
448,192,181058,1,0,0:0:0:0:
320,192,181149,1,0,0:0:0:0:
192,192,181149,1,0,0:0:0:0:
64,192,181149,128,0,181331:0:0:0:0:
448,192,181240,1,0,0:0:0:0:
192,192,181331,1,0,0:0:0:0:
320,192,181331,1,0,0:0:0:0:
64,192,181422,1,0,0:0:0:0:
192,192,181513,1,0,0:0:0:0:
448,192,181513,1,0,0:0:0:0:
320,192,181513,128,0,181695:0:0:0:0:
64,192,181604,1,0,0:0:0:0:
448,192,181695,1,0,0:0:0:0:
192,192,181695,1,0,0:0:0:0:
320,192,181786,1,0,0:0:0:0:
64,192,181877,1,0,0:0:0:0:
448,192,181877,1,0,0:0:0:0:
192,192,181877,128,0,182058:0:0:0:0:
320,192,181967,1,0,0:0:0:0:
64,192,182058,1,0,0:0:0:0:
448,192,182058,1,0,0:0:0:0:
192,192,182149,1,0,0:0:0:0:
64,192,182240,1,0,0:0:0:0:
320,192,182240,1,0,0:0:0:0:
448,192,182240,128,0,182331:0:0:0:0:
192,192,182331,1,0,0:0:0:0:
448,192,182422,1,0,0:0:0:0:
64,192,182422,1,0,0:0:0:0:
320,192,182422,128,0,182513:0:0:0:0:
192,192,182513,1,0,0:0:0:0:
320,192,182604,1,0,0:0:0:0:
448,192,182604,1,0,0:0:0:0:
64,192,182604,128,0,182695:0:0:0:0:
192,192,182695,1,0,0:0:0:0:
64,192,182786,1,0,0:0:0:0:
448,192,182786,1,0,0:0:0:0:
320,192,182786,128,0,182877:0:0:0:0:
192,192,182877,1,0,0:0:0:0:
448,192,182967,1,0,0:0:0:0:
320,192,182967,1,0,0:0:0:0:
64,192,183058,1,0,0:0:0:0:
192,192,183149,1,0,0:0:0:0:
448,192,183149,1,0,0:0:0:0:
320,192,183149,128,0,183240:0:0:0:0:
64,192,183240,1,0,0:0:0:0:
448,192,183331,1,0,0:0:0:0:
320,192,183331,1,0,0:0:0:0:
192,192,183331,128,0,183422:0:0:0:0:
64,192,183422,1,0,0:0:0:0:
448,192,183513,1,0,0:0:0:0:
192,192,183513,1,0,0:0:0:0:
320,192,183604,1,0,0:0:0:0:
192,192,183695,1,0,0:0:0:0:
448,192,183695,1,0,0:0:0:0:
64,192,183695,128,0,183786:0:0:0:0:
320,192,183786,1,0,0:0:0:0:
64,192,183877,1,0,0:0:0:0:
448,192,183877,1,0,0:0:0:0:
192,192,183877,128,0,183967:0:0:0:0:
320,192,183967,1,0,0:0:0:0:
64,192,184058,1,0,0:0:0:0:
192,192,184058,1,0,0:0:0:0:
448,192,184058,128,0,184149:0:0:0:0:
320,192,184149,1,0,0:0:0:0:
64,192,184240,1,0,0:0:0:0:
448,192,184240,1,0,0:0:0:0:
192,192,184240,128,0,184331:0:0:0:0:
320,192,184331,1,0,0:0:0:0:
64,192,184422,1,0,0:0:0:0:
192,192,184422,1,0,0:0:0:0:
448,192,184513,1,0,0:0:0:0:
192,192,184604,1,0,0:0:0:0:
64,192,184604,1,0,0:0:0:0:
320,192,184604,128,0,184695:0:0:0:0:
448,192,184695,1,0,0:0:0:0:
320,192,184786,1,0,0:0:0:0:
64,192,184786,1,0,0:0:0:0:
192,192,184786,128,0,184877:0:0:0:0:
448,192,184877,1,0,0:0:0:0:
192,192,184967,1,0,0:0:0:0:
320,192,184967,1,0,0:0:0:0:
64,192,185058,1,0,0:0:0:0:
192,192,185149,1,0,0:0:0:0:
448,192,185149,1,0,0:0:0:0:
320,192,185149,128,0,185240:0:0:0:0:
64,192,185240,1,0,0:0:0:0:
448,192,185331,1,0,0:0:0:0:
192,192,185331,128,0,185422:0:0:0:0:
320,192,185422,1,0,0:0:0:0:
192,192,185513,1,0,0:0:0:0:
448,192,185513,1,0,0:0:0:0:
64,192,185513,128,0,185604:0:0:0:0:
320,192,185604,1,0,0:0:0:0:
64,192,185695,1,0,0:0:0:0:
192,192,185695,128,0,185786:0:0:0:0:
448,192,185786,1,0,0:0:0:0:
320,192,185877,1,0,0:0:0:0:
192,192,185877,1,0,0:0:0:0:
64,192,185877,1,0,0:0:0:0:
448,192,185967,1,0,0:0:0:0:
64,192,186058,1,0,0:0:0:0:
320,192,186058,128,0,186149:0:0:0:0:
192,192,186149,1,0,0:0:0:0:
64,192,186240,1,0,0:0:0:0:
320,192,186240,1,0,0:0:0:0:
448,192,186240,128,0,186331:0:0:0:0:
192,192,186331,1,0,0:0:0:0:
448,192,186422,1,0,0:0:0:0:
64,192,186422,128,0,186513:0:0:0:0:
320,192,186513,1,0,0:0:0:0:
64,192,186604,1,0,0:0:0:0:
448,192,186604,1,0,0:0:0:0:
192,192,186604,128,0,186786:0:0:0:0:
320,192,186695,1,0,0:0:0:0:
448,192,186786,1,0,0:0:0:0:
64,192,186786,128,0,186877:0:0:0:0:
192,192,186877,128,0,186967:0:0:0:0:
320,192,186967,1,0,0:0:0:0:
448,192,186967,1,0,0:0:0:0:
64,192,186967,128,0,187058:0:0:0:0:
192,192,187058,128,0,187149:0:0:0:0:
320,192,187149,1,0,0:0:0:0:
448,192,187149,128,0,187240:0:0:0:0:
64,192,187240,128,0,187331:0:0:0:0:
192,192,187331,1,0,0:0:0:0:
320,192,187331,1,0,0:0:0:0:
448,192,187331,128,0,187422:0:0:0:0:
64,192,187422,128,0,187513:0:0:0:0:
192,192,187513,1,0,0:0:0:0:
448,192,187513,128,0,187604:0:0:0:0:
320,192,187604,128,0,187695:0:0:0:0:
64,192,187695,1,0,0:0:0:0:
192,192,187695,1,0,0:0:0:0:
448,192,187695,1,0,0:0:0:0:
320,192,187786,1,0,0:0:0:0:
64,192,187877,1,0,0:0:0:0:
448,192,187877,1,0,0:0:0:0:
192,192,187877,1,0,0:0:0:0:
320,192,187967,1,0,0:0:0:0:
64,192,188058,1,0,0:0:0:0:
192,192,188058,1,0,0:0:0:0:
448,192,188058,128,0,188149:0:0:0:0:
320,192,188149,1,0,0:0:0:0:
64,192,188240,1,0,0:0:0:0:
192,192,188240,128,0,188331:0:0:0:0:
448,192,188331,1,0,0:0:0:0:
192,192,188422,1,0,0:0:0:0:
64,192,188422,1,0,0:0:0:0:
320,192,188513,1,0,0:0:0:0:
192,192,188604,1,0,0:0:0:0:
64,192,188604,128,0,188695:0:0:0:0:
448,192,188695,1,0,0:0:0:0:
192,192,188786,1,0,0:0:0:0:
64,192,188786,1,0,0:0:0:0:
320,192,188877,1,0,0:0:0:0:
64,192,188967,1,0,0:0:0:0:
192,192,188967,128,0,189058:0:0:0:0:
320,192,189058,1,0,0:0:0:0:
192,192,189149,1,0,0:0:0:0:
64,192,189149,128,0,189240:0:0:0:0:
320,192,189240,1,0,0:0:0:0:
64,192,189331,1,0,0:0:0:0:
192,192,189331,1,0,0:0:0:0:
448,192,189331,128,0,189422:0:0:0:0:
320,192,189422,1,0,0:0:0:0:
448,192,189513,1,0,0:0:0:0:
192,192,189513,128,0,189604:0:0:0:0:
64,192,189604,1,0,0:0:0:0:
320,192,189695,1,0,0:0:0:0:
448,192,189695,1,0,0:0:0:0:
192,192,189786,1,0,0:0:0:0:
320,192,189877,1,0,0:0:0:0:
448,192,189877,1,0,0:0:0:0:
64,192,189967,1,0,0:0:0:0:
448,192,190058,1,0,0:0:0:0:
320,192,190058,128,0,190149:0:0:0:0:
64,192,190149,1,0,0:0:0:0:
320,192,190240,1,0,0:0:0:0:
448,192,190240,1,0,0:0:0:0:
192,192,190331,1,0,0:0:0:0:
448,192,190422,1,0,0:0:0:0:
320,192,190422,128,0,190513:0:0:0:0:
64,192,190513,128,0,190604:0:0:0:0:
448,192,190604,1,0,0:0:0:0:
320,192,190604,128,0,190695:0:0:0:0:
192,192,190695,128,0,190786:0:0:0:0:
448,192,190786,1,0,0:0:0:0:
320,192,190786,128,0,190877:0:0:0:0:
64,192,190877,128,0,190967:0:0:0:0:
320,192,190967,1,0,0:0:0:0:
192,192,190967,1,0,0:0:0:0:
448,192,190967,128,0,191149:0:0:0:0:
64,192,191058,128,0,191149:0:0:0:0:
192,192,191149,1,0,0:0:0:0:
320,192,191149,128,0,191240:0:0:0:0:
448,192,191240,128,0,191331:0:0:0:0:
320,192,191331,1,0,0:0:0:0:
64,192,191331,1,0,0:0:0:0:
192,192,191331,128,0,191513:0:0:0:0:
448,192,191422,128,0,191513:0:0:0:0:
64,192,191513,1,0,0:0:0:0:
320,192,191513,128,0,191604:0:0:0:0:
192,192,191604,128,0,191695:0:0:0:0:
320,192,191695,1,0,0:0:0:0:
448,192,191695,1,0,0:0:0:0:
64,192,191695,128,0,191877:0:0:0:0:
192,192,191786,128,0,191877:0:0:0:0:
448,192,191877,1,0,0:0:0:0:
320,192,191877,128,0,191967:0:0:0:0:
64,192,191967,128,0,192058:0:0:0:0:
192,192,192058,1,0,0:0:0:0:
320,192,192058,1,0,0:0:0:0:
448,192,192058,1,0,0:0:0:0:
448,192,192149,1,0,0:0:0:0:
64,192,192240,1,0,0:0:0:0:
192,192,192240,1,0,0:0:0:0:
320,192,192240,1,0,0:0:0:0:
64,192,192331,1,0,0:0:0:0:
192,192,192422,1,0,0:0:0:0:
320,192,192422,1,0,0:0:0:0:
448,192,192422,1,0,0:0:0:0:
448,192,193149,128,0,193695:0:0:0:0:
320,192,193331,128,0,193695:0:0:0:0:
192,192,193513,128,0,193695:0:0:0:0:
64,192,193695,128,0,193877:0:0:0:0:
320,192,193877,1,0,0:0:0:0:
192,192,193877,1,0,0:0:0:0:
448,192,193877,128,0,194058:0:0:0:0:
64,192,193967,128,0,194058:0:0:0:0:
320,192,194058,1,0,0:0:0:0:
192,192,194058,128,0,194149:0:0:0:0:
448,192,194149,128,0,194240:0:0:0:0:
320,192,194240,1,0,0:0:0:0:
64,192,194240,1,0,0:0:0:0:
192,192,194240,128,0,194422:0:0:0:0:
448,192,194331,128,0,194422:0:0:0:0:
320,192,194422,1,0,0:0:0:0:
64,192,194422,128,0,194604:0:0:0:0:
192,192,194513,1,0,0:0:0:0:
448,192,194604,1,0,0:0:0:0:
320,192,194604,128,0,194786:0:0:0:0:
192,192,194695,1,0,0:0:0:0:
64,192,194786,128,0,194967:0:0:0:0:
448,192,194786,1,0,0:0:0:0:
192,192,194877,1,0,0:0:0:0:
448,192,194967,1,0,0:0:0:0:
320,192,194967,128,0,195058:0:0:0:0:
192,192,195058,128,0,195149:0:0:0:0:
448,192,195149,1,0,0:0:0:0:
64,192,195149,128,0,195240:0:0:0:0:
192,192,195240,128,0,195331:0:0:0:0:
64,192,195331,1,0,0:0:0:0:
320,192,195331,1,0,0:0:0:0:
448,192,195331,128,0,195513:0:0:0:0:
192,192,195422,128,0,195604:0:0:0:0:
64,192,195513,1,0,0:0:0:0:
320,192,195513,128,0,195604:0:0:0:0:
448,192,195604,128,0,195695:0:0:0:0:
320,192,195695,1,0,0:0:0:0:
192,192,195695,1,0,0:0:0:0:
64,192,195695,128,0,195786:0:0:0:0:
448,192,195786,128,0,195877:0:0:0:0:
320,192,195877,1,0,0:0:0:0:
192,192,195877,128,0,195967:0:0:0:0:
64,192,195967,128,0,196058:0:0:0:0:
192,192,196058,1,0,0:0:0:0:
448,192,196058,1,0,0:0:0:0:
320,192,196058,128,0,196240:0:0:0:0:
64,192,196149,128,0,196240:0:0:0:0:
192,192,196240,1,0,0:0:0:0:
448,192,196240,128,0,196331:0:0:0:0:
320,192,196331,128,0,196422:0:0:0:0:
64,192,196422,1,0,0:0:0:0:
448,192,196422,1,0,0:0:0:0:
192,192,196422,128,0,196604:0:0:0:0:
320,192,196513,128,0,196604:0:0:0:0:
64,192,196604,1,0,0:0:0:0:
448,192,196604,128,0,196695:0:0:0:0:
192,192,196695,128,0,196786:0:0:0:0:
448,192,196786,1,0,0:0:0:0:
64,192,196786,1,0,0:0:0:0:
320,192,196786,128,0,196967:0:0:0:0:
192,192,196877,128,0,196967:0:0:0:0:
448,192,196967,1,0,0:0:0:0:
64,192,196967,128,0,197058:0:0:0:0:
320,192,197058,128,0,197149:0:0:0:0:
192,192,197149,1,0,0:0:0:0:
64,192,197149,128,0,197240:0:0:0:0:
448,192,197149,128,0,197331:0:0:0:0:
320,192,197240,128,0,197331:0:0:0:0:
64,192,197331,1,0,0:0:0:0:
192,192,197331,128,0,197422:0:0:0:0:
448,192,197422,128,0,197513:0:0:0:0:
320,192,197513,1,0,0:0:0:0:
192,192,197513,1,0,0:0:0:0:
64,192,197513,128,0,197695:0:0:0:0:
448,192,197604,128,0,197695:0:0:0:0:
192,192,197695,1,0,0:0:0:0:
320,192,197695,128,0,197786:0:0:0:0:
64,192,197786,128,0,197877:0:0:0:0:
192,192,197877,1,0,0:0:0:0:
448,192,197877,1,0,0:0:0:0:
320,192,197877,128,0,198058:0:0:0:0:
64,192,197967,128,0,198058:0:0:0:0:
192,192,198058,1,0,0:0:0:0:
448,192,198058,128,0,198149:0:0:0:0:
320,192,198149,128,0,198240:0:0:0:0:
64,192,198240,1,0,0:0:0:0:
448,192,198240,1,0,0:0:0:0:
192,192,198240,128,0,198331:0:0:0:0:
320,192,198331,128,0,198422:0:0:0:0:
192,192,198422,1,0,0:0:0:0:
64,192,198422,128,0,198513:0:0:0:0:
448,192,198513,128,0,198604:0:0:0:0:
320,192,198604,1,0,0:0:0:0:
64,192,198604,1,0,0:0:0:0:
192,192,198604,128,0,198695:0:0:0:0:
448,192,198695,128,0,198877:0:0:0:0:
192,192,198786,1,0,0:0:0:0:
320,192,198786,128,0,198877:0:0:0:0:
64,192,198877,128,0,198967:0:0:0:0:
192,192,198967,1,0,0:0:0:0:
320,192,198967,128,0,199149:0:0:0:0:
448,192,198967,128,0,199058:0:0:0:0:
64,192,199058,128,0,199240:0:0:0:0:
448,192,199149,1,0,0:0:0:0:
192,192,199149,128,0,199240:0:0:0:0:
320,192,199240,128,0,199331:0:0:0:0:
192,192,199331,1,0,0:0:0:0:
448,192,199331,1,0,0:0:0:0:
64,192,199331,128,0,199422:0:0:0:0:
320,192,199422,1,0,0:0:0:0:
64,192,199513,1,0,0:0:0:0:
448,192,199513,1,0,0:0:0:0:
192,192,199513,128,0,199604:0:0:0:0:
320,192,199604,1,0,0:0:0:0:
448,192,199695,128,0,199877:0:0:0:0:
192,192,199695,1,0,0:0:0:0:
64,192,199695,128,0,199786:0:0:0:0:
320,192,199786,128,0,199877:0:0:0:0:
64,192,199877,1,0,0:0:0:0:
192,192,199877,128,0,199967:0:0:0:0:
448,192,199967,128,0,200058:0:0:0:0:
64,192,200058,1,0,0:0:0:0:
192,192,200058,128,0,200240:0:0:0:0:
320,192,200058,128,0,200149:0:0:0:0:
448,192,200149,128,0,200240:0:0:0:0:
320,192,200240,1,0,0:0:0:0:
64,192,200240,128,0,200331:0:0:0:0:
192,192,200331,128,0,200422:0:0:0:0:
64,192,200422,1,0,0:0:0:0:
448,192,200422,1,0,0:0:0:0:
320,192,200422,128,0,200604:0:0:0:0:
192,192,200513,128,0,200695:0:0:0:0:
448,192,200604,1,0,0:0:0:0:
64,192,200604,128,0,200695:0:0:0:0:
320,192,200695,128,0,200786:0:0:0:0:
64,192,200786,1,0,0:0:0:0:
192,192,200786,1,0,0:0:0:0:
448,192,200786,128,0,200877:0:0:0:0:
320,192,200877,128,0,200967:0:0:0:0:
64,192,200967,1,0,0:0:0:0:
448,192,200967,128,0,201058:0:0:0:0:
192,192,201058,128,0,201149:0:0:0:0:
448,192,201149,1,0,0:0:0:0:
64,192,201149,128,0,201331:0:0:0:0:
320,192,201149,128,0,201240:0:0:0:0:
192,192,201240,128,0,201331:0:0:0:0:
320,192,201331,1,0,0:0:0:0:
448,192,201331,128,0,201422:0:0:0:0:
64,192,201422,128,0,201513:0:0:0:0:
448,192,201513,1,0,0:0:0:0:
320,192,201513,128,0,201695:0:0:0:0:
192,192,201513,128,0,201604:0:0:0:0:
64,192,201604,128,0,201786:0:0:0:0:
192,192,201695,1,0,0:0:0:0:
448,192,201695,128,0,201786:0:0:0:0:
320,192,201786,128,0,201877:0:0:0:0:
64,192,201877,1,0,0:0:0:0:
448,192,201877,128,0,201967:0:0:0:0:
192,192,201877,128,0,202058:0:0:0:0:
320,192,201967,128,0,202149:0:0:0:0:
64,192,202058,1,0,0:0:0:0:
448,192,202058,128,0,202149:0:0:0:0:
192,192,202149,128,0,202240:0:0:0:0:
320,192,202240,1,0,0:0:0:0:
448,192,202240,1,0,0:0:0:0:
64,192,202240,128,0,202422:0:0:0:0:
192,192,202331,128,0,202513:0:0:0:0:
448,192,202422,1,0,0:0:0:0:
320,192,202422,128,0,202513:0:0:0:0:
64,192,202513,128,0,202604:0:0:0:0:
320,192,202604,1,0,0:0:0:0:
192,192,202604,128,0,202786:0:0:0:0:
448,192,202604,128,0,202695:0:0:0:0:
64,192,202695,128,0,202786:0:0:0:0:
448,192,202786,1,0,0:0:0:0:
320,192,202786,128,0,202877:0:0:0:0:
192,192,202877,128,0,202967:0:0:0:0:
64,192,202967,1,0,0:0:0:0:
320,192,202967,1,0,0:0:0:0:
448,192,202967,128,0,203149:0:0:0:0:
192,192,203058,128,0,203149:0:0:0:0:
64,192,203149,1,0,0:0:0:0:
320,192,203149,128,0,203240:0:0:0:0:
448,192,203240,128,0,203331:0:0:0:0:
192,192,203331,1,0,0:0:0:0:
320,192,203331,1,0,0:0:0:0:
64,192,203331,128,0,203422:0:0:0:0:
448,192,203422,128,0,203513:0:0:0:0:
64,192,203513,1,0,0:0:0:0:
192,192,203513,128,0,203604:0:0:0:0:
320,192,203604,128,0,203695:0:0:0:0:
448,192,203695,1,0,0:0:0:0:
192,192,203695,1,0,0:0:0:0:
64,192,203695,128,0,203877:0:0:0:0:
320,192,203786,128,0,203877:0:0:0:0:
448,192,203877,1,0,0:0:0:0:
192,192,203877,128,0,203967:0:0:0:0:
64,192,203967,128,0,204058:0:0:0:0:
192,192,204058,1,0,0:0:0:0:
320,192,204058,1,0,0:0:0:0:
448,192,204058,128,0,204240:0:0:0:0:
64,192,204149,128,0,204240:0:0:0:0:
320,192,204240,1,0,0:0:0:0:
192,192,204240,128,0,204331:0:0:0:0:
448,192,204331,128,0,204422:0:0:0:0:
64,192,204422,1,0,0:0:0:0:
192,192,204422,1,0,0:0:0:0:
320,192,204422,128,0,204513:0:0:0:0:
448,192,204513,128,0,204695:0:0:0:0:
320,192,204604,1,0,0:0:0:0:
64,192,204604,128,0,204695:0:0:0:0:
192,192,204695,128,0,204786:0:0:0:0:
448,192,204786,1,0,0:0:0:0:
64,192,204786,1,0,0:0:0:0:
320,192,204786,128,0,204877:0:0:0:0:
192,192,204877,1,0,0:0:0:0:
64,192,204967,1,0,0:0:0:0:
320,192,204967,1,0,0:0:0:0:
448,192,204967,128,0,205058:0:0:0:0:
192,192,205058,1,0,0:0:0:0:
448,192,205149,1,0,0:0:0:0:
64,192,205149,1,0,0:0:0:0:
320,192,205149,128,0,205240:0:0:0:0:
192,192,205240,1,0,0:0:0:0:
320,192,205331,1,0,0:0:0:0:
448,192,205331,1,0,0:0:0:0:
64,192,205331,128,0,205422:0:0:0:0:
192,192,205422,1,0,0:0:0:0:
320,192,205513,1,0,0:0:0:0:
64,192,205513,128,0,205695:0:0:0:0:
448,192,205513,128,0,205604:0:0:0:0:
192,192,205604,128,0,205695:0:0:0:0:
448,192,205695,1,0,0:0:0:0:
320,192,205695,128,0,205786:0:0:0:0:
64,192,205786,128,0,205877:0:0:0:0:
192,192,205877,1,0,0:0:0:0:
448,192,205877,128,0,206058:0:0:0:0:
320,192,205877,128,0,205967:0:0:0:0:
64,192,205967,128,0,206058:0:0:0:0:
192,192,206058,1,0,0:0:0:0:
320,192,206058,128,0,206149:0:0:0:0:
448,192,206149,128,0,206240:0:0:0:0:
320,192,206240,1,0,0:0:0:0:
192,192,206240,128,0,206422:0:0:0:0:
64,192,206240,128,0,206331:0:0:0:0:
448,192,206331,128,0,206422:0:0:0:0:
64,192,206422,1,0,0:0:0:0:
320,192,206422,128,0,206513:0:0:0:0:
192,192,206513,128,0,206604:0:0:0:0:
320,192,206604,128,0,206786:0:0:0:0:
64,192,206604,128,0,206695:0:0:0:0:
448,192,206604,1,0,0:0:0:0:
192,192,206695,128,0,206786:0:0:0:0:
64,192,206786,1,0,0:0:0:0:
448,192,206786,128,0,206877:0:0:0:0:
192,192,206877,128,0,206967:0:0:0:0:
448,192,206967,1,0,0:0:0:0:
320,192,206967,128,0,207058:0:0:0:0:
64,192,206967,128,0,207149:0:0:0:0:
192,192,207058,128,0,207240:0:0:0:0:
320,192,207149,1,0,0:0:0:0:
448,192,207149,128,0,207240:0:0:0:0:
64,192,207240,128,0,207331:0:0:0:0:
192,192,207331,1,0,0:0:0:0:
320,192,207331,128,0,207513:0:0:0:0:
448,192,207331,128,0,207422:0:0:0:0:
64,192,207422,128,0,207604:0:0:0:0:
448,192,207513,1,0,0:0:0:0:
192,192,207513,128,0,207604:0:0:0:0:
320,192,207604,128,0,207695:0:0:0:0:
192,192,207695,1,0,0:0:0:0:
64,192,207695,128,0,207877:0:0:0:0:
448,192,207695,128,0,207786:0:0:0:0:
320,192,207786,128,0,207967:0:0:0:0:
192,192,207877,1,0,0:0:0:0:
448,192,207877,128,0,207967:0:0:0:0:
64,192,207967,128,0,208058:0:0:0:0:
448,192,208058,1,0,0:0:0:0:
320,192,208058,128,0,208240:0:0:0:0:
192,192,208058,128,0,208149:0:0:0:0:
64,192,208149,128,0,208240:0:0:0:0:
192,192,208240,1,0,0:0:0:0:
448,192,208240,128,0,208331:0:0:0:0:
64,192,208331,128,0,208422:0:0:0:0:
192,192,208422,1,0,0:0:0:0:
320,192,208422,128,0,208604:0:0:0:0:
448,192,208422,128,0,208513:0:0:0:0:
64,192,208513,128,0,208695:0:0:0:0:
192,192,208604,1,0,0:0:0:0:
448,192,208604,128,0,208695:0:0:0:0:
320,192,208695,128,0,208786:0:0:0:0:
64,192,208786,1,0,0:0:0:0:
192,192,208786,128,0,208967:0:0:0:0:
448,192,208786,128,0,208877:0:0:0:0:
320,192,208877,128,0,209058:0:0:0:0:
448,192,208967,1,0,0:0:0:0:
64,192,208967,128,0,209058:0:0:0:0:
192,192,209058,128,0,209149:0:0:0:0:
64,192,209149,1,0,0:0:0:0:
320,192,209149,1,0,0:0:0:0:
448,192,209149,128,0,209331:0:0:0:0:
192,192,209240,128,0,209331:0:0:0:0:
64,192,209331,1,0,0:0:0:0:
320,192,209331,128,0,209422:0:0:0:0:
448,192,209422,128,0,209513:0:0:0:0:
192,192,209513,1,0,0:0:0:0:
320,192,209513,1,0,0:0:0:0:
64,192,209513,128,0,209604:0:0:0:0:
448,192,209604,128,0,209695:0:0:0:0:
320,192,209695,1,0,0:0:0:0:
64,192,209695,128,0,209786:0:0:0:0:
192,192,209786,128,0,209877:0:0:0:0:
64,192,209877,1,0,0:0:0:0:
448,192,209877,1,0,0:0:0:0:
320,192,209877,128,0,209967:0:0:0:0:
192,192,209967,128,0,210058:0:0:0:0:
448,192,210058,1,0,0:0:0:0:
320,192,210058,128,0,210149:0:0:0:0:
192,192,210149,128,0,210240:0:0:0:0:
320,192,210240,1,0,0:0:0:0:
448,192,210240,1,0,0:0:0:0:
64,192,210240,128,0,210331:0:0:0:0:
192,192,210331,128,0,210513:0:0:0:0:
448,192,210422,1,0,0:0:0:0:
64,192,210422,128,0,210513:0:0:0:0:
320,192,210513,128,0,210604:0:0:0:0:
64,192,210604,1,0,0:0:0:0:
448,192,210604,128,0,210695:0:0:0:0:
192,192,210604,128,0,210695:0:0:0:0:
320,192,210695,128,0,210877:0:0:0:0:
192,192,210786,1,0,0:0:0:0:
448,192,210786,128,0,210877:0:0:0:0:
64,192,210877,128,0,210967:0:0:0:0:
192,192,210967,1,0,0:0:0:0:
448,192,210967,1,0,0:0:0:0:
320,192,210967,128,0,211058:0:0:0:0:
64,192,211058,1,0,0:0:0:0:
192,192,211149,1,0,0:0:0:0:
320,192,211149,1,0,0:0:0:0:
448,192,211149,128,0,211240:0:0:0:0:
64,192,211240,1,0,0:0:0:0:
448,192,211331,1,0,0:0:0:0:
192,192,211331,128,0,211422:0:0:0:0:
320,192,211331,128,0,211513:0:0:0:0:
64,192,211422,128,0,211513:0:0:0:0:
192,192,211513,1,0,0:0:0:0:
448,192,211513,128,0,211604:0:0:0:0:
320,192,211604,128,0,211695:0:0:0:0:
64,192,211695,1,0,0:0:0:0:
448,192,211695,1,0,0:0:0:0:
192,192,211695,128,0,211786:0:0:0:0:
320,192,211786,128,0,211877:0:0:0:0:
448,192,211877,1,0,0:0:0:0:
192,192,211877,128,0,211967:0:0:0:0:
64,192,211967,128,0,212058:0:0:0:0:
320,192,212058,1,0,0:0:0:0:
448,192,212058,1,0,0:0:0:0:
192,192,212058,128,0,212149:0:0:0:0:
64,192,212149,128,0,212240:0:0:0:0:
192,192,212240,1,0,0:0:0:0:
320,192,212240,128,0,212331:0:0:0:0:
448,192,212331,128,0,212422:0:0:0:0:
64,192,212422,1,0,0:0:0:0:
192,192,212422,1,0,0:0:0:0:
320,192,212422,128,0,212513:0:0:0:0:
448,192,212513,128,0,212695:0:0:0:0:
64,192,212604,1,0,0:0:0:0:
320,192,212604,128,0,212695:0:0:0:0:
192,192,212695,128,0,212786:0:0:0:0:
448,192,212786,1,0,0:0:0:0:
64,192,212786,1,0,0:0:0:0:
320,192,212786,128,0,212967:0:0:0:0:
192,192,212877,128,0,212967:0:0:0:0:
64,192,212967,1,0,0:0:0:0:
448,192,212967,128,0,213058:0:0:0:0:
192,192,213058,128,0,213149:0:0:0:0:
448,192,213149,1,0,0:0:0:0:
64,192,213149,128,0,213331:0:0:0:0:
320,192,213149,128,0,213240:0:0:0:0:
192,192,213240,128,0,213331:0:0:0:0:
320,192,213331,1,0,0:0:0:0:
448,192,213331,128,0,213422:0:0:0:0:
64,192,213422,128,0,213513:0:0:0:0:
448,192,213513,1,0,0:0:0:0:
320,192,213513,128,0,213695:0:0:0:0:
192,192,213513,128,0,213604:0:0:0:0:
64,192,213604,128,0,213695:0:0:0:0:
192,192,213695,1,0,0:0:0:0:
448,192,213695,128,0,213786:0:0:0:0:
320,192,213786,128,0,213877:0:0:0:0:
64,192,213877,1,0,0:0:0:0:
448,192,213877,1,0,0:0:0:0:
192,192,213877,128,0,213967:0:0:0:0:
320,192,213967,128,0,214149:0:0:0:0:
64,192,214058,1,0,0:0:0:0:
448,192,214058,128,0,214149:0:0:0:0:
192,192,214149,128,0,214240:0:0:0:0:
448,192,214240,1,0,0:0:0:0:
64,192,214240,1,0,0:0:0:0:
320,192,214240,128,0,214331:0:0:0:0:
192,192,214331,128,0,214513:0:0:0:0:
320,192,214422,1,0,0:0:0:0:
448,192,214422,128,0,214513:0:0:0:0:
64,192,214513,128,0,214604:0:0:0:0:
192,192,214604,1,0,0:0:0:0:
320,192,214604,1,0,0:0:0:0:
448,192,214604,128,0,214786:0:0:0:0:
64,192,214695,128,0,214786:0:0:0:0:
192,192,214786,1,0,0:0:0:0:
320,192,214786,128,0,214877:0:0:0:0:
64,192,214877,1,0,0:0:0:0:
320,192,214967,1,0,0:0:0:0:
64,192,214967,1,0,0:0:0:0:
192,192,214967,128,0,215058:0:0:0:0:
448,192,215058,1,0,0:0:0:0:
192,192,215149,1,0,0:0:0:0:
448,192,215240,1,0,0:0:0:0:
64,192,215331,1,0,0:0:0:0:
448,192,215331,1,0,0:0:0:0:
320,192,215331,128,0,215422:0:0:0:0:
192,192,215422,1,0,0:0:0:0:
64,192,215513,1,0,0:0:0:0:
320,192,215513,1,0,0:0:0:0:
448,192,215513,128,0,215604:0:0:0:0:
192,192,215604,1,0,0:0:0:0:
64,192,215695,1,0,0:0:0:0:
320,192,215695,1,0,0:0:0:0:
448,192,215695,1,0,0:0:0:0:
192,192,215755,1,0,0:0:0:0:
320,192,215816,1,0,0:0:0:0:
64,192,215877,1,0,0:0:0:0:
192,192,215877,1,0,0:0:0:0:
448,192,215877,1,0,0:0:0:0:
64,192,216058,1,0,0:0:0:0:
192,192,216058,1,0,0:0:0:0:
448,192,216058,1,0,0:0:0:0:
320,192,216119,1,0,0:0:0:0:
192,192,216180,1,0,0:0:0:0:
64,192,216240,1,0,0:0:0:0:
320,192,216240,1,0,0:0:0:0:
448,192,216240,1,0,0:0:0:0:
64,192,216422,1,0,0:0:0:0:
320,192,216422,1,0,0:0:0:0:
448,192,216422,1,0,0:0:0:0:
192,192,216483,1,0,0:0:0:0:
320,192,216543,1,0,0:0:0:0:
192,192,216604,1,0,0:0:0:0:
64,192,216604,1,0,0:0:0:0:
448,192,216604,1,0,0:0:0:0:
320,192,216695,1,0,0:0:0:0:
448,192,216786,1,0,0:0:0:0:
64,192,216786,1,0,0:0:0:0:
192,192,216786,1,0,0:0:0:0:
320,192,216877,1,0,0:0:0:0:
64,192,216967,1,0,0:0:0:0:
448,192,216967,1,0,0:0:0:0:
192,192,216967,1,0,0:0:0:0:
320,192,217058,1,0,0:0:0:0:
448,192,217149,1,0,0:0:0:0:
64,192,217149,128,0,217422:0:0:0:0:
192,192,217149,1,0,0:0:0:0:
192,192,217240,128,0,217331:0:0:0:0:
448,192,217331,128,0,217513:0:0:0:0:
320,192,217422,128,0,217604:0:0:0:0:
192,192,217513,1,0,0:0:0:0:
64,192,217513,128,0,217695:0:0:0:0:
448,192,217604,128,0,217786:0:0:0:0:
192,192,217695,128,0,217877:0:0:0:0:
320,192,217786,128,0,217967:0:0:0:0:
64,192,217877,1,0,0:0:0:0:
448,192,217877,128,0,217967:0:0:0:0:
192,192,217967,128,0,218149:0:0:0:0:
448,192,218058,128,0,218149:0:0:0:0:
320,192,218149,128,0,218240:0:0:0:0:
192,192,218240,1,0,0:0:0:0:
64,192,218240,128,0,218513:0:0:0:0:
320,192,218331,128,0,218422:0:0:0:0:
448,192,218422,128,0,218513:0:0:0:0:
192,192,218513,128,0,218695:0:0:0:0:
320,192,218604,1,0,0:0:0:0:
448,192,218604,128,0,218877:0:0:0:0:
64,192,218695,128,0,218786:0:0:0:0:
320,192,218786,128,0,218967:0:0:0:0:
192,192,218877,128,0,219058:0:0:0:0:
448,192,218967,1,0,0:0:0:0:
64,192,218967,128,0,219058:0:0:0:0:
320,192,219058,128,0,219240:0:0:0:0:
448,192,219149,128,0,219331:0:0:0:0:
192,192,219240,128,0,219331:0:0:0:0:
320,192,219331,1,0,0:0:0:0:
64,192,219331,128,0,219513:0:0:0:0:
448,192,219422,128,0,219513:0:0:0:0:
192,192,219513,128,0,219695:0:0:0:0:
320,192,219604,128,0,219695:0:0:0:0:
448,192,219695,1,0,0:0:0:0:
64,192,219695,128,0,219877:0:0:0:0:
320,192,219786,128,0,219877:0:0:0:0:
192,192,219877,128,0,220058:0:0:0:0:
448,192,219967,128,0,220058:0:0:0:0:
320,192,220058,1,0,0:0:0:0:
64,192,220058,128,0,220240:0:0:0:0:
192,192,220149,128,0,220331:0:0:0:0:
448,192,220240,128,0,220422:0:0:0:0:
320,192,220331,128,0,220422:0:0:0:0:
64,192,220422,1,0,0:0:0:0:
192,192,220422,128,0,220604:0:0:0:0:
320,192,220513,128,0,220604:0:0:0:0:
64,192,220604,128,0,220695:0:0:0:0:
192,192,220695,128,0,220786:0:0:0:0:
64,192,220786,1,0,0:0:0:0:
448,192,220786,128,0,220967:0:0:0:0:
320,192,220877,128,0,221058:0:0:0:0:
64,192,220967,128,0,221058:0:0:0:0:
192,192,221058,128,0,221149:0:0:0:0:
448,192,221149,1,0,0:0:0:0:
320,192,221149,128,0,221331:0:0:0:0:
192,192,221240,128,0,221331:0:0:0:0:
448,192,221331,128,0,221422:0:0:0:0:
192,192,221422,128,0,221604:0:0:0:0:
64,192,221513,1,0,0:0:0:0:
448,192,221513,128,0,221604:0:0:0:0:
320,192,221604,128,0,221786:0:0:0:0:
192,192,221695,128,0,221786:0:0:0:0:
448,192,221786,128,0,221877:0:0:0:0:
320,192,221877,1,0,0:0:0:0:
64,192,221877,128,0,222058:0:0:0:0:
192,192,221967,128,0,222149:0:0:0:0:
448,192,222058,128,0,222240:0:0:0:0:
64,192,222149,128,0,222240:0:0:0:0:
192,192,222240,1,0,0:0:0:0:
320,192,222240,128,0,222422:0:0:0:0:
448,192,222331,128,0,222422:0:0:0:0:
192,192,222422,128,0,222604:0:0:0:0:
448,192,222513,128,0,222695:0:0:0:0:
64,192,222604,1,0,0:0:0:0:
320,192,222604,128,0,222695:0:0:0:0:
192,192,222695,128,0,222877:0:0:0:0:
448,192,222786,128,0,222877:0:0:0:0:
320,192,222877,128,0,222967:0:0:0:0:
192,192,222967,1,0,0:0:0:0:
64,192,222967,128,0,223149:0:0:0:0:
448,192,223058,128,0,223149:0:0:0:0:
320,192,223149,128,0,223331:0:0:0:0:
64,192,223240,128,0,223331:0:0:0:0:
448,192,223331,1,0,0:0:0:0:
192,192,223331,128,0,223513:0:0:0:0:
320,192,223422,128,0,223513:0:0:0:0:
64,192,223513,128,0,223695:0:0:0:0:
192,192,223604,128,0,223695:0:0:0:0:
448,192,223695,1,0,0:0:0:0:
320,192,223695,128,0,223877:0:0:0:0:
192,192,223786,128,0,223877:0:0:0:0:
64,192,223877,128,0,224058:0:0:0:0:
448,192,223967,128,0,224058:0:0:0:0:
192,192,224058,1,0,0:0:0:0:
320,192,224058,128,0,224240:0:0:0:0:
448,192,224149,128,0,224240:0:0:0:0:
192,192,224240,128,0,224422:0:0:0:0:
320,192,224331,128,0,224422:0:0:0:0:
64,192,224422,1,0,0:0:0:0:
448,192,224422,1,0,0:0:0:0:
448,192,224786,1,0,0:0:0:0:
64,192,224786,128,0,224967:0:0:0:0:
320,192,224877,128,0,225058:0:0:0:0:
192,192,224967,128,0,225058:0:0:0:0:
448,192,225058,128,0,225240:0:0:0:0:
320,192,225149,1,0,0:0:0:0:
64,192,225149,128,0,225331:0:0:0:0:
192,192,225240,128,0,225422:0:0:0:0:
320,192,225331,128,0,225513:0:0:0:0:
448,192,225422,128,0,225513:0:0:0:0:
64,192,225513,1,0,0:0:0:0:
192,192,225513,128,0,225786:0:0:0:0:
448,192,225604,128,0,225695:0:0:0:0:
320,192,225695,128,0,225786:0:0:0:0:
448,192,225786,128,0,225877:0:0:0:0:
320,192,225877,1,0,0:0:0:0:
64,192,225877,128,0,226058:0:0:0:0:
448,192,225967,128,0,226058:0:0:0:0:
192,192,226058,128,0,226240:0:0:0:0:
64,192,226149,128,0,226331:0:0:0:0:
448,192,226240,1,0,0:0:0:0:
320,192,226240,128,0,226331:0:0:0:0:
192,192,226331,128,0,226422:0:0:0:0:
448,192,226422,128,0,226604:0:0:0:0:
192,192,226513,128,0,226604:0:0:0:0:
320,192,226604,1,0,0:0:0:0:
64,192,226604,128,0,226786:0:0:0:0:
192,192,226695,128,0,226877:0:0:0:0:
448,192,226786,128,0,226877:0:0:0:0:
320,192,226786,128,0,226967:0:0:0:0:
64,192,226877,128,0,226967:0:0:0:0:
448,192,226967,1,0,0:0:0:0:
192,192,226967,128,0,227149:0:0:0:0:
320,192,227058,128,0,227149:0:0:0:0:
64,192,227149,128,0,227240:0:0:0:0:
192,192,227240,128,0,227331:0:0:0:0:
320,192,227331,1,0,0:0:0:0:
448,192,227331,128,0,227513:0:0:0:0:
192,192,227422,128,0,227513:0:0:0:0:
64,192,227513,128,0,227695:0:0:0:0:
448,192,227604,128,0,227695:0:0:0:0:
192,192,227695,1,0,0:0:0:0:
320,192,227695,128,0,227877:0:0:0:0:
64,192,227786,128,0,227877:0:0:0:0:
448,192,227877,128,0,227967:0:0:0:0:
192,192,227877,128,0,228058:0:0:0:0:
320,192,227967,128,0,228058:0:0:0:0:
64,192,228058,1,0,0:0:0:0:
448,192,228058,128,0,228240:0:0:0:0:
320,192,228149,128,0,228240:0:0:0:0:
192,192,228240,128,0,228422:0:0:0:0:
448,192,228331,128,0,228422:0:0:0:0:
320,192,228422,1,0,0:0:0:0:
64,192,228422,128,0,228604:0:0:0:0:
448,192,228513,128,0,228604:0:0:0:0:
192,192,228604,128,0,228786:0:0:0:0:
448,192,228695,128,0,228786:0:0:0:0:
64,192,228786,1,0,0:0:0:0:
320,192,228786,1,0,0:0:0:0:
448,192,229149,1,0,0:0:0:0:
64,192,229149,128,0,229331:0:0:0:0:
192,192,229240,128,0,229422:0:0:0:0:
448,192,229331,128,0,229513:0:0:0:0:
320,192,229422,128,0,229513:0:0:0:0:
64,192,229513,1,0,0:0:0:0:
192,192,229513,128,0,229695:0:0:0:0:
320,192,229604,128,0,229695:0:0:0:0:
448,192,229695,128,0,229877:0:0:0:0:
192,192,229786,128,0,229967:0:0:0:0:
64,192,229877,1,0,0:0:0:0:
320,192,229877,128,0,230058:0:0:0:0:
448,192,229967,128,0,230058:0:0:0:0:
64,192,230058,128,0,230240:0:0:0:0:
192,192,230149,128,0,230240:0:0:0:0:
320,192,230240,1,0,0:0:0:0:
448,192,230240,128,0,230422:0:0:0:0:
192,192,230331,128,0,230513:0:0:0:0:
320,192,230422,128,0,230513:0:0:0:0:
448,192,230513,128,0,230695:0:0:0:0:
320,192,230604,1,0,0:0:0:0:
64,192,230604,128,0,230786:0:0:0:0:
192,192,230695,128,0,230877:0:0:0:0:
448,192,230786,128,0,230967:0:0:0:0:
320,192,230877,128,0,230967:0:0:0:0:
64,192,230967,1,0,0:0:0:0:
192,192,230967,128,0,231149:0:0:0:0:
320,192,231058,128,0,231149:0:0:0:0:
448,192,231149,128,0,231240:0:0:0:0:
192,192,231240,128,0,231422:0:0:0:0:
448,192,231331,1,0,0:0:0:0:
64,192,231331,128,0,231513:0:0:0:0:
320,192,231422,128,0,231513:0:0:0:0:
192,192,231513,128,0,231604:0:0:0:0:
320,192,231604,128,0,231786:0:0:0:0:
64,192,231695,1,0,0:0:0:0:
192,192,231695,128,0,231786:0:0:0:0:
448,192,231786,128,0,231967:0:0:0:0:
64,192,231877,128,0,231967:0:0:0:0:
192,192,231967,128,0,232058:0:0:0:0:
448,192,232058,1,0,0:0:0:0:
320,192,232058,128,0,232240:0:0:0:0:
192,192,232149,128,0,232331:0:0:0:0:
448,192,232240,128,0,232331:0:0:0:0:
320,192,232331,128,0,232422:0:0:0:0:
64,192,232422,1,0,0:0:0:0:
448,192,232422,128,0,232604:0:0:0:0:
320,192,232513,128,0,232604:0:0:0:0:
192,192,232604,128,0,232695:0:0:0:0:
448,192,232695,128,0,232877:0:0:0:0:
64,192,232786,1,0,0:0:0:0:
192,192,232786,128,0,232967:0:0:0:0:
320,192,232877,128,0,232967:0:0:0:0:
64,192,232967,128,0,233149:0:0:0:0:
192,192,233058,128,0,233149:0:0:0:0:
320,192,233149,1,0,0:0:0:0:
448,192,233149,1,0,0:0:0:0:
192,192,233695,1,0,0:0:0:0:
320,192,233695,1,0,0:0:0:0:
320,192,234058,128,0,234149:0:0:0:0:
192,192,234149,128,0,234240:0:0:0:0:
64,192,234240,128,0,234331:0:0:0:0:
320,192,234331,128,0,234422:0:0:0:0:
448,192,234422,128,0,234513:0:0:0:0:
320,192,234513,128,0,234604:0:0:0:0:
64,192,234604,1,0,0:0:0:0:
448,192,234604,1,0,0:0:0:0:
192,192,235149,1,0,0:0:0:0:
320,192,235149,1,0,0:0:0:0:
320,192,235331,128,0,235422:0:0:0:0:
192,192,235422,128,0,235513:0:0:0:0:
320,192,235513,128,0,235695:0:0:0:0:
64,192,235604,128,0,235695:0:0:0:0:
192,192,235695,1,0,0:0:0:0:
448,192,235695,128,0,235877:0:0:0:0:
320,192,235786,128,0,235877:0:0:0:0:
192,192,235877,128,0,235967:0:0:0:0:
448,192,235967,128,0,236149:0:0:0:0:
64,192,236058,1,0,0:0:0:0:
192,192,236058,128,0,236149:0:0:0:0:
320,192,236149,128,0,236240:0:0:0:0:
448,192,236240,128,0,236331:0:0:0:0:
192,192,236331,128,0,236422:0:0:0:0:
448,192,236422,128,0,236513:0:0:0:0:
64,192,236513,128,0,236604:0:0:0:0:
192,192,236604,128,0,236695:0:0:0:0:
64,192,236695,128,0,236786:0:0:0:0:
320,192,236786,128,0,236967:0:0:0:0:
448,192,236877,128,0,236967:0:0:0:0:
192,192,236967,128,0,237149:0:0:0:0:
320,192,237058,128,0,237149:0:0:0:0:
64,192,237149,128,0,237331:0:0:0:0:
448,192,237240,128,0,237422:0:0:0:0:
192,192,237240,128,0,237331:0:0:0:0:
320,192,237331,128,0,237422:0:0:0:0:
192,192,237422,128,0,237604:0:0:0:0:
64,192,237513,1,0,0:0:0:0:
448,192,237513,128,0,237604:0:0:0:0:
320,192,237604,128,0,237786:0:0:0:0:
64,192,237695,1,0,0:0:0:0:
448,192,237695,128,0,237786:0:0:0:0:
192,192,237786,128,0,237877:0:0:0:0:
320,192,237877,1,0,0:0:0:0:
448,192,237877,128,0,237967:0:0:0:0:
192,192,237967,128,0,238058:0:0:0:0:
320,192,238058,1,0,0:0:0:0:
64,192,238058,128,0,238149:0:0:0:0:
448,192,238149,1,0,0:0:0:0:
64,192,238240,1,0,0:0:0:0:
192,192,238240,1,0,0:0:0:0:
64,192,238331,1,0,0:0:0:0:
192,192,238331,1,0,0:0:0:0:
448,192,238422,1,0,0:0:0:0:
320,192,238422,1,0,0:0:0:0:
448,192,238513,1,0,0:0:0:0:
320,192,238513,1,0,0:0:0:0:
64,192,238604,128,0,238786:0:0:0:0:
192,192,238604,128,0,238695:0:0:0:0:
320,192,238695,128,0,238877:0:0:0:0:
448,192,238786,128,0,238877:0:0:0:0:
192,192,238877,128,0,238967:0:0:0:0:
64,192,238967,128,0,239331:0:0:0:0:
448,192,238967,128,0,239149:0:0:0:0:
320,192,238967,128,0,239058:0:0:0:0:
192,192,239149,128,0,239240:0:0:0:0:
320,192,239240,128,0,239331:0:0:0:0:
192,192,239331,128,0,239695:0:0:0:0:
448,192,239331,128,0,239513:0:0:0:0:
320,192,239513,128,0,239604:0:0:0:0:
64,192,239604,128,0,239695:0:0:0:0:
448,192,239695,128,0,240058:0:0:0:0:
320,192,239695,128,0,239877:0:0:0:0:
192,192,239786,128,0,239877:0:0:0:0:
64,192,239877,128,0,240058:0:0:0:0:
320,192,239967,128,0,240058:0:0:0:0:
192,192,240058,128,0,240422:0:0:0:0:
320,192,240149,128,0,240240:0:0:0:0:
448,192,240240,128,0,240422:0:0:0:0:
64,192,240331,128,0,240422:0:0:0:0:
320,192,240422,128,0,240695:0:0:0:0:
192,192,240513,128,0,240604:0:0:0:0:
64,192,240604,128,0,240695:0:0:0:0:
448,192,240695,128,0,240786:0:0:0:0:
192,192,240695,128,0,240967:0:0:0:0:
320,192,240786,128,0,240877:0:0:0:0:
64,192,240877,128,0,240967:0:0:0:0:
448,192,240967,128,0,241058:0:0:0:0:
320,192,241058,128,0,241240:0:0:0:0:
192,192,241149,128,0,241240:0:0:0:0:
64,192,241149,128,0,241422:0:0:0:0:
448,192,241240,128,0,241331:0:0:0:0:
320,192,241331,128,0,241513:0:0:0:0:
192,192,241422,128,0,241513:0:0:0:0:
64,192,241513,128,0,241695:0:0:0:0:
448,192,241513,128,0,241604:0:0:0:0:
192,192,241604,128,0,241786:0:0:0:0:
320,192,241695,128,0,241877:0:0:0:0:
448,192,241695,128,0,241877:0:0:0:0:
64,192,241877,128,0,242240:0:0:0:0:
192,192,241877,128,0,242058:0:0:0:0:
448,192,241967,128,0,242149:0:0:0:0:
320,192,242058,128,0,242240:0:0:0:0:
192,192,242149,128,0,242331:0:0:0:0:
448,192,242240,128,0,242604:0:0:0:0:
320,192,242422,128,0,242695:0:0:0:0:
64,192,242422,128,0,242513:0:0:0:0:
192,192,242513,128,0,242604:0:0:0:0:
64,192,242604,128,0,242786:0:0:0:0:
192,192,242695,128,0,242877:0:0:0:0:
448,192,242695,128,0,242786:0:0:0:0:
320,192,242786,128,0,242967:0:0:0:0:
448,192,242877,128,0,243058:0:0:0:0:
64,192,242967,128,0,243331:0:0:0:0:
192,192,242967,128,0,243149:0:0:0:0:
320,192,243058,128,0,243149:0:0:0:0:
448,192,243149,128,0,243513:0:0:0:0:
320,192,243240,128,0,243331:0:0:0:0:
192,192,243331,128,0,243604:0:0:0:0:
64,192,243422,128,0,243513:0:0:0:0:
320,192,243513,128,0,243695:0:0:0:0:
64,192,243604,128,0,243695:0:0:0:0:
448,192,243695,128,0,244058:0:0:0:0:
192,192,243695,128,0,243877:0:0:0:0:
320,192,243786,128,0,243877:0:0:0:0:
64,192,243877,128,0,244058:0:0:0:0:
192,192,243967,128,0,244240:0:0:0:0:
320,192,244058,128,0,244149:0:0:0:0:
448,192,244149,128,0,244331:0:0:0:0:
64,192,244240,128,0,244331:0:0:0:0:
192,192,244331,128,0,244513:0:0:0:0:
320,192,244331,128,0,244422:0:0:0:0:
448,192,244422,128,0,244513:0:0:0:0:
64,192,244513,128,0,244604:0:0:0:0:
320,192,244513,128,0,244695:0:0:0:0:
192,192,244604,128,0,244786:0:0:0:0:
448,192,244695,128,0,244786:0:0:0:0:
64,192,244695,128,0,244967:0:0:0:0:
320,192,244786,128,0,245149:0:0:0:0:
192,192,244877,128,0,245058:0:0:0:0:
448,192,244967,128,0,245058:0:0:0:0:
64,192,245058,128,0,245331:0:0:0:0:
448,192,245149,128,0,245240:0:0:0:0:
192,192,245149,128,0,245331:0:0:0:0:
320,192,245240,128,0,245513:0:0:0:0:
448,192,245331,128,0,245422:0:0:0:0:
192,192,245422,128,0,245604:0:0:0:0:
64,192,245422,128,0,245786:0:0:0:0:
448,192,245513,128,0,245695:0:0:0:0:
320,192,245604,128,0,245786:0:0:0:0:
192,192,245695,128,0,245877:0:0:0:0:
448,192,245786,128,0,245877:0:0:0:0:
64,192,245877,128,0,246240:0:0:0:0:
320,192,245877,128,0,246058:0:0:0:0:
448,192,245967,128,0,246058:0:0:0:0:
192,192,246058,128,0,246240:0:0:0:0:
320,192,246149,128,0,246422:0:0:0:0:
448,192,246240,128,0,246331:0:0:0:0:
192,192,246331,128,0,246604:0:0:0:0:
64,192,246422,128,0,246513:0:0:0:0:
320,192,246513,128,0,246695:0:0:0:0:
64,192,246604,128,0,246877:0:0:0:0:
448,192,246604,128,0,246786:0:0:0:0:
192,192,246695,128,0,246786:0:0:0:0:
320,192,246786,128,0,246967:0:0:0:0:
448,192,246877,128,0,247058:0:0:0:0:
192,192,246967,128,0,247240:0:0:0:0:
64,192,247058,128,0,247149:0:0:0:0:
320,192,247149,128,0,247331:0:0:0:0:
448,192,247240,128,0,247513:0:0:0:0:
192,192,247331,128,0,247513:0:0:0:0:
64,192,247422,128,0,247604:0:0:0:0:
320,192,247513,128,0,247877:0:0:0:0:
448,192,247604,128,0,247695:0:0:0:0:
192,192,247695,128,0,247967:0:0:0:0:
448,192,247786,128,0,247877:0:0:0:0:
64,192,247877,128,0,248058:0:0:0:0:
448,192,247967,128,0,248240:0:0:0:0:
320,192,248058,128,0,248149:0:0:0:0:
192,192,248058,128,0,248331:0:0:0:0:
64,192,248149,128,0,248240:0:0:0:0:
320,192,248240,128,0,248422:0:0:0:0:
448,192,248331,128,0,248422:0:0:0:0:
64,192,248331,128,0,248422:0:0:0:0:
192,192,248422,128,0,248604:0:0:0:0:
320,192,248513,128,0,248695:0:0:0:0:
448,192,248604,128,0,248786:0:0:0:0:
64,192,248604,128,0,248967:0:0:0:0:
192,192,248695,128,0,248877:0:0:0:0:
320,192,248786,128,0,248877:0:0:0:0:
448,192,248877,128,0,249149:0:0:0:0:
320,192,248967,128,0,249149:0:0:0:0:
192,192,249058,128,0,249240:0:0:0:0:
64,192,249149,128,0,249331:0:0:0:0:
320,192,249240,128,0,249331:0:0:0:0:
448,192,249331,128,0,249513:0:0:0:0:
192,192,249331,128,0,249422:0:0:0:0:
64,192,249422,128,0,249604:0:0:0:0:
320,192,249422,128,0,249513:0:0:0:0:
192,192,249513,128,0,249695:0:0:0:0:
448,192,249604,128,0,249786:0:0:0:0:
320,192,249695,128,0,249877:0:0:0:0:
64,192,249695,128,0,249786:0:0:0:0:
192,192,249786,128,0,250058:0:0:0:0:
448,192,249877,128,0,249967:0:0:0:0:
64,192,249877,128,0,249967:0:0:0:0:
320,192,249967,128,0,250058:0:0:0:0:
448,192,250058,128,0,250149:0:0:0:0:
64,192,250058,128,0,250331:0:0:0:0:
192,192,250149,128,0,250240:0:0:0:0:
320,192,250149,128,0,250331:0:0:0:0:
448,192,250240,128,0,250422:0:0:0:0:
192,192,250331,128,0,250513:0:0:0:0:
320,192,250422,128,0,250604:0:0:0:0:
64,192,250422,128,0,250513:0:0:0:0:
448,192,250513,128,0,250604:0:0:0:0:
192,192,250604,128,0,250967:0:0:0:0:
64,192,250604,128,0,250786:0:0:0:0:
448,192,250786,128,0,251058:0:0:0:0:
64,192,250877,128,0,251149:0:0:0:0:
320,192,250967,128,0,251058:0:0:0:0:
192,192,251058,128,0,251331:0:0:0:0:
320,192,251149,128,0,251240:0:0:0:0:
448,192,251240,128,0,251513:0:0:0:0:
64,192,251331,128,0,251513:0:0:0:0:
320,192,251331,128,0,251422:0:0:0:0:
192,192,251422,128,0,251695:0:0:0:0:
320,192,251513,128,0,251604:0:0:0:0:
64,192,251604,128,0,251877:0:0:0:0:
448,192,251604,128,0,251877:0:0:0:0:
320,192,251695,128,0,251786:0:0:0:0:
192,192,251786,128,0,252058:0:0:0:0:
320,192,251877,128,0,252058:0:0:0:0:
448,192,251967,128,0,252149:0:0:0:0:
64,192,252058,128,0,252422:0:0:0:0:
192,192,252149,128,0,252331:0:0:0:0:
448,192,252240,128,0,252331:0:0:0:0:
320,192,252331,128,0,252513:0:0:0:0:
192,192,252422,128,0,252786:0:0:0:0:
448,192,252422,128,0,252695:0:0:0:0:
64,192,252513,128,0,252604:0:0:0:0:
320,192,252604,128,0,252786:0:0:0:0:
64,192,252695,128,0,252967:0:0:0:0:
448,192,252786,128,0,252877:0:0:0:0:
192,192,252877,128,0,253058:0:0:0:0:
320,192,252967,128,0,253149:0:0:0:0:
448,192,253058,128,0,253149:0:0:0:0:
64,192,253149,128,0,253513:0:0:0:0:
192,192,253149,128,0,253331:0:0:0:0:
320,192,253240,128,0,253422:0:0:0:0:
448,192,253331,128,0,253422:0:0:0:0:
192,192,253422,128,0,253695:0:0:0:0:
320,192,253513,128,0,253604:0:0:0:0:
448,192,253604,128,0,253877:0:0:0:0:
320,192,253695,128,0,253786:0:0:0:0:
64,192,253695,128,0,253967:0:0:0:0:
192,192,253786,128,0,253877:0:0:0:0:
320,192,253877,128,0,254058:0:0:0:0:
192,192,253967,128,0,254240:0:0:0:0:
448,192,254058,128,0,254240:0:0:0:0:
64,192,254149,128,0,254331:0:0:0:0:
320,192,254240,128,0,254513:0:0:0:0:
448,192,254331,128,0,254422:0:0:0:0:
192,192,254422,128,0,254604:0:0:0:0:
64,192,254513,128,0,254786:0:0:0:0:
320,192,254604,128,0,254786:0:0:0:0:
448,192,254604,128,0,254695:0:0:0:0:
192,192,254695,128,0,254877:0:0:0:0:
448,192,254786,128,0,254967:0:0:0:0:
320,192,254877,128,0,254967:0:0:0:0:
64,192,254967,128,0,255331:0:0:0:0:
192,192,254967,128,0,255149:0:0:0:0:
448,192,255058,128,0,255331:0:0:0:0:
320,192,255149,128,0,255240:0:0:0:0:
192,192,255240,128,0,255331:0:0:0:0:
320,192,255331,128,0,255513:0:0:0:0:
448,192,255422,128,0,255604:0:0:0:0:
192,192,255513,128,0,255695:0:0:0:0:
64,192,255604,128,0,255877:0:0:0:0:
320,192,255695,128,0,255877:0:0:0:0:
448,192,255786,128,0,256058:0:0:0:0:
192,192,255877,128,0,256058:0:0:0:0:
320,192,255967,128,0,256149:0:0:0:0:
64,192,256058,128,0,256240:0:0:0:0:
192,192,256149,128,0,256422:0:0:0:0:
448,192,256240,128,0,256422:0:0:0:0:
320,192,256331,128,0,256513:0:0:0:0:
64,192,256422,128,0,256695:0:0:0:0:
192,192,256513,128,0,256786:0:0:0:0:
320,192,256604,128,0,256695:0:0:0:0:
448,192,256695,128,0,256967:0:0:0:0:
320,192,256786,128,0,256877:0:0:0:0:
64,192,256786,128,0,257149:0:0:0:0:
192,192,256877,128,0,257058:0:0:0:0:
320,192,256967,128,0,257149:0:0:0:0:
448,192,257058,128,0,257331:0:0:0:0:
192,192,257149,128,0,257331:0:0:0:0:
320,192,257240,128,0,257513:0:0:0:0:
64,192,257331,128,0,257422:0:0:0:0:
192,192,257422,128,0,257604:0:0:0:0:
448,192,257513,128,0,257786:0:0:0:0:
64,192,257513,128,0,257695:0:0:0:0:
320,192,257604,128,0,257877:0:0:0:0:
192,192,257695,128,0,257786:0:0:0:0:
64,192,257786,128,0,258058:0:0:0:0:
448,192,257877,128,0,258240:0:0:0:0:
192,192,257877,128,0,257967:0:0:0:0:
320,192,257967,128,0,258149:0:0:0:0:
192,192,258058,128,0,258331:0:0:0:0:
64,192,258149,128,0,258331:0:0:0:0:
320,192,258240,128,0,258422:0:0:0:0:
448,192,258331,128,0,258604:0:0:0:0:
192,192,258422,128,0,258604:0:0:0:0:
320,192,258513,128,0,258604:0:0:0:0:
64,192,258604,128,0,258786:0:0:0:0:
192,192,258695,128,0,258967:0:0:0:0:
448,192,258786,128,0,258877:0:0:0:0:
320,192,258877,128,0,259149:0:0:0:0:
64,192,258877,128,0,258967:0:0:0:0:
448,192,258967,128,0,259240:0:0:0:0:
192,192,259058,128,0,259149:0:0:0:0:
64,192,259149,128,0,259331:0:0:0:0:
192,192,259240,128,0,259422:0:0:0:0:
320,192,259331,128,0,259604:0:0:0:0:
448,192,259422,128,0,259604:0:0:0:0:
64,192,259513,128,0,259695:0:0:0:0:
192,192,259604,128,0,259695:0:0:0:0:
320,192,259695,128,0,260058:0:0:0:0:
448,192,259695,128,0,259786:0:0:0:0:
192,192,259786,128,0,259967:0:0:0:0:
64,192,259877,128,0,260058:0:0:0:0:
448,192,259967,128,0,260149:0:0:0:0:
192,192,260058,128,0,260422:0:0:0:0:
320,192,260149,128,0,260240:0:0:0:0:
64,192,260240,128,0,260422:0:0:0:0:
448,192,260331,128,0,260422:0:0:0:0:
320,192,260422,128,0,260695:0:0:0:0:
192,192,260513,128,0,260695:0:0:0:0:
448,192,260604,128,0,260786:0:0:0:0:
64,192,260695,128,0,260967:0:0:0:0:
192,192,260786,128,0,261058:0:0:0:0:
320,192,260786,128,0,260877:0:0:0:0:
448,192,260877,128,0,261058:0:0:0:0:
320,192,260967,128,0,261149:0:0:0:0:
64,192,261058,128,0,261331:0:0:0:0:
192,192,261149,128,0,261240:0:0:0:0:
448,192,261149,128,0,261422:0:0:0:0:
320,192,261240,128,0,261331:0:0:0:0:
192,192,261331,128,0,261513:0:0:0:0:
64,192,261422,128,0,261604:0:0:0:0:
320,192,261513,128,0,261604:0:0:0:0:
448,192,261604,128,0,261695:0:0:0:0:
192,192,261604,128,0,261695:0:0:0:0:
320,192,261695,128,0,261786:0:0:0:0:
64,192,261695,128,0,261786:0:0:0:0:
448,192,261786,128,0,261877:0:0:0:0:
192,192,261786,128,0,261877:0:0:0:0:
64,192,261877,1,0,0:0:0:0:
320,192,261877,1,0,0:0:0:0:
192,192,261937,1,0,0:0:0:0:
448,192,261998,1,0,0:0:0:0:
64,192,262058,1,0,0:0:0:0:
320,192,262058,1,0,0:0:0:0:
192,192,262119,1,0,0:0:0:0:
448,192,262180,1,0,0:0:0:0:
320,192,262240,1,0,0:0:0:0:
64,192,262240,128,0,263695:0:0:0:0:
192,192,262604,128,0,262967:0:0:0:0:
320,192,262786,128,0,263149:0:0:0:0:
448,192,262967,128,0,263149:0:0:0:0:
192,192,263149,128,0,263513:0:0:0:0:
448,192,263331,128,0,263513:0:0:0:0:
320,192,263513,128,0,263695:0:0:0:0:
192,192,263695,128,0,264786:0:0:0:0:
448,192,263695,128,0,264058:0:0:0:0:
64,192,263877,128,0,264058:0:0:0:0:
320,192,264058,128,0,264422:0:0:0:0:
448,192,264240,128,0,264604:0:0:0:0:
64,192,265149,128,0,265513:0:0:0:0:
192,192,265149,128,0,265422:0:0:0:0:
192,192,265513,128,0,265877:0:0:0:0:
320,192,265695,128,0,265967:0:0:0:0:
448,192,266058,128,0,266331:0:0:0:0:
320,192,266240,128,0,266422:0:0:0:0:
192,192,266422,128,0,267331:0:0:0:0:
64,192,266604,128,0,267240:0:0:0:0:
320,192,267331,128,0,268058:0:0:0:0:
448,192,267331,128,0,267967:0:0:0:0:
192,192,268058,128,0,268422:0:0:0:0:
64,192,268240,128,0,268604:0:0:0:0:
320,192,268422,128,0,268604:0:0:0:0:
192,192,268604,128,0,268877:0:0:0:0:
64,192,268967,128,0,269149:0:0:0:0:
192,192,269149,128,0,269513:0:0:0:0:
448,192,269331,128,0,269513:0:0:0:0:
64,192,269513,128,0,269877:0:0:0:0:
320,192,269695,128,0,269877:0:0:0:0:
192,192,269877,128,0,270058:0:0:0:0:
320,192,270058,128,0,270422:0:0:0:0:
64,192,270240,128,0,270786:0:0:0:0:
320,192,270967,128,0,271331:0:0:0:0:
192,192,271149,128,0,271331:0:0:0:0:
64,192,271331,128,0,271695:0:0:0:0:
192,192,271513,128,0,271877:0:0:0:0:
320,192,271877,128,0,272240:0:0:0:0:
448,192,272058,128,0,272422:0:0:0:0:
192,192,272240,128,0,272422:0:0:0:0:
320,192,272422,128,0,273786:0:0:0:0:
192,192,272786,128,0,273513:0:0:0:0:
448,192,273149,128,0,273513:0:0:0:0:
64,192,273513,128,0,273786:0:0:0:0:
64,192,273877,1,0,0:0:0:0:
192,192,273877,128,0,274058:0:0:0:0:
448,192,273877,1,0,0:0:0:0:
320,192,274058,128,0,274240:0:0:0:0:
64,192,274240,1,0,0:0:0:0:
448,192,274240,128,0,274422:0:0:0:0:
320,192,274422,128,0,274604:0:0:0:0:
192,192,274604,1,0,0:0:0:0:
64,192,274604,1,0,0:0:0:0:
320,192,274786,128,0,274967:0:0:0:0:
192,192,274967,1,0,0:0:0:0:
448,192,274967,128,0,275149:0:0:0:0:
64,192,275331,1,0,0:0:0:0:
192,192,275331,128,0,275513:0:0:0:0:
448,192,275331,1,0,0:0:0:0:
320,192,275513,128,0,275695:0:0:0:0:
64,192,275695,1,0,0:0:0:0:
448,192,275695,128,0,275877:0:0:0:0:
320,192,275877,128,0,276058:0:0:0:0:
192,192,276058,1,0,0:0:0:0:
64,192,276058,1,0,0:0:0:0:
320,192,276240,128,0,276422:0:0:0:0:
192,192,276422,1,0,0:0:0:0:
448,192,276422,128,0,276604:0:0:0:0:
64,192,276786,1,0,0:0:0:0:
192,192,276786,128,0,276967:0:0:0:0:
320,192,276786,1,0,0:0:0:0:
448,192,276967,128,0,277149:0:0:0:0:
64,192,277149,1,0,0:0:0:0:
320,192,277149,128,0,277331:0:0:0:0:
192,192,277331,128,0,277695:0:0:0:0:
320,192,277513,1,0,0:0:0:0:
64,192,277513,1,0,0:0:0:0:
448,192,277695,128,0,277877:0:0:0:0:
192,192,277877,1,0,0:0:0:0:
320,192,277877,128,0,278058:0:0:0:0:
448,192,278058,1,0,0:0:0:0:
192,192,278058,128,0,278240:0:0:0:0:
448,192,278240,1,0,0:0:0:0:
64,192,278240,128,0,278967:0:0:0:0:
448,192,278604,1,0,0:0:0:0:
448,192,278967,1,0,0:0:0:0:
320,192,279149,1,0,0:0:0:0:
448,192,279149,1,0,0:0:0:0:
320,192,279331,1,0,0:0:0:0:
192,192,279513,1,0,0:0:0:0:
64,192,279513,1,0,0:0:0:0:
64,192,279695,1,0,0:0:0:0:
320,192,279695,128,0,279786:0:0:0:0:
320,192,279877,128,0,280149:0:0:0:0:
192,192,280058,1,0,0:0:0:0:
64,192,280058,1,0,0:0:0:0:
320,192,280240,128,0,280513:0:0:0:0:
64,192,280422,1,0,0:0:0:0:
192,192,280604,128,0,280786:0:0:0:0:
64,192,280786,1,0,0:0:0:0:
320,192,280786,128,0,280967:0:0:0:0:
192,192,280967,1,0,0:0:0:0:
448,192,280967,128,0,281149:0:0:0:0:
192,192,281149,1,0,0:0:0:0:
320,192,281149,128,0,281513:0:0:0:0:
64,192,281513,1,0,0:0:0:0:
448,192,281695,128,0,282058:0:0:0:0:
64,192,281877,1,0,0:0:0:0:
192,192,282058,128,0,282240:0:0:0:0:
64,192,282240,1,0,0:0:0:0:
320,192,282240,128,0,282422:0:0:0:0:
192,192,282422,1,0,0:0:0:0:
448,192,282422,128,0,283331:0:0:0:0:
192,192,282604,1,0,0:0:0:0:
64,192,282604,1,0,0:0:0:0:
320,192,282604,128,0,284786:0:0:0:0:
192,192,282967,1,0,0:0:0:0:
64,192,282967,1,0,0:0:0:0:
64,192,283331,1,0,0:0:0:0:
192,192,283331,1,0,0:0:0:0:
448,192,283513,128,0,283604:0:0:0:0:
192,192,283604,128,0,283695:0:0:0:0:
448,192,283695,128,0,283786:0:0:0:0:
64,192,283786,128,0,283877:0:0:0:0:
448,192,283877,128,0,283967:0:0:0:0:
192,192,283877,1,0,0:0:0:0:
64,192,283967,128,0,284058:0:0:0:0:
448,192,284058,128,0,284149:0:0:0:0:
192,192,284058,1,0,0:0:0:0:
64,192,284149,128,0,284240:0:0:0:0:
448,192,284240,128,0,284331:0:0:0:0:
64,192,284331,128,0,284422:0:0:0:0:
192,192,284422,128,0,284513:0:0:0:0:
448,192,284422,1,0,0:0:0:0:
64,192,284513,128,0,284604:0:0:0:0:
192,192,284604,128,0,284695:0:0:0:0:
64,192,284695,128,0,284786:0:0:0:0:
192,192,284786,1,0,0:0:0:0:
448,192,284786,1,0,0:0:0:0:
192,192,284967,128,0,285149:0:0:0:0:
448,192,285149,128,0,285331:0:0:0:0:
320,192,285331,128,0,285513:0:0:0:0:
64,192,285331,1,0,0:0:0:0:
64,192,285513,128,0,285695:0:0:0:0:
448,192,285513,1,0,0:0:0:0:
192,192,285513,1,0,0:0:0:0:
320,192,285604,128,0,285695:0:0:0:0:
192,192,285695,1,0,0:0:0:0:
448,192,285695,128,0,285786:0:0:0:0:
320,192,285786,128,0,285877:0:0:0:0:
64,192,285877,1,0,0:0:0:0:
448,192,285877,1,0,0:0:0:0:
192,192,285877,128,0,285967:0:0:0:0:
320,192,285967,128,0,286058:0:0:0:0:
448,192,286058,1,0,0:0:0:0:
64,192,286058,128,0,286149:0:0:0:0:
192,192,286149,128,0,286240:0:0:0:0:
64,192,286240,1,0,0:0:0:0:
320,192,286240,1,0,0:0:0:0:
448,192,286240,128,0,286331:0:0:0:0:
192,192,286331,128,0,286513:0:0:0:0:
448,192,286422,1,0,0:0:0:0:
320,192,286422,128,0,286513:0:0:0:0:
64,192,286513,128,0,286604:0:0:0:0:
320,192,286604,1,0,0:0:0:0:
448,192,286604,1,0,0:0:0:0:
192,192,286604,128,0,286695:0:0:0:0:
64,192,286695,128,0,286786:0:0:0:0:
320,192,286786,1,0,0:0:0:0:
448,192,286786,128,0,286877:0:0:0:0:
192,192,286877,128,0,286967:0:0:0:0:
64,192,286967,1,0,0:0:0:0:
448,192,286967,1,0,0:0:0:0:
192,192,287058,128,0,287240:0:0:0:0:
320,192,287058,1,0,0:0:0:0:
448,192,287149,1,0,0:0:0:0:
64,192,287149,1,0,0:0:0:0:
320,192,287240,1,0,0:0:0:0:
448,192,287331,1,0,0:0:0:0:
320,192,287331,1,0,0:0:0:0:
64,192,287331,1,0,0:0:0:0:
192,192,287422,128,0,287604:0:0:0:0:
64,192,287513,1,0,0:0:0:0:
320,192,287513,1,0,0:0:0:0:
448,192,287604,1,0,0:0:0:0:
192,192,287695,1,0,0:0:0:0:
448,192,287695,1,0,0:0:0:0:
64,192,287695,128,0,287786:0:0:0:0:
320,192,287786,128,0,287877:0:0:0:0:
192,192,287877,1,0,0:0:0:0:
64,192,287877,1,0,0:0:0:0:
448,192,287877,128,0,287967:0:0:0:0:
320,192,287967,128,0,288058:0:0:0:0:
448,192,288058,1,0,0:0:0:0:
64,192,288058,1,0,0:0:0:0:
192,192,288058,128,0,288149:0:0:0:0:
320,192,288149,128,0,288240:0:0:0:0:
192,192,288240,128,0,288331:0:0:0:0:
448,192,288240,128,0,288422:0:0:0:0:
320,192,288331,128,0,288422:0:0:0:0:
64,192,288422,1,0,0:0:0:0:
192,192,288422,128,0,288513:0:0:0:0:
320,192,288513,1,0,0:0:0:0:
448,192,288513,128,0,288604:0:0:0:0:
64,192,288604,1,0,0:0:0:0:
192,192,288604,128,0,288695:0:0:0:0:
320,192,288695,1,0,0:0:0:0:
448,192,288695,128,0,288786:0:0:0:0:
192,192,288786,1,0,0:0:0:0:
64,192,288786,128,0,288877:0:0:0:0:
320,192,288877,1,0,0:0:0:0:
448,192,288877,128,0,289058:0:0:0:0:
192,192,288967,128,0,289058:0:0:0:0:
64,192,288967,128,0,289149:0:0:0:0:
320,192,289058,128,0,289331:0:0:0:0:
192,192,289149,128,0,289240:0:0:0:0:
448,192,289149,128,0,289240:0:0:0:0:
64,192,289240,128,0,289422:0:0:0:0:
448,192,289331,128,0,289422:0:0:0:0:
192,192,289331,128,0,289422:0:0:0:0:
320,192,289422,128,0,289513:0:0:0:0:
64,192,289513,1,0,0:0:0:0:
448,192,289513,1,0,0:0:0:0:
192,192,289513,128,0,289695:0:0:0:0:
448,192,289695,128,0,289877:0:0:0:0:
64,192,289877,128,0,290240:0:0:0:0:
192,192,289877,128,0,290058:0:0:0:0:
320,192,289967,128,0,290058:0:0:0:0:
448,192,290058,128,0,290240:0:0:0:0:
320,192,290149,128,0,290331:0:0:0:0:
192,192,290240,128,0,290422:0:0:0:0:
64,192,290331,128,0,290604:0:0:0:0:
448,192,290331,128,0,290513:0:0:0:0:
320,192,290422,128,0,290604:0:0:0:0:
192,192,290513,128,0,290695:0:0:0:0:
448,192,290604,128,0,291149:0:0:0:0:
320,192,290695,128,0,290877:0:0:0:0:
64,192,290786,128,0,290877:0:0:0:0:
192,192,290877,128,0,291149:0:0:0:0:
320,192,290967,128,0,291058:0:0:0:0:
64,192,291058,128,0,291422:0:0:0:0:
320,192,291149,128,0,291331:0:0:0:0:
448,192,291240,128,0,291331:0:0:0:0:
192,192,291331,128,0,291695:0:0:0:0:
320,192,291422,128,0,291604:0:0:0:0:
448,192,291513,128,0,291604:0:0:0:0:
64,192,291604,128,0,291877:0:0:0:0:
448,192,291695,128,0,291877:0:0:0:0:
320,192,291695,128,0,291786:0:0:0:0:
192,192,291786,128,0,291967:0:0:0:0:
320,192,291877,128,0,292058:0:0:0:0:
448,192,291967,128,0,292058:0:0:0:0:
64,192,292058,128,0,292331:0:0:0:0:
192,192,292058,128,0,292240:0:0:0:0:
448,192,292149,128,0,292331:0:0:0:0:
320,192,292240,128,0,292513:0:0:0:0:
192,192,292331,128,0,292422:0:0:0:0:
448,192,292422,128,0,292695:0:0:0:0:
64,192,292513,128,0,292695:0:0:0:0:
192,192,292604,128,0,292695:0:0:0:0:
320,192,292695,128,0,292786:0:0:0:0:
64,192,292786,128,0,293149:0:0:0:0:
192,192,292786,128,0,292877:0:0:0:0:
448,192,292786,128,0,292967:0:0:0:0:
320,192,292877,128,0,293058:0:0:0:0:
192,192,292967,128,0,293149:0:0:0:0:
448,192,293058,128,0,293331:0:0:0:0:
320,192,293149,128,0,293240:0:0:0:0:
192,192,293240,128,0,293513:0:0:0:0:
64,192,293331,128,0,293513:0:0:0:0:
320,192,293422,128,0,293513:0:0:0:0:
448,192,293513,128,0,293877:0:0:0:0:
320,192,293604,128,0,293786:0:0:0:0:
64,192,293695,128,0,293877:0:0:0:0:
192,192,293786,128,0,294058:0:0:0:0:
320,192,293877,128,0,294058:0:0:0:0:
448,192,293967,128,0,294240:0:0:0:0:
64,192,294058,128,0,294240:0:0:0:0:
192,192,294149,128,0,294422:0:0:0:0:
320,192,294240,128,0,294331:0:0:0:0:
448,192,294331,128,0,294604:0:0:0:0:
64,192,294422,128,0,294604:0:0:0:0:
320,192,294422,128,0,294513:0:0:0:0:
192,192,294513,128,0,294786:0:0:0:0:
320,192,294604,128,0,294695:0:0:0:0:
448,192,294695,128,0,294967:0:0:0:0:
64,192,294695,128,0,294786:0:0:0:0:
320,192,294786,128,0,294967:0:0:0:0:
192,192,294877,128,0,295058:0:0:0:0:
64,192,294967,128,0,295149:0:0:0:0:
448,192,295058,128,0,295331:0:0:0:0:
320,192,295058,128,0,295149:0:0:0:0:
192,192,295149,128,0,295240:0:0:0:0:
320,192,295240,128,0,295331:0:0:0:0:
64,192,295331,128,0,295604:0:0:0:0:
192,192,295331,128,0,295422:0:0:0:0:
448,192,295422,128,0,295513:0:0:0:0:
320,192,295513,128,0,295604:0:0:0:0:
192,192,295513,128,0,295604:0:0:0:0:
448,192,295604,128,0,295695:0:0:0:0:
320,192,295695,128,0,296058:0:0:0:0:
64,192,295695,128,0,295877:0:0:0:0:
192,192,295786,128,0,295877:0:0:0:0:
448,192,295877,128,0,296149:0:0:0:0:
192,192,295967,128,0,296058:0:0:0:0:
64,192,296058,128,0,296331:0:0:0:0:
320,192,296149,128,0,296331:0:0:0:0:
192,192,296240,128,0,296422:0:0:0:0:
448,192,296331,128,0,296604:0:0:0:0:
320,192,296422,128,0,296604:0:0:0:0:
64,192,296513,128,0,296786:0:0:0:0:
192,192,296604,128,0,296695:0:0:0:0:
320,192,296695,128,0,296967:0:0:0:0:
448,192,296786,128,0,296967:0:0:0:0:
192,192,296877,128,0,297058:0:0:0:0:
64,192,296967,128,0,297149:0:0:0:0:
320,192,297058,128,0,297149:0:0:0:0:
448,192,297149,128,0,297604:0:0:0:0:
192,192,297149,128,0,297331:0:0:0:0:
320,192,297240,128,0,297422:0:0:0:0:
64,192,297331,128,0,297422:0:0:0:0:
192,192,297422,128,0,297604:0:0:0:0:
64,192,297513,128,0,297604:0:0:0:0:
320,192,297604,128,0,297786:0:0:0:0:
448,192,297695,128,0,297877:0:0:0:0:
192,192,297786,128,0,297967:0:0:0:0:
64,192,297877,128,0,298149:0:0:0:0:
320,192,297877,128,0,298058:0:0:0:0:
448,192,297967,128,0,298058:0:0:0:0:
192,192,298058,128,0,298331:0:0:0:0:
320,192,298149,128,0,298240:0:0:0:0:
448,192,298240,128,0,298513:0:0:0:0:
64,192,298240,128,0,298422:0:0:0:0:
320,192,298331,128,0,298513:0:0:0:0:
192,192,298422,128,0,298513:0:0:0:0:
64,192,298513,128,0,298604:0:0:0:0:
448,192,298604,128,0,298786:0:0:0:0:
192,192,298604,128,0,298877:0:0:0:0:
320,192,298695,128,0,298967:0:0:0:0:
64,192,298786,128,0,298967:0:0:0:0:
448,192,298877,128,0,299058:0:0:0:0:
192,192,298967,128,0,299149:0:0:0:0:
320,192,299058,128,0,299331:0:0:0:0:
64,192,299058,128,0,299240:0:0:0:0:
448,192,299149,128,0,299240:0:0:0:0:
192,192,299240,128,0,299422:0:0:0:0:
448,192,299331,128,0,299513:0:0:0:0:
64,192,299331,128,0,299604:0:0:0:0:
320,192,299422,128,0,299604:0:0:0:0:
192,192,299513,128,0,299695:0:0:0:0:
448,192,299604,128,0,299786:0:0:0:0:
320,192,299695,128,0,299877:0:0:0:0:
64,192,299695,128,0,299786:0:0:0:0:
192,192,299786,128,0,300058:0:0:0:0:
64,192,299877,128,0,299967:0:0:0:0:
448,192,299877,128,0,299967:0:0:0:0:
320,192,299967,128,0,300058:0:0:0:0:
64,192,300058,128,0,300240:0:0:0:0:
448,192,300058,128,0,300240:0:0:0:0:
192,192,300240,128,0,300331:0:0:0:0:
448,192,300331,128,0,300422:0:0:0:0:
64,192,300422,128,0,300604:0:0:0:0:
192,192,300422,128,0,300604:0:0:0:0:
320,192,300422,128,0,300604:0:0:0:0:
448,192,300604,128,0,300695:0:0:0:0:
64,192,300695,128,0,300786:0:0:0:0:
192,192,300786,128,0,300877:0:0:0:0:
320,192,300786,128,0,300877:0:0:0:0:
448,192,300786,128,0,300877:0:0:0:0:
64,192,300877,128,0,300967:0:0:0:0:
448,192,300967,128,0,301058:0:0:0:0:
320,192,300967,128,0,301058:0:0:0:0:
192,192,301058,128,0,301149:0:0:0:0:
64,192,301149,128,0,301331:0:0:0:0:
320,192,301149,128,0,301240:0:0:0:0:
448,192,301149,128,0,301240:0:0:0:0:
192,192,301240,128,0,301422:0:0:0:0:
448,192,301331,128,0,301513:0:0:0:0:
320,192,301331,128,0,301422:0:0:0:0:
64,192,301422,128,0,301513:0:0:0:0:
192,192,301513,128,0,301877:0:0:0:0:
320,192,301513,128,0,301695:0:0:0:0:
448,192,301604,128,0,301786:0:0:0:0:
64,192,301695,128,0,301786:0:0:0:0:
320,192,301786,128,0,301967:0:0:0:0:
448,192,301877,128,0,302240:0:0:0:0:
64,192,301877,128,0,302058:0:0:0:0:
192,192,301967,128,0,302058:0:0:0:0:
320,192,302058,128,0,302331:0:0:0:0:
192,192,302149,128,0,302240:0:0:0:0:
64,192,302240,128,0,302422:0:0:0:0:
192,192,302331,128,0,302513:0:0:0:0:
448,192,302422,128,0,302604:0:0:0:0:
320,192,302513,128,0,302695:0:0:0:0:
64,192,302604,128,0,302967:0:0:0:0:
192,192,302604,128,0,302786:0:0:0:0:
448,192,302695,128,0,302786:0:0:0:0:
320,192,302786,128,0,302967:0:0:0:0:
192,192,302877,128,0,303058:0:0:0:0:
448,192,302967,128,0,303149:0:0:0:0:
320,192,303058,128,0,303149:0:0:0:0:
64,192,303149,128,0,303513:0:0:0:0:
192,192,303149,128,0,303331:0:0:0:0:
448,192,303240,128,0,303331:0:0:0:0:
320,192,303331,128,0,303513:0:0:0:0:
448,192,303422,128,0,303513:0:0:0:0:
192,192,303513,128,0,303695:0:0:0:0:
320,192,303604,128,0,303695:0:0:0:0:
64,192,303695,128,0,304058:0:0:0:0:
448,192,303695,128,0,303877:0:0:0:0:
192,192,303786,128,0,303967:0:0:0:0:
320,192,303877,128,0,303967:0:0:0:0:
448,192,303967,128,0,304240:0:0:0:0:
320,192,304058,128,0,304331:0:0:0:0:
192,192,304058,128,0,304149:0:0:0:0:
64,192,304149,128,0,304422:0:0:0:0:
192,192,304240,128,0,304422:0:0:0:0:
448,192,304331,128,0,304604:0:0:0:0:
320,192,304422,128,0,304604:0:0:0:0:
64,192,304513,128,0,304695:0:0:0:0:
192,192,304604,128,0,304695:0:0:0:0:
320,192,304695,128,0,304967:0:0:0:0:
448,192,304786,128,0,305058:0:0:0:0:
192,192,304786,128,0,304877:0:0:0:0:
64,192,304877,128,0,305149:0:0:0:0:
192,192,304967,128,0,305240:0:0:0:0:
320,192,305058,128,0,305149:0:0:0:0:
448,192,305149,128,0,305422:0:0:0:0:
320,192,305240,128,0,305422:0:0:0:0:
64,192,305331,128,0,305695:0:0:0:0:
192,192,305422,128,0,305513:0:0:0:0:
320,192,305513,128,0,305786:0:0:0:0:
448,192,305513,128,0,305604:0:0:0:0:
192,192,305604,128,0,305877:0:0:0:0:
448,192,305695,128,0,305967:0:0:0:0:
320,192,305877,128,0,306058:0:0:0:0:
64,192,305877,128,0,306058:0:0:0:0:
192,192,306058,128,0,306149:0:0:0:0:
448,192,306149,128,0,306240:0:0:0:0:
320,192,306240,128,0,306331:0:0:0:0:
192,192,306240,128,0,306331:0:0:0:0:
64,192,306240,128,0,306513:0:0:0:0:
320,192,306422,128,0,306513:0:0:0:0:
192,192,306422,128,0,306695:0:0:0:0:
64,192,306604,128,0,306695:0:0:0:0:
320,192,306604,128,0,306695:0:0:0:0:
448,192,306604,128,0,306877:0:0:0:0:
320,192,306786,128,0,306877:0:0:0:0:
192,192,306786,128,0,306877:0:0:0:0:
64,192,306967,128,0,307149:0:0:0:0:
320,192,306967,128,0,307058:0:0:0:0:
448,192,306967,128,0,307058:0:0:0:0:
192,192,307058,128,0,307240:0:0:0:0:
448,192,307149,128,0,307240:0:0:0:0:
320,192,307149,128,0,307240:0:0:0:0:
64,192,307240,128,0,307604:0:0:0:0:
320,192,307331,128,0,307422:0:0:0:0:
448,192,307331,128,0,307513:0:0:0:0:
192,192,307422,128,0,307695:0:0:0:0:
320,192,307513,128,0,307604:0:0:0:0:
448,192,307604,128,0,307877:0:0:0:0:
320,192,307695,128,0,307967:0:0:0:0:
64,192,307695,128,0,307786:0:0:0:0:
192,192,307786,128,0,307967:0:0:0:0:
64,192,307877,128,0,308240:0:0:0:0:
448,192,307967,128,0,308058:0:0:0:0:
192,192,308058,128,0,308149:0:0:0:0:
320,192,308058,128,0,308331:0:0:0:0:
448,192,308149,128,0,308240:0:0:0:0:
192,192,308240,128,0,308422:0:0:0:0:
64,192,308331,128,0,308604:0:0:0:0:
448,192,308331,128,0,308422:0:0:0:0:
320,192,308422,128,0,308786:0:0:0:0:
192,192,308513,128,0,308695:0:0:0:0:
448,192,308604,128,0,308695:0:0:0:0:
64,192,308695,128,0,308967:0:0:0:0:
448,192,308786,128,0,309149:0:0:0:0:
192,192,308786,128,0,308877:0:0:0:0:
320,192,308877,128,0,309058:0:0:0:0:
192,192,308967,128,0,309149:0:0:0:0:
64,192,309058,128,0,309240:0:0:0:0:
320,192,309149,128,0,309513:0:0:0:0:
192,192,309240,128,0,309422:0:0:0:0:
448,192,309331,128,0,309422:0:0:0:0:
64,192,309422,128,0,309695:0:0:0:0:
192,192,309513,128,0,309604:0:0:0:0:
448,192,309513,128,0,309695:0:0:0:0:
320,192,309604,128,0,309786:0:0:0:0:
192,192,309695,128,0,309877:0:0:0:0:
448,192,309786,128,0,309967:0:0:0:0:
64,192,309877,128,0,310149:0:0:0:0:
320,192,309877,128,0,310058:0:0:0:0:
192,192,309967,128,0,310058:0:0:0:0:
448,192,310058,128,0,310240:0:0:0:0:
192,192,310149,128,0,310240:0:0:0:0:
64,192,310240,128,0,310513:0:0:0:0:
320,192,310240,128,0,310422:0:0:0:0:
192,192,310331,128,0,310422:0:0:0:0:
448,192,310422,128,0,310604:0:0:0:0:
320,192,310513,128,0,310786:0:0:0:0:
192,192,310604,128,0,310695:0:0:0:0:
64,192,310604,128,0,310967:0:0:0:0:
448,192,310695,128,0,310877:0:0:0:0:
192,192,310786,128,0,310877:0:0:0:0:
320,192,310877,128,0,310967:0:0:0:0:
192,192,310967,128,0,311149:0:0:0:0:
448,192,310967,128,0,311058:0:0:0:0:
64,192,311058,128,0,311149:0:0:0:0:
320,192,311149,128,0,311331:0:0:0:0:
448,192,311149,128,0,311240:0:0:0:0:
64,192,311240,128,0,311422:0:0:0:0:
192,192,311331,128,0,311422:0:0:0:0:
448,192,311331,128,0,311513:0:0:0:0:
320,192,311422,128,0,311513:0:0:0:0:
192,192,311513,128,0,311695:0:0:0:0:
64,192,311513,128,0,311604:0:0:0:0:
320,192,311604,128,0,311695:0:0:0:0:
64,192,311695,1,0,0:0:0:0:
448,192,311695,1,0,0:0:0:0:
320,192,311755,1,0,0:0:0:0:
192,192,311816,1,0,0:0:0:0:
64,192,311877,1,0,0:0:0:0:
448,192,311877,1,0,0:0:0:0:
320,192,311877,1,0,0:0:0:0:
64,192,312058,1,0,0:0:0:0:
448,192,312058,1,0,0:0:0:0:
192,192,312119,1,0,0:0:0:0:
320,192,312180,1,0,0:0:0:0:
64,192,312240,1,0,0:0:0:0:
192,192,312240,1,0,0:0:0:0:
448,192,312240,1,0,0:0:0:0:
64,192,312422,1,0,0:0:0:0:
448,192,312422,1,0,0:0:0:0:
320,192,312483,1,0,0:0:0:0:
192,192,312543,1,0,0:0:0:0:
64,192,312604,1,0,0:0:0:0:
320,192,312604,1,0,0:0:0:0:
448,192,312604,1,0,0:0:0:0:
192,192,312695,1,0,0:0:0:0:
320,192,312786,1,0,0:0:0:0:
64,192,312786,1,0,0:0:0:0:
192,192,312877,1,0,0:0:0:0:
448,192,312877,1,0,0:0:0:0:
320,192,312967,1,0,0:0:0:0:
64,192,312967,1,0,0:0:0:0:
448,192,313058,1,0,0:0:0:0:
192,192,313058,1,0,0:0:0:0:
320,192,313149,1,0,0:0:0:0:
448,192,313149,1,0,0:0:0:0:
64,192,313149,128,0,313331:0:0:0:0:
192,192,313240,128,0,313422:0:0:0:0:
320,192,313331,1,0,0:0:0:0:
448,192,313331,128,0,313422:0:0:0:0:
64,192,313422,128,0,313513:0:0:0:0:
448,192,313513,1,0,0:0:0:0:
320,192,313513,1,0,0:0:0:0:
192,192,313513,128,0,313695:0:0:0:0:
64,192,313604,128,0,313695:0:0:0:0:
448,192,313695,1,0,0:0:0:0:
320,192,313695,128,0,313786:0:0:0:0:
192,192,313786,128,0,313877:0:0:0:0:
448,192,313877,1,0,0:0:0:0:
64,192,313877,1,0,0:0:0:0:
320,192,313877,128,0,314058:0:0:0:0:
192,192,313967,1,0,0:0:0:0:
64,192,314058,1,0,0:0:0:0:
448,192,314058,128,0,314149:0:0:0:0:
320,192,314149,128,0,314240:0:0:0:0:
64,192,314240,1,0,0:0:0:0:
448,192,314240,1,0,0:0:0:0:
192,192,314240,128,0,314422:0:0:0:0:
320,192,314331,128,0,314422:0:0:0:0:
64,192,314422,1,0,0:0:0:0:
448,192,314422,128,0,314513:0:0:0:0:
192,192,314513,128,0,314604:0:0:0:0:
448,192,314604,1,0,0:0:0:0:
64,192,314604,1,0,0:0:0:0:
320,192,314604,128,0,314786:0:0:0:0:
192,192,314695,128,0,314786:0:0:0:0:
64,192,314786,1,0,0:0:0:0:
448,192,314786,128,0,314877:0:0:0:0:
320,192,314877,128,0,314967:0:0:0:0:
192,192,314967,1,0,0:0:0:0:
448,192,314967,1,0,0:0:0:0:
64,192,314967,128,0,315058:0:0:0:0:
320,192,315058,128,0,315240:0:0:0:0:
64,192,315149,1,0,0:0:0:0:
192,192,315149,128,0,315240:0:0:0:0:
448,192,315240,128,0,315331:0:0:0:0:
192,192,315331,1,0,0:0:0:0:
320,192,315331,1,0,0:0:0:0:
64,192,315331,128,0,315513:0:0:0:0:
448,192,315422,128,0,315513:0:0:0:0:
192,192,315513,1,0,0:0:0:0:
320,192,315513,128,0,315604:0:0:0:0:
64,192,315604,128,0,315695:0:0:0:0:
192,192,315695,1,0,0:0:0:0:
448,192,315695,1,0,0:0:0:0:
320,192,315695,128,0,315877:0:0:0:0:
64,192,315786,128,0,315877:0:0:0:0:
192,192,315877,1,0,0:0:0:0:
448,192,315877,128,0,315967:0:0:0:0:
320,192,315967,128,0,316058:0:0:0:0:
64,192,316058,1,0,0:0:0:0:
448,192,316058,1,0,0:0:0:0:
192,192,316058,128,0,316240:0:0:0:0:
320,192,316149,128,0,316240:0:0:0:0:
64,192,316240,1,0,0:0:0:0:
448,192,316240,128,0,316331:0:0:0:0:
320,192,316331,128,0,316422:0:0:0:0:
448,192,316422,1,0,0:0:0:0:
192,192,316422,1,0,0:0:0:0:
64,192,316422,128,0,316604:0:0:0:0:
320,192,316513,128,0,316604:0:0:0:0:
448,192,316604,1,0,0:0:0:0:
192,192,316604,128,0,316695:0:0:0:0:
64,192,316695,128,0,316786:0:0:0:0:
192,192,316786,1,0,0:0:0:0:
448,192,316786,1,0,0:0:0:0:
320,192,316786,128,0,316967:0:0:0:0:
64,192,316877,128,0,316967:0:0:0:0:
448,192,316967,1,0,0:0:0:0:
192,192,316967,128,0,317058:0:0:0:0:
320,192,317058,128,0,317149:0:0:0:0:
64,192,317149,1,0,0:0:0:0:
448,192,317149,1,0,0:0:0:0:
192,192,317149,128,0,317240:0:0:0:0:
320,192,317240,128,0,317422:0:0:0:0:
192,192,317331,1,0,0:0:0:0:
448,192,317331,128,0,317422:0:0:0:0:
64,192,317422,128,0,317513:0:0:0:0:
320,192,317513,1,0,0:0:0:0:
192,192,317513,128,0,317695:0:0:0:0:
448,192,317513,128,0,317604:0:0:0:0:
64,192,317604,128,0,317786:0:0:0:0:
448,192,317695,1,0,0:0:0:0:
320,192,317695,128,0,317786:0:0:0:0:
192,192,317786,128,0,317877:0:0:0:0:
320,192,317877,1,0,0:0:0:0:
448,192,317877,128,0,317967:0:0:0:0:
64,192,317877,128,0,318058:0:0:0:0:
192,192,317967,128,0,318149:0:0:0:0:
448,192,318058,1,0,0:0:0:0:
320,192,318058,128,0,318149:0:0:0:0:
64,192,318149,128,0,318240:0:0:0:0:
320,192,318240,1,0,0:0:0:0:
448,192,318240,128,0,318331:0:0:0:0:
192,192,318240,1,0,0:0:0:0:
64,192,318331,128,0,318513:0:0:0:0:
448,192,318422,1,0,0:0:0:0:
320,192,318422,128,0,318513:0:0:0:0:
192,192,318513,128,0,318604:0:0:0:0:
64,192,318604,1,0,0:0:0:0:
448,192,318604,1,0,0:0:0:0:
320,192,318604,128,0,318786:0:0:0:0:
192,192,318695,128,0,318786:0:0:0:0:
64,192,318786,128,0,318877:0:0:0:0:
448,192,318786,128,0,318877:0:0:0:0:
320,192,318877,128,0,318967:0:0:0:0:
448,192,318967,128,0,319149:0:0:0:0:
192,192,318967,128,0,319058:0:0:0:0:
64,192,318967,128,0,319058:0:0:0:0:
320,192,319058,128,0,319149:0:0:0:0:
192,192,319149,128,0,319422:0:0:0:0:
64,192,319149,128,0,319240:0:0:0:0:
320,192,319240,128,0,319331:0:0:0:0:
448,192,319240,128,0,319422:0:0:0:0:
64,192,319331,128,0,319604:0:0:0:0:
320,192,319422,128,0,319513:0:0:0:0:
192,192,319513,128,0,319604:0:0:0:0:
448,192,319513,128,0,319604:0:0:0:0:
320,192,319604,128,0,319695:0:0:0:0:
64,192,319695,128,0,319877:0:0:0:0:
192,192,319695,128,0,319786:0:0:0:0:
320,192,319786,128,0,319877:0:0:0:0:
192,192,319877,128,0,319967:0:0:0:0:
448,192,319877,128,0,319967:0:0:0:0:
64,192,319967,128,0,320149:0:0:0:0:
320,192,319967,128,0,320058:0:0:0:0:
192,192,320058,128,0,320331:0:0:0:0:
448,192,320058,128,0,320149:0:0:0:0:
320,192,320149,128,0,320240:0:0:0:0:
64,192,320240,128,0,320331:0:0:0:0:
448,192,320240,128,0,320331:0:0:0:0:
320,192,320331,128,0,320422:0:0:0:0:
192,192,320422,128,0,320513:0:0:0:0:
64,192,320422,128,0,320513:0:0:0:0:
448,192,320422,128,0,320604:0:0:0:0:
320,192,320513,128,0,320604:0:0:0:0:
192,192,320604,128,0,320695:0:0:0:0:
64,192,320604,128,0,320695:0:0:0:0:
448,192,320695,128,0,320786:0:0:0:0:
320,192,320695,128,0,320786:0:0:0:0:
192,192,320786,128,0,320877:0:0:0:0:
64,192,320786,128,0,320967:0:0:0:0:
448,192,320877,128,0,321058:0:0:0:0:
320,192,320967,128,0,321058:0:0:0:0:
192,192,320967,128,0,321058:0:0:0:0:
64,192,321058,128,0,321149:0:0:0:0:
192,192,321149,128,0,321331:0:0:0:0:
448,192,321149,128,0,321240:0:0:0:0:
64,192,321240,128,0,321422:0:0:0:0:
320,192,321331,128,0,321422:0:0:0:0:
448,192,321331,128,0,321422:0:0:0:0:
192,192,321422,128,0,321513:0:0:0:0:
320,192,321513,128,0,321786:0:0:0:0:
448,192,321513,128,0,321604:0:0:0:0:
64,192,321513,128,0,321604:0:0:0:0:
192,192,321604,128,0,321695:0:0:0:0:
64,192,321695,128,0,321786:0:0:0:0:
448,192,321695,128,0,321786:0:0:0:0:
192,192,321786,128,0,321877:0:0:0:0:
64,192,321877,128,0,322058:0:0:0:0:
320,192,321877,128,0,321967:0:0:0:0:
448,192,321877,128,0,321967:0:0:0:0:
192,192,321967,128,0,322058:0:0:0:0:
448,192,322058,128,0,322240:0:0:0:0:
320,192,322058,128,0,322149:0:0:0:0:
64,192,322149,128,0,322331:0:0:0:0:
192,192,322149,128,0,322240:0:0:0:0:
320,192,322240,128,0,322513:0:0:0:0:
192,192,322331,128,0,322422:0:0:0:0:
448,192,322422,128,0,322513:0:0:0:0:
64,192,322422,128,0,322513:0:0:0:0:
192,192,322513,128,0,322604:0:0:0:0:
320,192,322604,128,0,322786:0:0:0:0:
448,192,322604,128,0,322695:0:0:0:0:
64,192,322604,128,0,322695:0:0:0:0:
192,192,322695,128,0,322877:0:0:0:0:
64,192,322786,128,0,322877:0:0:0:0:
448,192,322786,128,0,322877:0:0:0:0:
320,192,322877,128,0,322967:0:0:0:0:
448,192,322967,128,0,323058:0:0:0:0:
192,192,322967,128,0,323058:0:0:0:0:
64,192,322967,128,0,323149:0:0:0:0:
320,192,323058,128,0,323240:0:0:0:0:
192,192,323149,128,0,323240:0:0:0:0:
448,192,323149,128,0,323240:0:0:0:0:
64,192,323240,128,0,323331:0:0:0:0:
320,192,323331,128,0,323513:0:0:0:0:
448,192,323331,128,0,323422:0:0:0:0:
192,192,323331,128,0,323422:0:0:0:0:
64,192,323422,128,0,323604:0:0:0:0:
192,192,323513,128,0,323695:0:0:0:0:
448,192,323513,128,0,323604:0:0:0:0:
320,192,323604,128,0,323877:0:0:0:0:
64,192,323695,128,0,323786:0:0:0:0:
448,192,323695,128,0,323786:0:0:0:0:
192,192,323786,128,0,323967:0:0:0:0:
448,192,323877,128,0,323967:0:0:0:0:
64,192,323877,128,0,323967:0:0:0:0:
320,192,323967,128,0,324058:0:0:0:0:
192,192,324058,128,0,324149:0:0:0:0:
64,192,324058,128,0,324240:0:0:0:0:
320,192,324149,128,0,324240:0:0:0:0:
192,192,324240,128,0,324331:0:0:0:0:
448,192,324240,128,0,324422:0:0:0:0:
320,192,324331,128,0,324422:0:0:0:0:
192,192,324422,128,0,324513:0:0:0:0:
64,192,324422,128,0,324604:0:0:0:0:
320,192,324513,128,0,324604:0:0:0:0:
192,192,324604,128,0,324695:0:0:0:0:
448,192,324604,128,0,324695:0:0:0:0:
320,192,324695,128,0,324786:0:0:0:0:
64,192,324786,1,0,0:0:0:0:
192,192,324786,128,0,324967:0:0:0:0:
448,192,324786,128,0,324877:0:0:0:0:
320,192,324877,128,0,325058:0:0:0:0:
64,192,324967,1,0,0:0:0:0:
448,192,324967,128,0,325058:0:0:0:0:
192,192,325058,128,0,325149:0:0:0:0:
448,192,325149,1,0,0:0:0:0:
320,192,325149,1,0,0:0:0:0:
64,192,325149,128,0,325331:0:0:0:0:
192,192,325240,128,0,325422:0:0:0:0:
320,192,325331,1,0,0:0:0:0:
448,192,325331,128,0,325422:0:0:0:0:
64,192,325422,128,0,325513:0:0:0:0:
192,192,325513,1,0,0:0:0:0:
448,192,325513,1,0,0:0:0:0:
320,192,325513,128,0,325695:0:0:0:0:
64,192,325604,128,0,325695:0:0:0:0:
192,192,325695,1,0,0:0:0:0:
448,192,325695,128,0,325786:0:0:0:0:
320,192,325786,128,0,325877:0:0:0:0:
64,192,325877,1,0,0:0:0:0:
448,192,325877,1,0,0:0:0:0:
192,192,325877,128,0,325967:0:0:0:0:
320,192,325967,128,0,326058:0:0:0:0:
192,192,326058,1,0,0:0:0:0:
64,192,326058,128,0,326149:0:0:0:0:
448,192,326149,128,0,326240:0:0:0:0:
192,192,326240,1,0,0:0:0:0:
320,192,326240,1,0,0:0:0:0:
64,192,326240,128,0,326422:0:0:0:0:
448,192,326331,128,0,326422:0:0:0:0:
320,192,326422,1,0,0:0:0:0:
192,192,326422,128,0,326513:0:0:0:0:
64,192,326513,128,0,326604:0:0:0:0:
448,192,326604,1,0,0:0:0:0:
192,192,326604,1,0,0:0:0:0:
320,192,326604,128,0,326786:0:0:0:0:
64,192,326695,128,0,326786:0:0:0:0:
192,192,326786,1,0,0:0:0:0:
448,192,326786,128,0,326877:0:0:0:0:
320,192,326877,128,0,326967:0:0:0:0:
64,192,326967,1,0,0:0:0:0:
448,192,326967,1,0,0:0:0:0:
192,192,326967,128,0,327058:0:0:0:0:
320,192,327058,128,0,327240:0:0:0:0:
448,192,327149,1,0,0:0:0:0:
192,192,327149,128,0,327240:0:0:0:0:
64,192,327240,128,0,327331:0:0:0:0:
192,192,327331,1,0,0:0:0:0:
448,192,327331,1,0,0:0:0:0:
320,192,327331,128,0,327513:0:0:0:0:
64,192,327422,128,0,327604:0:0:0:0:
448,192,327513,1,0,0:0:0:0:
192,192,327513,128,0,327604:0:0:0:0:
320,192,327604,128,0,327695:0:0:0:0:
64,192,327695,1,0,0:0:0:0:
448,192,327695,1,0,0:0:0:0:
192,192,327695,128,0,327877:0:0:0:0:
320,192,327786,128,0,327967:0:0:0:0:
64,192,327877,1,0,0:0:0:0:
448,192,327877,128,0,327967:0:0:0:0:
192,192,327967,128,0,328058:0:0:0:0:
320,192,328058,1,0,0:0:0:0:
448,192,328058,1,0,0:0:0:0:
64,192,328058,128,0,328149:0:0:0:0:
192,192,328149,128,0,328331:0:0:0:0:
448,192,328240,1,0,0:0:0:0:
64,192,328240,128,0,328331:0:0:0:0:
320,192,328331,128,0,328422:0:0:0:0:
64,192,328422,1,0,0:0:0:0:
448,192,328422,1,0,0:0:0:0:
192,192,328422,128,0,328513:0:0:0:0:
320,192,328513,128,0,328604:0:0:0:0:
192,192,328604,1,0,0:0:0:0:
64,192,328604,128,0,328695:0:0:0:0:
320,192,328695,128,0,328786:0:0:0:0:
64,192,328786,1,0,0:0:0:0:
192,192,328786,1,0,0:0:0:0:
448,192,328786,128,0,328877:0:0:0:0:
320,192,328877,128,0,329058:0:0:0:0:
64,192,328967,1,0,0:0:0:0:
448,192,328967,128,0,329058:0:0:0:0:
192,192,329058,128,0,329149:0:0:0:0:
448,192,329149,1,0,0:0:0:0:
320,192,329149,1,0,0:0:0:0:
64,192,329149,128,0,329422:0:0:0:0:
192,192,329240,128,0,329331:0:0:0:0:
320,192,329331,1,0,0:0:0:0:
448,192,329331,128,0,329422:0:0:0:0:
192,192,329422,128,0,329513:0:0:0:0:
448,192,329513,1,0,0:0:0:0:
64,192,329513,1,0,0:0:0:0:
320,192,329513,128,0,329695:0:0:0:0:
192,192,329604,128,0,329695:0:0:0:0:
448,192,329695,1,0,0:0:0:0:
64,192,329695,128,0,329786:0:0:0:0:
320,192,329786,128,0,329877:0:0:0:0:
448,192,329877,1,0,0:0:0:0:
64,192,329877,128,0,330058:0:0:0:0:
192,192,329877,1,0,0:0:0:0:
320,192,329967,128,0,330149:0:0:0:0:
192,192,330058,1,0,0:0:0:0:
448,192,330058,128,0,330149:0:0:0:0:
64,192,330149,128,0,330240:0:0:0:0:
320,192,330240,1,0,0:0:0:0:
448,192,330240,1,0,0:0:0:0:
192,192,330240,128,0,330422:0:0:0:0:
64,192,330331,128,0,330422:0:0:0:0:
320,192,330422,1,0,0:0:0:0:
448,192,330422,128,0,330513:0:0:0:0:
192,192,330513,128,0,330604:0:0:0:0:
64,192,330604,1,0,0:0:0:0:
320,192,330604,1,0,0:0:0:0:
448,192,330604,128,0,330877:0:0:0:0:
64,192,330786,128,0,330967:0:0:0:0:
192,192,330877,128,0,331058:0:0:0:0:
320,192,330967,128,0,331149:0:0:0:0:
64,192,331058,128,0,331240:0:0:0:0:
192,192,331149,128,0,331240:0:0:0:0:
448,192,331240,128,0,331422:0:0:0:0:
320,192,331331,128,0,331422:0:0:0:0:
192,192,331422,128,0,331695:0:0:0:0:
64,192,331513,128,0,331604:0:0:0:0:
320,192,331604,128,0,331695:0:0:0:0:
448,192,331695,128,0,331967:0:0:0:0:
64,192,331786,128,0,331967:0:0:0:0:
320,192,331877,128,0,331967:0:0:0:0:
192,192,331967,128,0,332058:0:0:0:0:
448,192,332058,1,0,0:0:0:0:
320,192,332058,1,0,0:0:0:0:
64,192,332058,128,0,332240:0:0:0:0:
320,192,332149,128,0,332240:0:0:0:0:
448,192,332240,128,0,332422:0:0:0:0:
320,192,332331,128,0,332422:0:0:0:0:
192,192,332422,128,0,332604:0:0:0:0:
320,192,332513,128,0,332604:0:0:0:0:
64,192,332604,128,0,332877:0:0:0:0:
192,192,332695,128,0,332786:0:0:0:0:
448,192,332786,128,0,332877:0:0:0:0:
320,192,332877,128,0,332967:0:0:0:0:
192,192,332967,128,0,333058:0:0:0:0:
448,192,332967,128,0,333240:0:0:0:0:
64,192,333058,128,0,333149:0:0:0:0:
320,192,333058,128,0,333149:0:0:0:0:
192,192,333149,128,0,333331:0:0:0:0:
320,192,333240,128,0,333331:0:0:0:0:
64,192,333331,1,0,0:0:0:0:
448,192,333331,128,0,333422:0:0:0:0:
320,192,333422,128,0,333513:0:0:0:0:
192,192,333422,128,0,333513:0:0:0:0:
64,192,333513,1,0,0:0:0:0:
448,192,333513,128,0,333877:0:0:0:0:
64,192,333604,128,0,333786:0:0:0:0:
192,192,333695,128,0,333877:0:0:0:0:
320,192,333786,128,0,333877:0:0:0:0:
64,192,333877,128,0,334240:0:0:0:0:
192,192,333967,128,0,334058:0:0:0:0:
448,192,334058,1,0,0:0:0:0:
320,192,334058,128,0,334149:0:0:0:0:
192,192,334149,128,0,334240:0:0:0:0:
448,192,334240,1,0,0:0:0:0:
320,192,334240,128,0,334422:0:0:0:0:
192,192,334331,128,0,334604:0:0:0:0:
64,192,334422,128,0,334604:0:0:0:0:
448,192,334513,128,0,334604:0:0:0:0:
320,192,334604,128,0,334877:0:0:0:0:
448,192,334695,128,0,334877:0:0:0:0:
192,192,334786,1,0,0:0:0:0:
192,192,334877,1,0,0:0:0:0:
320,192,334967,1,0,0:0:0:0:
448,192,334967,1,0,0:0:0:0:
64,192,334967,128,0,335149:0:0:0:0:
192,192,335058,128,0,335240:0:0:0:0:
320,192,335149,128,0,335240:0:0:0:0:
448,192,335149,1,0,0:0:0:0:
448,192,335240,1,0,0:0:0:0:
64,192,335240,128,0,335331:0:0:0:0:
192,192,335331,1,0,0:0:0:0:
320,192,335331,128,0,335695:0:0:0:0:
448,192,335422,128,0,335513:0:0:0:0:
64,192,335513,1,0,0:0:0:0:
192,192,335513,128,0,335604:0:0:0:0:
448,192,335604,128,0,335967:0:0:0:0:
64,192,335604,1,0,0:0:0:0:
192,192,335695,128,0,335877:0:0:0:0:
320,192,335786,128,0,335877:0:0:0:0:
64,192,335877,128,0,336058:0:0:0:0:
192,192,335967,128,0,336058:0:0:0:0:
320,192,336058,1,0,0:0:0:0:
448,192,336058,1,0,0:0:0:0:
192,192,336104,1,0,0:0:0:0:
64,192,336149,1,0,0:0:0:0:
192,192,336240,1,0,0:0:0:0:
448,192,336240,1,0,0:0:0:0:
64,192,336331,1,0,0:0:0:0:
320,192,336331,1,0,0:0:0:0:
64,192,336422,1,0,0:0:0:0:
192,192,336422,1,0,0:0:0:0:
448,192,336422,1,0,0:0:0:0:
320,192,336513,1,0,0:0:0:0:
64,192,336604,1,0,0:0:0:0:
448,192,336604,1,0,0:0:0:0:
320,192,336695,1,0,0:0:0:0:
448,192,336786,1,0,0:0:0:0:
320,192,336877,1,0,0:0:0:0:
192,192,336967,1,0,0:0:0:0:
64,192,336967,128,0,337028:0:0:0:0:
320,192,337058,1,0,0:0:0:0:
448,192,337149,1,0,0:0:0:0:
192,192,337240,1,0,0:0:0:0:
320,192,337331,1,0,0:0:0:0:
64,192,337331,128,0,337392:0:0:0:0:
448,192,337422,1,0,0:0:0:0:
64,192,337513,1,0,0:0:0:0:
192,192,337604,1,0,0:0:0:0:
64,192,337695,128,0,337755:0:0:0:0:
448,192,337695,1,0,0:0:0:0:
320,192,337786,1,0,0:0:0:0:
192,192,337877,1,0,0:0:0:0:
448,192,337967,1,0,0:0:0:0:
320,192,338058,1,0,0:0:0:0:
64,192,338058,128,0,338119:0:0:0:0:
192,192,338149,1,0,0:0:0:0:
448,192,338240,1,0,0:0:0:0:
320,192,338331,1,0,0:0:0:0:
64,192,338422,128,0,338483:0:0:0:0:
448,192,338422,1,0,0:0:0:0:
320,192,338513,1,0,0:0:0:0:
192,192,338604,1,0,0:0:0:0:
448,192,338695,1,0,0:0:0:0:
192,192,338786,1,0,0:0:0:0:
64,192,338786,128,0,338846:0:0:0:0:
320,192,338877,1,0,0:0:0:0:
448,192,338967,1,0,0:0:0:0:
192,192,339058,1,0,0:0:0:0:
64,192,339149,1,0,0:0:0:0:
448,192,339149,128,0,339210:0:0:0:0:
192,192,339240,1,0,0:0:0:0:
320,192,339331,1,0,0:0:0:0:
448,192,339422,1,0,0:0:0:0:
320,192,339513,1,0,0:0:0:0:
64,192,339513,128,0,339573:0:0:0:0:
192,192,339604,1,0,0:0:0:0:
448,192,339695,1,0,0:0:0:0:
320,192,339786,1,0,0:0:0:0:
192,192,339877,1,0,0:0:0:0:
64,192,339877,128,0,339937:0:0:0:0:
320,192,339967,1,0,0:0:0:0:
448,192,340058,1,0,0:0:0:0:
192,192,340149,1,0,0:0:0:0:
64,192,340240,128,0,340301:0:0:0:0:
448,192,340240,1,0,0:0:0:0:
192,192,340331,1,0,0:0:0:0:
448,192,340422,1,0,0:0:0:0:
320,192,340513,1,0,0:0:0:0:
64,192,340604,128,0,340664:0:0:0:0:
448,192,340604,1,0,0:0:0:0:
320,192,340695,1,0,0:0:0:0:
192,192,340786,1,0,0:0:0:0:
448,192,340877,1,0,0:0:0:0:
320,192,340967,1,0,0:0:0:0:
64,192,340967,128,0,341028:0:0:0:0:
192,192,341058,1,0,0:0:0:0:
320,192,341149,1,0,0:0:0:0:
192,192,341240,1,0,0:0:0:0:
64,192,341331,128,0,341392:0:0:0:0:
448,192,341331,1,0,0:0:0:0:
192,192,341422,1,0,0:0:0:0:
448,192,341513,1,0,0:0:0:0:
320,192,341604,1,0,0:0:0:0:
192,192,341695,1,0,0:0:0:0:
64,192,341695,128,0,341755:0:0:0:0:
448,192,341786,1,0,0:0:0:0:
320,192,341877,1,0,0:0:0:0:
192,192,341967,1,0,0:0:0:0:
64,192,342058,128,0,342119:0:0:0:0:
448,192,342058,1,0,0:0:0:0:
320,192,342149,1,0,0:0:0:0:
192,192,342240,1,0,0:0:0:0:
64,192,342331,1,0,0:0:0:0:
320,192,342422,1,0,0:0:0:0:
448,192,342422,128,0,342483:0:0:0:0:
192,192,342513,1,0,0:0:0:0:
448,192,342604,1,0,0:0:0:0:
320,192,342695,1,0,0:0:0:0:
448,192,342786,128,0,342846:0:0:0:0:
64,192,342786,1,0,0:0:0:0:
192,192,342877,1,0,0:0:0:0:
320,192,342967,1,0,0:0:0:0:
192,192,343058,1,0,0:0:0:0:
64,192,343149,1,0,0:0:0:0:
448,192,343149,128,0,343210:0:0:0:0:
192,192,343240,1,0,0:0:0:0:
320,192,343331,1,0,0:0:0:0:
64,192,343422,1,0,0:0:0:0:
192,192,343513,1,0,0:0:0:0:
448,192,343513,128,0,343573:0:0:0:0:
320,192,343604,1,0,0:0:0:0:
64,192,343695,1,0,0:0:0:0:
192,192,343786,1,0,0:0:0:0:
320,192,343877,1,0,0:0:0:0:
448,192,343877,128,0,343937:0:0:0:0:
64,192,343967,1,0,0:0:0:0:
320,192,344058,1,0,0:0:0:0:
448,192,344149,1,0,0:0:0:0:
192,192,344240,1,0,0:0:0:0:
64,192,344240,128,0,344301:0:0:0:0:
320,192,344331,1,0,0:0:0:0:
448,192,344422,1,0,0:0:0:0:
192,192,344513,1,0,0:0:0:0:
64,192,344604,1,0,0:0:0:0:
448,192,344604,128,0,344664:0:0:0:0:
320,192,344695,1,0,0:0:0:0:
192,192,344786,1,0,0:0:0:0:
448,192,344877,1,0,0:0:0:0:
320,192,344967,1,0,0:0:0:0:
64,192,344967,128,0,345028:0:0:0:0:
192,192,345058,1,0,0:0:0:0:
448,192,345149,1,0,0:0:0:0:
64,192,345240,1,0,0:0:0:0:
192,192,345331,1,0,0:0:0:0:
448,192,345331,128,0,345392:0:0:0:0:
320,192,345422,1,0,0:0:0:0:
64,192,345513,1,0,0:0:0:0:
320,192,345604,1,0,0:0:0:0:
64,192,345695,1,0,0:0:0:0:
448,192,345695,128,0,345755:0:0:0:0:
320,192,345786,1,0,0:0:0:0:
64,192,345877,1,0,0:0:0:0:
320,192,345967,1,0,0:0:0:0:
192,192,346058,1,0,0:0:0:0:
448,192,346058,128,0,346119:0:0:0:0:
64,192,346149,1,0,0:0:0:0:
320,192,346240,1,0,0:0:0:0:
192,192,346331,1,0,0:0:0:0:
448,192,346422,128,0,346483:0:0:0:0:
64,192,346422,1,0,0:0:0:0:
192,192,346513,1,0,0:0:0:0:
448,192,346604,1,0,0:0:0:0:
320,192,346695,1,0,0:0:0:0:
192,192,346786,1,0,0:0:0:0:
448,192,346786,128,0,346846:0:0:0:0:
64,192,346877,1,0,0:0:0:0:
320,192,346967,1,0,0:0:0:0:
64,192,347058,1,0,0:0:0:0:
448,192,347149,128,0,347210:0:0:0:0:
192,192,347149,1,0,0:0:0:0:
320,192,347240,1,0,0:0:0:0:
448,192,347331,1,0,0:0:0:0:
192,192,347422,1,0,0:0:0:0:
448,192,347513,128,0,347573:0:0:0:0:
64,192,347513,1,0,0:0:0:0:
192,192,347604,1,0,0:0:0:0:
448,192,347695,1,0,0:0:0:0:
320,192,347786,1,0,0:0:0:0:
64,192,347877,1,0,0:0:0:0:
448,192,347877,128,0,347937:0:0:0:0:
192,192,347967,1,0,0:0:0:0:
64,192,348058,128,0,350967:0:0:0:0:
320,192,348058,128,0,350967:0:0:0:0:
448,192,348058,128,0,350967:0:0:0:0:
