osu file format v14

[General]
AudioFilename: audio.mp3
AudioLeadIn: 0
PreviewTime: 79555
Countdown: 1
SampleSet: Soft
StackLeniency: 0.7
Mode: 1
LetterboxInBreaks: 0
WidescreenStoryboard: 0

[Editor]
DistanceSpacing: 0.8
BeatDivisor: 4
GridSize: 32
TimelineZoom: 4.999997

[Metadata]
Title:psychedelic psychologic
TitleUnicode:psychedelic psychologic
Artist:SOUND HOLIC
ArtistUnicode:SOUND HOLIC
Creator:NlHIL
Version:kyomu
Source:東方地霊殿 ~ Subterranean Animism.
Tags:YURiCa 花たん komeiji satori
BeatmapID:1786909
BeatmapSetID:855130

[Difficulty]
HPDrainRate:5
CircleSize:2
OverallDifficulty:5
ApproachRate:5
SliderMultiplier:1.4
SliderTickRate:1

[Events]
//Background and Video events
0,0,"full mod cheater.jpg",0,0
//Break Periods
2,66443,71043
2,201068,212043
//Storyboard Layer 0 (Background)
//Storyboard Layer 1 (Fail)
//Storyboard Layer 2 (Pass)
//Storyboard Layer 3 (Foreground)
//Storyboard Sound Samples

[TimingPoints]
243,187.5,4,2,0,100,1,0
51243,-66.6666666666667,4,2,0,100,0,0
54430,-100,4,2,0,100,0,0
63243,-66.6666666666667,4,2,0,100,0,0
72243,-250,4,2,0,100,0,0
76743,-100,4,2,0,100,0,0
115368,-66.6666666666667,4,2,0,100,0,0
115743,-100,4,2,0,100,0,0
127930,-250,4,2,0,100,0,0
133743,-100,4,2,0,100,0,0
136743,-66.6666666666667,4,2,0,100,0,0
139930,-100,4,2,0,100,0,0
148743,-66.6666666666667,4,2,0,100,0,0
151743,-250,4,2,0,100,0,0
162243,-100,4,2,0,100,0,0
200868,-66.6666666666667,4,2,0,100,0,0
213243,-250,4,2,0,100,0,0
222243,-100,4,2,0,100,0,0
237243,-166.666666666667,4,2,0,100,0,0
243243,-125,4,2,0,100,0,0
246243,-100,4,2,0,100,0,0
272868,-66.6666666666667,4,2,0,100,0,0

[HitObjects]
251,192,30243,5,0,0:0:0:0:
222,227,30336,1,0,0:0:0:0:
234,198,30430,1,2,0:0:0:0:
222,227,30477,1,2,0:0:0:0:
234,198,30524,1,0,0:0:0:0:
222,227,30571,1,0,0:0:0:0:
240,193,30618,1,2,0:0:0:0:
222,227,30711,1,0,0:0:0:0:
240,193,30805,1,2,0:0:0:0:
250,207,30899,1,2,0:0:0:0:
248,213,30993,1,0,0:0:0:0:
250,207,31086,1,2,0:0:0:0:
295,185,31133,1,0,0:0:0:0:
270,226,31180,1,0,0:0:0:0:
245,221,31227,1,0,0:0:0:0:
246,220,31274,1,0,0:0:0:0:
250,207,31368,1,2,0:0:0:0:
276,218,31414,1,0,0:0:0:0:
278,218,31461,1,0,0:0:0:0:
249,207,31555,1,2,0:0:0:0:
278,218,31649,1,2,0:0:0:0:
252,188,31743,1,0,0:0:0:0:
252,188,31836,1,0,0:0:0:0:
253,188,31930,1,2,0:0:0:0:
253,188,31977,1,2,0:0:0:0:
257,186,32024,1,0,0:0:0:0:
258,186,32071,1,0,0:0:0:0:
257,186,32118,1,2,0:0:0:0:
251,198,32211,1,0,0:0:0:0:
262,198,32305,1,2,0:0:0:0:
275,203,32399,1,0,0:0:0:0:
300,202,32446,1,0,0:0:0:0:
286,198,32493,1,0,0:0:0:0:
247,193,32586,1,2,0:0:0:0:
248,191,32633,1,0,0:0:0:0:
248,191,32680,1,0,0:0:0:0:
248,191,32727,1,0,0:0:0:0:
248,191,32774,1,2,0:0:0:0:
249,190,32821,1,2,0:0:0:0:
250,190,32868,1,0,0:0:0:0:
220,179,32961,1,0,0:0:0:0:
237,194,33055,1,2,0:0:0:0:
256,195,33149,1,0,0:0:0:0:
256,195,33196,1,0,0:0:0:0:
256,195,33243,1,0,0:0:0:0:
251,214,33336,1,0,0:0:0:0:
277,211,33430,1,2,0:0:0:0:
268,211,33477,1,0,0:0:0:0:
272,211,33524,1,0,0:0:0:0:
277,211,33571,1,0,0:0:0:0:
261,208,33618,1,2,0:0:0:0:
261,212,33711,1,0,0:0:0:0:
265,203,33805,1,2,0:0:0:0:
266,202,33852,1,2,0:0:0:0:
266,201,33899,1,2,0:0:0:0:
281,232,33993,1,0,0:0:0:0:
280,219,34086,1,2,0:0:0:0:
280,219,34133,1,2,0:0:0:0:
280,219,34180,1,0,0:0:0:0:
281,220,34274,1,2,0:0:0:0:
259,236,34368,1,0,0:0:0:0:
270,236,34414,1,0,0:0:0:0:
268,236,34461,1,0,0:0:0:0:
268,236,34508,1,0,0:0:0:0:
268,236,34555,1,2,0:0:0:0:
268,236,34602,1,2,0:0:0:0:
268,236,34649,1,2,0:0:0:0:
268,236,34696,1,2,0:0:0:0:
270,232,34743,1,0,0:0:0:0:
254,244,34836,1,0,0:0:0:0:
262,246,34930,1,2,0:0:0:0:
262,246,34977,1,2,0:0:0:0:
262,246,35024,1,0,0:0:0:0:
262,246,35071,1,0,0:0:0:0:
262,246,35118,1,2,0:0:0:0:
275,243,35211,1,0,0:0:0:0:
276,243,35258,1,0,0:0:0:0:
268,236,35305,1,0,0:0:0:0:
268,236,35399,1,2,0:0:0:0:
272,237,35493,1,0,0:0:0:0:
229,225,35586,1,2,0:0:0:0:
243,227,35633,1,2,0:0:0:0:
245,227,35680,1,0,0:0:0:0:
206,225,35774,1,2,0:0:0:0:
201,222,35868,1,0,0:0:0:0:
210,222,35914,1,0,0:0:0:0:
216,222,35961,1,0,0:0:0:0:
216,222,36008,1,0,0:0:0:0:
219,222,36055,1,2,0:0:0:0:
220,221,36102,1,2,0:0:0:0:
221,221,36149,1,2,0:0:0:0:
217,214,36196,1,2,0:0:0:0:
217,214,36243,1,0,0:0:0:0:
163,232,36336,1,0,0:0:0:0:
201,234,36430,1,2,0:0:0:0:
201,234,36477,1,0,0:0:0:0:
201,234,36524,1,0,0:0:0:0:
177,246,36618,1,2,0:0:0:0:
188,238,36664,1,2,0:0:0:0:
186,247,36711,1,0,0:0:0:0:
193,236,36805,1,0,0:0:0:0:
201,234,36852,1,0,0:0:0:0:
202,234,36899,1,0,0:0:0:0:
184,217,36993,1,0,0:0:0:0:
209,218,37086,1,2,0:0:0:0:
202,218,37133,1,0,0:0:0:0:
202,218,37180,1,0,0:0:0:0:
231,236,37274,1,2,0:0:0:0:
198,217,37368,1,0,0:0:0:0:
211,232,37461,1,0,0:0:0:0:
211,237,37555,1,2,0:0:0:0:
211,237,37602,1,2,0:0:0:0:
211,237,37649,1,2,0:0:0:0:
211,237,37696,1,2,0:0:0:0:
256,192,37743,12,0,39055,0:0:0:0:
201,238,39243,5,0,0:0:0:0:
202,237,39430,1,0,0:0:0:0:
202,237,39618,1,0,0:0:0:0:
187,232,39805,1,0,0:0:0:0:
232,246,39993,1,0,0:0:0:0:
232,246,40180,1,0,0:0:0:0:
232,246,40368,1,0,0:0:0:0:
232,246,40555,1,0,0:0:0:0:
232,246,40743,1,0,0:0:0:0:
232,246,40836,1,0,0:0:0:0:
232,246,40930,1,0,0:0:0:0:
232,246,41024,1,0,0:0:0:0:
232,246,41118,1,0,0:0:0:0:
232,246,41211,1,0,0:0:0:0:
236,242,41305,1,0,0:0:0:0:
232,246,41399,1,0,0:0:0:0:
232,246,41493,1,0,0:0:0:0:
232,246,41539,1,0,0:0:0:0:
232,246,41586,1,0,0:0:0:0:
232,246,41633,1,0,0:0:0:0:
232,246,41680,1,0,0:0:0:0:
233,240,41727,1,0,0:0:0:0:
233,240,41774,1,0,0:0:0:0:
233,240,41821,1,0,0:0:0:0:
233,240,41868,1,2,0:0:0:0:
233,240,41914,1,2,0:0:0:0:
233,240,41961,1,2,0:0:0:0:
233,240,42008,1,2,0:0:0:0:
236,242,42055,1,2,0:0:0:0:
236,242,42102,1,2,0:0:0:0:
233,240,42149,1,2,0:0:0:0:
233,240,42196,1,2,0:0:0:0:
233,240,42243,1,0,0:0:0:0:
239,244,42430,1,0,0:0:0:0:
219,251,42524,1,0,0:0:0:0:
215,250,42618,1,2,0:0:0:0:
216,250,42664,1,0,0:0:0:0:
219,250,42711,1,0,0:0:0:0:
227,245,42805,1,2,0:0:0:0:
226,245,42899,1,0,0:0:0:0:
226,245,42993,1,2,0:0:0:0:
221,245,43180,1,0,0:0:0:0:
221,246,43227,1,0,0:0:0:0:
225,246,43274,1,0,0:0:0:0:
227,246,43368,1,2,0:0:0:0:
164,214,43461,1,0,0:0:0:0:
226,245,43555,1,2,0:0:0:0:
227,245,43602,1,2,0:0:0:0:
226,245,43649,1,0,0:0:0:0:
160,217,43696,1,0,0:0:0:0:
181,223,43743,1,2,0:0:0:0:
192,240,43930,1,0,0:0:0:0:
200,230,44024,1,2,0:0:0:0:
164,214,44118,1,0,0:0:0:0:
179,216,44164,1,0,0:0:0:0:
182,213,44211,1,2,0:0:0:0:
183,212,44258,1,0,0:0:0:0:
182,208,44305,1,2,0:0:0:0:
188,206,44399,1,2,0:0:0:0:
189,206,44446,1,2,0:0:0:0:
188,206,44493,1,0,0:0:0:0:
171,232,44586,1,2,0:0:0:0:
172,225,44633,1,0,0:0:0:0:
167,222,44680,1,0,0:0:0:0:
145,200,44774,1,2,0:0:0:0:
232,247,44868,1,0,0:0:0:0:
176,228,44914,1,0,0:0:0:0:
180,227,44961,1,2,0:0:0:0:
177,227,45055,1,2,0:0:0:0:
257,266,45243,1,0,0:0:0:0:
254,261,45336,1,2,0:0:0:0:
262,219,45430,1,0,0:0:0:0:
258,226,45477,1,0,0:0:0:0:
251,226,45524,1,0,0:0:0:0:
262,219,45618,1,2,0:0:0:0:
296,268,45711,1,0,0:0:0:0:
283,234,45805,1,2,0:0:0:0:
279,234,45852,1,2,0:0:0:0:
281,237,45899,1,2,0:0:0:0:
276,235,45993,1,0,0:0:0:0:
255,236,46180,1,2,0:0:0:0:
289,281,46274,1,0,0:0:0:0:
287,277,46321,1,0,0:0:0:0:
288,270,46368,1,0,0:0:0:0:
287,259,46461,1,2,0:0:0:0:
286,258,46508,1,0,0:0:0:0:
284,257,46555,1,0,0:0:0:0:
230,270,46649,1,2,0:0:0:0:
230,270,46696,1,2,0:0:0:0:
230,270,46743,1,0,0:0:0:0:
241,257,46930,1,0,0:0:0:0:
246,253,46977,1,0,0:0:0:0:
249,253,47024,1,2,0:0:0:0:
256,243,47071,1,2,0:0:0:0:
251,247,47118,1,0,0:0:0:0:
294,262,47211,1,2,0:0:0:0:
241,266,47305,1,0,0:0:0:0:
260,263,47352,1,0,0:0:0:0:
261,262,47399,1,2,0:0:0:0:
366,322,47493,1,0,0:0:0:0:
291,247,47680,1,2,0:0:0:0:
292,246,47727,1,2,0:0:0:0:
292,245,47774,1,2,0:0:0:0:
295,238,47868,1,0,0:0:0:0:
368,270,47961,1,2,0:0:0:0:
356,255,48055,1,0,0:0:0:0:
359,256,48102,1,0,0:0:0:0:
365,255,48149,1,2,0:0:0:0:
236,230,48243,1,0,0:0:0:0:
221,230,48430,1,2,0:0:0:0:
221,231,48477,1,2,0:0:0:0:
221,231,48524,1,2,0:0:0:0:
236,230,48618,1,0,0:0:0:0:
242,227,48711,1,2,0:0:0:0:
247,232,48805,1,0,0:0:0:0:
247,232,48852,1,0,0:0:0:0:
246,232,48899,1,2,0:0:0:0:
246,232,48993,1,0,0:0:0:0:
170,216,49180,1,2,0:0:0:0:
181,216,49227,1,0,0:0:0:0:
170,216,49274,1,0,0:0:0:0:
214,223,49368,1,2,0:0:0:0:
217,222,49461,1,0,0:0:0:0:
221,217,49555,1,2,0:0:0:0:
223,217,49602,1,2,0:0:0:0:
221,211,49649,1,2,0:0:0:0:
218,209,49743,1,0,0:0:0:0:
178,222,49930,1,2,0:0:0:0:
192,226,50024,1,2,0:0:0:0:
188,226,50118,1,0,0:0:0:0:
188,224,50164,1,0,0:0:0:0:
185,220,50211,1,0,0:0:0:0:
187,217,50305,1,2,0:0:0:0:
184,217,50399,1,0,0:0:0:0:
186,214,50493,1,2,0:0:0:0:
191,201,50680,1,0,0:0:0:0:
183,213,50774,1,0,0:0:0:0:
184,222,50868,1,2,0:0:0:0:
188,226,50914,1,2,0:0:0:0:
188,224,50961,1,0,0:0:0:0:
191,217,51055,1,2,0:0:0:0:
196,214,51149,1,2,0:0:0:0:
256,192,51243,8,0,51383,0:0:0:0:
256,192,51430,8,0,51570,0:0:0:0:
256,192,51618,8,0,51758,0:0:0:0:
256,192,51805,8,0,51945,0:0:0:0:
256,192,51993,8,0,52133,0:0:0:0:
256,192,52180,8,0,52320,0:0:0:0:
256,192,52368,8,0,52508,0:0:0:0:
256,192,52555,8,0,52602,0:0:0:0:
256,192,52649,8,0,52696,0:0:0:0:
256,192,52743,12,0,54243,0:0:0:0:
239,244,54430,5,0,0:0:0:0:
219,251,54524,1,0,0:0:0:0:
215,250,54618,1,2,0:0:0:0:
216,250,54664,1,0,0:0:0:0:
219,250,54711,1,0,0:0:0:0:
227,245,54805,1,2,0:0:0:0:
226,245,54899,1,0,0:0:0:0:
226,245,54993,1,2,0:0:0:0:
221,245,55180,1,0,0:0:0:0:
221,246,55227,1,0,0:0:0:0:
225,246,55274,1,0,0:0:0:0:
227,246,55368,1,2,0:0:0:0:
164,214,55461,1,0,0:0:0:0:
226,245,55555,1,2,0:0:0:0:
227,245,55602,1,2,0:0:0:0:
226,245,55649,1,0,0:0:0:0:
160,217,55696,1,0,0:0:0:0:
181,223,55743,1,2,0:0:0:0:
192,240,55930,1,0,0:0:0:0:
200,230,56024,1,2,0:0:0:0:
164,214,56118,1,0,0:0:0:0:
179,216,56164,1,0,0:0:0:0:
182,213,56211,1,2,0:0:0:0:
183,212,56258,1,0,0:0:0:0:
182,208,56305,1,2,0:0:0:0:
188,206,56399,1,2,0:0:0:0:
189,206,56446,1,2,0:0:0:0:
188,206,56493,1,0,0:0:0:0:
171,232,56586,1,2,0:0:0:0:
172,225,56633,1,0,0:0:0:0:
167,222,56680,1,0,0:0:0:0:
145,200,56774,1,2,0:0:0:0:
232,247,56868,1,0,0:0:0:0:
176,228,56914,1,0,0:0:0:0:
180,227,56961,1,2,0:0:0:0:
177,227,57055,1,2,0:0:0:0:
257,266,57243,1,0,0:0:0:0:
254,261,57336,1,2,0:0:0:0:
262,219,57430,1,0,0:0:0:0:
258,226,57477,1,0,0:0:0:0:
251,226,57524,1,0,0:0:0:0:
262,219,57618,1,2,0:0:0:0:
296,268,57711,1,0,0:0:0:0:
283,234,57805,1,2,0:0:0:0:
279,234,57852,1,2,0:0:0:0:
281,237,57899,1,2,0:0:0:0:
276,235,57993,1,0,0:0:0:0:
255,236,58180,1,2,0:0:0:0:
289,281,58274,1,0,0:0:0:0:
287,277,58321,1,0,0:0:0:0:
288,270,58368,1,0,0:0:0:0:
287,259,58461,1,2,0:0:0:0:
286,258,58508,1,0,0:0:0:0:
284,257,58555,1,0,0:0:0:0:
230,270,58649,1,2,0:0:0:0:
230,270,58696,1,2,0:0:0:0:
230,270,58743,1,0,0:0:0:0:
241,257,58930,1,0,0:0:0:0:
246,253,58977,1,0,0:0:0:0:
249,253,59024,1,2,0:0:0:0:
256,243,59071,1,2,0:0:0:0:
251,247,59118,1,0,0:0:0:0:
294,262,59211,1,2,0:0:0:0:
241,266,59305,1,0,0:0:0:0:
260,263,59352,1,0,0:0:0:0:
261,262,59399,1,2,0:0:0:0:
366,322,59493,1,0,0:0:0:0:
291,247,59680,1,2,0:0:0:0:
292,246,59727,1,2,0:0:0:0:
292,245,59774,1,2,0:0:0:0:
295,238,59868,1,0,0:0:0:0:
368,270,59961,1,2,0:0:0:0:
356,255,60055,1,0,0:0:0:0:
359,256,60102,1,0,0:0:0:0:
365,255,60149,1,2,0:0:0:0:
236,230,60243,1,0,0:0:0:0:
221,230,60430,1,2,0:0:0:0:
221,231,60477,1,2,0:0:0:0:
221,231,60524,1,2,0:0:0:0:
236,230,60618,1,0,0:0:0:0:
242,227,60711,1,2,0:0:0:0:
247,232,60805,1,0,0:0:0:0:
247,232,60852,1,0,0:0:0:0:
246,232,60899,1,2,0:0:0:0:
246,232,60993,1,0,0:0:0:0:
170,216,61180,1,2,0:0:0:0:
181,216,61227,1,0,0:0:0:0:
170,216,61274,1,0,0:0:0:0:
214,223,61368,1,2,0:0:0:0:
217,222,61461,1,0,0:0:0:0:
221,217,61555,1,2,0:0:0:0:
223,217,61602,1,2,0:0:0:0:
221,211,61649,1,2,0:0:0:0:
218,209,61743,1,4,0:0:0:0:
192,226,62024,1,6,0:0:0:0:
187,217,62305,1,6,0:0:0:0:
191,201,62680,1,0,0:0:0:0:
183,213,62774,1,0,0:0:0:0:
184,222,62868,1,2,0:0:0:0:
188,226,62914,1,2,0:0:0:0:
188,224,62961,1,0,0:0:0:0:
191,217,63055,1,2,0:0:0:0:
196,214,63149,1,2,0:0:0:0:
256,192,63243,8,0,63383,0:0:0:0:
256,192,63430,8,0,63570,0:0:0:0:
256,192,63618,8,0,63758,0:0:0:0:
256,192,63805,8,0,63945,0:0:0:0:
256,192,63993,8,0,64133,0:0:0:0:
256,192,64180,8,0,64320,0:0:0:0:
256,192,64368,8,0,64508,0:0:0:0:
256,192,64555,8,0,64602,0:0:0:0:
256,192,64649,8,0,64696,0:0:0:0:
256,192,64743,12,0,66243,0:0:0:0:
211,220,72243,5,4,0:0:0:0:
257,238,72618,1,2,0:0:0:0:
211,220,72993,1,2,0:0:0:0:
257,238,73368,1,2,0:0:0:0:
211,220,73743,1,4,0:0:0:0:
257,238,74118,1,2,0:0:0:0:
211,220,74493,1,2,0:0:0:0:
257,238,74868,1,2,0:0:0:0:
232,230,75243,1,4,0:0:0:0:
281,274,75618,1,2,0:0:0:0:
232,230,75993,1,4,0:0:0:0:
281,274,76368,1,2,0:0:0:0:
206,220,76743,1,0,0:0:0:0:
216,232,76836,1,2,0:0:0:0:
216,232,76930,1,2,0:0:0:0:
216,232,77024,1,2,0:0:0:0:
206,220,77118,1,0,0:0:0:0:
216,232,77211,1,2,0:0:0:0:
216,232,77305,1,2,0:0:0:0:
216,232,77399,1,2,0:0:0:0:
201,233,77493,1,0,0:0:0:0:
199,227,77680,1,0,0:0:0:0:
206,227,77868,1,0,0:0:0:0:
210,227,78055,1,2,0:0:0:0:
212,227,78149,1,2,0:0:0:0:
213,227,78243,1,0,0:0:0:0:
215,226,78289,1,0,0:0:0:0:
216,226,78336,1,2,0:0:0:0:
216,226,78383,1,0,0:0:0:0:
220,226,78430,1,2,0:0:0:0:
221,226,78477,1,2,0:0:0:0:
223,226,78524,1,0,0:0:0:0:
225,226,78571,1,2,0:0:0:0:
213,227,78618,1,0,0:0:0:0:
215,226,78664,1,0,0:0:0:0:
216,226,78711,1,2,0:0:0:0:
216,226,78758,1,0,0:0:0:0:
220,226,78805,1,2,0:0:0:0:
221,226,78852,1,2,0:0:0:0:
223,226,78899,1,0,0:0:0:0:
225,226,78946,1,2,0:0:0:0:
213,227,78993,1,0,0:0:0:0:
215,226,79039,1,0,0:0:0:0:
216,226,79086,1,2,0:0:0:0:
216,226,79133,1,0,0:0:0:0:
220,226,79180,1,2,0:0:0:0:
221,226,79227,1,2,0:0:0:0:
223,226,79274,1,0,0:0:0:0:
225,226,79321,1,2,0:0:0:0:
213,227,79368,1,2,0:0:0:0:
235,237,79743,1,0,0:0:0:0:
238,241,79836,1,0,0:0:0:0:
236,243,79930,1,2,0:0:0:0:
236,242,80024,1,0,0:0:0:0:
236,243,80118,1,2,0:0:0:0:
256,256,80164,1,2,0:0:0:0:
244,249,80211,1,0,0:0:0:0:
248,249,80305,1,2,0:0:0:0:
247,249,80399,1,0,0:0:0:0:
242,236,80493,1,2,0:0:0:0:
231,244,80586,1,0,0:0:0:0:
231,251,80680,1,0,0:0:0:0:
230,250,80774,1,2,0:0:0:0:
230,250,80868,1,0,0:0:0:0:
236,258,80914,1,0,0:0:0:0:
231,250,80961,1,0,0:0:0:0:
231,254,81055,1,2,0:0:0:0:
231,255,81149,1,2,0:0:0:0:
246,232,81243,1,0,0:0:0:0:
231,232,81289,1,0,0:0:0:0:
226,235,81336,1,2,0:0:0:0:
226,235,81383,1,0,0:0:0:0:
228,235,81430,1,2,0:0:0:0:
222,227,81524,1,0,0:0:0:0:
218,229,81571,1,0,0:0:0:0:
238,230,81618,1,2,0:0:0:0:
235,241,81711,1,0,0:0:0:0:
235,238,81805,1,2,0:0:0:0:
235,238,81852,1,0,0:0:0:0:
237,234,81899,1,0,0:0:0:0:
246,232,81993,1,2,0:0:0:0:
192,233,82086,1,0,0:0:0:0:
205,238,82133,1,0,0:0:0:0:
214,234,82180,1,0,0:0:0:0:
216,232,82274,1,0,0:0:0:0:
214,237,82368,1,2,0:0:0:0:
211,234,82414,1,2,0:0:0:0:
208,234,82461,1,0,0:0:0:0:
215,238,82508,1,0,0:0:0:0:
221,237,82555,1,2,0:0:0:0:
221,234,82649,1,2,0:0:0:0:
194,225,82743,1,0,0:0:0:0:
199,225,82789,1,0,0:0:0:0:
201,222,82836,1,0,0:0:0:0:
201,222,82930,1,2,0:0:0:0:
205,222,83024,1,0,0:0:0:0:
259,282,83118,1,2,0:0:0:0:
255,266,83164,1,2,0:0:0:0:
255,266,83211,1,0,0:0:0:0:
258,266,83305,1,2,0:0:0:0:
225,250,83399,1,0,0:0:0:0:
213,230,83493,1,2,0:0:0:0:
214,232,83539,1,2,0:0:0:0:
214,232,83586,1,0,0:0:0:0:
214,232,83680,1,0,0:0:0:0:
236,228,83774,1,2,0:0:0:0:
176,232,83868,1,0,0:0:0:0:
183,234,83914,1,0,0:0:0:0:
183,234,83961,1,0,0:0:0:0:
186,234,84055,1,0,0:0:0:0:
187,234,84102,1,0,0:0:0:0:
188,234,84149,1,2,0:0:0:0:
185,239,84243,1,0,0:0:0:0:
222,216,84430,1,2,0:0:0:0:
223,212,84524,1,2,0:0:0:0:
227,209,84618,1,0,0:0:0:0:
222,207,84664,1,0,0:0:0:0:
227,206,84711,1,2,0:0:0:0:
198,213,84758,1,2,0:0:0:0:
231,208,84805,1,2,0:0:0:0:
242,207,84899,1,2,0:0:0:0:
183,206,84993,1,0,0:0:0:0:
201,212,85039,1,0,0:0:0:0:
206,212,85086,1,2,0:0:0:0:
216,208,85180,1,0,0:0:0:0:
216,208,85227,1,0,0:0:0:0:
218,208,85274,1,2,0:0:0:0:
220,208,85368,1,4,0:0:0:0:
239,214,85461,1,4,0:0:0:0:
236,211,85555,1,4,0:0:0:0:
256,192,85743,12,0,88555,0:0:0:0:
271,209,88743,5,0,0:0:0:0:
270,215,88836,1,2,0:0:0:0:
270,215,88930,1,0,0:0:0:0:
269,214,89024,1,2,0:0:0:0:
269,214,89118,1,0,0:0:0:0:
269,214,89211,1,2,0:0:0:0:
269,214,89305,1,0,0:0:0:0:
268,213,89399,1,2,0:0:0:0:
268,213,89493,1,0,0:0:0:0:
268,213,89539,1,2,0:0:0:0:
270,215,89586,1,0,0:0:0:0:
270,215,89633,1,2,0:0:0:0:
270,215,89680,1,0,0:0:0:0:
270,215,89727,1,2,0:0:0:0:
269,214,89774,1,0,0:0:0:0:
269,214,89821,1,2,0:0:0:0:
269,214,89868,1,0,0:0:0:0:
269,214,89961,1,2,0:0:0:0:
269,214,90008,1,2,0:0:0:0:
269,214,90055,1,0,0:0:0:0:
291,234,90430,1,4,0:0:0:0:
291,234,90618,1,4,0:0:0:0:
282,232,90993,1,4,0:0:0:0:
282,232,91368,1,6,0:0:0:0:
235,237,91743,1,0,0:0:0:0:
238,241,91836,1,0,0:0:0:0:
236,243,91930,1,2,0:0:0:0:
236,242,92024,1,0,0:0:0:0:
236,243,92118,1,2,0:0:0:0:
256,256,92164,1,2,0:0:0:0:
244,249,92211,1,0,0:0:0:0:
248,249,92305,1,2,0:0:0:0:
247,249,92399,1,0,0:0:0:0:
242,236,92493,1,2,0:0:0:0:
231,244,92586,1,0,0:0:0:0:
231,251,92680,1,0,0:0:0:0:
230,250,92774,1,2,0:0:0:0:
230,250,92868,1,0,0:0:0:0:
236,258,92914,1,0,0:0:0:0:
231,250,92961,1,0,0:0:0:0:
231,254,93055,1,2,0:0:0:0:
231,255,93149,1,2,0:0:0:0:
246,232,93243,1,0,0:0:0:0:
231,232,93289,1,0,0:0:0:0:
226,235,93336,1,2,0:0:0:0:
226,235,93383,1,0,0:0:0:0:
228,235,93430,1,2,0:0:0:0:
222,227,93524,1,0,0:0:0:0:
218,229,93571,1,0,0:0:0:0:
238,230,93618,1,2,0:0:0:0:
235,241,93711,1,0,0:0:0:0:
235,238,93805,1,2,0:0:0:0:
235,238,93852,1,0,0:0:0:0:
237,234,93899,1,0,0:0:0:0:
246,232,93993,1,2,0:0:0:0:
192,233,94086,1,0,0:0:0:0:
205,238,94133,1,0,0:0:0:0:
214,234,94180,1,0,0:0:0:0:
216,232,94274,1,0,0:0:0:0:
214,237,94368,1,2,0:0:0:0:
211,234,94414,1,2,0:0:0:0:
208,234,94461,1,0,0:0:0:0:
215,238,94508,1,0,0:0:0:0:
221,237,94555,1,2,0:0:0:0:
221,234,94649,1,2,0:0:0:0:
194,225,94743,1,0,0:0:0:0:
199,225,94789,1,0,0:0:0:0:
201,222,94836,1,0,0:0:0:0:
201,222,94930,1,2,0:0:0:0:
205,222,95024,1,0,0:0:0:0:
259,282,95118,1,2,0:0:0:0:
255,266,95164,1,2,0:0:0:0:
255,266,95211,1,0,0:0:0:0:
258,266,95305,1,2,0:0:0:0:
225,250,95399,1,0,0:0:0:0:
213,230,95493,1,2,0:0:0:0:
214,232,95539,1,2,0:0:0:0:
214,232,95586,1,0,0:0:0:0:
214,232,95680,1,0,0:0:0:0:
236,228,95774,1,2,0:0:0:0:
176,232,95868,1,0,0:0:0:0:
183,234,95914,1,0,0:0:0:0:
183,234,95961,1,0,0:0:0:0:
186,234,96055,1,0,0:0:0:0:
187,234,96102,1,0,0:0:0:0:
188,234,96149,1,2,0:0:0:0:
185,239,96243,1,0,0:0:0:0:
222,216,96430,1,2,0:0:0:0:
223,212,96524,1,2,0:0:0:0:
227,209,96618,1,0,0:0:0:0:
222,207,96664,1,0,0:0:0:0:
227,206,96711,1,2,0:0:0:0:
198,213,96758,1,2,0:0:0:0:
231,208,96805,1,2,0:0:0:0:
242,207,96899,1,2,0:0:0:0:
183,206,96993,1,0,0:0:0:0:
201,212,97039,1,0,0:0:0:0:
206,212,97086,1,2,0:0:0:0:
216,208,97180,1,0,0:0:0:0:
216,208,97227,1,0,0:0:0:0:
218,208,97274,1,2,0:0:0:0:
227,209,97368,1,0,0:0:0:0:
227,209,97414,1,2,0:0:0:0:
222,207,97461,1,0,0:0:0:0:
222,210,97508,1,2,0:0:0:0:
221,212,97555,1,0,0:0:0:0:
256,192,97743,12,0,100555,0:0:0:0:
271,209,100743,5,0,0:0:0:0:
270,215,100836,1,2,0:0:0:0:
270,215,100930,1,0,0:0:0:0:
269,214,101024,1,2,0:0:0:0:
269,214,101118,1,0,0:0:0:0:
269,214,101211,1,2,0:0:0:0:
269,214,101305,1,0,0:0:0:0:
268,213,101399,1,2,0:0:0:0:
268,213,101493,1,0,0:0:0:0:
268,213,101539,1,2,0:0:0:0:
270,215,101586,1,0,0:0:0:0:
270,215,101633,1,2,0:0:0:0:
270,215,101680,1,0,0:0:0:0:
270,215,101727,1,2,0:0:0:0:
269,214,101774,1,0,0:0:0:0:
269,214,101821,1,2,0:0:0:0:
269,214,101868,1,0,0:0:0:0:
268,213,101914,1,2,0:0:0:0:
270,215,101961,1,0,0:0:0:0:
270,215,102008,1,2,0:0:0:0:
270,215,102055,1,0,0:0:0:0:
270,215,102102,1,2,0:0:0:0:
269,214,102149,1,0,0:0:0:0:
269,214,102196,1,2,0:0:0:0:
269,214,102243,1,0,0:0:0:0:
251,224,102524,1,4,0:0:0:0:
251,224,102805,1,4,0:0:0:0:
251,224,103180,1,4,0:0:0:0:
251,224,103274,1,4,0:0:0:0:
251,224,103368,1,6,0:0:0:0:
235,237,103743,1,0,0:0:0:0:
238,241,103836,1,0,0:0:0:0:
236,243,103930,1,2,0:0:0:0:
236,242,104024,1,0,0:0:0:0:
236,243,104118,1,2,0:0:0:0:
256,256,104164,1,2,0:0:0:0:
244,249,104211,1,0,0:0:0:0:
248,249,104305,1,2,0:0:0:0:
247,249,104399,1,0,0:0:0:0:
242,236,104493,1,2,0:0:0:0:
231,244,104586,1,0,0:0:0:0:
231,251,104680,1,0,0:0:0:0:
230,250,104774,1,2,0:0:0:0:
230,250,104868,1,0,0:0:0:0:
236,258,104914,1,0,0:0:0:0:
231,250,104961,1,0,0:0:0:0:
231,254,105055,1,2,0:0:0:0:
231,255,105149,1,2,0:0:0:0:
246,232,105243,1,0,0:0:0:0:
231,232,105289,1,0,0:0:0:0:
226,235,105336,1,2,0:0:0:0:
226,235,105383,1,0,0:0:0:0:
228,235,105430,1,2,0:0:0:0:
222,227,105524,1,0,0:0:0:0:
218,229,105571,1,0,0:0:0:0:
238,230,105618,1,2,0:0:0:0:
235,241,105711,1,0,0:0:0:0:
235,238,105805,1,2,0:0:0:0:
235,238,105852,1,0,0:0:0:0:
237,234,105899,1,0,0:0:0:0:
246,232,105993,1,2,0:0:0:0:
192,233,106086,1,0,0:0:0:0:
205,238,106133,1,0,0:0:0:0:
214,234,106180,1,0,0:0:0:0:
216,232,106274,1,0,0:0:0:0:
214,237,106368,1,2,0:0:0:0:
211,234,106414,1,2,0:0:0:0:
208,234,106461,1,0,0:0:0:0:
215,238,106508,1,0,0:0:0:0:
221,237,106555,1,2,0:0:0:0:
221,234,106649,1,2,0:0:0:0:
194,225,106743,1,0,0:0:0:0:
199,225,106789,1,0,0:0:0:0:
201,222,106836,1,0,0:0:0:0:
201,222,106930,1,2,0:0:0:0:
205,222,107024,1,0,0:0:0:0:
259,282,107118,1,2,0:0:0:0:
255,266,107164,1,2,0:0:0:0:
255,266,107211,1,0,0:0:0:0:
258,266,107305,1,2,0:0:0:0:
225,250,107399,1,0,0:0:0:0:
213,230,107493,1,2,0:0:0:0:
214,232,107539,1,2,0:0:0:0:
214,232,107586,1,0,0:0:0:0:
214,232,107680,1,0,0:0:0:0:
236,228,107774,1,2,0:0:0:0:
176,232,107868,1,0,0:0:0:0:
183,234,107914,1,0,0:0:0:0:
183,234,107961,1,0,0:0:0:0:
186,234,108055,1,0,0:0:0:0:
187,234,108102,1,0,0:0:0:0:
188,234,108149,1,2,0:0:0:0:
185,239,108243,1,0,0:0:0:0:
222,216,108430,1,2,0:0:0:0:
223,212,108524,1,2,0:0:0:0:
227,209,108618,1,0,0:0:0:0:
222,207,108664,1,0,0:0:0:0:
227,206,108711,1,2,0:0:0:0:
198,213,108758,1,2,0:0:0:0:
231,208,108805,1,2,0:0:0:0:
242,207,108899,1,2,0:0:0:0:
183,206,108993,1,0,0:0:0:0:
201,212,109039,1,0,0:0:0:0:
206,212,109086,1,2,0:0:0:0:
216,208,109180,1,0,0:0:0:0:
216,208,109227,1,2,0:0:0:0:
218,208,109274,1,0,0:0:0:0:
227,209,109368,1,2,0:0:0:0:
222,207,109414,1,0,0:0:0:0:
222,210,109461,1,0,0:0:0:0:
221,212,109555,1,2,0:0:0:0:
271,209,109743,1,0,0:0:0:0:
270,215,109836,1,2,0:0:0:0:
270,215,109930,1,0,0:0:0:0:
269,214,110024,1,2,0:0:0:0:
269,214,110118,1,0,0:0:0:0:
269,214,110211,1,2,0:0:0:0:
269,214,110305,1,0,0:0:0:0:
268,213,110399,1,2,0:0:0:0:
271,209,110493,1,0,0:0:0:0:
270,215,110586,1,2,0:0:0:0:
270,215,110680,1,0,0:0:0:0:
269,214,110774,1,2,0:0:0:0:
269,214,110868,1,0,0:0:0:0:
269,214,110961,1,2,0:0:0:0:
269,214,111055,1,0,0:0:0:0:
268,213,111149,1,2,0:0:0:0:
268,213,111243,1,0,0:0:0:0:
268,213,111289,1,2,0:0:0:0:
270,215,111336,1,0,0:0:0:0:
270,215,111383,1,2,0:0:0:0:
270,215,111430,1,0,0:0:0:0:
270,215,111477,1,2,0:0:0:0:
269,214,111524,1,0,0:0:0:0:
269,214,111571,1,2,0:0:0:0:
269,214,111618,1,0,0:0:0:0:
268,213,111664,1,2,0:0:0:0:
270,215,111711,1,0,0:0:0:0:
270,215,111758,1,2,0:0:0:0:
270,215,111805,1,0,0:0:0:0:
270,215,111852,1,2,0:0:0:0:
269,214,111899,1,0,0:0:0:0:
269,214,111946,1,2,0:0:0:0:
272,243,111993,1,0,0:0:0:0:
272,243,112024,1,0,0:0:0:0:
272,243,112055,1,0,0:0:0:0:
272,243,112086,1,0,0:0:0:0:
272,243,112118,1,0,0:0:0:0:
276,236,112149,1,0,0:0:0:0:
277,236,112180,1,0,0:0:0:0:
277,236,112211,1,0,0:0:0:0:
277,236,112243,1,0,0:0:0:0:
277,236,112274,1,0,0:0:0:0:
277,236,112305,1,0,0:0:0:0:
277,236,112336,1,0,0:0:0:0:
278,236,112368,1,2,0:0:0:0:
272,243,112555,1,4,0:0:0:0:
271,241,112930,1,4,0:0:0:0:
271,241,113118,1,4,0:0:0:0:
272,243,113305,1,4,0:0:0:0:
271,241,113493,1,4,0:0:0:0:
271,241,113868,1,4,0:0:0:0:
272,243,114055,1,6,0:0:0:0:
257,239,114430,1,6,0:0:0:0:
251,240,114618,1,4,0:0:0:0:
247,240,114805,1,4,0:0:0:0:
246,240,114993,1,6,0:0:0:0:
187,192,115368,1,4,0:0:0:0:
251,192,115743,1,0,0:0:0:0:
222,227,115836,1,0,0:0:0:0:
234,198,115930,1,2,0:0:0:0:
222,227,115977,1,2,0:0:0:0:
234,198,116024,1,0,0:0:0:0:
222,227,116071,1,0,0:0:0:0:
240,193,116118,1,2,0:0:0:0:
222,227,116211,1,0,0:0:0:0:
240,193,116305,1,2,0:0:0:0:
250,207,116399,1,2,0:0:0:0:
248,213,116493,1,0,0:0:0:0:
250,207,116586,1,2,0:0:0:0:
295,185,116633,1,0,0:0:0:0:
270,226,116680,1,0,0:0:0:0:
245,221,116727,1,0,0:0:0:0:
246,220,116774,1,0,0:0:0:0:
250,207,116868,1,2,0:0:0:0:
276,218,116914,1,0,0:0:0:0:
278,218,116961,1,0,0:0:0:0:
249,207,117055,1,2,0:0:0:0:
278,218,117149,1,2,0:0:0:0:
252,188,117243,1,0,0:0:0:0:
252,188,117336,1,0,0:0:0:0:
253,188,117430,1,2,0:0:0:0:
253,188,117477,1,2,0:0:0:0:
257,186,117524,1,0,0:0:0:0:
258,186,117571,1,0,0:0:0:0:
257,186,117618,1,2,0:0:0:0:
251,198,117711,1,0,0:0:0:0:
262,198,117805,1,2,0:0:0:0:
275,203,117899,1,0,0:0:0:0:
300,202,117946,1,0,0:0:0:0:
286,198,117993,1,0,0:0:0:0:
247,193,118086,1,2,0:0:0:0:
248,191,118133,1,0,0:0:0:0:
248,191,118180,1,0,0:0:0:0:
248,191,118227,1,0,0:0:0:0:
248,191,118274,1,2,0:0:0:0:
249,190,118321,1,2,0:0:0:0:
250,190,118368,1,0,0:0:0:0:
220,179,118461,1,0,0:0:0:0:
237,194,118555,1,2,0:0:0:0:
256,195,118649,1,0,0:0:0:0:
256,195,118696,1,0,0:0:0:0:
256,195,118743,1,0,0:0:0:0:
251,214,118836,1,0,0:0:0:0:
277,211,118930,1,2,0:0:0:0:
268,211,118977,1,0,0:0:0:0:
272,211,119024,1,0,0:0:0:0:
277,211,119071,1,0,0:0:0:0:
261,208,119118,1,2,0:0:0:0:
261,212,119211,1,0,0:0:0:0:
265,203,119305,1,2,0:0:0:0:
266,202,119352,1,2,0:0:0:0:
266,201,119399,1,2,0:0:0:0:
281,232,119493,1,0,0:0:0:0:
280,219,119586,1,2,0:0:0:0:
280,219,119633,1,2,0:0:0:0:
280,219,119680,1,0,0:0:0:0:
281,220,119774,1,2,0:0:0:0:
259,236,119868,1,0,0:0:0:0:
270,236,119914,1,0,0:0:0:0:
268,236,119961,1,0,0:0:0:0:
268,236,120008,1,0,0:0:0:0:
268,236,120055,1,2,0:0:0:0:
268,236,120102,1,2,0:0:0:0:
268,236,120149,1,2,0:0:0:0:
268,236,120196,1,2,0:0:0:0:
270,232,120243,1,0,0:0:0:0:
254,244,120336,1,0,0:0:0:0:
262,246,120430,1,2,0:0:0:0:
262,246,120477,1,2,0:0:0:0:
262,246,120524,1,0,0:0:0:0:
262,246,120571,1,0,0:0:0:0:
262,246,120618,1,2,0:0:0:0:
275,243,120711,1,0,0:0:0:0:
276,243,120758,1,0,0:0:0:0:
268,236,120805,1,0,0:0:0:0:
268,236,120899,1,2,0:0:0:0:
272,237,120993,1,0,0:0:0:0:
229,225,121086,1,2,0:0:0:0:
243,227,121133,1,2,0:0:0:0:
245,227,121180,1,0,0:0:0:0:
206,225,121274,1,2,0:0:0:0:
201,222,121368,1,0,0:0:0:0:
210,222,121414,1,0,0:0:0:0:
216,222,121461,1,0,0:0:0:0:
216,222,121508,1,0,0:0:0:0:
219,222,121555,1,2,0:0:0:0:
220,221,121602,1,2,0:0:0:0:
221,221,121649,1,2,0:0:0:0:
217,214,121696,1,2,0:0:0:0:
217,214,121743,1,0,0:0:0:0:
163,232,121836,1,0,0:0:0:0:
201,234,121930,1,2,0:0:0:0:
201,234,121977,1,0,0:0:0:0:
201,234,122024,1,0,0:0:0:0:
177,246,122118,1,2,0:0:0:0:
188,238,122164,1,2,0:0:0:0:
186,247,122211,1,0,0:0:0:0:
193,236,122305,1,0,0:0:0:0:
201,234,122352,1,0,0:0:0:0:
202,234,122399,1,0,0:0:0:0:
184,217,122493,1,0,0:0:0:0:
209,218,122586,1,2,0:0:0:0:
202,218,122633,1,0,0:0:0:0:
202,218,122680,1,0,0:0:0:0:
231,236,122774,1,2,0:0:0:0:
198,217,122868,1,0,0:0:0:0:
211,232,122961,1,0,0:0:0:0:
211,237,123055,1,2,0:0:0:0:
211,237,123102,1,2,0:0:0:0:
211,237,123149,1,2,0:0:0:0:
211,237,123196,1,2,0:0:0:0:
256,192,123243,12,0,124555,0:0:0:0:
201,238,124743,5,0,0:0:0:0:
202,237,124930,1,0,0:0:0:0:
202,237,125118,1,0,0:0:0:0:
187,232,125305,1,0,0:0:0:0:
232,246,125493,1,0,0:0:0:0:
232,246,125680,1,0,0:0:0:0:
232,246,125868,1,0,0:0:0:0:
232,246,126055,1,0,0:0:0:0:
232,246,126243,1,0,0:0:0:0:
232,246,126336,1,0,0:0:0:0:
232,246,126430,1,0,0:0:0:0:
232,246,126524,1,0,0:0:0:0:
232,246,126618,1,0,0:0:0:0:
232,246,126711,1,0,0:0:0:0:
236,242,126805,1,0,0:0:0:0:
232,246,126899,1,0,0:0:0:0:
232,246,126993,1,0,0:0:0:0:
232,246,127039,1,0,0:0:0:0:
232,246,127086,1,0,0:0:0:0:
232,246,127133,1,0,0:0:0:0:
232,246,127180,1,0,0:0:0:0:
233,240,127227,1,0,0:0:0:0:
233,240,127274,1,0,0:0:0:0:
233,240,127321,1,0,0:0:0:0:
233,240,127368,1,2,0:0:0:0:
233,240,127414,1,2,0:0:0:0:
233,240,127461,1,2,0:0:0:0:
233,240,127508,1,2,0:0:0:0:
236,242,127555,1,2,0:0:0:0:
236,242,127602,1,2,0:0:0:0:
233,240,127649,1,2,0:0:0:0:
233,240,127696,1,2,0:0:0:0:
233,240,127743,1,0,0:0:0:0:
196,228,127930,1,2,0:0:0:0:
221,256,128305,1,2,0:0:0:0:
196,228,128680,1,2,0:0:0:0:
221,256,129055,1,2,0:0:0:0:
158,214,129243,1,0,0:0:0:0:
196,228,129430,1,2,0:0:0:0:
221,256,129805,1,2,0:0:0:0:
196,228,130180,1,2,0:0:0:0:
221,256,130555,1,2,0:0:0:0:
211,243,130743,1,4,0:0:0:0:
196,228,130930,1,2,0:0:0:0:
221,256,131305,1,2,0:0:0:0:
211,243,131493,1,4,0:0:0:0:
196,228,131680,1,2,0:0:0:0:
221,256,132055,1,2,0:0:0:0:
211,243,132243,1,4,0:0:0:0:
196,228,132430,1,2,0:0:0:0:
211,243,132618,1,4,0:0:0:0:
221,256,132805,1,2,0:0:0:0:
211,243,132993,1,4,0:0:0:0:
211,243,133368,1,6,0:0:0:0:
236,230,133743,1,0,0:0:0:0:
221,230,133930,1,2,0:0:0:0:
221,231,133977,1,2,0:0:0:0:
221,231,134024,1,2,0:0:0:0:
236,230,134118,1,0,0:0:0:0:
242,227,134211,1,2,0:0:0:0:
247,232,134305,1,0,0:0:0:0:
247,232,134352,1,0,0:0:0:0:
246,232,134399,1,2,0:0:0:0:
246,232,134493,1,0,0:0:0:0:
170,216,134680,1,2,0:0:0:0:
181,216,134727,1,0,0:0:0:0:
170,216,134774,1,0,0:0:0:0:
214,223,134868,1,2,0:0:0:0:
217,222,134961,1,0,0:0:0:0:
221,217,135055,1,2,0:0:0:0:
223,217,135102,1,2,0:0:0:0:
221,211,135149,1,2,0:0:0:0:
218,209,135243,1,0,0:0:0:0:
178,222,135430,1,2,0:0:0:0:
192,226,135524,1,2,0:0:0:0:
188,226,135618,1,0,0:0:0:0:
188,224,135664,1,0,0:0:0:0:
185,220,135711,1,0,0:0:0:0:
187,217,135805,1,2,0:0:0:0:
184,217,135899,1,0,0:0:0:0:
186,214,135993,1,2,0:0:0:0:
191,201,136180,1,0,0:0:0:0:
183,213,136274,1,0,0:0:0:0:
184,222,136368,1,2,0:0:0:0:
188,226,136414,1,2,0:0:0:0:
188,224,136461,1,0,0:0:0:0:
191,217,136555,1,2,0:0:0:0:
196,214,136649,1,2,0:0:0:0:
256,192,136743,8,0,136883,0:0:0:0:
256,192,136930,8,0,137070,0:0:0:0:
256,192,137118,8,0,137258,0:0:0:0:
256,192,137305,8,0,137445,0:0:0:0:
256,192,137493,8,0,137633,0:0:0:0:
256,192,137680,8,0,137820,0:0:0:0:
256,192,137868,8,0,138008,0:0:0:0:
256,192,138055,8,0,138102,0:0:0:0:
256,192,138149,8,0,138196,0:0:0:0:
256,192,138243,12,0,139743,0:0:0:0:
239,244,139930,5,0,0:0:0:0:
219,251,140024,1,0,0:0:0:0:
215,250,140118,1,2,0:0:0:0:
216,250,140164,1,0,0:0:0:0:
219,250,140211,1,0,0:0:0:0:
227,245,140305,1,2,0:0:0:0:
226,245,140399,1,0,0:0:0:0:
226,245,140493,1,2,0:0:0:0:
221,245,140680,1,0,0:0:0:0:
221,246,140727,1,0,0:0:0:0:
225,246,140774,1,0,0:0:0:0:
227,246,140868,1,2,0:0:0:0:
164,214,140961,1,0,0:0:0:0:
226,245,141055,1,2,0:0:0:0:
227,245,141102,1,2,0:0:0:0:
226,245,141149,1,0,0:0:0:0:
160,217,141196,1,0,0:0:0:0:
181,223,141243,1,2,0:0:0:0:
192,240,141430,1,0,0:0:0:0:
200,230,141524,1,2,0:0:0:0:
164,214,141618,1,0,0:0:0:0:
179,216,141664,1,0,0:0:0:0:
182,213,141711,1,2,0:0:0:0:
183,212,141758,1,0,0:0:0:0:
182,208,141805,1,2,0:0:0:0:
188,206,141899,1,2,0:0:0:0:
189,206,141946,1,2,0:0:0:0:
188,206,141993,1,0,0:0:0:0:
171,232,142086,1,2,0:0:0:0:
172,225,142133,1,0,0:0:0:0:
167,222,142180,1,0,0:0:0:0:
145,200,142274,1,2,0:0:0:0:
232,247,142368,1,0,0:0:0:0:
176,228,142414,1,0,0:0:0:0:
180,227,142461,1,2,0:0:0:0:
177,227,142555,1,2,0:0:0:0:
257,266,142743,1,0,0:0:0:0:
254,261,142836,1,2,0:0:0:0:
262,219,142930,1,0,0:0:0:0:
258,226,142977,1,0,0:0:0:0:
251,226,143024,1,0,0:0:0:0:
262,219,143118,1,2,0:0:0:0:
296,268,143211,1,0,0:0:0:0:
283,234,143305,1,2,0:0:0:0:
279,234,143352,1,2,0:0:0:0:
281,237,143399,1,2,0:0:0:0:
276,235,143493,1,0,0:0:0:0:
255,236,143680,1,2,0:0:0:0:
289,281,143774,1,0,0:0:0:0:
287,277,143821,1,0,0:0:0:0:
288,270,143868,1,0,0:0:0:0:
287,259,143961,1,2,0:0:0:0:
286,258,144008,1,0,0:0:0:0:
284,257,144055,1,0,0:0:0:0:
230,270,144149,1,2,0:0:0:0:
230,270,144196,1,2,0:0:0:0:
230,270,144243,1,0,0:0:0:0:
241,257,144430,1,0,0:0:0:0:
246,253,144477,1,0,0:0:0:0:
249,253,144524,1,2,0:0:0:0:
256,243,144571,1,2,0:0:0:0:
251,247,144618,1,0,0:0:0:0:
294,262,144711,1,2,0:0:0:0:
241,266,144805,1,0,0:0:0:0:
260,263,144852,1,0,0:0:0:0:
261,262,144899,1,2,0:0:0:0:
366,322,144993,1,0,0:0:0:0:
291,247,145180,1,2,0:0:0:0:
292,246,145227,1,2,0:0:0:0:
292,245,145274,1,2,0:0:0:0:
295,238,145368,1,0,0:0:0:0:
368,270,145461,1,2,0:0:0:0:
356,255,145555,1,0,0:0:0:0:
359,256,145602,1,0,0:0:0:0:
365,255,145649,1,2,0:0:0:0:
236,230,145743,1,0,0:0:0:0:
221,230,145930,1,2,0:0:0:0:
221,231,145977,1,2,0:0:0:0:
221,231,146024,1,2,0:0:0:0:
236,230,146118,1,0,0:0:0:0:
242,227,146211,1,2,0:0:0:0:
247,232,146305,1,0,0:0:0:0:
247,232,146352,1,0,0:0:0:0:
246,232,146399,1,2,0:0:0:0:
246,232,146493,1,0,0:0:0:0:
170,216,146680,1,2,0:0:0:0:
181,216,146727,1,0,0:0:0:0:
170,216,146774,1,0,0:0:0:0:
214,223,146868,1,2,0:0:0:0:
217,222,146961,1,0,0:0:0:0:
221,217,147055,1,2,0:0:0:0:
223,217,147102,1,2,0:0:0:0:
221,211,147149,1,2,0:0:0:0:
218,209,147243,1,4,0:0:0:0:
192,226,147524,1,6,0:0:0:0:
187,217,147805,1,6,0:0:0:0:
191,201,148180,1,0,0:0:0:0:
183,213,148274,1,0,0:0:0:0:
184,222,148368,1,2,0:0:0:0:
188,226,148414,1,2,0:0:0:0:
188,224,148461,1,0,0:0:0:0:
191,217,148555,1,2,0:0:0:0:
196,214,148649,1,2,0:0:0:0:
256,192,148743,8,0,148883,0:0:0:0:
256,192,148930,8,0,149070,0:0:0:0:
256,192,149118,8,0,149258,0:0:0:0:
256,192,149305,8,0,149445,0:0:0:0:
256,192,149493,8,0,149633,0:0:0:0:
256,192,149680,8,0,149820,0:0:0:0:
256,192,149868,8,0,150008,0:0:0:0:
256,192,150055,8,0,150102,0:0:0:0:
256,192,150149,8,0,150196,0:0:0:0:
256,192,150243,12,0,151649,0:0:0:0:
267,185,151743,5,0,0:0:0:0:
267,185,152118,1,0,0:0:0:0:
267,185,152493,1,0,0:0:0:0:
267,185,152868,1,0,0:0:0:0:
267,185,153243,1,0,0:0:0:0:
267,185,153618,1,0,0:0:0:0:
267,185,153993,1,0,0:0:0:0:
267,185,154368,1,0,0:0:0:0:
267,185,154743,1,0,0:0:0:0:
267,185,155118,1,0,0:0:0:0:
267,185,155493,1,0,0:0:0:0:
267,185,155868,1,0,0:0:0:0:
267,185,156243,1,0,0:0:0:0:
267,185,156618,1,0,0:0:0:0:
267,185,156993,1,0,0:0:0:0:
236,202,157274,1,0,0:0:0:0:
267,185,157368,1,0,0:0:0:0:
238,202,157461,1,0,0:0:0:0:
238,202,157555,1,0,0:0:0:0:
211,220,157743,1,4,0:0:0:0:
257,238,158118,1,2,0:0:0:0:
211,220,158493,1,2,0:0:0:0:
257,238,158868,1,2,0:0:0:0:
211,220,159243,1,4,0:0:0:0:
257,238,159618,1,2,0:0:0:0:
211,220,159993,1,2,0:0:0:0:
257,238,160368,1,2,0:0:0:0:
232,230,160743,1,4,0:0:0:0:
281,274,161118,1,2,0:0:0:0:
232,230,161493,1,4,0:0:0:0:
281,274,161868,1,2,0:0:0:0:
206,220,162243,1,0,0:0:0:0:
216,232,162336,1,2,0:0:0:0:
216,232,162430,1,2,0:0:0:0:
216,232,162524,1,2,0:0:0:0:
206,220,162618,1,0,0:0:0:0:
216,232,162711,1,2,0:0:0:0:
216,232,162805,1,2,0:0:0:0:
216,232,162899,1,2,0:0:0:0:
201,233,162993,1,0,0:0:0:0:
199,227,163180,1,0,0:0:0:0:
206,227,163368,1,0,0:0:0:0:
210,227,163555,1,2,0:0:0:0:
212,227,163649,1,2,0:0:0:0:
213,227,163743,1,0,0:0:0:0:
215,226,163789,1,0,0:0:0:0:
216,226,163836,1,2,0:0:0:0:
216,226,163883,1,0,0:0:0:0:
220,226,163930,1,2,0:0:0:0:
221,226,163977,1,2,0:0:0:0:
223,226,164024,1,0,0:0:0:0:
225,226,164071,1,2,0:0:0:0:
213,227,164118,1,0,0:0:0:0:
215,226,164164,1,0,0:0:0:0:
216,226,164211,1,2,0:0:0:0:
216,226,164258,1,0,0:0:0:0:
220,226,164305,1,2,0:0:0:0:
221,226,164352,1,2,0:0:0:0:
223,226,164399,1,0,0:0:0:0:
225,226,164446,1,2,0:0:0:0:
213,227,164493,1,0,0:0:0:0:
215,226,164539,1,0,0:0:0:0:
216,226,164586,1,2,0:0:0:0:
216,226,164633,1,0,0:0:0:0:
220,226,164680,1,2,0:0:0:0:
221,226,164727,1,2,0:0:0:0:
223,226,164774,1,0,0:0:0:0:
225,226,164821,1,2,0:0:0:0:
213,227,164868,1,2,0:0:0:0:
235,237,165243,1,0,0:0:0:0:
238,241,165336,1,0,0:0:0:0:
236,243,165430,1,2,0:0:0:0:
236,242,165524,1,0,0:0:0:0:
236,243,165618,1,2,0:0:0:0:
256,256,165664,1,2,0:0:0:0:
244,249,165711,1,0,0:0:0:0:
248,249,165805,1,2,0:0:0:0:
247,249,165899,1,0,0:0:0:0:
242,236,165993,1,2,0:0:0:0:
231,244,166086,1,0,0:0:0:0:
231,251,166180,1,0,0:0:0:0:
230,250,166274,1,2,0:0:0:0:
230,250,166368,1,0,0:0:0:0:
236,258,166414,1,0,0:0:0:0:
231,250,166461,1,0,0:0:0:0:
231,254,166555,1,2,0:0:0:0:
231,255,166649,1,2,0:0:0:0:
246,232,166743,1,0,0:0:0:0:
231,232,166789,1,0,0:0:0:0:
226,235,166836,1,2,0:0:0:0:
226,235,166883,1,0,0:0:0:0:
228,235,166930,1,2,0:0:0:0:
222,227,167024,1,0,0:0:0:0:
218,229,167071,1,0,0:0:0:0:
238,230,167118,1,2,0:0:0:0:
235,241,167211,1,0,0:0:0:0:
235,238,167305,1,2,0:0:0:0:
235,238,167352,1,0,0:0:0:0:
237,234,167399,1,0,0:0:0:0:
246,232,167493,1,2,0:0:0:0:
192,233,167586,1,0,0:0:0:0:
205,238,167633,1,0,0:0:0:0:
214,234,167680,1,0,0:0:0:0:
216,232,167774,1,0,0:0:0:0:
214,237,167868,1,2,0:0:0:0:
211,234,167914,1,2,0:0:0:0:
208,234,167961,1,0,0:0:0:0:
215,238,168008,1,0,0:0:0:0:
221,237,168055,1,2,0:0:0:0:
221,234,168149,1,2,0:0:0:0:
194,225,168243,1,0,0:0:0:0:
199,225,168289,1,0,0:0:0:0:
201,222,168336,1,0,0:0:0:0:
201,222,168430,1,2,0:0:0:0:
205,222,168524,1,0,0:0:0:0:
259,282,168618,1,2,0:0:0:0:
255,266,168664,1,2,0:0:0:0:
255,266,168711,1,0,0:0:0:0:
258,266,168805,1,2,0:0:0:0:
225,250,168899,1,0,0:0:0:0:
213,230,168993,1,2,0:0:0:0:
214,232,169039,1,2,0:0:0:0:
214,232,169086,1,0,0:0:0:0:
214,232,169180,1,0,0:0:0:0:
236,228,169274,1,2,0:0:0:0:
176,232,169368,1,0,0:0:0:0:
183,234,169414,1,0,0:0:0:0:
183,234,169461,1,0,0:0:0:0:
186,234,169555,1,0,0:0:0:0:
187,234,169602,1,0,0:0:0:0:
188,234,169649,1,2,0:0:0:0:
185,239,169743,1,0,0:0:0:0:
222,216,169930,1,2,0:0:0:0:
223,212,170024,1,2,0:0:0:0:
227,209,170118,1,0,0:0:0:0:
222,207,170164,1,0,0:0:0:0:
227,206,170211,1,2,0:0:0:0:
198,213,170258,1,2,0:0:0:0:
231,208,170305,1,2,0:0:0:0:
242,207,170399,1,2,0:0:0:0:
183,206,170493,1,0,0:0:0:0:
201,212,170539,1,0,0:0:0:0:
206,212,170586,1,2,0:0:0:0:
216,208,170680,1,0,0:0:0:0:
216,208,170727,1,0,0:0:0:0:
218,208,170774,1,2,0:0:0:0:
220,208,170868,1,4,0:0:0:0:
239,214,170961,1,4,0:0:0:0:
236,211,171055,1,4,0:0:0:0:
256,192,171243,12,0,174055,0:0:0:0:
271,209,174243,5,0,0:0:0:0:
270,215,174336,1,2,0:0:0:0:
270,215,174430,1,0,0:0:0:0:
269,214,174524,1,2,0:0:0:0:
269,214,174618,1,0,0:0:0:0:
269,214,174711,1,2,0:0:0:0:
269,214,174805,1,0,0:0:0:0:
268,213,174899,1,2,0:0:0:0:
268,213,174993,1,0,0:0:0:0:
268,213,175039,1,2,0:0:0:0:
270,215,175086,1,0,0:0:0:0:
270,215,175133,1,2,0:0:0:0:
270,215,175180,1,0,0:0:0:0:
270,215,175227,1,2,0:0:0:0:
269,214,175274,1,0,0:0:0:0:
269,214,175321,1,2,0:0:0:0:
269,214,175368,1,0,0:0:0:0:
269,214,175461,1,2,0:0:0:0:
269,214,175508,1,2,0:0:0:0:
269,214,175555,1,0,0:0:0:0:
291,234,175930,1,4,0:0:0:0:
291,234,176118,1,4,0:0:0:0:
282,232,176493,1,4,0:0:0:0:
282,232,176868,1,6,0:0:0:0:
235,237,177243,1,0,0:0:0:0:
238,241,177336,1,0,0:0:0:0:
236,243,177430,1,2,0:0:0:0:
236,242,177524,1,0,0:0:0:0:
236,243,177618,1,2,0:0:0:0:
256,256,177664,1,2,0:0:0:0:
244,249,177711,1,0,0:0:0:0:
248,249,177805,1,2,0:0:0:0:
247,249,177899,1,0,0:0:0:0:
242,236,177993,1,2,0:0:0:0:
231,244,178086,1,0,0:0:0:0:
231,251,178180,1,0,0:0:0:0:
230,250,178274,1,2,0:0:0:0:
230,250,178368,1,0,0:0:0:0:
236,258,178414,1,0,0:0:0:0:
231,250,178461,1,0,0:0:0:0:
231,254,178555,1,2,0:0:0:0:
231,255,178649,1,2,0:0:0:0:
246,232,178743,1,0,0:0:0:0:
231,232,178789,1,0,0:0:0:0:
226,235,178836,1,2,0:0:0:0:
226,235,178883,1,0,0:0:0:0:
228,235,178930,1,2,0:0:0:0:
222,227,179024,1,0,0:0:0:0:
218,229,179071,1,0,0:0:0:0:
238,230,179118,1,2,0:0:0:0:
235,241,179211,1,0,0:0:0:0:
235,238,179305,1,2,0:0:0:0:
235,238,179352,1,0,0:0:0:0:
237,234,179399,1,0,0:0:0:0:
246,232,179493,1,2,0:0:0:0:
192,233,179586,1,0,0:0:0:0:
205,238,179633,1,0,0:0:0:0:
214,234,179680,1,0,0:0:0:0:
216,232,179774,1,0,0:0:0:0:
214,237,179868,1,2,0:0:0:0:
211,234,179914,1,2,0:0:0:0:
208,234,179961,1,0,0:0:0:0:
215,238,180008,1,0,0:0:0:0:
221,237,180055,1,2,0:0:0:0:
221,234,180149,1,2,0:0:0:0:
194,225,180243,1,0,0:0:0:0:
199,225,180289,1,0,0:0:0:0:
201,222,180336,1,0,0:0:0:0:
201,222,180430,1,2,0:0:0:0:
205,222,180524,1,0,0:0:0:0:
259,282,180618,1,2,0:0:0:0:
255,266,180664,1,2,0:0:0:0:
255,266,180711,1,0,0:0:0:0:
258,266,180805,1,2,0:0:0:0:
225,250,180899,1,0,0:0:0:0:
213,230,180993,1,2,0:0:0:0:
214,232,181039,1,2,0:0:0:0:
214,232,181086,1,0,0:0:0:0:
214,232,181180,1,0,0:0:0:0:
236,228,181274,1,2,0:0:0:0:
176,232,181368,1,0,0:0:0:0:
183,234,181414,1,0,0:0:0:0:
183,234,181461,1,0,0:0:0:0:
186,234,181555,1,0,0:0:0:0:
187,234,181602,1,0,0:0:0:0:
188,234,181649,1,2,0:0:0:0:
185,239,181743,1,0,0:0:0:0:
222,216,181930,1,2,0:0:0:0:
223,212,182024,1,2,0:0:0:0:
227,209,182118,1,0,0:0:0:0:
222,207,182164,1,0,0:0:0:0:
227,206,182211,1,2,0:0:0:0:
198,213,182258,1,2,0:0:0:0:
231,208,182305,1,2,0:0:0:0:
242,207,182399,1,2,0:0:0:0:
183,206,182493,1,0,0:0:0:0:
201,212,182539,1,0,0:0:0:0:
206,212,182586,1,2,0:0:0:0:
216,208,182680,1,0,0:0:0:0:
216,208,182727,1,0,0:0:0:0:
218,208,182774,1,2,0:0:0:0:
227,209,182868,1,0,0:0:0:0:
227,209,182914,1,2,0:0:0:0:
222,207,182961,1,0,0:0:0:0:
222,210,183008,1,2,0:0:0:0:
221,212,183055,1,0,0:0:0:0:
256,192,183243,12,0,186055,0:0:0:0:
271,209,186243,5,0,0:0:0:0:
270,215,186336,1,2,0:0:0:0:
270,215,186430,1,0,0:0:0:0:
269,214,186524,1,2,0:0:0:0:
269,214,186618,1,0,0:0:0:0:
269,214,186711,1,2,0:0:0:0:
269,214,186805,1,0,0:0:0:0:
268,213,186899,1,2,0:0:0:0:
268,213,186993,1,0,0:0:0:0:
268,213,187039,1,2,0:0:0:0:
270,215,187086,1,0,0:0:0:0:
270,215,187133,1,2,0:0:0:0:
270,215,187180,1,0,0:0:0:0:
270,215,187227,1,2,0:0:0:0:
269,214,187274,1,0,0:0:0:0:
269,214,187321,1,2,0:0:0:0:
269,214,187368,1,0,0:0:0:0:
268,213,187414,1,2,0:0:0:0:
270,215,187461,1,0,0:0:0:0:
270,215,187508,1,2,0:0:0:0:
270,215,187555,1,0,0:0:0:0:
270,215,187602,1,2,0:0:0:0:
269,214,187649,1,0,0:0:0:0:
269,214,187696,1,2,0:0:0:0:
269,214,187743,1,0,0:0:0:0:
251,224,188024,1,4,0:0:0:0:
251,224,188305,1,4,0:0:0:0:
251,224,188680,1,4,0:0:0:0:
251,224,188774,1,4,0:0:0:0:
251,224,188868,1,6,0:0:0:0:
235,237,189243,1,0,0:0:0:0:
238,241,189336,1,0,0:0:0:0:
236,243,189430,1,2,0:0:0:0:
236,242,189524,1,0,0:0:0:0:
236,243,189618,1,2,0:0:0:0:
256,256,189664,1,2,0:0:0:0:
244,249,189711,1,0,0:0:0:0:
248,249,189805,1,2,0:0:0:0:
247,249,189899,1,0,0:0:0:0:
242,236,189993,1,2,0:0:0:0:
231,244,190086,1,0,0:0:0:0:
231,251,190180,1,0,0:0:0:0:
230,250,190274,1,2,0:0:0:0:
230,250,190368,1,0,0:0:0:0:
236,258,190414,1,0,0:0:0:0:
231,250,190461,1,0,0:0:0:0:
231,254,190555,1,2,0:0:0:0:
231,255,190649,1,2,0:0:0:0:
246,232,190743,1,0,0:0:0:0:
231,232,190789,1,0,0:0:0:0:
226,235,190836,1,2,0:0:0:0:
226,235,190883,1,0,0:0:0:0:
228,235,190930,1,2,0:0:0:0:
222,227,191024,1,0,0:0:0:0:
218,229,191071,1,0,0:0:0:0:
238,230,191118,1,2,0:0:0:0:
235,241,191211,1,0,0:0:0:0:
235,238,191305,1,2,0:0:0:0:
235,238,191352,1,0,0:0:0:0:
237,234,191399,1,0,0:0:0:0:
246,232,191493,1,2,0:0:0:0:
192,233,191586,1,0,0:0:0:0:
205,238,191633,1,0,0:0:0:0:
214,234,191680,1,0,0:0:0:0:
216,232,191774,1,0,0:0:0:0:
214,237,191868,1,2,0:0:0:0:
211,234,191914,1,2,0:0:0:0:
208,234,191961,1,0,0:0:0:0:
215,238,192008,1,0,0:0:0:0:
221,237,192055,1,2,0:0:0:0:
221,234,192149,1,2,0:0:0:0:
194,225,192243,1,0,0:0:0:0:
199,225,192289,1,0,0:0:0:0:
201,222,192336,1,0,0:0:0:0:
201,222,192430,1,2,0:0:0:0:
205,222,192524,1,0,0:0:0:0:
259,282,192618,1,2,0:0:0:0:
255,266,192664,1,2,0:0:0:0:
255,266,192711,1,0,0:0:0:0:
258,266,192805,1,2,0:0:0:0:
225,250,192899,1,0,0:0:0:0:
213,230,192993,1,2,0:0:0:0:
214,232,193039,1,2,0:0:0:0:
214,232,193086,1,0,0:0:0:0:
214,232,193180,1,0,0:0:0:0:
236,228,193274,1,2,0:0:0:0:
176,232,193368,1,0,0:0:0:0:
183,234,193414,1,0,0:0:0:0:
183,234,193461,1,0,0:0:0:0:
186,234,193555,1,0,0:0:0:0:
187,234,193602,1,0,0:0:0:0:
188,234,193649,1,2,0:0:0:0:
185,239,193743,1,0,0:0:0:0:
222,216,193930,1,2,0:0:0:0:
223,212,194024,1,2,0:0:0:0:
227,209,194118,1,0,0:0:0:0:
222,207,194164,1,0,0:0:0:0:
227,206,194211,1,2,0:0:0:0:
198,213,194258,1,2,0:0:0:0:
231,208,194305,1,2,0:0:0:0:
242,207,194399,1,2,0:0:0:0:
183,206,194493,1,0,0:0:0:0:
201,212,194539,1,0,0:0:0:0:
206,212,194586,1,2,0:0:0:0:
216,208,194680,1,0,0:0:0:0:
216,208,194727,1,2,0:0:0:0:
218,208,194774,1,0,0:0:0:0:
227,209,194868,1,2,0:0:0:0:
222,207,194914,1,0,0:0:0:0:
222,210,194961,1,0,0:0:0:0:
221,212,195055,1,2,0:0:0:0:
271,209,195243,1,0,0:0:0:0:
270,215,195336,1,2,0:0:0:0:
270,215,195430,1,0,0:0:0:0:
269,214,195524,1,2,0:0:0:0:
269,214,195618,1,0,0:0:0:0:
269,214,195711,1,2,0:0:0:0:
269,214,195805,1,0,0:0:0:0:
268,213,195899,1,2,0:0:0:0:
271,209,195993,1,0,0:0:0:0:
270,215,196086,1,2,0:0:0:0:
270,215,196180,1,0,0:0:0:0:
269,214,196274,1,2,0:0:0:0:
269,214,196368,1,0,0:0:0:0:
269,214,196461,1,2,0:0:0:0:
269,214,196555,1,0,0:0:0:0:
268,213,196649,1,2,0:0:0:0:
268,213,196743,1,0,0:0:0:0:
268,213,196789,1,2,0:0:0:0:
270,215,196836,1,0,0:0:0:0:
270,215,196883,1,2,0:0:0:0:
270,215,196930,1,0,0:0:0:0:
270,215,196977,1,2,0:0:0:0:
269,214,197024,1,0,0:0:0:0:
269,214,197071,1,2,0:0:0:0:
269,214,197118,1,0,0:0:0:0:
268,213,197164,1,2,0:0:0:0:
270,215,197211,1,0,0:0:0:0:
270,215,197258,1,2,0:0:0:0:
270,215,197305,1,0,0:0:0:0:
270,215,197352,1,2,0:0:0:0:
269,214,197399,1,0,0:0:0:0:
269,214,197446,1,2,0:0:0:0:
272,243,197493,1,0,0:0:0:0:
272,243,197524,1,0,0:0:0:0:
272,243,197555,1,0,0:0:0:0:
272,243,197586,1,0,0:0:0:0:
272,243,197618,1,0,0:0:0:0:
276,236,197649,1,0,0:0:0:0:
277,236,197680,1,0,0:0:0:0:
277,236,197711,1,0,0:0:0:0:
277,236,197743,1,0,0:0:0:0:
277,236,197774,1,0,0:0:0:0:
277,236,197805,1,0,0:0:0:0:
277,236,197836,1,0,0:0:0:0:
278,236,197868,1,2,0:0:0:0:
272,243,198055,1,4,0:0:0:0:
271,241,198430,1,4,0:0:0:0:
271,241,198618,1,4,0:0:0:0:
272,243,198805,1,4,0:0:0:0:
271,241,198993,1,4,0:0:0:0:
271,241,199368,1,4,0:0:0:0:
272,243,199555,1,6,0:0:0:0:
257,239,199930,1,6,0:0:0:0:
251,240,200118,1,4,0:0:0:0:
247,240,200305,1,4,0:0:0:0:
246,240,200493,1,6,0:0:0:0:
222,225,200868,1,4,0:0:0:0:
251,192,213243,5,4,0:0:0:0:
257,201,213618,1,2,0:0:0:0:
257,205,213993,1,2,0:0:0:0:
257,201,214368,1,2,0:0:0:0:
251,192,214743,1,4,0:0:0:0:
257,201,215118,1,2,0:0:0:0:
257,205,215493,1,2,0:0:0:0:
257,201,215868,1,2,0:0:0:0:
251,192,216243,1,4,0:0:0:0:
257,201,216618,1,2,0:0:0:0:
257,205,216993,1,2,0:0:0:0:
257,201,217368,1,2,0:0:0:0:
251,192,217743,1,4,0:0:0:0:
257,201,218118,1,2,0:0:0:0:
257,205,218493,1,2,0:0:0:0:
257,201,218868,1,2,0:0:0:0:
251,192,219243,1,4,0:0:0:0:
257,201,219430,1,2,0:0:0:0:
257,201,219618,1,2,0:0:0:0:
257,205,219805,1,2,0:0:0:0:
257,205,219993,1,2,0:0:0:0:
257,201,220180,1,2,0:0:0:0:
257,201,220368,1,2,0:0:0:0:
252,198,220555,1,2,0:0:0:0:
251,192,220743,1,4,0:0:0:0:
257,201,220930,1,2,0:0:0:0:
257,201,221118,1,2,0:0:0:0:
257,205,221305,1,2,0:0:0:0:
257,205,221493,1,2,0:0:0:0:
257,201,221680,1,2,0:0:0:0:
257,201,221868,1,2,0:0:0:0:
252,198,222055,1,2,0:0:0:0:
251,192,222243,1,4,0:0:0:0:
257,201,222336,1,2,0:0:0:0:
257,201,222430,1,2,0:0:0:0:
257,201,222524,1,2,0:0:0:0:
257,201,222618,1,2,0:0:0:0:
257,205,222711,1,2,0:0:0:0:
257,205,222805,1,2,0:0:0:0:
257,205,222899,1,2,0:0:0:0:
251,192,222993,1,4,0:0:0:0:
257,201,223086,1,2,0:0:0:0:
257,201,223180,1,2,0:0:0:0:
257,201,223274,1,2,0:0:0:0:
257,201,223368,1,2,0:0:0:0:
257,205,223461,1,2,0:0:0:0:
257,205,223555,1,2,0:0:0:0:
257,205,223649,1,2,0:0:0:0:
245,217,223743,1,0,0:0:0:0:
246,217,223789,1,0,0:0:0:0:
246,217,223836,1,0,0:0:0:0:
246,217,223883,1,0,0:0:0:0:
247,217,223930,1,0,0:0:0:0:
247,217,223977,1,0,0:0:0:0:
247,217,224024,1,0,0:0:0:0:
248,218,224071,1,0,0:0:0:0:
245,217,224118,1,0,0:0:0:0:
246,217,224164,1,0,0:0:0:0:
246,217,224211,1,0,0:0:0:0:
246,217,224258,1,0,0:0:0:0:
247,217,224305,1,0,0:0:0:0:
247,217,224352,1,0,0:0:0:0:
247,217,224399,1,0,0:0:0:0:
248,218,224446,1,0,0:0:0:0:
245,217,224493,1,2,0:0:0:0:
249,229,224524,1,2,0:0:0:0:
246,229,224555,1,2,0:0:0:0:
245,229,224586,1,2,0:0:0:0:
245,229,224618,1,2,0:0:0:0:
241,229,224649,1,2,0:0:0:0:
241,229,224680,1,2,0:0:0:0:
241,229,224711,1,2,0:0:0:0:
240,229,224743,1,2,0:0:0:0:
235,229,224774,1,2,0:0:0:0:
235,229,224805,1,2,0:0:0:0:
234,227,224836,1,2,0:0:0:0:
234,227,224868,1,2,0:0:0:0:
251,192,225243,1,0,0:0:0:0:
222,227,225336,1,0,0:0:0:0:
234,198,225430,1,2,0:0:0:0:
222,227,225477,1,2,0:0:0:0:
234,198,225524,1,0,0:0:0:0:
222,227,225571,1,0,0:0:0:0:
240,193,225618,1,2,0:0:0:0:
222,227,225711,1,0,0:0:0:0:
240,193,225805,1,2,0:0:0:0:
250,207,225899,1,2,0:0:0:0:
248,213,225993,1,0,0:0:0:0:
250,207,226086,1,2,0:0:0:0:
295,185,226133,1,0,0:0:0:0:
270,226,226180,1,0,0:0:0:0:
245,221,226227,1,0,0:0:0:0:
246,220,226274,1,0,0:0:0:0:
250,207,226368,1,2,0:0:0:0:
276,218,226414,1,0,0:0:0:0:
278,218,226461,1,0,0:0:0:0:
249,207,226555,1,2,0:0:0:0:
278,218,226649,1,2,0:0:0:0:
252,188,226743,1,0,0:0:0:0:
252,188,226836,1,0,0:0:0:0:
253,188,226930,1,2,0:0:0:0:
253,188,226977,1,2,0:0:0:0:
257,186,227024,1,0,0:0:0:0:
258,186,227071,1,0,0:0:0:0:
257,186,227118,1,2,0:0:0:0:
251,198,227211,1,0,0:0:0:0:
262,198,227305,1,2,0:0:0:0:
275,203,227399,1,0,0:0:0:0:
300,202,227446,1,0,0:0:0:0:
286,198,227493,1,0,0:0:0:0:
247,193,227586,1,2,0:0:0:0:
248,191,227633,1,0,0:0:0:0:
248,191,227680,1,0,0:0:0:0:
248,191,227727,1,0,0:0:0:0:
248,191,227774,1,2,0:0:0:0:
249,190,227821,1,2,0:0:0:0:
250,190,227868,1,0,0:0:0:0:
220,179,227961,1,0,0:0:0:0:
237,194,228055,1,2,0:0:0:0:
256,195,228149,1,0,0:0:0:0:
256,195,228196,1,0,0:0:0:0:
256,195,228243,1,0,0:0:0:0:
251,214,228336,1,0,0:0:0:0:
277,211,228430,1,2,0:0:0:0:
268,211,228477,1,0,0:0:0:0:
272,211,228524,1,0,0:0:0:0:
277,211,228571,1,0,0:0:0:0:
261,208,228618,1,2,0:0:0:0:
261,212,228711,1,0,0:0:0:0:
265,203,228805,1,2,0:0:0:0:
266,202,228852,1,2,0:0:0:0:
266,201,228899,1,2,0:0:0:0:
281,232,228993,1,0,0:0:0:0:
280,219,229086,1,2,0:0:0:0:
280,219,229133,1,2,0:0:0:0:
280,219,229180,1,0,0:0:0:0:
281,220,229274,1,2,0:0:0:0:
259,236,229368,1,0,0:0:0:0:
270,236,229414,1,0,0:0:0:0:
268,236,229461,1,0,0:0:0:0:
268,236,229508,1,0,0:0:0:0:
268,236,229555,1,2,0:0:0:0:
268,236,229602,1,2,0:0:0:0:
268,236,229649,1,2,0:0:0:0:
268,236,229696,1,2,0:0:0:0:
270,232,229743,1,0,0:0:0:0:
254,244,229836,1,0,0:0:0:0:
262,246,229930,1,2,0:0:0:0:
262,246,229977,1,2,0:0:0:0:
262,246,230024,1,0,0:0:0:0:
262,246,230071,1,0,0:0:0:0:
262,246,230118,1,2,0:0:0:0:
275,243,230211,1,0,0:0:0:0:
276,243,230258,1,0,0:0:0:0:
268,236,230305,1,0,0:0:0:0:
268,236,230399,1,2,0:0:0:0:
272,237,230493,1,0,0:0:0:0:
229,225,230586,1,2,0:0:0:0:
243,227,230633,1,2,0:0:0:0:
245,227,230680,1,0,0:0:0:0:
206,225,230774,1,2,0:0:0:0:
201,222,230868,1,0,0:0:0:0:
210,222,230914,1,0,0:0:0:0:
216,222,230961,1,0,0:0:0:0:
216,222,231008,1,0,0:0:0:0:
219,222,231055,1,2,0:0:0:0:
220,221,231102,1,2,0:0:0:0:
221,221,231149,1,2,0:0:0:0:
217,214,231196,1,2,0:0:0:0:
217,214,231243,1,0,0:0:0:0:
163,232,231336,1,0,0:0:0:0:
201,234,231430,1,2,0:0:0:0:
201,234,231477,1,0,0:0:0:0:
201,234,231524,1,0,0:0:0:0:
177,246,231618,1,2,0:0:0:0:
188,238,231664,1,2,0:0:0:0:
186,247,231711,1,0,0:0:0:0:
193,236,231805,1,0,0:0:0:0:
201,234,231852,1,0,0:0:0:0:
202,234,231899,1,0,0:0:0:0:
184,217,231993,1,0,0:0:0:0:
209,218,232086,1,2,0:0:0:0:
202,218,232133,1,0,0:0:0:0:
202,218,232180,1,0,0:0:0:0:
231,236,232274,1,2,0:0:0:0:
198,217,232368,1,0,0:0:0:0:
211,232,232461,1,0,0:0:0:0:
211,237,232555,1,2,0:0:0:0:
211,237,232602,1,2,0:0:0:0:
211,237,232649,1,2,0:0:0:0:
211,237,232696,1,2,0:0:0:0:
256,192,232743,12,0,234055,0:0:0:0:
201,238,234243,5,0,0:0:0:0:
202,237,234430,1,0,0:0:0:0:
202,237,234618,1,0,0:0:0:0:
187,232,234805,1,0,0:0:0:0:
232,246,234993,1,0,0:0:0:0:
232,246,235180,1,0,0:0:0:0:
232,246,235368,1,0,0:0:0:0:
232,246,235555,1,0,0:0:0:0:
232,246,235743,1,0,0:0:0:0:
232,246,235836,1,0,0:0:0:0:
232,246,235930,1,0,0:0:0:0:
232,246,236024,1,0,0:0:0:0:
232,246,236118,1,0,0:0:0:0:
232,246,236211,1,0,0:0:0:0:
236,242,236305,1,0,0:0:0:0:
232,246,236399,1,0,0:0:0:0:
232,246,236493,1,0,0:0:0:0:
232,246,236539,1,0,0:0:0:0:
232,246,236586,1,0,0:0:0:0:
232,246,236633,1,0,0:0:0:0:
232,246,236680,1,0,0:0:0:0:
233,240,236727,1,0,0:0:0:0:
233,240,236774,1,0,0:0:0:0:
233,240,236821,1,0,0:0:0:0:
233,240,236868,1,2,0:0:0:0:
233,240,236914,1,2,0:0:0:0:
233,240,236961,1,2,0:0:0:0:
233,240,237008,1,2,0:0:0:0:
236,242,237055,1,2,0:0:0:0:
236,242,237102,1,2,0:0:0:0:
233,240,237149,1,2,0:0:0:0:
233,240,237196,1,2,0:0:0:0:
233,240,237243,1,4,0:0:0:0:
234,232,237805,1,0,0:0:0:0:
237,233,237899,1,0,0:0:0:0:
236,233,237993,1,0,0:0:0:0:
234,232,238180,1,0,0:0:0:0:
234,232,238368,1,0,0:0:0:0:
234,232,238555,1,4,0:0:0:0:
226,231,238930,1,4,0:0:0:0:
224,231,239118,1,4,0:0:0:0:
232,242,239493,1,0,0:0:0:0:
232,242,239774,1,0,0:0:0:0:
232,242,239868,1,2,0:0:0:0:
232,242,240055,1,2,0:0:0:0:
254,240,240243,1,4,0:0:0:0:
246,231,240618,1,2,0:0:0:0:
240,188,240805,1,0,0:0:0:0:
246,215,240899,1,0,0:0:0:0:
246,215,240993,1,6,0:0:0:0:
246,215,241274,1,6,0:0:0:0:
246,215,241555,1,6,0:0:0:0:
246,215,241743,1,6,0:0:0:0:
221,197,241930,1,0,0:0:0:0:
256,215,241993,1,0,0:0:0:0:
254,215,242055,1,0,0:0:0:0:
254,215,242118,1,0,0:0:0:0:
283,208,242211,1,2,0:0:0:0:
274,209,242305,1,2,0:0:0:0:
273,209,242399,1,2,0:0:0:0:
246,215,242493,1,4,0:0:0:0:
246,215,242868,1,6,0:0:0:0:
178,223,243243,1,0,0:0:0:0:
235,230,243336,1,0,0:0:0:0:
233,247,243430,1,2,0:0:0:0:
230,247,243618,1,2,0:0:0:0:
230,247,243805,1,0,0:0:0:0:
231,271,243899,1,2,0:0:0:0:
234,240,244086,1,2,0:0:0:0:
230,247,244274,1,2,0:0:0:0:
239,241,244368,1,0,0:0:0:0:
235,240,244461,1,0,0:0:0:0:
235,240,244555,1,2,0:0:0:0:
178,223,244743,1,0,0:0:0:0:
235,230,244836,1,0,0:0:0:0:
233,247,244930,1,2,0:0:0:0:
230,247,245118,1,2,0:0:0:0:
230,247,245211,1,0,0:0:0:0:
234,240,245399,1,0,0:0:0:0:
231,271,245493,1,2,0:0:0:0:
239,241,245586,1,0,0:0:0:0:
230,247,245774,1,2,0:0:0:0:
235,240,245961,1,0,0:0:0:0:
235,240,246055,1,2,0:0:0:0:
271,209,246243,1,0,0:0:0:0:
270,215,246336,1,2,0:0:0:0:
270,215,246430,1,0,0:0:0:0:
269,214,246524,1,2,0:0:0:0:
269,214,246618,1,0,0:0:0:0:
269,214,246711,1,2,0:0:0:0:
269,214,246805,1,0,0:0:0:0:
268,213,246899,1,2,0:0:0:0:
268,213,246993,1,0,0:0:0:0:
268,213,247039,1,2,0:0:0:0:
270,215,247086,1,0,0:0:0:0:
270,215,247133,1,2,0:0:0:0:
270,215,247180,1,0,0:0:0:0:
270,215,247227,1,2,0:0:0:0:
269,214,247274,1,0,0:0:0:0:
269,214,247321,1,2,0:0:0:0:
269,214,247368,1,0,0:0:0:0:
269,214,247461,1,2,0:0:0:0:
269,214,247508,1,2,0:0:0:0:
269,214,247555,1,0,0:0:0:0:
291,234,247930,1,4,0:0:0:0:
291,234,248118,1,4,0:0:0:0:
282,232,248493,1,4,0:0:0:0:
282,232,248868,1,6,0:0:0:0:
235,237,249243,1,0,0:0:0:0:
238,241,249336,1,0,0:0:0:0:
236,243,249430,1,2,0:0:0:0:
236,242,249524,1,0,0:0:0:0:
236,243,249618,1,2,0:0:0:0:
256,256,249664,1,2,0:0:0:0:
244,249,249711,1,0,0:0:0:0:
248,249,249805,1,2,0:0:0:0:
247,249,249899,1,0,0:0:0:0:
242,236,249993,1,2,0:0:0:0:
231,244,250086,1,0,0:0:0:0:
231,251,250180,1,0,0:0:0:0:
230,250,250274,1,2,0:0:0:0:
230,250,250368,1,0,0:0:0:0:
236,258,250414,1,0,0:0:0:0:
231,250,250461,1,0,0:0:0:0:
231,254,250555,1,2,0:0:0:0:
231,255,250649,1,2,0:0:0:0:
246,232,250743,1,0,0:0:0:0:
231,232,250789,1,0,0:0:0:0:
226,235,250836,1,2,0:0:0:0:
226,235,250883,1,0,0:0:0:0:
228,235,250930,1,2,0:0:0:0:
222,227,251024,1,0,0:0:0:0:
218,229,251071,1,0,0:0:0:0:
238,230,251118,1,2,0:0:0:0:
235,241,251211,1,0,0:0:0:0:
235,238,251305,1,2,0:0:0:0:
235,238,251352,1,0,0:0:0:0:
237,234,251399,1,0,0:0:0:0:
246,232,251493,1,2,0:0:0:0:
192,233,251586,1,0,0:0:0:0:
205,238,251633,1,0,0:0:0:0:
214,234,251680,1,0,0:0:0:0:
216,232,251774,1,0,0:0:0:0:
214,237,251868,1,2,0:0:0:0:
211,234,251914,1,2,0:0:0:0:
208,234,251961,1,0,0:0:0:0:
215,238,252008,1,0,0:0:0:0:
221,237,252055,1,2,0:0:0:0:
221,234,252149,1,2,0:0:0:0:
194,225,252243,1,0,0:0:0:0:
199,225,252289,1,0,0:0:0:0:
201,222,252336,1,0,0:0:0:0:
201,222,252430,1,2,0:0:0:0:
205,222,252524,1,0,0:0:0:0:
259,282,252618,1,2,0:0:0:0:
255,266,252664,1,2,0:0:0:0:
255,266,252711,1,0,0:0:0:0:
258,266,252805,1,2,0:0:0:0:
225,250,252899,1,0,0:0:0:0:
213,230,252993,1,2,0:0:0:0:
214,232,253039,1,2,0:0:0:0:
214,232,253086,1,0,0:0:0:0:
214,232,253180,1,0,0:0:0:0:
236,228,253274,1,2,0:0:0:0:
176,232,253368,1,0,0:0:0:0:
183,234,253414,1,0,0:0:0:0:
183,234,253461,1,0,0:0:0:0:
186,234,253555,1,0,0:0:0:0:
187,234,253602,1,0,0:0:0:0:
188,234,253649,1,2,0:0:0:0:
185,239,253743,1,0,0:0:0:0:
222,216,253930,1,2,0:0:0:0:
223,212,254024,1,2,0:0:0:0:
227,209,254118,1,0,0:0:0:0:
222,207,254164,1,0,0:0:0:0:
227,206,254211,1,2,0:0:0:0:
198,213,254258,1,2,0:0:0:0:
231,208,254305,1,2,0:0:0:0:
242,207,254399,1,2,0:0:0:0:
183,206,254493,1,0,0:0:0:0:
201,212,254539,1,0,0:0:0:0:
206,212,254586,1,2,0:0:0:0:
216,208,254680,1,0,0:0:0:0:
216,208,254727,1,0,0:0:0:0:
218,208,254774,1,2,0:0:0:0:
227,209,254868,1,0,0:0:0:0:
227,209,254914,1,2,0:0:0:0:
222,207,254961,1,0,0:0:0:0:
222,210,255008,1,2,0:0:0:0:
221,212,255055,1,0,0:0:0:0:
256,192,255243,12,0,258055,0:0:0:0:
271,209,258243,5,0,0:0:0:0:
270,215,258336,1,2,0:0:0:0:
270,215,258430,1,0,0:0:0:0:
269,214,258524,1,2,0:0:0:0:
269,214,258618,1,0,0:0:0:0:
269,214,258711,1,2,0:0:0:0:
269,214,258805,1,0,0:0:0:0:
268,213,258899,1,2,0:0:0:0:
268,213,258993,1,0,0:0:0:0:
268,213,259039,1,2,0:0:0:0:
270,215,259086,1,0,0:0:0:0:
270,215,259133,1,2,0:0:0:0:
270,215,259180,1,0,0:0:0:0:
270,215,259227,1,2,0:0:0:0:
269,214,259274,1,0,0:0:0:0:
269,214,259321,1,2,0:0:0:0:
269,214,259368,1,0,0:0:0:0:
268,213,259414,1,2,0:0:0:0:
270,215,259461,1,0,0:0:0:0:
270,215,259508,1,2,0:0:0:0:
270,215,259555,1,0,0:0:0:0:
270,215,259602,1,2,0:0:0:0:
269,214,259649,1,0,0:0:0:0:
269,214,259696,1,2,0:0:0:0:
269,214,259743,1,0,0:0:0:0:
251,224,260024,1,4,0:0:0:0:
251,224,260305,1,4,0:0:0:0:
251,224,260680,1,4,0:0:0:0:
251,224,260774,1,4,0:0:0:0:
251,224,260868,1,6,0:0:0:0:
235,237,261243,1,0,0:0:0:0:
238,241,261336,1,0,0:0:0:0:
236,243,261430,1,2,0:0:0:0:
236,242,261524,1,0,0:0:0:0:
236,243,261618,1,2,0:0:0:0:
256,256,261664,1,2,0:0:0:0:
244,249,261711,1,0,0:0:0:0:
248,249,261805,1,2,0:0:0:0:
247,249,261899,1,0,0:0:0:0:
242,236,261993,1,2,0:0:0:0:
231,244,262086,1,0,0:0:0:0:
231,251,262180,1,0,0:0:0:0:
230,250,262274,1,2,0:0:0:0:
230,250,262368,1,0,0:0:0:0:
236,258,262414,1,0,0:0:0:0:
231,250,262461,1,0,0:0:0:0:
231,254,262555,1,2,0:0:0:0:
231,255,262649,1,2,0:0:0:0:
246,232,262743,1,0,0:0:0:0:
231,232,262789,1,0,0:0:0:0:
226,235,262836,1,2,0:0:0:0:
226,235,262883,1,0,0:0:0:0:
228,235,262930,1,2,0:0:0:0:
222,227,263024,1,0,0:0:0:0:
218,229,263071,1,0,0:0:0:0:
238,230,263118,1,2,0:0:0:0:
235,241,263211,1,0,0:0:0:0:
235,238,263305,1,2,0:0:0:0:
235,238,263352,1,0,0:0:0:0:
237,234,263399,1,0,0:0:0:0:
246,232,263493,1,2,0:0:0:0:
192,233,263586,1,0,0:0:0:0:
205,238,263633,1,0,0:0:0:0:
214,234,263680,1,0,0:0:0:0:
216,232,263774,1,0,0:0:0:0:
214,237,263868,1,2,0:0:0:0:
211,234,263914,1,2,0:0:0:0:
208,234,263961,1,0,0:0:0:0:
215,238,264008,1,0,0:0:0:0:
221,237,264055,1,2,0:0:0:0:
221,234,264149,1,2,0:0:0:0:
194,225,264243,1,0,0:0:0:0:
199,225,264289,1,0,0:0:0:0:
201,222,264336,1,0,0:0:0:0:
201,222,264430,1,2,0:0:0:0:
205,222,264524,1,0,0:0:0:0:
259,282,264618,1,2,0:0:0:0:
255,266,264664,1,2,0:0:0:0:
255,266,264711,1,0,0:0:0:0:
258,266,264805,1,2,0:0:0:0:
225,250,264899,1,0,0:0:0:0:
213,230,264993,1,2,0:0:0:0:
214,232,265039,1,2,0:0:0:0:
214,232,265086,1,0,0:0:0:0:
214,232,265180,1,0,0:0:0:0:
236,228,265274,1,2,0:0:0:0:
176,232,265368,1,0,0:0:0:0:
183,234,265414,1,0,0:0:0:0:
183,234,265461,1,0,0:0:0:0:
186,234,265555,1,0,0:0:0:0:
187,234,265602,1,0,0:0:0:0:
188,234,265649,1,2,0:0:0:0:
185,239,265743,1,0,0:0:0:0:
222,216,265930,1,2,0:0:0:0:
223,212,266024,1,2,0:0:0:0:
227,209,266118,1,0,0:0:0:0:
222,207,266164,1,0,0:0:0:0:
227,206,266211,1,2,0:0:0:0:
198,213,266258,1,2,0:0:0:0:
231,208,266305,1,2,0:0:0:0:
242,207,266399,1,2,0:0:0:0:
183,206,266493,1,0,0:0:0:0:
201,212,266539,1,0,0:0:0:0:
206,212,266586,1,2,0:0:0:0:
216,208,266680,1,0,0:0:0:0:
216,208,266727,1,2,0:0:0:0:
218,208,266774,1,0,0:0:0:0:
227,209,266868,1,2,0:0:0:0:
222,207,266914,1,0,0:0:0:0:
222,210,266961,1,0,0:0:0:0:
221,212,267055,1,2,0:0:0:0:
271,209,267243,1,0,0:0:0:0:
270,215,267336,1,2,0:0:0:0:
270,215,267430,1,0,0:0:0:0:
269,214,267524,1,2,0:0:0:0:
269,214,267618,1,0,0:0:0:0:
269,214,267711,1,2,0:0:0:0:
269,214,267805,1,0,0:0:0:0:
268,213,267899,1,2,0:0:0:0:
271,209,267993,1,0,0:0:0:0:
270,215,268086,1,2,0:0:0:0:
270,215,268180,1,0,0:0:0:0:
269,214,268274,1,2,0:0:0:0:
269,214,268368,1,0,0:0:0:0:
269,214,268461,1,2,0:0:0:0:
269,214,268555,1,0,0:0:0:0:
268,213,268649,1,2,0:0:0:0:
268,213,268743,1,0,0:0:0:0:
268,213,268789,1,2,0:0:0:0:
270,215,268836,1,0,0:0:0:0:
270,215,268883,1,2,0:0:0:0:
270,215,268930,1,0,0:0:0:0:
270,215,268977,1,2,0:0:0:0:
269,214,269024,1,0,0:0:0:0:
269,214,269071,1,2,0:0:0:0:
269,214,269118,1,0,0:0:0:0:
268,213,269164,1,2,0:0:0:0:
270,215,269211,1,0,0:0:0:0:
270,215,269258,1,2,0:0:0:0:
270,215,269305,1,0,0:0:0:0:
270,215,269352,1,2,0:0:0:0:
269,214,269399,1,0,0:0:0:0:
269,214,269446,1,2,0:0:0:0:
272,243,269493,1,0,0:0:0:0:
272,243,269524,1,0,0:0:0:0:
272,243,269555,1,0,0:0:0:0:
272,243,269586,1,0,0:0:0:0:
272,243,269618,1,0,0:0:0:0:
276,236,269649,1,0,0:0:0:0:
277,236,269680,1,0,0:0:0:0:
277,236,269711,1,0,0:0:0:0:
277,236,269743,1,0,0:0:0:0:
277,236,269774,1,0,0:0:0:0:
277,236,269805,1,0,0:0:0:0:
277,236,269836,1,0,0:0:0:0:
278,236,269868,1,2,0:0:0:0:
272,243,270055,1,4,0:0:0:0:
271,241,270430,1,4,0:0:0:0:
271,241,270618,1,4,0:0:0:0:
272,243,270805,1,4,0:0:0:0:
271,241,270993,1,4,0:0:0:0:
271,241,271368,1,4,0:0:0:0:
272,243,271555,1,6,0:0:0:0:
257,239,271930,1,6,0:0:0:0:
251,240,272118,1,4,0:0:0:0:
247,240,272305,1,4,0:0:0:0:
246,240,272493,1,6,0:0:0:0:
246,231,272868,1,4,0:0:0:0:
