osu file format v14

[General]
AudioFilename: audio.mp3
AudioLeadIn: 0
PreviewTime: 98140
Countdown: 0
SampleSet: Normal
StackLeniency: 0.2
Mode: 1
LetterboxInBreaks: 0
WidescreenStoryboard: 0

[Editor]
Bookmarks: 640,12640,26140,38140,59140,83140,98140,122140,134140,158140,173140,197140,209140,221140,236140,248140,254140,261640,285640
DistanceSpacing: 1
BeatDivisor: 4
GridSize: 32
TimelineZoom: 2.4

[Metadata]
Title:Tsukumo no Sekai
TitleUnicode:九十九の世界
Artist:SOUND HOLIC
ArtistUnicode:SOUND HOLIC
Creator:Aisha
Version:World
Source:東方輝針城 ~ Double Dealing Character.
Tags:Blue E ユリカ 花たん yurica hanatan 輝 -HIKARI- マジカルストーム Magical Storm 幻想浄瑠璃 Illusionary Joururi Benben Yatsuhashi Sisters 8STYLE of 東方Project ZUN Touhou DDC
BeatmapID:1796303
BeatmapSetID:859645

[Difficulty]
HPDrainRate:5
CircleSize:2
OverallDifficulty:6
ApproachRate:10
SliderMultiplier:1.4
SliderTickRate:1

[Events]
//Background and Video events
0,0,"t4rkktktrkt.jpg",0,80
//Break Periods
//Storyboard Layer 0 (Background)
//Storyboard Layer 1 (Fail)
//Storyboard Layer 2 (Pass)
//Storyboard Layer 3 (Foreground)
//Storyboard Sound Samples

[TimingPoints]
640,375,4,1,0,80,1,0
640,-133.333333333333,4,1,0,80,0,0
11515,-125,4,1,0,80,0,0
11702,-117.647058823529,4,1,0,80,0,0
11890,-111.111111111111,4,1,0,80,0,0
12077,-105.263157894737,4,1,0,80,0,0
12640,-100,4,1,0,80,0,0
38890,-133.333333333333,4,1,0,80,0,0
56890,-125,4,1,0,80,0,0
57640,-117.647058823529,4,1,0,80,0,0
58015,-111.111111111111,4,1,0,80,0,0
58390,-105.263157894737,4,1,0,80,0,0
59140,-100,4,1,0,80,0,0
98140,-90.9090909090909,4,1,0,80,0,1
109765,-90.0900900900901,4,1,0,80,0,1
109858,-89.2857142857143,4,1,0,80,0,1
109952,-88.4955752212389,4,1,0,80,0,1
110046,-87.719298245614,4,1,0,80,0,1
110140,-86.9565217391304,4,1,0,80,0,1
121858,-89.2857142857143,4,1,0,80,0,1
121952,-91.743119266055,4,1,0,80,0,1
122046,-94.3396226415094,4,1,0,80,0,1
122140,-97.0873786407767,4,1,0,80,0,0
122233,-100,4,1,0,80,0,0
173140,-90.9090909090909,4,1,0,80,0,1
184765,-90.0900900900901,4,1,0,80,0,1
184858,-89.2857142857143,4,1,0,80,0,1
184952,-88.4955752212389,4,1,0,80,0,1
185046,-87.719298245614,4,1,0,80,0,1
185140,-86.9565217391304,4,1,0,80,0,1
196765,-89.2857142857143,4,1,0,80,0,1
196858,-91.743119266055,4,1,0,80,0,1
196952,-94.3396226415094,4,1,0,80,0,1
197046,-97.0873786407767,4,1,0,80,0,1
197140,-100,4,1,0,80,0,0
197890,-133.333333333333,4,1,0,80,0,0
209140,-100,4,1,0,80,0,0
236140,-133.333333333333,4,1,0,80,0,0
248140,-125,4,1,0,80,0,0
254140,-117.647058823529,4,1,0,80,0,0
256390,-111.111111111111,4,1,0,80,0,0
257140,-105.263157894737,4,1,0,80,0,0
258640,-100,4,1,0,80,0,0
261640,-90.9090909090909,4,1,0,80,0,1
272796,-90.0900900900901,4,1,0,80,0,1
272890,-89.2857142857143,4,1,0,80,0,1
272983,-88.4955752212389,4,1,0,80,0,1
273077,-87.719298245614,4,1,0,80,0,1
273171,-86.9565217391304,4,1,0,80,0,1
273265,-86.2068965517241,4,1,0,80,0,1
273358,-85.4700854700855,4,1,0,80,0,1
273452,-84.7457627118644,4,1,0,80,0,1
273546,-84.0336134453781,4,1,0,80,0,1
273640,-83.3333333333333,4,1,0,80,0,1
285358,-84.7457627118644,4,1,0,80,0,1
285452,-86.2068965517241,4,1,0,80,0,1
285546,-87.719298245614,4,1,0,80,0,1
285640,-89.2857142857143,4,1,0,80,0,0
285733,-90.9090909090909,4,1,0,80,0,0

[HitObjects]
256,192,640,5,4,0:0:0:0:
256,192,1015,1,8,0:0:0:0:
256,192,1577,1,0,0:0:0:0:
256,192,2140,1,8,0:0:0:0:
256,192,2702,1,8,0:0:0:0:
256,192,3265,1,0,0:0:0:0:
256,192,3640,1,12,0:0:0:0:
256,192,4015,1,8,0:0:0:0:
256,192,4577,1,0,0:0:0:0:
256,192,5140,1,8,0:0:0:0:
256,192,6265,1,0,0:0:0:0:
256,192,6452,1,8,0:0:0:0:
256,192,6640,1,4,0:0:0:0:
256,192,7015,1,8,0:0:0:0:
256,192,7577,1,0,0:0:0:0:
256,192,8140,1,8,0:0:0:0:
256,192,8702,1,8,0:0:0:0:
256,192,9265,1,0,0:0:0:0:
256,192,9640,1,12,0:0:0:0:
256,192,10015,1,8,0:0:0:0:
256,192,10577,1,0,0:0:0:0:
256,192,11140,1,8,0:0:0:0:
256,192,11327,8,0,12265,2:0:0:0:
256,192,12640,5,8,0:0:0:0:
256,192,12733,1,0,0:0:0:0:
256,192,12921,1,0,0:0:0:0:
256,192,13015,1,8,0:0:0:0:
256,192,13202,1,0,0:0:0:0:
256,192,13296,1,0,0:0:0:0:
256,192,13483,1,0,0:0:0:0:
256,192,13577,1,0,0:0:0:0:
256,192,13765,1,8,0:0:0:0:
256,192,13858,1,8,0:0:0:0:
256,192,13952,1,0,0:0:0:0:
256,192,14140,1,8,0:0:0:0:
256,192,14233,1,8,0:0:0:0:
256,192,14421,1,8,0:0:0:0:
256,192,14515,1,8,0:0:0:0:
256,192,14702,1,0,0:0:0:0:
256,192,14796,1,8,0:0:0:0:
256,192,14983,1,0,0:0:0:0:
256,192,15077,1,0,0:0:0:0:
256,192,15265,1,8,0:0:0:0:
256,192,15358,1,0,0:0:0:0:
256,192,15452,1,8,0:0:0:0:
256,192,15640,1,8,0:0:0:0:
256,192,15733,1,0,0:0:0:0:
256,192,15921,1,0,0:0:0:0:
256,192,16015,1,8,0:0:0:0:
256,192,16202,1,0,0:0:0:0:
256,192,16296,1,0,0:0:0:0:
256,192,16483,1,0,0:0:0:0:
256,192,16577,1,0,0:0:0:0:
256,192,16765,1,8,0:0:0:0:
256,192,16858,1,8,0:0:0:0:
256,192,16952,1,0,0:0:0:0:
256,192,17140,1,8,0:0:0:0:
256,192,17327,1,0,0:0:0:0:
256,192,17421,1,8,0:0:0:0:
256,192,17608,1,0,0:0:0:0:
256,192,17702,1,0,0:0:0:0:
256,192,17890,1,8,0:0:0:0:
256,192,17983,1,0,0:0:0:0:
256,192,18171,1,0,0:0:0:0:
256,192,18265,1,8,0:0:0:0:
256,192,18358,1,8,0:0:0:0:
256,192,18452,1,0,0:0:0:0:
256,192,18640,1,8,0:0:0:0:
256,192,18733,1,0,0:0:0:0:
256,192,18921,1,0,0:0:0:0:
256,192,19015,1,8,0:0:0:0:
256,192,19202,1,0,0:0:0:0:
256,192,19296,1,8,0:0:0:0:
256,192,19483,1,0,0:0:0:0:
256,192,19577,1,0,0:0:0:0:
256,192,19765,1,8,0:0:0:0:
256,192,19858,1,8,0:0:0:0:
256,192,19952,1,0,0:0:0:0:
256,192,20140,1,8,0:0:0:0:
256,192,20233,1,8,0:0:0:0:
256,192,20421,1,8,0:0:0:0:
256,192,20515,1,8,0:0:0:0:
256,192,20702,1,8,0:0:0:0:
256,192,20796,1,0,0:0:0:0:
256,192,20983,1,0,0:0:0:0:
256,192,21077,1,0,0:0:0:0:
256,192,21265,1,8,0:0:0:0:
256,192,21358,1,0,0:0:0:0:
256,192,21452,1,8,0:0:0:0:
256,192,21640,1,8,0:0:0:0:
256,192,21733,1,0,0:0:0:0:
256,192,21827,1,0,0:0:0:0:
256,192,21921,1,0,0:0:0:0:
256,192,22015,1,8,0:0:0:0:
256,192,22202,1,8,0:0:0:0:
256,192,22296,1,0,0:0:0:0:
256,192,22483,1,0,0:0:0:0:
256,192,22577,1,0,0:0:0:0:
256,192,22671,1,8,0:0:0:0:
256,192,22765,1,8,0:0:0:0:
256,192,22858,1,0,0:0:0:0:
256,192,22952,1,0,0:0:0:0:
256,192,23046,1,8,0:0:0:0:
256,192,23140,1,0,0:0:0:0:
256,192,23233,1,0,0:0:0:0:
256,192,23327,1,8,0:0:0:0:
256,192,23421,1,0,0:0:0:0:
256,192,23515,1,8,0:0:0:0:
256,192,23608,1,0,0:0:0:0:
256,192,23702,1,8,0:0:0:0:
256,192,23796,1,8,0:0:0:0:
256,192,23890,1,0,0:0:0:0:
256,192,23983,1,8,0:0:0:0:
256,192,24077,1,0,0:0:0:0:
256,192,24171,1,0,0:0:0:0:
256,192,24265,1,8,0:0:0:0:
256,192,24358,1,0,0:0:0:0:
256,192,24452,1,0,0:0:0:0:
256,192,24546,1,8,0:0:0:0:
256,192,24640,12,0,25765,2:0:0:0:
256,192,25952,5,0,0:0:0:0:
256,192,26046,1,8,0:0:0:0:
256,192,26140,1,8,0:0:0:0:
256,192,26233,1,0,0:0:0:0:
256,192,26421,1,0,0:0:0:0:
256,192,26515,1,8,0:0:0:0:
256,192,26702,1,0,0:0:0:0:
256,192,26796,1,0,0:0:0:0:
256,192,26983,1,8,0:0:0:0:
256,192,27077,1,8,0:0:0:0:
256,192,27265,1,0,0:0:0:0:
256,192,27358,1,8,0:0:0:0:
256,192,27452,1,0,0:0:0:0:
256,192,27546,1,0,0:0:0:0:
256,192,27640,1,8,0:0:0:0:
256,192,27733,1,8,0:0:0:0:
256,192,27921,1,0,0:0:0:0:
256,192,28015,1,0,0:0:0:0:
256,192,28202,1,0,0:0:0:0:
256,192,28296,1,8,0:0:0:0:
256,192,28390,1,0,0:0:0:0:
256,192,28483,1,8,0:0:0:0:
256,192,28577,1,0,0:0:0:0:
256,192,28671,1,0,0:0:0:0:
256,192,28765,1,8,0:0:0:0:
256,192,28952,1,8,0:0:0:0:
256,192,29046,1,8,0:0:0:0:
256,192,29140,1,8,0:0:0:0:
256,192,29233,1,0,0:0:0:0:
256,192,29421,1,0,0:0:0:0:
256,192,29515,1,8,0:0:0:0:
256,192,29702,1,0,0:0:0:0:
256,192,29796,1,0,0:0:0:0:
256,192,29983,1,8,0:0:0:0:
256,192,30077,1,8,0:0:0:0:
256,192,30265,1,0,0:0:0:0:
256,192,30358,1,0,0:0:0:0:
256,192,30452,1,8,0:0:0:0:
256,192,30546,1,8,0:0:0:0:
256,192,30640,1,0,0:0:0:0:
256,192,30827,1,0,0:0:0:0:
256,192,30921,1,8,0:0:0:0:
256,192,31015,1,8,0:0:0:0:
256,192,31108,1,0,0:0:0:0:
256,192,31202,1,0,0:0:0:0:
256,192,31390,1,8,0:0:0:0:
256,192,31483,1,0,0:0:0:0:
256,192,31577,1,0,0:0:0:0:
256,192,31671,1,8,0:0:0:0:
256,192,31765,1,0,0:0:0:0:
256,192,31858,1,0,0:0:0:0:
256,192,31952,1,8,0:0:0:0:
256,192,32140,1,8,0:0:0:0:
256,192,32233,1,0,0:0:0:0:
256,192,32421,1,0,0:0:0:0:
256,192,32515,1,8,0:0:0:0:
256,192,32702,1,0,0:0:0:0:
256,192,32796,1,0,0:0:0:0:
256,192,32983,1,8,0:0:0:0:
256,192,33077,1,8,0:0:0:0:
256,192,33265,1,0,0:0:0:0:
256,192,33358,1,8,0:0:0:0:
256,192,33452,1,0,0:0:0:0:
256,192,33546,1,0,0:0:0:0:
256,192,33640,1,8,0:0:0:0:
256,192,33733,1,8,0:0:0:0:
256,192,33921,1,0,0:0:0:0:
256,192,34015,1,0,0:0:0:0:
256,192,34202,1,0,0:0:0:0:
256,192,34296,1,8,0:0:0:0:
256,192,34390,1,0,0:0:0:0:
256,192,34483,1,8,0:0:0:0:
256,192,34577,1,0,0:0:0:0:
256,192,34671,1,0,0:0:0:0:
256,192,34765,1,8,0:0:0:0:
256,192,34952,1,8,0:0:0:0:
256,192,35046,1,8,0:0:0:0:
256,192,35140,1,8,0:0:0:0:
256,192,35233,1,0,0:0:0:0:
256,192,35421,1,0,0:0:0:0:
256,192,35515,1,8,0:0:0:0:
256,192,35702,1,0,0:0:0:0:
256,192,35796,1,0,0:0:0:0:
256,192,35983,1,8,0:0:0:0:
256,192,36077,1,0,0:0:0:0:
256,192,36171,1,0,0:0:0:0:
256,192,36265,1,8,0:0:0:0:
256,192,36358,1,8,0:0:0:0:
256,192,36452,1,0,0:0:0:0:
256,192,36546,1,0,0:0:0:0:
256,192,36640,1,8,0:0:0:0:
256,192,36733,1,0,0:0:0:0:
256,192,36827,1,0,0:0:0:0:
256,192,36921,1,8,0:0:0:0:
256,192,37015,1,8,0:0:0:0:
256,192,37108,1,0,0:0:0:0:
256,192,37202,1,0,0:0:0:0:
256,192,37296,1,8,0:0:0:0:
256,192,37390,1,0,0:0:0:0:
256,192,37483,1,0,0:0:0:0:
256,192,37577,1,8,0:0:0:0:
256,192,37671,1,8,0:0:0:0:
256,192,37765,1,0,0:0:0:0:
256,192,37858,1,0,0:0:0:0:
256,192,37952,1,8,0:0:0:0:
256,192,38046,1,8,0:0:0:0:
256,192,38140,1,0,0:0:0:0:
256,192,39640,1,8,0:0:0:0:
256,192,40390,1,0,0:0:0:0:
288,192,41140,1,8,0:0:0:0:
256,192,42265,1,8,0:0:0:0:
256,192,42640,1,0,0:0:0:0:
256,192,43390,1,8,0:0:0:0:
256,192,43765,1,8,0:0:0:0:
256,192,44140,1,0,0:0:0:0:
256,192,45640,1,0,0:0:0:0:
256,192,46390,1,0,0:0:0:0:
256,192,47140,1,8,0:0:0:0:
256,192,48640,1,8,0:0:0:0:
256,192,49390,1,8,0:0:0:0:
256,192,50140,1,0,0:0:0:0:
256,192,51265,1,0,0:0:0:0:
256,192,51640,1,8,0:0:0:0:
256,192,52390,1,8,0:0:0:0:
256,192,53140,1,0,0:0:0:0:
256,192,54265,1,8,0:0:0:0:
256,192,54640,1,0,0:0:0:0:
256,192,55390,1,8,0:0:0:0:
256,192,55765,1,0,0:0:0:0:
256,192,56140,12,0,58390,2:0:0:0:
256,192,59140,5,4,0:0:0:0:
256,192,59515,1,8,0:0:0:0:
256,192,59702,1,8,0:0:0:0:
256,192,59890,1,0,0:0:0:0:
256,192,60077,1,0,0:0:0:0:
256,192,60265,1,8,0:0:0:0:
256,192,60640,1,0,0:0:0:0:
256,192,60827,1,8,0:0:0:0:
256,192,61015,1,0,0:0:0:0:
256,192,61390,1,8,0:0:0:0:
256,192,61577,1,0,0:0:0:0:
256,192,61765,1,8,0:0:0:0:
256,192,62140,1,0,0:0:0:0:
256,192,62515,1,8,0:0:0:0:
256,192,62702,1,8,0:0:0:0:
256,192,62890,1,0,0:0:0:0:
256,192,63077,1,8,0:0:0:0:
256,192,63265,1,0,0:0:0:0:
256,192,63640,1,0,0:0:0:0:
256,192,63827,1,0,0:0:0:0:
256,192,64015,1,8,0:0:0:0:
256,192,64390,1,8,0:0:0:0:
256,192,64577,1,8,0:0:0:0:
256,192,64671,1,0,0:0:0:0:
256,192,64858,1,0,0:0:0:0:
256,192,64952,1,8,0:0:0:0:
256,192,65140,1,0,0:0:0:0:
256,192,65327,1,0,0:0:0:0:
256,192,65515,1,8,0:0:0:0:
256,192,65890,1,8,0:0:0:0:
256,192,66077,1,0,0:0:0:0:
256,192,66265,1,8,0:0:0:0:
256,192,66452,1,8,0:0:0:0:
256,192,66640,1,0,0:0:0:0:
256,192,67015,1,8,0:0:0:0:
256,192,67390,1,0,0:0:0:0:
256,192,67577,1,8,0:0:0:0:
256,192,67765,1,8,0:0:0:0:
256,192,67952,1,0,0:0:0:0:
256,192,68140,1,0,0:0:0:0:
256,192,68515,1,8,0:0:0:0:
256,192,68608,1,8,0:0:0:0:
256,192,68702,1,8,0:0:0:0:
256,192,68890,1,0,0:0:0:0:
256,192,69265,1,8,0:0:0:0:
256,192,69452,1,0,0:0:0:0:
256,192,69640,1,0,0:0:0:0:
256,192,70015,1,8,0:0:0:0:
256,192,70202,1,8,0:0:0:0:
256,192,70390,1,0,0:0:0:0:
256,192,70577,1,0,0:0:0:0:
256,192,70765,1,8,0:0:0:0:
256,192,70952,1,0,0:0:0:0:
256,192,71140,1,8,0:0:0:0:
256,192,71515,1,0,0:0:0:0:
256,192,71702,1,8,0:0:0:0:
256,192,72077,1,8,0:0:0:0:
256,192,72265,1,0,0:0:0:0:
256,192,72640,1,0,0:0:0:0:
256,192,73015,1,8,0:0:0:0:
256,192,73202,1,8,0:0:0:0:
256,192,73390,1,0,0:0:0:0:
256,192,73577,1,0,0:0:0:0:
256,192,73765,1,8,0:0:0:0:
256,192,74140,1,0,0:0:0:0:
256,192,74515,1,8,0:0:0:0:
256,192,74702,1,0,0:0:0:0:
256,192,75077,1,0,0:0:0:0:
256,192,75265,1,8,0:0:0:0:
256,192,75452,1,0,0:0:0:0:
256,192,75546,1,0,0:0:0:0:
256,192,75640,1,8,0:0:0:0:
256,192,76015,1,8,0:0:0:0:
256,192,76202,1,0,0:0:0:0:
256,192,76390,1,8,0:0:0:0:
256,192,76765,1,0,0:0:0:0:
256,192,77140,1,0,0:0:0:0:
256,192,77327,1,0,0:0:0:0:
256,192,77515,1,8,0:0:0:0:
256,192,77702,1,0,0:0:0:0:
256,192,77890,1,0,0:0:0:0:
256,192,78077,1,0,0:0:0:0:
256,192,78171,1,0,0:0:0:0:
256,192,78265,1,8,0:0:0:0:
256,192,78640,1,0,0:0:0:0:
256,192,78827,1,0,0:0:0:0:
256,192,78921,1,0,0:0:0:0:
256,192,79015,1,8,0:0:0:0:
256,192,79202,1,0,0:0:0:0:
256,192,79390,1,0,0:0:0:0:
256,192,79577,1,8,0:0:0:0:
256,192,79671,1,0,0:0:0:0:
256,192,79765,1,8,0:0:0:0:
256,192,80140,1,0,0:0:0:0:
256,192,80327,1,0,0:0:0:0:
256,192,80515,1,8,0:0:0:0:
256,192,80702,1,0,0:0:0:0:
256,192,81077,1,0,0:0:0:0:
256,192,81265,1,8,0:0:0:0:
256,192,81452,1,0,0:0:0:0:
256,192,81640,1,0,0:0:0:0:
256,192,81827,1,0,0:0:0:0:
256,192,82015,1,8,0:0:0:0:
256,192,82108,1,8,0:0:0:0:
256,192,82202,1,0,0:0:0:0:
256,192,82390,1,12,0:0:0:0:
256,192,82671,1,12,0:0:0:0:
256,192,82952,1,0,0:0:0:0:
256,192,83046,1,0,0:0:0:0:
256,192,83140,1,8,0:0:0:0:
256,192,83515,1,8,0:0:0:0:
256,192,83702,1,0,0:0:0:0:
256,192,84077,1,0,0:0:0:0:
256,192,84264,1,8,0:0:0:0:
256,192,84452,1,8,0:0:0:0:
256,192,84640,1,0,0:0:0:0:
256,192,84827,1,0,0:0:0:0:
256,192,85015,1,0,0:0:0:0:
256,192,85202,1,8,0:0:0:0:
256,192,85577,1,8,0:0:0:0:
256,192,85765,1,0,0:0:0:0:
256,192,85952,1,0,0:0:0:0:
256,192,86046,1,0,0:0:0:0:
256,192,86140,1,8,0:0:0:0:
256,192,86515,1,8,0:0:0:0:
256,192,86702,1,0,0:0:0:0:
256,192,87077,1,0,0:0:0:0:
256,192,87264,1,8,0:0:0:0:
256,192,87452,1,8,0:0:0:0:
256,192,87640,1,0,0:0:0:0:
256,192,87827,1,0,0:0:0:0:
256,192,88015,1,0,0:0:0:0:
256,192,88202,1,8,0:0:0:0:
256,192,88577,1,8,0:0:0:0:
256,192,88765,1,0,0:0:0:0:
256,192,88952,1,0,0:0:0:0:
256,192,89046,1,0,0:0:0:0:
256,192,89140,1,8,0:0:0:0:
256,192,89327,1,0,0:0:0:0:
256,192,89515,1,8,0:0:0:0:
256,192,89702,1,0,0:0:0:0:
256,192,90077,1,0,0:0:0:0:
256,192,90265,1,8,0:0:0:0:
256,192,90452,1,0,0:0:0:0:
256,192,90640,1,8,0:0:0:0:
256,192,90827,1,0,0:0:0:0:
256,192,90921,1,8,0:0:0:0:
256,192,91015,1,0,0:0:0:0:
256,192,91202,1,8,0:0:0:0:
256,192,91577,1,0,0:0:0:0:
256,192,91765,1,8,0:0:0:0:
256,192,91952,1,0,0:0:0:0:
256,192,92140,1,8,0:0:0:0:
256,192,92233,1,0,0:0:0:0:
256,192,92327,1,8,0:0:0:0:
256,192,92515,1,0,0:0:0:0:
256,192,92702,1,0,0:0:0:0:
256,192,92890,1,8,0:0:0:0:
256,192,92983,1,0,0:0:0:0:
256,192,93077,1,8,0:0:0:0:
256,192,93265,1,0,0:0:0:0:
256,192,93452,1,0,0:0:0:0:
256,192,93640,1,8,0:0:0:0:
256,192,93733,1,8,0:0:0:0:
256,192,93827,1,8,0:0:0:0:
256,192,94015,1,0,0:0:0:0:
256,192,94202,1,8,0:0:0:0:
256,192,94390,1,8,0:0:0:0:
256,192,94483,1,8,0:0:0:0:
256,192,94577,1,8,0:0:0:0:
256,192,94765,1,0,0:0:0:0:
256,192,94952,1,8,0:0:0:0:
256,192,95140,1,0,0:0:0:0:
256,192,95233,1,0,0:0:0:0:
256,192,95327,1,8,0:0:0:0:
256,192,95421,1,8,0:0:0:0:
256,192,95515,1,0,0:0:0:0:
256,192,95608,1,0,0:0:0:0:
256,192,95702,1,8,0:0:0:0:
256,192,95796,1,0,0:0:0:0:
256,192,95890,1,8,0:0:0:0:
256,192,95983,1,8,0:0:0:0:
256,192,96077,1,0,0:0:0:0:
256,192,96171,1,0,0:0:0:0:
256,192,96265,1,8,0:0:0:0:
256,192,96358,1,8,0:0:0:0:
256,192,96452,1,0,0:0:0:0:
256,192,96546,1,0,0:0:0:0:
256,192,96640,1,8,0:0:0:0:
256,192,96733,1,8,0:0:0:0:
256,192,96827,1,0,0:0:0:0:
256,192,96921,1,0,0:0:0:0:
256,192,97015,1,0,0:0:0:0:
256,192,97108,1,0,0:0:0:0:
256,192,97202,1,8,0:0:0:0:
256,192,97296,1,8,0:0:0:0:
256,192,97577,1,0,0:0:0:0:
256,192,98140,1,4,0:0:0:0:
256,192,98327,1,8,0:0:0:0:
256,192,98421,1,0,0:0:0:0:
256,192,98515,1,0,0:0:0:0:
256,192,98608,1,8,0:0:0:0:
256,192,98796,1,0,0:0:0:0:
256,192,98890,1,0,0:0:0:0:
256,192,99077,1,0,0:0:0:0:
256,192,99265,1,8,0:0:0:0:
256,192,99358,1,8,0:0:0:0:
256,192,99452,1,0,0:0:0:0:
256,192,99640,1,8,0:0:0:0:
256,192,99827,1,0,0:0:0:0:
256,192,99921,1,8,0:0:0:0:
256,192,100015,1,8,0:0:0:0:
256,192,100108,1,0,0:0:0:0:
256,192,100296,1,0,0:0:0:0:
256,192,100390,1,8,0:0:0:0:
256,192,100577,1,0,0:0:0:0:
256,192,100671,1,8,0:0:0:0:
256,192,100765,1,8,0:0:0:0:
256,192,100858,1,0,0:0:0:0:
256,192,100952,1,8,0:0:0:0:
256,192,101140,1,0,0:0:0:0:
256,192,101327,1,8,0:0:0:0:
256,192,101421,1,8,0:0:0:0:
256,192,101515,1,8,0:0:0:0:
256,192,101702,1,0,0:0:0:0:
256,192,101890,1,8,0:0:0:0:
256,192,102077,1,0,0:0:0:0:
256,192,102171,1,0,0:0:0:0:
256,192,102265,1,0,0:0:0:0:
256,192,102452,1,0,0:0:0:0:
256,192,102640,1,8,0:0:0:0:
256,192,102827,1,0,0:0:0:0:
256,192,102921,1,0,0:0:0:0:
256,192,103015,1,8,0:0:0:0:
256,192,103202,1,0,0:0:0:0:
256,192,103390,1,8,0:0:0:0:
256,192,103483,1,8,0:0:0:0:
256,192,103577,1,0,0:0:0:0:
256,192,103671,1,0,0:0:0:0:
256,192,103765,1,8,0:0:0:0:
256,192,103952,1,0,0:0:0:0:
256,192,104140,1,0,0:0:0:0:
256,192,104327,1,8,0:0:0:0:
256,192,104421,1,0,0:0:0:0:
256,192,104515,1,0,0:0:0:0:
256,192,104608,1,8,0:0:0:0:
256,192,104796,1,0,0:0:0:0:
256,192,104890,1,0,0:0:0:0:
256,192,105077,1,0,0:0:0:0:
256,192,105265,1,8,0:0:0:0:
256,192,105358,1,8,0:0:0:0:
256,192,105452,1,0,0:0:0:0:
256,192,105640,1,8,0:0:0:0:
256,192,105827,1,0,0:0:0:0:
256,192,105921,1,8,0:0:0:0:
256,192,106015,1,8,0:0:0:0:
256,192,106108,1,0,0:0:0:0:
256,192,106296,1,0,0:0:0:0:
256,192,106390,1,8,0:0:0:0:
256,192,106577,1,0,0:0:0:0:
256,192,106671,1,8,0:0:0:0:
256,192,106765,1,8,0:0:0:0:
256,192,106858,1,0,0:0:0:0:
256,192,106952,1,8,0:0:0:0:
256,192,107140,1,0,0:0:0:0:
256,192,107327,1,8,0:0:0:0:
256,192,107421,1,8,0:0:0:0:
256,192,107515,1,0,0:0:0:0:
256,192,107702,1,0,0:0:0:0:
256,192,107890,1,8,0:0:0:0:
256,192,108077,1,0,0:0:0:0:
256,192,108265,1,0,0:0:0:0:
256,192,108358,1,0,0:0:0:0:
256,192,108452,1,8,0:0:0:0:
256,192,108546,1,0,0:0:0:0:
256,192,108640,1,8,0:0:0:0:
256,192,108827,1,0,0:0:0:0:
256,192,109015,1,8,0:0:0:0:
256,192,109108,1,8,0:0:0:0:
256,192,109202,1,8,0:0:0:0:
256,192,109390,1,8,0:0:0:0:
256,192,109577,1,0,0:0:0:0:
256,192,109765,1,8,0:0:0:0:
256,192,109858,1,8,0:0:0:0:
256,192,109952,1,0,0:0:0:0:
256,192,110046,1,0,0:0:0:0:
256,192,110140,1,8,0:0:0:0:
256,192,110233,1,0,0:0:0:0:
256,192,110421,1,0,0:0:0:0:
256,192,110515,1,8,0:0:0:0:
256,192,110702,1,8,0:0:0:0:
256,192,110796,1,0,0:0:0:0:
256,192,110983,1,8,0:0:0:0:
256,192,111077,1,0,0:0:0:0:
256,192,111171,1,0,0:0:0:0:
256,192,111265,1,8,0:0:0:0:
256,192,111452,1,0,0:0:0:0:
256,192,111640,1,8,0:0:0:0:
256,192,111733,1,8,0:0:0:0:
256,192,111921,1,0,0:0:0:0:
256,192,112015,1,8,0:0:0:0:
256,192,112202,1,8,0:0:0:0:
256,192,112296,1,8,0:0:0:0:
256,192,112483,1,0,0:0:0:0:
256,192,112577,1,0,0:0:0:0:
256,192,112671,1,0,0:0:0:0:
256,192,112765,1,8,0:0:0:0:
256,192,112952,1,0,0:0:0:0:
256,192,113140,1,0,0:0:0:0:
256,192,113327,1,8,0:0:0:0:
256,192,113421,1,8,0:0:0:0:
256,192,113515,1,8,0:0:0:0:
256,192,113702,1,0,0:0:0:0:
256,192,113890,1,8,0:0:0:0:
256,192,114077,1,0,0:0:0:0:
256,192,114171,1,0,0:0:0:0:
256,192,114265,1,0,0:0:0:0:
256,192,114452,1,0,0:0:0:0:
256,192,114640,1,8,0:0:0:0:
256,192,114827,1,0,0:0:0:0:
256,192,114921,1,0,0:0:0:0:
256,192,115015,1,8,0:0:0:0:
256,192,115202,1,0,0:0:0:0:
256,192,115390,1,8,0:0:0:0:
256,192,115483,1,0,0:0:0:0:
256,192,115577,1,8,0:0:0:0:
256,192,115671,1,8,0:0:0:0:
256,192,115765,1,0,0:0:0:0:
256,192,115952,1,8,0:0:0:0:
256,192,116140,1,8,0:0:0:0:
256,192,116233,1,0,0:0:0:0:
256,192,116421,1,0,0:0:0:0:
256,192,116515,1,8,0:0:0:0:
256,192,116702,1,8,0:0:0:0:
256,192,116796,1,0,0:0:0:0:
256,192,116983,1,8,0:0:0:0:
256,192,117077,1,0,0:0:0:0:
256,192,117171,1,0,0:0:0:0:
256,192,117265,1,8,0:0:0:0:
256,192,117452,1,0,0:0:0:0:
256,192,117640,1,8,0:0:0:0:
256,192,117733,1,8,0:0:0:0:
256,192,117921,1,0,0:0:0:0:
256,192,118015,1,8,0:0:0:0:
256,192,118202,1,8,0:0:0:0:
256,192,118296,1,8,0:0:0:0:
256,192,118483,1,0,0:0:0:0:
256,192,118577,1,0,0:0:0:0:
256,192,118671,1,8,0:0:0:0:
256,192,118765,1,8,0:0:0:0:
256,192,118952,1,0,0:0:0:0:
256,192,119140,1,0,0:0:0:0:
256,192,119327,1,8,0:0:0:0:
256,192,119421,1,8,0:0:0:0:
256,192,119515,1,8,0:0:0:0:
256,192,119702,1,0,0:0:0:0:
256,192,119890,1,8,0:0:0:0:
256,192,120077,1,0,0:0:0:0:
256,192,120171,1,0,0:0:0:0:
256,192,120265,1,0,0:0:0:0:
256,192,120452,1,0,0:0:0:0:
256,192,120640,1,8,0:0:0:0:
256,192,120733,1,0,0:0:0:0:
256,192,120921,1,0,0:0:0:0:
256,192,121015,1,8,0:0:0:0:
256,192,121202,1,8,0:0:0:0:
256,192,121296,1,0,0:0:0:0:
256,192,121483,1,0,0:0:0:0:
256,192,121577,1,8,0:0:0:0:
256,192,121765,1,8,0:0:0:0:
256,192,121858,1,8,0:0:0:0:
256,192,121952,1,0,0:0:0:0:
256,192,122046,1,0,0:0:0:0:
256,192,122140,1,8,0:0:0:0:
256,192,122233,1,8,0:0:0:0:
256,192,122421,1,8,0:0:0:0:
256,192,122515,1,8,0:0:0:0:
256,192,122702,1,0,0:0:0:0:
256,192,122796,1,0,0:0:0:0:
256,192,122983,1,0,0:0:0:0:
256,192,123077,1,0,0:0:0:0:
256,192,123265,1,8,0:0:0:0:
256,192,123358,1,8,0:0:0:0:
256,192,123452,1,0,0:0:0:0:
256,192,123640,1,8,0:0:0:0:
256,192,123733,1,0,0:0:0:0:
256,192,123921,1,8,0:0:0:0:
256,192,124015,1,8,0:0:0:0:
256,192,124202,1,0,0:0:0:0:
256,192,124296,1,8,0:0:0:0:
256,192,124390,1,0,0:0:0:0:
256,192,124483,1,0,0:0:0:0:
256,192,124577,1,8,0:0:0:0:
256,192,124671,1,8,0:0:0:0:
256,192,124765,1,0,0:0:0:0:
256,192,124858,1,0,0:0:0:0:
256,192,124952,1,8,0:0:0:0:
256,192,125140,1,8,0:0:0:0:
256,192,125233,1,8,0:0:0:0:
256,192,125421,1,8,0:0:0:0:
256,192,125515,1,8,0:0:0:0:
256,192,125702,1,0,0:0:0:0:
256,192,125796,1,0,0:0:0:0:
256,192,125983,1,0,0:0:0:0:
256,192,126077,1,0,0:0:0:0:
256,192,126265,1,8,0:0:0:0:
256,192,126358,1,8,0:0:0:0:
256,192,126452,1,0,0:0:0:0:
256,192,126640,1,8,0:0:0:0:
256,192,126827,1,0,0:0:0:0:
256,192,126921,1,8,0:0:0:0:
256,192,127108,1,0,0:0:0:0:
256,192,127202,1,0,0:0:0:0:
256,192,127390,1,8,0:0:0:0:
256,192,127483,1,0,0:0:0:0:
256,192,127577,1,0,0:0:0:0:
256,192,127671,1,8,0:0:0:0:
256,192,127765,1,8,0:0:0:0:
256,192,127858,1,8,0:0:0:0:
256,192,127952,1,0,0:0:0:0:
256,192,128140,1,8,0:0:0:0:
256,192,128233,1,8,0:0:0:0:
256,192,128421,1,8,0:0:0:0:
256,192,128515,1,0,0:0:0:0:
256,192,128702,1,0,0:0:0:0:
256,192,128796,1,8,0:0:0:0:
256,192,128983,1,0,0:0:0:0:
256,192,129077,1,0,0:0:0:0:
256,192,129265,1,8,0:0:0:0:
256,192,129358,1,8,0:0:0:0:
256,192,129452,1,0,0:0:0:0:
256,192,129640,1,8,0:0:0:0:
256,192,129733,1,8,0:0:0:0:
256,192,129921,1,0,0:0:0:0:
256,192,130015,1,8,0:0:0:0:
256,192,130202,1,0,0:0:0:0:
256,192,130296,1,8,0:0:0:0:
256,192,130390,1,0,0:0:0:0:
256,192,130483,1,8,0:0:0:0:
256,192,130577,1,0,0:0:0:0:
256,192,130671,1,0,0:0:0:0:
256,192,130765,1,8,0:0:0:0:
256,192,130858,1,8,0:0:0:0:
256,192,130952,1,8,0:0:0:0:
256,192,131140,1,8,0:0:0:0:
256,192,131233,1,8,0:0:0:0:
256,192,131421,1,8,0:0:0:0:
256,192,131515,1,0,0:0:0:0:
256,192,131702,1,0,0:0:0:0:
256,192,131796,1,8,0:0:0:0:
256,192,131983,1,0,0:0:0:0:
256,192,132077,1,0,0:0:0:0:
256,192,132265,1,8,0:0:0:0:
256,192,132358,1,0,0:0:0:0:
256,192,132452,1,8,0:0:0:0:
256,192,132640,1,0,0:0:0:0:
256,192,132827,1,0,0:0:0:0:
256,192,132921,1,8,0:0:0:0:
256,192,133108,1,8,0:0:0:0:
256,192,133202,1,0,0:0:0:0:
256,192,133390,1,0,0:0:0:0:
256,192,133483,1,0,0:0:0:0:
256,192,133577,1,0,0:0:0:0:
256,192,133765,1,8,0:0:0:0:
256,192,133951,1,8,0:0:0:0:
256,192,134140,1,4,0:0:0:0:
256,192,134515,1,8,0:0:0:0:
256,192,134702,1,8,0:0:0:0:
256,192,134890,1,0,0:0:0:0:
256,192,135077,1,0,0:0:0:0:
256,192,135265,1,8,0:0:0:0:
256,192,135640,1,0,0:0:0:0:
256,192,136015,1,8,0:0:0:0:
256,192,136203,1,0,0:0:0:0:
256,192,136577,1,0,0:0:0:0:
256,192,136765,1,8,0:0:0:0:
256,192,137140,1,0,0:0:0:0:
256,192,137515,1,8,0:0:0:0:
256,192,137702,1,8,0:0:0:0:
256,192,137890,1,0,0:0:0:0:
256,192,138077,1,8,0:0:0:0:
256,192,138265,1,0,0:0:0:0:
256,192,138640,1,0,0:0:0:0:
256,192,138827,1,0,0:0:0:0:
256,192,139015,1,8,0:0:0:0:
256,192,139390,1,8,0:0:0:0:
256,192,139577,1,8,0:0:0:0:
256,192,139671,1,0,0:0:0:0:
256,192,139858,1,0,0:0:0:0:
256,192,139952,1,8,0:0:0:0:
256,192,140140,1,0,0:0:0:0:
256,192,140515,1,0,0:0:0:0:
256,192,140703,1,8,0:0:0:0:
256,192,141077,1,8,0:0:0:0:
256,192,141265,1,0,0:0:0:0:
256,192,141452,1,8,0:0:0:0:
256,192,141640,1,0,0:0:0:0:
256,192,142015,1,8,0:0:0:0:
256,192,142390,1,0,0:0:0:0:
256,192,142577,1,8,0:0:0:0:
256,192,142765,1,8,0:0:0:0:
256,192,142952,1,0,0:0:0:0:
256,192,143140,1,0,0:0:0:0:
256,192,143515,1,8,0:0:0:0:
256,192,143608,1,8,0:0:0:0:
256,192,143702,1,8,0:0:0:0:
256,192,143890,1,0,0:0:0:0:
256,192,144265,1,8,0:0:0:0:
256,192,144452,1,0,0:0:0:0:
256,192,144640,1,0,0:0:0:0:
256,192,145015,1,8,0:0:0:0:
256,192,145202,1,8,0:0:0:0:
256,192,145390,1,0,0:0:0:0:
256,192,145577,1,0,0:0:0:0:
256,192,145765,1,8,0:0:0:0:
256,192,145952,1,0,0:0:0:0:
256,192,146140,1,8,0:0:0:0:
256,192,146515,1,0,0:0:0:0:
256,192,146702,1,8,0:0:0:0:
256,192,147077,1,8,0:0:0:0:
256,192,147265,1,0,0:0:0:0:
256,192,147640,1,0,0:0:0:0:
256,192,148015,1,8,0:0:0:0:
256,192,148202,1,8,0:0:0:0:
256,192,148390,1,0,0:0:0:0:
256,192,148577,1,0,0:0:0:0:
256,192,148765,1,8,0:0:0:0:
256,192,149140,1,0,0:0:0:0:
256,192,149515,1,8,0:0:0:0:
256,192,149702,1,0,0:0:0:0:
256,192,150077,1,0,0:0:0:0:
256,192,150265,1,8,0:0:0:0:
256,192,150452,1,0,0:0:0:0:
256,192,150546,1,0,0:0:0:0:
256,192,150640,1,8,0:0:0:0:
256,192,151015,1,8,0:0:0:0:
256,192,151202,1,0,0:0:0:0:
256,192,151390,1,8,0:0:0:0:
256,192,151765,1,0,0:0:0:0:
256,192,152140,1,0,0:0:0:0:
256,192,152327,1,0,0:0:0:0:
256,192,152515,1,8,0:0:0:0:
256,192,152702,1,0,0:0:0:0:
256,192,152890,1,0,0:0:0:0:
256,192,153077,1,0,0:0:0:0:
256,192,153171,1,0,0:0:0:0:
256,192,153265,1,8,0:0:0:0:
256,192,153640,1,0,0:0:0:0:
256,192,153827,1,0,0:0:0:0:
256,192,153921,1,0,0:0:0:0:
256,192,154015,1,8,0:0:0:0:
256,192,154202,1,0,0:0:0:0:
256,192,154390,1,0,0:0:0:0:
256,192,154577,1,8,0:0:0:0:
256,192,154671,1,0,0:0:0:0:
256,192,154765,1,8,0:0:0:0:
256,192,155140,1,0,0:0:0:0:
256,192,155327,1,0,0:0:0:0:
256,192,155515,1,8,0:0:0:0:
256,192,155702,1,0,0:0:0:0:
256,192,156077,1,0,0:0:0:0:
256,192,156265,1,8,0:0:0:0:
256,192,156452,1,0,0:0:0:0:
256,192,156640,1,0,0:0:0:0:
256,192,156827,1,0,0:0:0:0:
256,192,157015,1,8,0:0:0:0:
256,192,157108,1,8,0:0:0:0:
256,192,157202,1,0,0:0:0:0:
256,192,157390,1,12,0:0:0:0:
256,192,157671,1,12,0:0:0:0:
256,192,157952,1,0,0:0:0:0:
256,192,158046,1,0,0:0:0:0:
256,192,158140,1,8,0:0:0:0:
256,192,158515,1,8,0:0:0:0:
256,192,158702,1,0,0:0:0:0:
256,192,159077,1,0,0:0:0:0:
256,192,159264,1,8,0:0:0:0:
256,192,159452,1,8,0:0:0:0:
256,192,159640,1,0,0:0:0:0:
256,192,159827,1,0,0:0:0:0:
256,192,160015,1,0,0:0:0:0:
256,192,160202,1,8,0:0:0:0:
256,192,160577,1,8,0:0:0:0:
256,192,160765,1,0,0:0:0:0:
256,192,160952,1,0,0:0:0:0:
256,192,161046,1,0,0:0:0:0:
256,192,161140,1,8,0:0:0:0:
256,192,161515,1,8,0:0:0:0:
256,192,161702,1,0,0:0:0:0:
256,192,162077,1,0,0:0:0:0:
256,192,162264,1,8,0:0:0:0:
256,192,162452,1,8,0:0:0:0:
256,192,162640,1,0,0:0:0:0:
256,192,162827,1,0,0:0:0:0:
256,192,163015,1,0,0:0:0:0:
256,192,163202,1,8,0:0:0:0:
256,192,163577,1,8,0:0:0:0:
256,192,163765,1,0,0:0:0:0:
256,192,163952,1,8,0:0:0:0:
256,192,164046,1,0,0:0:0:0:
256,192,164140,1,8,0:0:0:0:
256,192,164327,1,0,0:0:0:0:
256,192,164515,1,8,0:0:0:0:
256,192,164702,1,0,0:0:0:0:
256,192,165077,1,0,0:0:0:0:
256,192,165265,1,8,0:0:0:0:
256,192,165452,1,0,0:0:0:0:
256,192,165640,1,8,0:0:0:0:
256,192,165827,1,0,0:0:0:0:
256,192,166015,1,0,0:0:0:0:
256,192,166202,1,8,0:0:0:0:
256,192,166577,1,0,0:0:0:0:
256,192,166765,1,8,0:0:0:0:
256,192,166952,1,0,0:0:0:0:
256,192,167140,1,8,0:0:0:0:
256,192,167233,1,0,0:0:0:0:
256,192,167327,1,8,0:0:0:0:
256,192,167515,1,0,0:0:0:0:
256,192,167702,1,0,0:0:0:0:
256,192,167890,1,8,0:0:0:0:
256,192,167983,1,0,0:0:0:0:
256,192,168077,1,8,0:0:0:0:
256,192,168265,1,0,0:0:0:0:
256,192,168452,1,0,0:0:0:0:
256,192,168640,1,8,0:0:0:0:
256,192,168733,1,8,0:0:0:0:
256,192,168827,1,8,0:0:0:0:
256,192,169015,1,0,0:0:0:0:
256,192,169202,1,8,0:0:0:0:
256,192,169390,1,8,0:0:0:0:
256,192,169483,1,8,0:0:0:0:
256,192,169577,1,8,0:0:0:0:
256,192,169765,1,0,0:0:0:0:
256,192,169952,1,8,0:0:0:0:
256,192,170140,1,0,0:0:0:0:
256,192,170233,1,0,0:0:0:0:
256,192,170327,1,8,0:0:0:0:
256,192,170421,1,0,0:0:0:0:
256,192,170515,1,8,0:0:0:0:
256,192,170608,1,0,0:0:0:0:
256,192,170702,1,0,0:0:0:0:
256,192,170796,1,8,0:0:0:0:
256,192,170890,1,8,0:0:0:0:
256,192,170983,1,0,0:0:0:0:
256,192,171077,1,8,0:0:0:0:
256,192,171171,1,0,0:0:0:0:
256,192,171265,1,0,0:0:0:0:
256,192,171358,1,8,0:0:0:0:
256,192,171452,1,0,0:0:0:0:
256,192,171546,1,0,0:0:0:0:
256,192,171640,1,8,0:0:0:0:
256,192,171733,1,8,0:0:0:0:
256,192,171827,1,0,0:0:0:0:
256,192,171921,1,0,0:0:0:0:
256,192,172015,1,8,0:0:0:0:
256,192,172108,1,0,0:0:0:0:
256,192,172202,1,8,0:0:0:0:
256,192,172296,1,8,0:0:0:0:
256,192,172577,1,0,0:0:0:0:
256,192,173140,1,4,0:0:0:0:
256,192,173327,1,8,0:0:0:0:
256,192,173421,1,0,0:0:0:0:
256,192,173515,1,0,0:0:0:0:
256,192,173608,1,8,0:0:0:0:
256,192,173796,1,0,0:0:0:0:
256,192,173890,1,8,0:0:0:0:
256,192,174077,1,0,0:0:0:0:
256,192,174265,1,8,0:0:0:0:
256,192,174358,1,8,0:0:0:0:
256,192,174452,1,0,0:0:0:0:
256,192,174640,1,8,0:0:0:0:
256,192,174827,1,0,0:0:0:0:
256,192,174921,1,8,0:0:0:0:
256,192,175015,1,8,0:0:0:0:
256,192,175108,1,0,0:0:0:0:
256,192,175296,1,0,0:0:0:0:
256,192,175390,1,8,0:0:0:0:
256,192,175577,1,0,0:0:0:0:
256,192,175671,1,8,0:0:0:0:
256,192,175765,1,8,0:0:0:0:
256,192,175858,1,0,0:0:0:0:
256,192,175952,1,8,0:0:0:0:
256,192,176140,1,0,0:0:0:0:
256,192,176327,1,8,0:0:0:0:
256,192,176421,1,8,0:0:0:0:
256,192,176515,1,8,0:0:0:0:
256,192,176702,1,0,0:0:0:0:
256,192,176890,1,8,0:0:0:0:
256,192,177077,1,0,0:0:0:0:
256,192,177171,1,8,0:0:0:0:
256,192,177265,1,0,0:0:0:0:
256,192,177452,1,0,0:0:0:0:
256,192,177640,1,8,0:0:0:0:
256,192,177827,1,0,0:0:0:0:
256,192,177921,1,0,0:0:0:0:
256,192,178015,1,8,0:0:0:0:
256,192,178202,1,0,0:0:0:0:
256,192,178390,1,8,0:0:0:0:
256,192,178483,1,8,0:0:0:0:
256,192,178577,1,0,0:0:0:0:
256,192,178671,1,0,0:0:0:0:
256,192,178765,1,8,0:0:0:0:
256,192,178952,1,0,0:0:0:0:
256,192,179140,1,0,0:0:0:0:
256,192,179327,1,8,0:0:0:0:
256,192,179421,1,0,0:0:0:0:
256,192,179515,1,0,0:0:0:0:
256,192,179608,1,8,0:0:0:0:
256,192,179796,1,0,0:0:0:0:
256,192,179890,1,8,0:0:0:0:
256,192,180077,1,0,0:0:0:0:
256,192,180265,1,8,0:0:0:0:
256,192,180358,1,8,0:0:0:0:
256,192,180452,1,0,0:0:0:0:
256,192,180640,1,8,0:0:0:0:
256,192,180827,1,0,0:0:0:0:
256,192,180921,1,8,0:0:0:0:
256,192,181015,1,8,0:0:0:0:
256,192,181108,1,0,0:0:0:0:
256,192,181296,1,8,0:0:0:0:
256,192,181390,1,8,0:0:0:0:
256,192,181577,1,0,0:0:0:0:
256,192,181671,1,8,0:0:0:0:
256,192,181765,1,8,0:0:0:0:
256,192,181858,1,0,0:0:0:0:
256,192,181952,1,8,0:0:0:0:
256,192,182140,1,0,0:0:0:0:
256,192,182327,1,8,0:0:0:0:
256,192,182421,1,8,0:0:0:0:
256,192,182515,1,0,0:0:0:0:
256,192,182702,1,0,0:0:0:0:
256,192,182890,1,8,0:0:0:0:
256,192,183077,1,0,0:0:0:0:
256,192,183265,1,0,0:0:0:0:
256,192,183358,1,0,0:0:0:0:
256,192,183452,1,8,0:0:0:0:
256,192,183546,1,0,0:0:0:0:
256,192,183640,1,8,0:0:0:0:
256,192,183827,1,0,0:0:0:0:
256,192,184015,1,8,0:0:0:0:
256,192,184108,1,8,0:0:0:0:
256,192,184202,1,8,0:0:0:0:
256,192,184390,1,8,0:0:0:0:
256,192,184577,1,0,0:0:0:0:
256,192,184765,1,8,0:0:0:0:
256,192,184858,1,8,0:0:0:0:
256,192,184952,1,0,0:0:0:0:
256,192,185046,1,0,0:0:0:0:
256,192,185140,1,8,0:0:0:0:
256,192,185233,1,8,0:0:0:0:
256,192,185421,1,0,0:0:0:0:
256,192,185515,1,8,0:0:0:0:
256,192,185702,1,8,0:0:0:0:
256,192,185796,1,0,0:0:0:0:
256,192,185983,1,8,0:0:0:0:
256,192,186077,1,0,0:0:0:0:
256,192,186171,1,0,0:0:0:0:
256,192,186265,1,8,0:0:0:0:
256,192,186452,1,0,0:0:0:0:
256,192,186546,1,0,0:0:0:0:
256,192,186640,1,8,0:0:0:0:
256,192,186733,1,8,0:0:0:0:
256,192,186921,1,0,0:0:0:0:
256,192,187015,1,8,0:0:0:0:
256,192,187202,1,8,0:0:0:0:
256,192,187296,1,8,0:0:0:0:
256,192,187483,1,0,0:0:0:0:
256,192,187577,1,0,0:0:0:0:
256,192,187671,1,0,0:0:0:0:
256,192,187765,1,8,0:0:0:0:
256,192,187952,1,0,0:0:0:0:
256,192,188140,1,0,0:0:0:0:
256,192,188327,1,8,0:0:0:0:
256,192,188421,1,8,0:0:0:0:
256,192,188515,1,8,0:0:0:0:
256,192,188702,1,0,0:0:0:0:
256,192,188890,1,8,0:0:0:0:
256,192,189077,1,0,0:0:0:0:
256,192,189171,1,8,0:0:0:0:
256,192,189265,1,0,0:0:0:0:
256,192,189452,1,0,0:0:0:0:
256,192,189640,1,8,0:0:0:0:
256,192,189827,1,0,0:0:0:0:
256,192,189921,1,0,0:0:0:0:
256,192,190015,1,8,0:0:0:0:
256,192,190202,1,0,0:0:0:0:
256,192,190390,1,8,0:0:0:0:
256,192,190483,1,0,0:0:0:0:
256,192,190577,1,8,0:0:0:0:
256,192,190671,1,8,0:0:0:0:
256,192,190765,1,0,0:0:0:0:
256,192,190952,1,8,0:0:0:0:
256,192,191140,1,8,0:0:0:0:
256,192,191233,1,8,0:0:0:0:
256,192,191421,1,0,0:0:0:0:
256,192,191515,1,8,0:0:0:0:
256,192,191702,1,8,0:0:0:0:
256,192,191796,1,0,0:0:0:0:
256,192,191983,1,8,0:0:0:0:
256,192,192077,1,0,0:0:0:0:
256,192,192171,1,0,0:0:0:0:
256,192,192265,1,8,0:0:0:0:
256,192,192452,1,0,0:0:0:0:
256,192,192546,1,8,0:0:0:0:
256,192,192640,1,8,0:0:0:0:
256,192,192733,1,8,0:0:0:0:
256,192,192921,1,0,0:0:0:0:
256,192,193015,1,8,0:0:0:0:
256,192,193202,1,8,0:0:0:0:
256,192,193296,1,8,0:0:0:0:
256,192,193483,1,0,0:0:0:0:
256,192,193577,1,0,0:0:0:0:
256,192,193671,1,8,0:0:0:0:
256,192,193765,1,8,0:0:0:0:
256,192,193952,1,0,0:0:0:0:
256,192,194140,1,0,0:0:0:0:
256,192,194327,1,8,0:0:0:0:
256,192,194421,1,8,0:0:0:0:
256,192,194515,1,8,0:0:0:0:
256,192,194702,1,0,0:0:0:0:
256,192,194890,1,8,0:0:0:0:
256,192,195077,1,0,0:0:0:0:
256,192,195171,1,0,0:0:0:0:
256,192,195265,1,0,0:0:0:0:
256,192,195452,1,0,0:0:0:0:
256,192,195640,1,8,0:0:0:0:
256,192,195733,1,0,0:0:0:0:
256,192,195921,1,0,0:0:0:0:
256,192,196015,1,8,0:0:0:0:
256,192,196202,1,8,0:0:0:0:
256,192,196296,1,0,0:0:0:0:
256,192,196483,1,0,0:0:0:0:
256,192,196577,1,8,0:0:0:0:
256,192,196765,1,8,0:0:0:0:
256,192,196858,1,8,0:0:0:0:
256,192,196952,1,8,0:0:0:0:
256,192,197046,1,8,0:0:0:0:
256,192,197140,1,0,0:0:0:0:
256,192,198640,1,8,0:0:0:0:
256,192,200140,1,0,0:0:0:0:
256,192,201640,1,0,0:0:0:0:
256,192,203140,1,0,0:0:0:0:
256,192,203327,1,8,0:0:0:0:
256,192,203702,1,8,0:0:0:0:
256,192,204077,1,8,0:0:0:0:
256,192,204452,1,8,0:0:0:0:
256,192,204640,1,0,0:0:0:0:
256,192,204827,1,8,0:0:0:0:
256,192,205202,1,8,0:0:0:0:
256,192,205577,1,8,0:0:0:0:
256,192,205952,1,8,0:0:0:0:
256,192,206140,1,0,0:0:0:0:
256,192,206327,1,8,0:0:0:0:
256,192,206702,1,8,0:0:0:0:
256,192,207077,1,8,0:0:0:0:
256,192,207452,1,8,0:0:0:0:
256,192,207640,1,0,0:0:0:0:
256,192,207827,1,8,0:0:0:0:
256,192,208202,1,0,0:0:0:0:
256,192,208390,1,8,0:0:0:0:
256,192,209140,1,12,0:0:0:0:
256,192,209327,1,0,0:0:0:0:
256,192,209421,1,0,0:0:0:0:
256,192,209515,1,8,0:0:0:0:
256,192,209702,1,8,0:0:0:0:
256,192,209796,1,8,0:0:0:0:
256,192,209890,1,0,0:0:0:0:
256,192,210077,1,0,0:0:0:0:
256,192,210171,1,0,0:0:0:0:
256,192,210265,1,8,0:0:0:0:
256,192,210358,1,8,0:0:0:0:
256,192,210452,1,0,0:0:0:0:
256,192,210640,1,8,0:0:0:0:
256,192,210733,1,8,0:0:0:0:
256,192,210827,1,0,0:0:0:0:
256,192,210921,1,0,0:0:0:0:
256,192,211015,1,8,0:0:0:0:
256,192,211202,1,8,0:0:0:0:
256,192,211296,1,8,0:0:0:0:
256,192,211390,1,0,0:0:0:0:
256,192,211577,1,0,0:0:0:0:
256,192,211671,1,8,0:0:0:0:
256,192,211765,1,8,0:0:0:0:
256,192,211858,1,8,0:0:0:0:
256,192,211952,1,0,0:0:0:0:
256,192,212140,1,8,0:0:0:0:
256,192,212233,1,0,0:0:0:0:
256,192,212327,1,0,0:0:0:0:
256,192,212421,1,0,0:0:0:0:
256,192,212515,1,8,0:0:0:0:
256,192,212702,1,0,0:0:0:0:
256,192,212796,1,8,0:0:0:0:
256,192,212890,1,0,0:0:0:0:
256,192,212983,1,0,0:0:0:0:
256,192,213077,1,8,0:0:0:0:
256,192,213171,1,0,0:0:0:0:
256,192,213265,1,8,0:0:0:0:
256,192,213358,1,8,0:0:0:0:
256,192,213452,1,0,0:0:0:0:
256,192,213640,1,8,0:0:0:0:
256,192,213733,1,8,0:0:0:0:
256,192,213827,1,0,0:0:0:0:
256,192,213921,1,0,0:0:0:0:
256,192,214015,1,8,0:0:0:0:
256,192,214108,1,0,0:0:0:0:
256,192,214202,1,8,0:0:0:0:
256,192,214296,1,8,0:0:0:0:
256,192,214390,1,0,0:0:0:0:
256,192,214483,1,0,0:0:0:0:
256,192,214577,1,8,0:0:0:0:
256,192,214671,1,0,0:0:0:0:
256,192,214765,1,8,0:0:0:0:
256,192,214858,1,8,0:0:0:0:
256,192,214952,1,0,0:0:0:0:
256,192,215140,1,8,0:0:0:0:
256,192,215233,1,0,0:0:0:0:
256,192,215327,1,0,0:0:0:0:
256,192,215421,1,0,0:0:0:0:
256,192,215515,1,8,0:0:0:0:
256,192,215608,1,0,0:0:0:0:
256,192,215702,1,8,0:0:0:0:
256,192,215796,1,8,0:0:0:0:
256,192,215890,1,0,0:0:0:0:
256,192,215983,1,8,0:0:0:0:
256,192,216077,1,0,0:0:0:0:
256,192,216171,1,0,0:0:0:0:
256,192,216265,1,8,0:0:0:0:
256,192,216358,1,0,0:0:0:0:
256,192,216452,1,8,0:0:0:0:
256,192,216546,1,8,0:0:0:0:
256,192,216640,1,0,0:0:0:0:
256,192,216733,1,8,0:0:0:0:
256,192,216827,1,8,0:0:0:0:
256,192,216921,1,0,0:0:0:0:
256,192,217015,1,8,0:0:0:0:
256,192,217108,1,0,0:0:0:0:
256,192,217202,1,8,0:0:0:0:
256,192,217296,1,8,0:0:0:0:
256,192,217390,1,0,0:0:0:0:
256,192,217483,1,0,0:0:0:0:
256,192,217577,1,8,0:0:0:0:
256,192,217671,1,0,0:0:0:0:
256,192,217765,1,8,0:0:0:0:
256,192,217858,1,8,0:0:0:0:
256,192,217952,1,0,0:0:0:0:
256,192,218046,1,0,0:0:0:0:
256,192,218140,1,8,0:0:0:0:
256,192,218327,1,0,0:0:0:0:
256,192,218515,1,0,0:0:0:0:
256,192,218702,1,8,0:0:0:0:
256,192,218890,1,0,0:0:0:0:
256,192,219077,1,0,0:0:0:0:
256,192,219265,1,8,0:0:0:0:
256,192,219452,1,0,0:0:0:0:
256,192,219640,1,8,0:0:0:0:
256,192,219733,1,0,0:0:0:0:
256,192,219827,1,8,0:0:0:0:
256,192,219920,1,8,0:0:0:0:
256,192,220015,1,0,0:0:0:0:
256,192,220108,1,0,0:0:0:0:
256,192,220202,1,8,0:0:0:0:
256,192,220296,1,8,0:0:0:0:
256,192,220390,1,0,0:0:0:0:
256,192,220483,1,0,0:0:0:0:
256,192,220577,1,8,0:0:0:0:
256,192,220670,1,8,0:0:0:0:
256,192,220765,1,0,0:0:0:0:
256,192,220858,1,0,0:0:0:0:
256,192,220952,1,8,0:0:0:0:
256,192,221015,1,8,0:0:0:0:
256,192,221077,1,8,0:0:0:0:
256,192,221140,1,8,0:0:0:0:
256,192,221515,1,8,0:0:0:0:
256,192,221702,1,0,0:0:0:0:
256,192,222077,1,0,0:0:0:0:
256,192,222264,1,8,0:0:0:0:
256,192,222452,1,8,0:0:0:0:
256,192,222640,1,0,0:0:0:0:
256,192,223015,1,0,0:0:0:0:
256,192,223202,1,8,0:0:0:0:
256,192,223577,1,8,0:0:0:0:
256,192,223765,1,0,0:0:0:0:
256,192,223952,1,0,0:0:0:0:
256,192,224046,1,0,0:0:0:0:
256,192,224140,1,8,0:0:0:0:
256,192,224327,1,8,0:0:0:0:
256,192,224515,1,8,0:0:0:0:
256,192,224702,1,0,0:0:0:0:
256,192,225077,1,0,0:0:0:0:
256,192,225264,1,8,0:0:0:0:
256,192,225452,1,8,0:0:0:0:
256,192,225640,1,0,0:0:0:0:
256,192,226015,1,0,0:0:0:0:
256,192,226202,1,8,0:0:0:0:
256,192,226577,1,8,0:0:0:0:
256,192,226765,1,0,0:0:0:0:
256,192,226952,1,0,0:0:0:0:
256,192,227046,1,0,0:0:0:0:
256,192,227140,1,8,0:0:0:0:
256,192,227327,1,0,0:0:0:0:
256,192,227515,1,8,0:0:0:0:
256,192,227702,1,0,0:0:0:0:
256,192,228077,1,0,0:0:0:0:
256,192,228265,1,8,0:0:0:0:
256,192,228452,1,0,0:0:0:0:
256,192,228640,1,8,0:0:0:0:
256,192,228827,1,0,0:0:0:0:
256,192,228921,1,8,0:0:0:0:
256,192,229015,1,0,0:0:0:0:
256,192,229202,1,8,0:0:0:0:
256,192,229577,1,0,0:0:0:0:
256,192,229765,1,8,0:0:0:0:
256,192,229952,1,0,0:0:0:0:
256,192,230140,1,8,0:0:0:0:
256,192,230233,1,0,0:0:0:0:
256,192,230327,1,8,0:0:0:0:
256,192,230515,1,0,0:0:0:0:
256,192,230702,1,0,0:0:0:0:
256,192,230890,1,8,0:0:0:0:
256,192,230983,1,0,0:0:0:0:
256,192,231077,1,8,0:0:0:0:
256,192,231265,1,0,0:0:0:0:
256,192,231452,1,0,0:0:0:0:
256,192,231640,1,8,0:0:0:0:
256,192,231733,1,8,0:0:0:0:
256,192,231827,1,8,0:0:0:0:
256,192,232015,1,0,0:0:0:0:
256,192,232202,1,8,0:0:0:0:
256,192,232390,1,8,0:0:0:0:
256,192,232483,1,8,0:0:0:0:
256,192,232577,1,8,0:0:0:0:
256,192,232765,1,0,0:0:0:0:
256,192,232952,1,8,0:0:0:0:
256,192,233140,1,0,0:0:0:0:
256,192,233233,1,8,0:0:0:0:
256,192,233327,1,8,0:0:0:0:
256,192,233421,1,8,0:0:0:0:
256,192,233515,1,0,0:0:0:0:
256,192,233608,1,8,0:0:0:0:
256,192,233702,1,8,0:0:0:0:
256,192,233796,1,8,0:0:0:0:
256,192,233890,1,0,0:0:0:0:
256,192,233983,1,8,0:0:0:0:
256,192,234077,1,0,0:0:0:0:
256,192,234171,1,0,0:0:0:0:
256,192,234265,1,8,0:0:0:0:
256,192,234358,1,8,0:0:0:0:
256,192,234452,1,0,0:0:0:0:
256,192,234546,1,0,0:0:0:0:
256,192,234640,1,8,0:0:0:0:
256,192,234733,1,8,0:0:0:0:
256,192,234827,1,0,0:0:0:0:
256,192,234921,1,0,0:0:0:0:
256,192,235015,1,0,0:0:0:0:
256,192,235108,1,0,0:0:0:0:
256,192,235202,1,8,0:0:0:0:
256,192,235296,1,8,0:0:0:0:
256,192,235390,1,0,0:0:0:0:
256,192,236140,1,4,0:0:0:0:
256,192,237640,1,8,0:0:0:0:
256,192,238390,1,8,0:0:0:0:
256,192,239140,1,8,0:0:0:0:
256,192,239890,1,0,0:0:0:0:
256,192,240640,1,0,0:0:0:0:
256,192,240827,1,0,0:0:0:0:
256,192,240921,1,0,0:0:0:0:
256,192,241015,1,8,0:0:0:0:
256,192,241202,1,8,0:0:0:0:
256,192,241390,1,0,0:0:0:0:
256,192,241577,1,0,0:0:0:0:
256,192,241765,1,8,0:0:0:0:
256,192,242140,1,0,0:0:0:0:
256,192,243640,1,8,0:0:0:0:
256,192,244390,1,8,0:0:0:0:
256,192,245140,1,0,0:0:0:0:
256,192,245890,1,8,0:0:0:0:
256,192,246265,1,0,0:0:0:0:
256,192,247015,1,8,0:0:0:0:
256,192,247390,1,0,0:0:0:0:
256,192,247577,1,0,0:0:0:0:
256,192,247765,1,8,0:0:0:0:
256,192,247952,1,8,0:0:0:0:
256,192,248140,1,4,0:0:0:0:
256,192,249640,1,8,0:0:0:0:
256,192,250390,1,4,0:0:0:0:
256,192,251140,1,8,0:0:0:0:
256,192,252640,1,8,0:0:0:0:
256,192,254140,1,4,0:0:0:0:
256,192,255640,1,8,0:0:0:0:
256,192,256390,1,4,0:0:0:0:
256,192,257140,1,8,0:0:0:0:
256,192,257233,1,8,0:0:0:0:
256,192,257421,1,0,0:0:0:0:
256,192,257515,1,0,0:0:0:0:
256,192,257702,1,0,0:0:0:0:
256,192,257796,1,0,0:0:0:0:
256,192,257984,1,8,0:0:0:0:
256,192,258077,1,8,0:0:0:0:
256,192,258171,1,8,0:0:0:0:
256,192,258265,1,0,0:0:0:0:
256,192,258452,1,0,0:0:0:0:
256,192,258640,1,8,0:0:0:0:
256,192,258733,1,0,0:0:0:0:
256,192,258921,1,0,0:0:0:0:
256,192,259015,1,8,0:0:0:0:
256,192,259202,1,8,0:0:0:0:
256,192,259296,1,8,0:0:0:0:
256,192,259484,1,0,0:0:0:0:
256,192,259577,1,0,0:0:0:0:
256,192,259671,1,0,0:0:0:0:
256,192,259765,1,8,0:0:0:0:
256,192,261640,1,4,0:0:0:0:
256,192,261827,1,8,0:0:0:0:
256,192,261921,1,0,0:0:0:0:
256,192,262015,1,0,0:0:0:0:
256,192,262108,1,8,0:0:0:0:
256,192,262296,1,0,0:0:0:0:
256,192,262390,1,8,0:0:0:0:
256,192,262577,1,0,0:0:0:0:
256,192,262765,1,8,0:0:0:0:
256,192,262858,1,8,0:0:0:0:
256,192,262952,1,0,0:0:0:0:
256,192,263046,1,0,0:0:0:0:
256,192,263140,1,8,0:0:0:0:
256,192,263327,1,0,0:0:0:0:
256,192,263421,1,8,0:0:0:0:
256,192,263515,1,8,0:0:0:0:
256,192,263608,1,0,0:0:0:0:
256,192,263796,1,8,0:0:0:0:
256,192,263890,1,0,0:0:0:0:
256,192,264077,1,0,0:0:0:0:
256,192,264171,1,8,0:0:0:0:
256,192,264265,1,8,0:0:0:0:
256,192,264358,1,0,0:0:0:0:
256,192,264452,1,8,0:0:0:0:
256,192,264546,1,8,0:0:0:0:
256,192,264640,1,0,0:0:0:0:
256,192,264827,1,8,0:0:0:0:
256,192,264921,1,8,0:0:0:0:
256,192,265015,1,8,0:0:0:0:
256,192,265202,1,0,0:0:0:0:
256,192,265390,1,8,0:0:0:0:
256,192,265577,1,0,0:0:0:0:
256,192,265671,1,8,0:0:0:0:
256,192,265765,1,0,0:0:0:0:
256,192,265952,1,0,0:0:0:0:
256,192,266140,1,8,0:0:0:0:
256,192,266327,1,0,0:0:0:0:
256,192,266421,1,0,0:0:0:0:
256,192,266515,1,8,0:0:0:0:
256,192,266702,1,0,0:0:0:0:
256,192,266890,1,8,0:0:0:0:
256,192,266983,1,8,0:0:0:0:
256,192,267077,1,0,0:0:0:0:
256,192,267171,1,0,0:0:0:0:
256,192,267265,1,8,0:0:0:0:
256,192,267452,1,0,0:0:0:0:
256,192,267640,1,0,0:0:0:0:
256,192,267827,1,8,0:0:0:0:
256,192,267921,1,0,0:0:0:0:
256,192,268015,1,0,0:0:0:0:
256,192,268108,1,8,0:0:0:0:
256,192,268296,1,0,0:0:0:0:
256,192,268390,1,8,0:0:0:0:
256,192,268577,1,0,0:0:0:0:
256,192,268765,1,8,0:0:0:0:
256,192,268858,1,8,0:0:0:0:
256,192,268952,1,0,0:0:0:0:
256,192,269046,1,0,0:0:0:0:
256,192,269140,1,8,0:0:0:0:
256,192,269327,1,0,0:0:0:0:
256,192,269421,1,8,0:0:0:0:
256,192,269515,1,8,0:0:0:0:
256,192,269608,1,0,0:0:0:0:
256,192,269796,1,8,0:0:0:0:
256,192,269890,1,8,0:0:0:0:
256,192,270077,1,0,0:0:0:0:
256,192,270171,1,8,0:0:0:0:
256,192,270265,1,8,0:0:0:0:
256,192,270358,1,0,0:0:0:0:
256,192,270452,1,8,0:0:0:0:
256,192,270546,1,0,0:0:0:0:
256,192,270640,1,0,0:0:0:0:
256,192,270827,1,8,0:0:0:0:
256,192,270921,1,8,0:0:0:0:
256,192,271015,1,0,0:0:0:0:
256,192,271202,1,0,0:0:0:0:
256,192,271390,1,8,0:0:0:0:
256,192,271577,1,0,0:0:0:0:
256,192,271765,1,0,0:0:0:0:
256,192,271858,1,0,0:0:0:0:
256,192,271952,1,8,0:0:0:0:
256,192,272046,1,0,0:0:0:0:
256,192,272140,1,8,0:0:0:0:
256,192,272327,1,0,0:0:0:0:
256,192,272515,1,8,0:0:0:0:
256,192,272608,1,8,0:0:0:0:
256,192,272702,1,8,0:0:0:0:
256,192,272890,1,8,0:0:0:0:
256,192,272983,1,0,0:0:0:0:
256,192,273077,1,0,0:0:0:0:
256,192,273171,1,8,0:0:0:0:
256,192,273265,1,0,0:0:0:0:
256,192,273358,1,0,0:0:0:0:
256,192,273452,1,8,0:0:0:0:
256,192,273546,1,0,0:0:0:0:
256,192,273640,1,8,0:0:0:0:
256,192,273733,1,8,0:0:0:0:
256,192,273921,1,0,0:0:0:0:
256,192,274015,1,8,0:0:0:0:
256,192,274108,1,8,0:0:0:0:
256,192,274202,1,8,0:0:0:0:
256,192,274296,1,0,0:0:0:0:
256,192,274483,1,8,0:0:0:0:
256,192,274577,1,0,0:0:0:0:
256,192,274671,1,0,0:0:0:0:
256,192,274765,1,8,0:0:0:0:
256,192,274952,1,0,0:0:0:0:
256,192,275046,1,0,0:0:0:0:
256,192,275140,1,8,0:0:0:0:
256,192,275233,1,8,0:0:0:0:
256,192,275421,1,0,0:0:0:0:
256,192,275515,1,8,0:0:0:0:
256,192,275608,1,0,0:0:0:0:
256,192,275702,1,8,0:0:0:0:
256,192,275796,1,8,0:0:0:0:
256,192,275983,1,0,0:0:0:0:
256,192,276077,1,0,0:0:0:0:
256,192,276171,1,0,0:0:0:0:
256,192,276265,1,8,0:0:0:0:
256,192,276452,1,0,0:0:0:0:
256,192,276640,1,0,0:0:0:0:
256,192,276827,1,8,0:0:0:0:
256,192,276921,1,8,0:0:0:0:
256,192,277015,1,8,0:0:0:0:
256,192,277202,1,0,0:0:0:0:
256,192,277390,1,8,0:0:0:0:
256,192,277577,1,0,0:0:0:0:
256,192,277671,1,8,0:0:0:0:
256,192,277765,1,0,0:0:0:0:
256,192,277952,1,0,0:0:0:0:
256,192,278140,1,8,0:0:0:0:
256,192,278327,1,0,0:0:0:0:
256,192,278421,1,0,0:0:0:0:
256,192,278515,1,8,0:0:0:0:
256,192,278702,1,0,0:0:0:0:
256,192,278890,1,8,0:0:0:0:
256,192,278983,1,0,0:0:0:0:
256,192,279077,1,8,0:0:0:0:
256,192,279171,1,8,0:0:0:0:
256,192,279265,1,0,0:0:0:0:
256,192,279452,1,8,0:0:0:0:
256,192,279640,1,8,0:0:0:0:
256,192,279733,1,8,0:0:0:0:
256,192,279921,1,0,0:0:0:0:
256,192,280015,1,8,0:0:0:0:
256,192,280108,1,8,0:0:0:0:
256,192,280202,1,8,0:0:0:0:
256,192,280296,1,0,0:0:0:0:
256,192,280483,1,8,0:0:0:0:
256,192,280577,1,0,0:0:0:0:
256,192,280671,1,0,0:0:0:0:
256,192,280765,1,8,0:0:0:0:
256,192,280952,1,0,0:0:0:0:
256,192,281046,1,8,0:0:0:0:
256,192,281140,1,8,0:0:0:0:
256,192,281233,1,8,0:0:0:0:
256,192,281421,1,0,0:0:0:0:
256,192,281515,1,8,0:0:0:0:
256,192,281608,1,0,0:0:0:0:
256,192,281702,1,0,0:0:0:0:
256,192,281796,1,8,0:0:0:0:
256,192,281983,1,0,0:0:0:0:
256,192,282077,1,0,0:0:0:0:
256,192,282171,1,8,0:0:0:0:
256,192,282265,1,8,0:0:0:0:
256,192,282452,1,0,0:0:0:0:
256,192,282640,1,0,0:0:0:0:
256,192,282827,1,8,0:0:0:0:
256,192,282921,1,8,0:0:0:0:
256,192,283108,1,8,0:0:0:0:
256,192,283202,1,8,0:0:0:0:
256,192,283389,1,8,0:0:0:0:
256,192,283577,1,0,0:0:0:0:
256,192,283671,1,0,0:0:0:0:
256,192,283858,1,0,0:0:0:0:
256,192,283952,1,0,0:0:0:0:
256,192,284140,1,8,0:0:0:0:
256,192,284233,1,0,0:0:0:0:
256,192,284421,1,0,0:0:0:0:
256,192,284515,1,8,0:0:0:0:
256,192,284702,1,8,0:0:0:0:
256,192,284796,1,0,0:0:0:0:
256,192,284890,1,8,0:0:0:0:
256,192,284983,1,8,0:0:0:0:
256,192,285077,1,0,0:0:0:0:
256,192,285265,1,8,0:0:0:0:
256,192,285358,1,8,0:0:0:0:
256,192,285452,1,0,0:0:0:0:
256,192,285546,1,0,0:0:0:0:
256,192,285640,1,8,0:0:0:0:
256,192,285733,1,8,0:0:0:0:
256,192,285921,1,8,0:0:0:0:
256,192,286015,1,8,0:0:0:0:
256,192,286202,1,0,0:0:0:0:
256,192,286296,1,0,0:0:0:0:
256,192,286483,1,0,0:0:0:0:
256,192,286577,1,0,0:0:0:0:
256,192,286765,1,8,0:0:0:0:
256,192,286858,1,8,0:0:0:0:
256,192,286952,1,0,0:0:0:0:
256,192,287140,1,8,0:0:0:0:
256,192,287233,1,0,0:0:0:0:
256,192,287421,1,8,0:0:0:0:
256,192,287515,1,8,0:0:0:0:
256,192,287702,1,0,0:0:0:0:
256,192,287796,1,8,0:0:0:0:
256,192,287890,1,0,0:0:0:0:
256,192,287983,1,0,0:0:0:0:
256,192,288077,1,8,0:0:0:0:
256,192,288171,1,8,0:0:0:0:
256,192,288265,1,0,0:0:0:0:
256,192,288358,1,0,0:0:0:0:
256,192,288452,1,8,0:0:0:0:
256,192,288640,1,8,0:0:0:0:
256,192,288733,1,8,0:0:0:0:
256,192,288921,1,8,0:0:0:0:
256,192,289015,1,8,0:0:0:0:
256,192,289202,1,0,0:0:0:0:
256,192,289296,1,0,0:0:0:0:
256,192,289483,1,0,0:0:0:0:
256,192,289577,1,0,0:0:0:0:
256,192,289765,1,8,0:0:0:0:
256,192,289858,1,8,0:0:0:0:
256,192,289952,1,0,0:0:0:0:
256,192,290140,1,8,0:0:0:0:
256,192,290327,1,0,0:0:0:0:
256,192,290421,1,8,0:0:0:0:
256,192,290608,1,0,0:0:0:0:
256,192,290702,1,0,0:0:0:0:
256,192,290890,1,8,0:0:0:0:
256,192,290983,1,0,0:0:0:0:
256,192,291077,1,0,0:0:0:0:
256,192,291171,1,8,0:0:0:0:
256,192,291265,1,8,0:0:0:0:
256,192,291358,1,8,0:0:0:0:
256,192,291452,1,0,0:0:0:0:
256,192,291640,1,8,0:0:0:0:
256,192,291733,1,8,0:0:0:0:
256,192,291921,1,8,0:0:0:0:
256,192,292015,1,0,0:0:0:0:
256,192,292202,1,0,0:0:0:0:
256,192,292296,1,8,0:0:0:0:
256,192,292483,1,0,0:0:0:0:
256,192,292577,1,0,0:0:0:0:
256,192,292765,1,8,0:0:0:0:
256,192,292858,1,8,0:0:0:0:
256,192,292952,1,0,0:0:0:0:
256,192,293140,1,8,0:0:0:0:
256,192,293233,1,8,0:0:0:0:
256,192,293421,1,0,0:0:0:0:
256,192,293515,1,8,0:0:0:0:
256,192,293702,1,0,0:0:0:0:
256,192,293796,1,8,0:0:0:0:
256,192,293890,1,8,0:0:0:0:
256,192,293983,1,0,0:0:0:0:
256,192,294077,1,8,0:0:0:0:
256,192,294171,1,0,0:0:0:0:
256,192,294265,1,8,0:0:0:0:
256,192,294358,1,8,0:0:0:0:
256,192,294452,1,8,0:0:0:0:
256,192,294640,1,8,0:0:0:0:
256,192,294733,1,8,0:0:0:0:
256,192,294921,1,8,0:0:0:0:
256,192,295015,1,0,0:0:0:0:
256,192,295202,1,0,0:0:0:0:
256,192,295296,1,8,0:0:0:0:
256,192,295483,1,0,0:0:0:0:
256,192,295577,1,0,0:0:0:0:
256,192,295765,1,8,0:0:0:0:
256,192,295858,1,0,0:0:0:0:
256,192,295952,1,8,0:0:0:0:
256,192,296140,1,0,0:0:0:0:
256,192,296233,1,0,0:0:0:0:
256,192,296327,1,8,0:0:0:0:
256,192,296421,1,8,0:0:0:0:
256,192,296515,1,0,0:0:0:0:
256,192,296608,1,8,0:0:0:0:
256,192,296702,1,0,0:0:0:0:
256,192,296890,1,8,0:0:0:0:
256,192,296983,1,0,0:0:0:0:
256,192,297077,1,8,0:0:0:0:
256,192,297171,1,0,0:0:0:0:
256,192,297265,1,8,0:0:0:0:
256,192,297358,1,8,0:0:0:0:
256,192,297452,1,0,0:0:0:0:
256,192,297640,1,8,0:0:0:0:
256,192,297733,1,8,0:0:0:0:
256,192,297921,1,8,0:0:0:0:
256,192,298015,1,8,0:0:0:0:
256,192,298202,1,0,0:0:0:0:
256,192,298296,1,0,0:0:0:0:
256,192,298483,1,0,0:0:0:0:
256,192,298577,1,0,0:0:0:0:
256,192,298765,1,8,0:0:0:0:
256,192,298858,1,8,0:0:0:0:
256,192,298952,1,0,0:0:0:0:
256,192,299140,1,8,0:0:0:0:
256,192,299233,1,0,0:0:0:0:
256,192,299421,1,8,0:0:0:0:
256,192,299515,1,8,0:0:0:0:
256,192,299702,1,0,0:0:0:0:
256,192,299796,1,8,0:0:0:0:
256,192,299890,1,0,0:0:0:0:
256,192,299983,1,0,0:0:0:0:
256,192,300077,1,8,0:0:0:0:
256,192,300171,1,0,0:0:0:0:
256,192,300265,1,0,0:0:0:0:
256,192,300358,1,8,0:0:0:0:
256,192,300452,1,8,0:0:0:0:
256,192,300640,1,8,0:0:0:0:
256,192,300733,1,8,0:0:0:0:
256,192,300921,1,8,0:0:0:0:
256,192,301015,1,8,0:0:0:0:
256,192,301202,1,0,0:0:0:0:
256,192,301296,1,0,0:0:0:0:
256,192,301483,1,0,0:0:0:0:
256,192,301577,1,0,0:0:0:0:
256,192,301765,1,8,0:0:0:0:
256,192,301858,1,8,0:0:0:0:
256,192,301952,1,0,0:0:0:0:
256,192,302140,1,8,0:0:0:0:
256,192,302327,1,0,0:0:0:0:
256,192,302421,1,8,0:0:0:0:
256,192,302608,1,0,0:0:0:0:
256,192,302702,1,0,0:0:0:0:
256,192,302890,1,8,0:0:0:0:
256,192,302983,1,0,0:0:0:0:
256,192,303077,1,0,0:0:0:0:
256,192,303171,1,8,0:0:0:0:
256,192,303265,1,8,0:0:0:0:
256,192,303358,1,8,0:0:0:0:
256,192,303452,1,0,0:0:0:0:
256,192,303640,1,8,0:0:0:0:
256,192,303733,1,8,0:0:0:0:
256,192,303921,1,8,0:0:0:0:
256,192,304015,1,0,0:0:0:0:
256,192,304202,1,0,0:0:0:0:
256,192,304296,1,8,0:0:0:0:
256,192,304483,1,0,0:0:0:0:
256,192,304577,1,0,0:0:0:0:
256,192,304765,1,8,0:0:0:0:
256,192,304858,1,8,0:0:0:0:
256,192,304952,1,0,0:0:0:0:
256,192,305140,1,8,0:0:0:0:
256,192,305233,1,8,0:0:0:0:
256,192,305421,1,0,0:0:0:0:
256,192,305515,1,8,0:0:0:0:
256,192,305702,1,8,0:0:0:0:
256,192,305796,1,0,0:0:0:0:
256,192,305983,1,0,0:0:0:0:
256,192,306077,1,8,0:0:0:0:
256,192,306265,1,0,0:0:0:0:
256,192,306358,1,0,0:0:0:0:
256,192,306452,1,8,0:0:0:0:
256,192,306640,1,8,0:0:0:0:
256,192,306733,1,8,0:0:0:0:
256,192,306921,1,8,0:0:0:0:
256,192,307015,1,0,0:0:0:0:
256,192,307202,1,0,0:0:0:0:
256,192,307296,1,8,0:0:0:0:
256,192,307483,1,8,0:0:0:0:
256,192,307577,1,0,0:0:0:0:
256,192,307765,1,8,0:0:0:0:
256,192,307858,1,0,0:0:0:0:
256,192,307952,1,8,0:0:0:0:
256,192,308140,1,0,0:0:0:0:
256,192,308233,1,0,0:0:0:0:
256,192,308327,1,8,0:0:0:0:
256,192,308421,1,8,0:0:0:0:
256,192,308515,1,0,0:0:0:0:
256,192,308608,1,0,0:0:0:0:
256,192,308702,1,8,0:0:0:0:
256,192,308796,1,0,0:0:0:0:
256,192,308890,1,0,0:0:0:0:
256,192,308983,1,8,0:0:0:0:
256,192,309077,1,8,0:0:0:0:
256,192,309171,1,0,0:0:0:0:
256,192,309265,1,8,0:0:0:0:
256,192,309358,1,0,0:0:0:0:
256,192,309452,1,8,0:0:0:0:
256,192,309546,1,8,0:0:0:0:
