osu file format v14

[General]
AudioFilename: audio.mp3
AudioLeadIn: 0
PreviewTime: 222718
Countdown: 0
SampleSet: Soft
StackLeniency: 0.4
Mode: 0
LetterboxInBreaks: 0
WidescreenStoryboard: 0

[Editor]
Bookmarks: 219553
DistanceSpacing: 0.7
BeatDivisor: 4
GridSize: 4
TimelineZoom: 1

[Metadata]
Title:The Party We Have Never Seen
TitleUnicode:The Party We Have Never Seen
Artist:SOUND HOLIC
ArtistUnicode:SOUND HOLIC
Creator:Fall
Version:Euphoria
Source:東方紺珠伝 ~ Legacy of Lunatic Kingdom.
Tags:_tranquility video game nana takahashi camellia 紺 -KAN- かめりあ C89 パンデモニックプラネット Extra Stage Theme progressive house japanese electronic edm never before seen world of nightmares 見た事も無い悪夢の世界 pandemonic planet touhou project Kanjuden ZUN mita koto mo nai akumu no sekai 東方Project Team Shanghai Alice
BeatmapID:2523231
BeatmapSetID:1212232

[Difficulty]
HPDrainRate:6
CircleSize:4
OverallDifficulty:8
ApproachRate:8.2
SliderMultiplier:1.5
SliderTickRate:1

[Events]
//Background and Video events
0,0,"Hecatia.Lapislazuli.full.2791969.jpg",0,0
//Break Periods
//Storyboard Layer 0 (Background)
//Storyboard Layer 1 (Fail)
//Storyboard Layer 2 (Pass)
//Storyboard Layer 3 (Foreground)
//Storyboard Layer 4 (Overlay)
//Storyboard Sound Samples

[TimingPoints]
1515,468.75,4,2,1,45,1,0
1515,-111.111111111111,4,2,1,45,0,0
14640,-111.111111111111,4,2,1,55,0,0
15577,-111.111111111111,4,2,1,64,0,0
16515,-86.9565217391304,4,2,1,70,0,0
29640,-86.9565217391304,4,2,2,70,0,0
31515,-86.9565217391304,4,2,3,55,0,0
44640,-86.9565217391304,4,2,1,64,0,0
46515,-86.9565217391304,4,2,3,70,0,0
61515,-86.9565217391304,4,2,2,80,0,0
87765,-86.9565217391304,4,2,2,50,0,0
89640,-86.9565217391304,4,2,2,80,0,0
91515,-66.6666666666667,4,2,2,90,0,0
99015,-66.6666666666667,4,2,1,90,0,0
106515,-52.6315789473684,4,2,1,98,0,1
117765,-52.6315789473684,4,2,2,98,0,1
121515,-250,4,2,1,70,0,0
121632,-250,4,2,1,40,0,0
132765,-181.818181818182,4,2,1,40,0,0
136515,-111.111111111111,4,2,1,50,0,0
151512,-111.111111111111,4,2,1,60,0,0
151515,-86.9565217391304,4,2,1,60,0,0
165577,-86.9565217391304,4,2,2,66,0,0
166515,-86.9565217391304,4,2,3,50,0,0
179640,-86.9565217391304,4,2,2,60,0,0
181515,-86.9565217391304,4,2,3,70,0,0
196515,-86.9565217391304,4,2,2,70,0,0
211515,-76.9230769230769,4,2,2,78,0,0
222765,-76.9230769230769,4,2,2,50,0,0
224640,-76.9230769230769,4,2,2,80,0,0
226515,-64.5161290322581,4,2,2,90,0,0
234015,-64.5161290322581,4,2,1,90,0,0
241515,-50,4,2,1,98,0,1
252765,-50,4,2,2,98,0,1
256515,-50,4,2,1,100,0,0

[Colours]
Combo1 : 255,102,102
Combo2 : 255,128,0
Combo3 : 255,159,64
Combo4 : 242,24,57

[HitObjects]
65,85,1515,6,0,B|157:98|88:138|209:147,1,134.999995880127,2|0,0:0|0:0,0:0:0:0:
260,105,2218,1,2,0:0:0:0:
314,173,2452,2,0,P|320:219|319:278,2,101.249996910095,2|2|2,0:0|0:0|0:0,0:0:0:0:
260,105,3390,6,0,B|264:66|264:66|182:126,1,134.999995880127,2|0,0:0|0:0,0:0:0:0:
110,167,4093,1,2,0:0:0:0:
95,253,4327,2,0,P|141:250|189:201,2,101.249996910095,2|2|2,0:0|0:0|0:0,0:0:0:0:
29,194,5265,6,0,B|2:175|2:175|12:298,1,134.999995880127,2|0,0:0|0:0,0:0:0:0:
81,344,5968,1,2,0:0:0:0:
81,344,6085,1,2,0:0:0:0:
81,344,6202,2,0,L|194:341,1,101.249996910095,2|2,0:0|0:0,0:0:0:0:
313,336,6905,1,2,0:0:0:0:
245,280,7140,2,0,P|238:225|245:184,1,67.4999979400635,2|2,0:0|0:0,0:0:0:0:
255,172,7491,2,0,P|265:134|262:64,1,101.249996910095,2|0,0:0|0:0,0:0:0:0:
334,19,8077,2,0,B|368:37|368:37|458:15,2,101.249996910095,2|2|2,0:0|0:0|0:0,0:0:0:0:
226,7,9015,6,0,P|162:0|100:38,1,134.999995880127,2|0,0:0|0:0,0:0:0:0:
60,114,9718,1,2,0:0:0:0:
60,114,9835,1,2,0:0:0:0:
60,114,9952,2,0,L|66:223,2,101.249996910095,2|2|2,0:0|0:0|0:0,0:0:0:0:
147,114,10890,2,0,B|176:138|176:138|280:115,1,134.999995880127,2|0,0:0|0:0,0:0:0:0:
369,91,11593,1,2,0:0:0:0:
369,91,11710,1,2,0:0:0:0:
369,91,11827,2,0,P|395:131|395:182,1,67.4999979400635,2|0,0:0|0:0,0:0:0:0:
467,206,12179,2,0,P|441:246|441:297,1,67.4999979400635,2|0,0:0|0:0,0:0:0:0:
381,350,12530,1,2,0:0:0:0:
303,238,12765,5,2,0:0:0:0:
237,286,13468,2,0,L|201:287,1,33.7499989700318,2|2,0:0|0:0,0:0:0:0:
203,286,13702,1,2,0:0:0:0:
136,347,14054,2,0,L|30:340,1,101.249996910095,2|2,0:0|0:0,0:0:0:0:
34,340,14640,5,2,0:0:0:0:
85,273,14874,1,2,0:0:0:0:
102,157,15108,1,2,0:0:0:0:
24,17,15343,1,2,0:0:0:0:
176,110,15577,5,2,0:0:0:0:
33,27,15811,1,2,0:0:0:0:
158,221,16046,1,2,0:0:0:0:
44,38,16280,1,2,0:0:0:0:
281,162,16515,6,0,L|406:159,1,86.2500016450882,6|0,3:2|0:0,0:0:0:0:
477,61,16983,2,0,P|437:110|438:150,1,86.2500016450882,0|2,3:0|0:0,0:0:0:0:
443,155,17335,1,2,0:0:0:0:
450,179,17452,2,0,P|443:241|383:273,2,129.375002467632,2|2|2,3:2|0:2|0:0,0:0:0:0:
367,159,18390,6,0,P|343:120|343:75,1,86.2500016450882,2|0,3:2|0:0,0:0:0:0:
198,0,18858,2,0,P|222:39|222:84,1,86.2500016450882,0|2,3:0|0:0,0:0:0:0:
213,102,19210,1,2,0:0:0:0:
202,125,19327,2,0,P|212:169|244:201,1,86.2500016450882,2|0,3:2|0:0,0:0:0:0:
260,213,19679,2,0,L|167:232,1,86.2500016450882,2|0,0:0|0:0,0:0:0:0:
150,237,20030,1,2,0:0:0:0:
239,341,20265,5,2,3:2:0:0:
260,213,20499,1,0,0:0:0:0:
150,237,20733,1,0,3:0:0:0:
311,288,20968,1,2,0:0:0:0:
336,285,21085,1,2,0:0:0:0:
361,282,21202,6,0,L|452:284,1,86.2500016450882,2|0,3:2|0:0,0:0:0:0:
473,283,21554,2,0,P|448:241|452:162,1,129.375002467632,2|2,0:0|0:0,0:0:0:0:
454,22,22140,6,0,B|424:50|424:50|373:39,1,86.2500016450882,2|2,3:2|0:0,0:0:0:0:
355,30,22491,2,0,L|220:37,1,129.375002467632,2|0,0:0|0:0,0:0:0:0:
142,169,23077,6,0,P|176:119|160:74,1,86.2500016450882,2|0,3:2|0:0,0:0:0:0:
160,73,23429,2,0,P|104:93|72:166,1,129.375002467632,2|2,0:0|0:0,0:0:0:0:
111,268,24015,6,0,B|173:263|173:263|284:305,1,172.500003290176,2|0,3:2|3:0,0:0:0:0:
410,307,24718,1,2,0:0:0:0:
392,287,24835,1,2,0:0:0:0:
381,263,24952,2,0,P|379:227|415:141,2,129.375002467632,2|2|2,3:2|0:0|0:0,0:0:0:0:
276,302,25890,6,0,L|183:306,1,86.2500016450882,2|0,3:2|0:0,0:0:0:0:
49,313,26358,1,0,3:0:0:0:
101,177,26593,1,2,0:0:0:0:
104,202,26710,1,2,0:0:0:0:
107,227,26827,6,0,B|126:195|126:195|209:181,1,86.2500016450882,2|0,3:2|0:0,0:0:0:0:
271,211,27179,2,0,P|274:148|253:118,1,86.2500016450882,2|0,0:0|0:0,0:0:0:0:
167,78,27530,1,2,0:0:0:0:
276,302,27765,5,6,3:2:0:0:
429,37,28468,2,0,L|433:95,1,43.1250008225441,2|2,0:0|0:0,0:0:0:0:
445,196,28702,5,6,3:2:0:0:
339,20,29054,5,2,0:0:0:0:
240,200,29405,5,2,0:0:0:0:
340,36,29640,5,2,3:2:0:0:
326,205,29874,1,0,3:0:0:0:
256,30,30108,1,0,3:0:0:0:
334,232,30343,1,0,3:0:0:0:
87,235,30577,5,0,3:0:0:0:
348,211,30811,1,8,3:2:0:0:
51,130,31046,5,0,3:0:0:0:
93,128,31163,1,8,3:2:0:0:
134,140,31280,1,0,3:0:0:0:
168,166,31397,1,8,3:2:0:0:
192,203,31514,5,6,3:2:0:0:
134,140,31983,1,10,0:0:0:0:
195,78,32452,1,2,0:0:0:0:
250,145,32921,5,10,0:0:0:0:
261,158,33038,1,2,0:0:0:0:
272,171,33155,1,2,0:0:0:0:
210,229,33390,1,2,0:0:0:0:
148,287,33624,1,2,0:0:0:0:
90,225,33858,1,10,0:0:0:0:
152,167,34093,1,2,0:0:0:0:
210,229,34327,1,2,0:0:0:0:
90,225,35030,1,2,0:0:0:0:
210,229,35265,5,2,0:0:0:0:
268,292,35733,1,10,0:0:0:0:
326,355,36202,1,2,0:0:0:0:
389,296,36671,1,10,0:0:0:0:
402,285,36788,1,2,0:0:0:0:
415,274,36905,1,2,0:0:0:0:
357,211,37140,5,2,0:0:0:0:
415,274,37374,1,2,0:0:0:0:
478,216,37608,1,10,0:0:0:0:
420,153,37843,1,2,0:0:0:0:
415,274,38077,1,2,0:0:0:0:
357,211,39015,5,2,0:0:0:0:
299,148,39483,1,10,0:0:0:0:
241,85,39952,1,2,0:0:0:0:
220,158,40304,1,2,0:0:0:0:
207,169,40421,1,10,0:0:0:0:
194,180,40538,1,2,0:0:0:0:
181,191,40655,1,2,0:0:0:0:
113,243,40890,5,2,0:0:0:0:
181,191,41124,1,2,0:0:0:0:
232,260,41358,1,10,0:0:0:0:
164,311,41593,1,2,0:0:0:0:
181,191,41827,1,2,0:0:0:0:
164,311,42530,1,2,0:0:0:0:
232,260,42765,5,2,0:0:0:0:
300,209,43233,1,10,0:0:0:0:
368,158,43702,1,2,0:0:0:0:
317,90,44171,1,10,0:0:0:0:
306,76,44288,1,2,0:0:0:0:
295,62,44405,1,2,0:0:0:0:
368,158,44640,5,2,0:0:0:0:
418,25,44874,1,2,0:0:0:0:
435,232,45108,1,2,0:0:0:0:
295,62,45343,1,0,3:0:0:0:
262,50,45460,1,0,3:0:0:0:
229,59,45577,5,10,3:2:0:0:
435,232,45811,1,2,3:2:0:0:
402,244,45928,1,0,3:0:0:0:
369,235,46045,1,10,3:2:0:0:
339,221,46163,1,0,3:0:0:0:
308,216,46280,1,0,3:0:0:0:
276,220,46397,1,0,3:0:0:0:
276,220,46515,6,0,L|290:311,1,86.2500016450882,6|0,3:2|0:0,0:0:0:0:
162,154,46983,2,0,L|148:245,1,86.2500016450882,2|0,3:2|0:0,0:0:0:0:
73,319,47452,1,2,3:2:0:0:
171,241,47686,1,2,0:0:0:0:
146,346,47921,1,0,3:0:0:0:
191,156,48155,6,0,P|132:108|36:108,1,172.500003290176,2|2,0:0|0:0,0:0:0:0:
38,106,48858,2,0,P|77:80|93:40,1,86.2500016450882,2|0,3:2|0:0,0:0:0:0:
219,0,49327,6,0,L|228:89,1,86.2500016450882,0|0,3:0|0:0,0:0:0:0:
296,195,49796,1,2,3:2:0:0:
227,85,50030,1,2,0:0:0:0:
366,153,50265,6,0,P|377:205|360:259,1,86.2500016450882,2|0,3:2|0:0,0:0:0:0:
284,312,50733,2,0,B|324:303|324:303|394:323,1,86.2500016450882,2|0,3:2|0:0,0:0:0:0:
208,354,51202,1,2,3:2:0:0:
122,254,51436,2,0,B|82:245|82:245|12:265,1,86.2500016450882,2|0,0:0|3:0,0:0:0:0:
204,270,51905,6,0,L|221:92,1,172.500003290176,2|2,0:0|0:0,0:0:0:0:
110,25,52608,2,0,L|121:115,1,86.2500016450882,2|0,3:2|0:0,0:0:0:0:
220,98,53077,5,2,3:2:0:0:
15,186,53311,1,6,0:0:0:0:
204,270,53546,1,6,3:2:0:0:
120,110,53780,1,2,0:0:0:0:
143,319,54015,6,0,P|192:347|281:281,2,172.500003290176,2|2|2,3:2|3:2|3:2,0:0:0:0:
244,220,55186,2,0,P|281:212|336:232,1,86.2500016450882,2|0,0:0|3:0,0:0:0:0:
451,273,55655,6,0,B|407:237|407:237|387:119,1,172.500003290176,2|2,0:0|0:0,0:0:0:0:
504,13,56358,2,0,P|484:47|428:73,1,86.2500016450882,2|0,3:2|0:0,0:0:0:0:
299,38,56827,1,0,3:0:0:0:
444,70,57061,1,0,0:0:0:0:
273,123,57296,5,2,3:2:0:0:
379,188,57530,1,2,0:0:0:0:
322,328,57765,2,0,L|209:333,1,86.2500016450882,2|0,3:2|0:0,0:0:0:0:
128,172,58233,5,2,3:2:0:0:
220,301,58468,1,2,0:0:0:0:
178,115,58702,2,0,P|147:99|92:107,1,86.2500016450882,2|0,3:2|0:0,0:0:0:0:
42,294,59171,5,2,3:2:0:0:
128,172,59405,1,2,0:0:0:0:
203,323,59640,1,2,3:2:0:0:
52,209,59874,1,2,0:0:0:0:
252,161,60108,6,0,L|345:166,1,86.2500016450882,0|0,3:0|0:0,0:0:0:0:
396,261,60577,1,2,3:2:0:0:
456,103,60811,1,2,0:0:0:0:
475,310,61046,1,2,3:2:0:0:
372,92,61280,1,2,0:0:0:0:
274,316,61515,6,0,L|181:321,1,86.2500016450882,2|0,3:2|0:0,0:0:0:0:
153,322,61866,1,10,0:0:0:0:
118,323,61983,2,0,P|123:277|95:219,1,86.2500016450882,2|8,3:2|0:0,0:0:0:0:
29,165,62452,1,2,3:2:0:0:
13,312,62686,1,10,0:0:0:0:
110,239,62921,1,0,3:0:0:0:
274,316,63155,1,10,0:0:0:0:
111,159,63390,6,0,P|158:176|196:227,1,86.2500016450882,2|2,3:2|0:0,0:0:0:0:
199,226,63741,1,8,0:0:0:0:
218,259,63858,2,0,L|318:221,1,86.2500016450882,2|8,3:2|0:0,0:0:0:0:
421,167,64327,1,0,3:0:0:0:
397,300,64561,1,8,0:0:0:0:
334,151,64796,1,2,3:2:0:0:
334,151,64913,1,10,0:0:0:0:
334,151,65030,1,2,0:0:0:0:
497,35,65265,6,0,B|463:60|463:60|381:56,1,86.2500016450882,2|0,3:2|0:0,0:0:0:0:
384,54,65616,1,10,0:0:0:0:
349,49,65733,2,0,L|261:39,1,86.2500016450882,2|8,3:2|0:0,0:0:0:0:
130,125,66202,1,2,3:2:0:0:
191,4,66436,1,10,0:0:0:0:
218,117,66671,1,0,3:2:0:0:
67,5,66905,1,10,0:0:0:0:
130,125,67140,5,2,3:2:0:0:
87,255,67374,1,2,0:0:0:0:
87,255,67491,1,8,0:0:0:0:
87,255,67608,2,0,P|111:303|142:334,1,86.2500016450882,2|8,3:2|0:0,0:0:0:0:
316,326,68077,5,2,3:2:0:0:
130,125,68311,1,14,0:0:0:0:
260,381,68546,1,14,3:2:0:0:
260,381,68663,1,10,0:0:0:0:
260,381,68780,1,2,0:0:0:0:
391,248,69015,6,0,L|396:157,1,86.2500016450882,2|0,3:2|0:0,0:0:0:0:
400,127,69366,1,10,0:0:0:0:
404,92,69483,2,0,P|371:78|307:82,1,86.2500016450882,2|8,3:2|0:0,0:0:0:0:
188,142,69952,1,2,3:2:0:0:
312,215,70186,1,10,0:0:0:0:
242,80,70421,1,0,3:2:0:0:
121,209,70655,1,10,0:0:0:0:
86,77,70890,6,0,P|70:121|104:184,1,86.2500016450882,0|2,3:0|0:0,0:0:0:0:
97,182,71241,1,8,0:0:0:0:
121,209,71358,2,0,P|137:253|128:298,1,86.2500016450882,2|8,3:2|0:0,0:0:0:0:
41,353,71827,1,0,3:0:0:0:
200,334,72061,1,8,0:0:0:0:
18,261,72296,1,2,3:2:0:0:
18,261,72413,1,10,0:0:0:0:
18,261,72530,1,2,0:0:0:0:
282,326,72765,6,0,L|372:320,1,86.2500016450882,2|0,3:2|0:0,0:0:0:0:
402,317,73116,1,10,0:0:0:0:
436,314,73233,2,0,P|410:277|407:228,1,86.2500016450882,2|10,3:2|0:0,0:0:0:0:
429,91,73702,1,2,3:2:0:0:
491,234,73936,1,8,0:0:0:0:
340,89,74171,1,2,3:2:0:0:
282,326,74405,1,0,0:0:0:0:
198,49,74640,5,2,3:2:0:0:
284,304,74874,1,2,0:0:0:0:
284,304,74991,1,10,0:0:0:0:
284,304,75108,1,2,0:0:0:0:
352,13,75343,1,10,0:0:0:0:
166,212,75577,5,2,0:0:0:0:
474,318,75811,1,10,0:0:0:0:
185,127,76046,1,2,0:0:0:0:
185,127,76163,1,10,0:0:0:0:
185,127,76280,1,2,0:0:0:0:
17,366,76515,6,0,B|61:371|61:371|115:316,1,86.2500016450882,14|0,3:2|0:0,0:0:0:0:
113,315,76866,1,10,0:0:0:0:
136,289,76983,2,0,L|225:281,1,86.2500016450882,10|10,0:0|0:0,0:0:0:0:
410,316,77452,2,0,L|324:323,1,86.2500016450882,2|10,0:0|0:0,0:0:0:0:
445,226,77921,1,10,0:0:0:0:
273,160,78155,1,2,0:0:0:0:
336,44,78390,6,0,L|353:136,1,86.2500016450882,10|0,0:0|0:0,0:0:0:0:
360,162,78741,1,10,0:0:0:0:
369,195,78858,2,0,P|337:204|259:191,1,86.2500016450882,10|8,0:0|0:0,0:0:0:0:
176,126,79327,1,2,0:0:0:0:
136,287,79561,1,10,0:0:0:0:
199,207,79796,1,10,0:0:0:0:
51,310,80030,1,2,3:2:0:0:
266,353,80265,6,0,L|368:341,1,86.2500016450882,10|0,3:2|0:0,0:0:0:0:
385,338,80616,1,10,0:0:0:0:
419,334,80733,1,10,0:0:0:0:
263,268,80968,1,10,0:0:0:0:
372,151,81202,1,2,0:0:0:0:
392,179,81319,1,2,0:0:0:0:
399,212,81436,1,10,0:0:0:0:
231,288,81671,1,8,0:0:0:0:
455,266,81905,1,2,0:0:0:0:
175,228,82140,6,0,P|154:269|154:315,1,86.2500016450882,10|0,0:0|0:0,0:0:0:0:
164,340,82491,1,10,0:0:0:0:
175,372,82608,2,0,P|116:346|80:351,1,86.2500016450882,8|10,0:0|0:0,0:0:0:0:
19,172,83077,5,10,0:0:0:0:
29,204,83194,1,2,0:0:0:0:
32,238,83311,1,14,0:0:0:0:
112,61,83546,1,14,0:0:0:0:
98,115,83663,1,2,0:0:0:0:
110,169,83780,1,2,0:0:0:0:
280,113,84015,6,0,L|190:115,1,86.2500016450882,2|0,3:2|3:0,0:0:0:0:
325,195,84483,1,2,3:2:0:0:
355,47,84718,1,2,3:2:0:0:
397,246,84952,6,0,P|407:191|392:143,1,86.2500016450882,2|0,3:2|3:0,0:0:0:0:
253,324,85421,1,2,3:2:0:0:
423,240,85655,1,2,3:2:0:0:
214,166,85890,5,2,3:2:0:0:
249,367,86124,2,0,L|255:311,1,43.1250008225441,0|8,3:2|0:0,0:0:0:0:
291,129,86358,1,2,3:2:0:0:
345,353,86593,1,2,3:2:0:0:
90,246,86827,5,2,3:2:0:0:
113,271,86944,1,0,3:0:0:0:
144,285,87061,1,2,3:2:0:0:
178,291,87179,1,0,3:0:0:0:
216,289,87296,5,2,3:2:0:0:
216,245,87413,1,0,3:0:0:0:
192,204,87530,1,2,3:2:0:0:
151,171,87647,1,0,3:0:0:0:
96,154,87765,5,2,3:2:0:0:
148,96,87999,1,2,0:0:0:0:
218,79,88233,1,2,0:0:0:0:
265,96,88468,1,2,0:0:0:0:
311,167,88702,5,2,0:0:0:0:
363,253,88936,1,2,0:0:0:0:
491,310,89171,1,2,0:0:0:0:
481,68,89640,5,8,0:0:0:0:
363,253,89874,1,0,3:0:0:0:
374,51,90108,5,8,0:0:0:0:
491,310,90343,1,0,3:0:0:0:
207,328,90577,5,8,0:0:0:0:
459,197,90811,1,0,3:0:0:0:
111,120,91046,1,12,0:0:0:0:
111,120,91515,6,0,B|75:157|75:157|79:246,1,112.500004291535,2|0,3:2|0:0,0:0:0:0:
82,256,91866,1,8,0:0:0:0:
82,256,91983,2,0,P|136:227|209:237,1,112.500004291535,2|2,3:2|0:0,0:0:0:0:
342,332,92452,1,2,3:2:0:0:
274,175,92686,1,2,0:0:0:0:
257,370,92921,1,2,3:2:0:0:
392,255,93155,1,2,0:0:0:0:
265,338,93390,6,0,L|151:327,1,112.500004291535,2|0,3:2|0:0,0:0:0:0:
114,320,93741,1,8,0:0:0:0:
114,320,93858,2,0,P|131:261|111:211,1,112.500004291535,2|2,3:2|0:0,0:0:0:0:
21,88,94327,1,2,3:2:0:0:
31,244,94561,1,2,0:0:0:0:
137,60,94796,2,0,L|130:126,1,56.2500021457673,2|8,3:2|0:0,0:0:0:0:
113,214,95030,1,2,0:0:0:0:
230,71,95265,6,0,B|288:103|288:103|402:71,1,168.750006437302,2|8,3:2|0:0,0:0:0:0:
423,62,95733,2,0,P|396:118|406:178,1,112.500004291535,0|2,3:2|0:0,0:0:0:0:
439,314,96202,1,2,3:2:0:0:
464,284,96319,1,2,0:0:0:0:
469,245,96436,1,2,0:0:0:0:
345,351,96671,1,0,3:0:0:0:
313,181,96905,1,2,0:0:0:0:
352,325,97140,6,0,P|292:307|184:330,1,168.750006437302,2|8,3:2|0:0,0:0:0:0:
158,350,97608,2,0,P|163:266|133:222,1,112.500004291535,0|2,3:0|0:0,0:0:0:0:
39,116,98077,5,2,3:2:0:0:
64,146,98194,1,2,0:0:0:0:
102,154,98311,1,6,0:0:0:0:
190,23,98546,1,6,3:2:0:0:
203,83,98663,1,10,0:0:0:0:
217,143,98780,1,10,0:0:0:0:
325,286,99015,6,0,L|338:155,1,112.500004291535,8|0,3:2|0:0,0:0:0:0:
342,135,99366,1,2,1:2:0:0:
348,96,99483,2,0,P|408:92|455:125,1,112.500004291535,10|2,3:2|0:0,0:0:0:0:
436,302,99952,1,10,3:2:0:0:
336,174,100186,1,2,1:2:0:0:
240,359,100421,1,10,3:2:0:0:
359,266,100655,1,2,0:0:0:0:
169,311,100890,6,0,P|136:256|142:195,1,112.500004291535,10|0,3:2|0:0,0:0:0:0:
154,173,101241,1,2,1:2:0:0:
170,137,101358,2,0,P|154:74|107:35,1,112.500004291535,10|2,3:2|0:0,0:0:0:0:
15,233,101827,1,10,3:2:0:0:
170,137,102061,1,2,0:0:0:0:
194,360,102296,2,0,L|167:308,1,56.2500021457673,10|0,3:2|1:0,0:0:0:0:
114,217,102530,1,2,0:0:0:0:
283,320,102765,5,10,3:2:0:0:
329,138,102999,1,2,0:0:0:0:
340,175,103116,1,0,1:0:0:0:
351,212,103233,1,10,3:2:0:0:
417,108,103468,1,2,0:0:0:0:
390,294,103702,5,10,3:2:0:0:
300,65,103936,1,2,0:0:0:0:
168,310,104171,2,0,L|185:193,1,112.500004291535,10|2,3:2|0:0,0:0:0:0:
300,23,104640,5,6,3:2:0:0:
108,138,104874,1,2,0:0:0:0:
343,147,105108,1,0,1:0:0:0:
177,103,105343,1,2,0:0:0:0:
337,231,105577,5,0,1:0:0:0:
376,217,105694,1,0,1:0:0:0:
406,188,105811,1,0,1:0:0:0:
418,148,105928,1,0,1:0:0:0:
412,107,106045,1,4,2:0:0:0:
412,107,106515,6,0,B|364:172|364:172|426:324,1,213.749994292259,8|2,3:2|1:2,0:0:0:0:
437,339,106983,2,0,P|361:309|281:328,1,142.49999619484,10|2,3:2|0:0,0:0:0:0:
99,356,107452,1,10,3:2:0:0:
278,239,107686,1,2,1:2:0:0:
122,273,107921,1,10,3:2:0:0:
362,384,108155,1,2,0:0:0:0:
190,215,108390,6,0,L|203:72,1,142.49999619484,10|0,3:2|0:0,0:0:0:0:
209,23,108741,1,2,1:2:0:0:
250,50,108858,2,0,P|331:68|398:44,1,142.49999619484,10|2,3:2|0:0,0:0:0:0:
278,239,109327,5,10,3:2:0:0:
386,51,109561,1,2,0:0:0:0:
445,200,109796,1,10,3:2:0:0:
458,248,109913,1,0,1:0:0:0:
472,295,110030,1,2,0:0:0:0:
264,330,110265,6,0,P|199:290|201:192,1,142.49999619484,8|0,3:2|0:0,0:0:0:0:
193,179,110616,1,2,1:2:0:0:
148,200,110733,2,0,L|5:208,1,142.49999619484,10|2,3:2|0:0,0:0:0:0:
14,58,111202,5,10,3:2:0:0:
61,73,111319,1,2,0:0:0:0:
107,90,111436,1,2,1:2:0:0:
70,304,111671,1,10,3:2:0:0:
136,81,111905,1,2,0:0:0:0:
276,204,112140,6,0,B|333:233|333:233|472:170,1,213.749994292259,10|2,3:2|1:2,0:0:0:0:
511,145,112608,2,0,P|470:213|490:303,1,142.49999619484,10|2,3:2|0:0,0:0:0:0:
295,337,113077,5,10,3:2:0:0:
343,349,113194,1,2,0:0:0:0:
389,330,113311,1,6,0:0:0:0:
321,70,113546,1,14,3:2:0:0:
298,137,113663,1,0,1:0:0:0:
276,204,113780,1,2,0:0:0:0:
118,344,114015,6,0,L|68:194,1,142.49999619484,8|0,3:2|0:0,0:0:0:0:
56,161,114366,1,2,1:2:0:0:
103,174,114483,2,0,L|155:39,1,142.49999619484,10|2,3:2|0:0,0:0:0:0:
276,204,114952,5,10,3:2:0:0:
156,22,115186,1,2,1:2:0:0:
72,208,115421,1,10,3:2:0:0:
296,119,115655,1,2,0:0:0:0:
5,261,115890,6,0,B|52:297|52:297|215:277,1,213.749994292259,10|2,3:2|1:2,0:0:0:0:
247,305,116358,2,0,L|410:315,1,142.49999619484,10|2,3:2|0:0,0:0:0:0:
296,119,116827,5,10,3:2:0:0:
444,364,117061,1,2,0:0:0:0:
415,66,117296,2,0,L|410:142,1,71.2499980974198,10|0,3:2|1:0,0:0:0:0:
389,313,117530,1,2,0:0:0:0:
330,45,117765,5,2,3:2:0:0:
462,205,117999,1,2,0:0:0:0:
255,51,118233,1,10,0:0:0:0:
482,218,118468,1,2,0:0:0:0:
195,295,118702,5,2,3:2:0:0:
253,25,118936,1,2,0:0:0:0:
292,322,119171,1,10,0:0:0:0:
164,38,119405,1,2,0:0:0:0:
6,353,119640,5,2,3:2:0:0:
37,368,119757,1,2,0:0:0:0:
72,373,119874,1,2,0:0:0:0:
108,368,119991,1,2,0:0:0:0:
139,352,120108,1,2,0:0:0:0:
187,328,120225,1,2,0:0:0:0:
239,318,120342,1,2,0:0:0:0:
292,322,120459,1,2,0:0:0:0:
342,339,120577,2,0,P|331:311|332:295,6,35.6249990487099,2|0|2|0|2|0|2,0:0|0:0|0:0|0:0|0:0|0:0|0:0,0:0:0:0:
283,241,121046,2,0,P|294:212|293:196,6,35.6249990487099,2|0|2|0|2|0|2,0:0|0:0|0:0|0:0|0:0|0:0|0:0,0:0:0:0:
340,140,121515,6,0,B|260:51|124:33|124:33|139:120|66:203,1,420,4|2,3:2|0:0,0:0:0:0:
74,193,125265,6,0,B|249:226|249:226|277:280|277:280|464:312,1,420,2|2,0:0|0:0,0:0:0:0:
455,310,129015,6,0,B|337:231|409:106|409:106|529:130|489:241,1,420,2|2,0:0|0:0,0:0:0:0:
490,237,132765,6,0,B|474:175|409:152|409:152|336:161|310:232|310:232|292:314|203:339|203:339|100:315|98:217,1,577.500017623902,2|2,0:0|0:0,0:0:0:0:
99,232,136515,6,0,L|110:96,1,134.999995880127,2|0,3:2|3:2,0:0:0:0:
180,19,137218,1,2,0:0:0:0:
184,42,137335,1,2,0:0:0:0:
188,65,137452,2,0,P|236:55|295:63,2,101.249996910095,2|2|2,3:2|0:0|0:0,0:0:0:0:
182,147,138390,6,0,B|209:181|209:181|199:282,1,134.999995880127,2|0,3:2|3:2,0:0:0:0:
112,350,139093,1,2,0:0:0:0:
135,350,139210,1,2,0:0:0:0:
158,351,139327,2,0,L|267:339,2,101.249996910095,2|2|2,3:2|0:0|0:0,0:0:0:0:
117,274,140265,6,0,B|80:251|80:251|60:147,1,134.999995880127,2|0,3:2|3:2,0:0:0:0:
115,70,140968,1,2,0:0:0:0:
137,75,141085,1,2,0:0:0:0:
160,79,141202,2,0,L|233:69,1,67.4999979400635,2|0,3:2|0:0,0:0:0:0:
247,81,141554,2,0,L|352:66,1,101.249996910095,2|2,0:0|0:0,0:0:0:0:
467,78,142140,6,0,P|445:119|445:167,1,67.4999979400635,2|2,3:2|0:0,0:0:0:0:
450,161,142491,2,0,P|457:231|436:279,1,101.249996910095,2|0,0:0|0:0,0:0:0:0:
302,300,143077,2,0,B|350:285|350:285|402:337,2,101.249996910095,2|2|2,3:2|0:0|0:0,0:0:0:0:
153,347,144015,6,0,B|205:329|205:329|232:228,1,134.999995880127,2|0,3:2|3:2,0:0:0:0:
178,117,144718,1,2,0:0:0:0:
185,139,144835,1,2,0:0:0:0:
193,162,144952,2,0,L|296:187,2,101.249996910095,2|2|2,3:2|0:0|0:0,0:0:0:0:
88,131,145890,6,0,P|56:162|50:268,1,134.999995880127,2|0,3:2|3:2,0:0:0:0:
151,332,146593,1,2,0:0:0:0:
143,309,146710,1,2,0:0:0:0:
136,289,146827,2,0,L|206:293,1,67.4999979400635,2|0,3:2|0:0,0:0:0:0:
268,235,147179,2,0,L|338:239,1,67.4999979400635,2|0,0:0|0:0,0:0:0:0:
442,174,147530,1,2,0:0:0:0:
216,94,147765,1,6,0:0:0:0:
216,94,148467,5,2,0:0:0:0:
286,54,148702,2,0,P|246:22|172:27,2,101.249996910095,6|2|2,0:0|0:0|0:0,0:0:0:0:
286,131,149640,5,2,0:0:0:0:
142,174,149874,1,2,0:0:0:0:
312,218,150108,1,2,0:0:0:0:
106,172,150343,1,2,0:0:0:0:
366,116,150577,5,2,0:0:0:0:
268,303,150811,1,2,0:0:0:0:
124,82,151046,2,0,L|116:39,1,33.7499989700318,2|0,0:0|0:0,0:0:0:0:
15,231,151280,2,0,L|23:188,1,33.7499989700318,2|0,0:0|0:0,0:0:0:0:
108,313,151515,6,0,B|146:282|146:282|270:303,1,172.500003290176,6|0,3:2|3:0,0:0:0:0:
418,352,152218,1,2,0:0:0:0:
402,331,152335,1,2,0:0:0:0:
399,305,152452,2,0,L|435:167,2,129.375002467632,2|2|2,3:2|0:2|0:0,0:0:0:0:
323,220,153390,6,0,L|304:128,1,86.2500016450882,2|0,3:2|0:0,0:0:0:0:
362,24,153858,1,0,3:0:0:0:
246,66,154093,1,2,0:0:0:0:
221,72,154210,1,2,0:0:0:0:
196,78,154327,2,0,B|176:109|176:109|194:218,2,129.375002467632,2|2|2,3:2|0:0|0:0,0:0:0:0:
362,24,155265,6,0,L|401:192,1,172.500003290176,2|0,3:2|3:0,0:0:0:0:
448,318,155968,1,2,0:0:0:0:
425,304,156085,1,2,0:0:0:0:
399,304,156202,2,0,P|357:312|281:300,1,86.2500016450882,2|0,3:2|0:0,0:0:0:0:
297,289,156554,2,0,P|255:281|162:298,1,129.375002467632,2|2,0:0|0:0,0:0:0:0:
30,342,157140,6,0,B|72:338|72:338|95:268,1,86.2500016450882,2|2,3:2|0:0,0:0:0:0:
73,246,157491,2,0,L|50:86,1,129.375002467632,2|0,0:0|0:0,0:0:0:0:
157,52,158077,6,0,P|194:43|243:56,1,86.2500016450882,2|0,3:2|0:0,0:0:0:0:
257,73,158429,2,0,L|275:215,1,129.375002467632,2|2,0:0|0:0,0:0:0:0:
393,315,159015,6,0,B|365:278|365:278|226:309,1,172.500003290176,2|0,3:2|3:0,0:0:0:0:
97,243,159718,1,2,0:0:0:0:
121,236,159835,1,2,0:0:0:0:
146,229,159952,2,0,L|275:200,2,129.375002467632,2|2|2,3:2|0:0|0:0,0:0:0:0:
78,125,160890,5,2,3:2:0:0:
146,229,161124,1,0,0:0:0:0:
154,67,161358,1,0,3:0:0:0:
68,258,161593,1,2,0:0:0:0:
77,281,161710,1,2,0:0:0:0:
88,305,161827,2,0,L|184:318,1,86.2500016450882,2|0,3:2|0:0,0:0:0:0:
248,261,162179,2,0,L|344:274,1,86.2500016450882,2|0,0:0|0:0,0:0:0:0:
447,358,162530,1,2,0:0:0:0:
414,115,162765,5,4,3:2:0:0:
414,115,163468,1,2,0:0:0:0:
409,140,163585,1,2,0:0:0:0:
404,165,163703,5,6,3:2:0:0:
299,21,164054,5,2,0:0:0:0:
194,165,164405,5,2,0:0:0:0:
299,40,164640,5,2,3:2:0:0:
83,106,164874,1,0,3:0:0:0:
213,253,165108,1,0,3:0:0:0:
161,22,165343,1,0,3:0:0:0:
135,283,165577,5,0,3:0:0:0:
300,62,165811,2,0,L|301:118,1,43.1250008225441,8|0,3:2|0:0,0:0:0:0:
392,319,166046,1,0,3:0:0:0:
395,286,166163,1,8,3:2:0:0:
399,254,166280,1,0,3:0:0:0:
403,222,166397,1,8,3:2:0:0:
407,190,166515,5,6,3:2:0:0:
465,253,166984,1,10,0:0:0:0:
403,311,167453,1,2,0:0:0:0:
345,250,167922,5,10,0:0:0:0:
334,237,168039,1,2,0:0:0:0:
323,224,168156,1,2,0:0:0:0:
385,166,168391,1,2,0:0:0:0:
447,108,168625,1,2,0:0:0:0:
505,170,168859,1,10,0:0:0:0:
443,228,169094,1,2,0:0:0:0:
385,166,169328,1,2,0:0:0:0:
505,170,170031,1,2,0:0:0:0:
385,166,170266,5,2,0:0:0:0:
327,103,170734,1,10,0:0:0:0:
269,40,171203,1,2,0:0:0:0:
206,99,171672,1,10,0:0:0:0:
193,110,171789,1,2,0:0:0:0:
180,121,171906,1,2,0:0:0:0:
238,184,172141,5,2,0:0:0:0:
180,121,172375,1,2,0:0:0:0:
117,179,172609,1,10,0:0:0:0:
175,242,172844,1,2,0:0:0:0:
180,121,173078,1,2,0:0:0:0:
238,184,174016,5,2,0:0:0:0:
296,247,174484,1,10,0:0:0:0:
354,310,174953,1,2,0:0:0:0:
417,252,175422,1,10,0:0:0:0:
430,241,175539,1,2,0:0:0:0:
443,230,175656,1,2,0:0:0:0:
511,178,175891,5,2,0:0:0:0:
443,230,176125,1,2,0:0:0:0:
392,161,176359,1,10,0:0:0:0:
460,110,176594,1,2,0:0:0:0:
443,230,176828,1,2,0:0:0:0:
460,110,177531,1,2,0:0:0:0:
392,161,177766,5,2,0:0:0:0:
324,212,178234,1,10,0:0:0:0:
256,263,178703,1,2,0:0:0:0:
307,331,178936,1,0,0:0:0:0:
256,263,179171,1,10,0:0:0:0:
244,244,179288,1,2,0:0:0:0:
233,226,179405,1,2,0:0:0:0:
87,367,179640,5,2,0:0:0:0:
172,150,179874,1,2,0:0:0:0:
95,343,180108,1,2,0:0:0:0:
105,96,180343,1,0,3:0:0:0:
126,82,180460,1,0,3:0:0:0:
152,72,180577,5,10,3:2:0:0:
184,74,180694,1,8,0:0:0:0:
216,76,180811,1,10,0:2:0:0:
248,78,180928,1,8,0:0:0:0:
277,80,181045,1,10,3:2:0:0:
261,108,181163,1,0,3:0:0:0:
255,139,181280,1,2,3:2:0:0:
258,171,181397,1,0,3:0:0:0:
266,200,181515,6,0,P|286:245|279:297,1,86.2500016450882,6|0,3:2|0:0,0:0:0:0:
412,331,181983,2,0,P|392:286|399:234,1,86.2500016450882,2|0,3:2|0:0,0:0:0:0:
471,146,182452,1,2,3:2:0:0:
393,249,182686,1,2,0:0:0:0:
474,240,182921,1,0,3:0:0:0:
383,101,183155,6,0,B|346:80|346:80|212:93,1,172.500003290176,2|2,0:0|0:0,0:0:0:0:
134,237,183858,2,0,P|162:205|168:154,1,86.2500016450882,2|0,3:2|0:0,0:0:0:0:
54,79,184327,6,0,L|147:91,1,86.2500016450882,0|0,3:0|0:0,0:0:0:0:
250,170,184796,1,2,3:2:0:0:
92,173,185030,1,2,0:0:0:0:
278,263,185265,6,0,P|319:232|326:116,2,172.500003290176,2|2|2,3:2|3:2|3:2,0:0:0:0:
159,338,186436,2,0,P|214:326|276:344,1,86.2500016450882,2|0,0:0|3:0,0:0:0:0:
73,316,186905,6,0,B|104:279|104:279|94:142,1,172.500003290176,2|2,0:0|0:0,0:0:0:0:
163,12,187608,2,0,L|161:106,1,86.2500016450882,2|0,3:2|0:0,0:0:0:0:
231,186,188077,5,2,3:2:0:0:
300,59,188311,1,2,0:0:0:0:
324,208,188546,1,2,3:2:0:0:
161,98,188780,1,2,0:0:0:0:
374,146,189015,6,0,P|400:191|401:238,1,86.2500016450882,2|0,3:2|0:0,0:0:0:0:
499,357,189483,2,0,P|473:312|472:265,1,86.2500016450882,2|0,3:2|0:0,0:0:0:0:
326,347,189952,1,2,3:2:0:0:
470,278,190186,1,2,0:0:0:0:
346,335,190421,1,0,3:0:0:0:
246,231,190655,6,0,L|227:49,1,172.500003290176,2|2,0:0|0:0,0:0:0:0:
148,2,191358,2,0,L|136:103,1,86.2500016450882,2|0,3:2|0:0,0:0:0:0:
37,172,191827,1,0,3:0:0:0:
137,87,192061,1,0,0:0:0:0:
81,257,192296,5,2,3:2:0:0:
131,109,192530,1,2,0:0:0:0:
194,284,192765,2,0,P|253:309|291:297,1,86.2500016450882,2|0,3:2|0:0,0:0:0:0:
377,131,193233,5,2,3:2:0:0:
347,312,193468,1,2,0:0:0:0:
440,187,193702,2,0,P|387:211|354:208,1,86.2500016450882,2|0,3:2|0:0,0:0:0:0:
236,76,194171,5,2,3:2:0:0:
295,255,194405,1,2,0:0:0:0:
377,131,194640,1,2,3:2:0:0:
290,231,194874,1,2,0:0:0:0:
153,95,195108,6,0,L|56:101,1,86.2500016450882,0|0,3:0|0:0,0:0:0:0:
8,241,195577,1,2,3:2:0:0:
66,115,195811,1,2,0:0:0:0:
78,305,196046,1,2,3:2:0:0:
176,116,196280,1,2,0:0:0:0:
238,342,196515,6,0,L|348:333,1,86.2500016450882,6|0,3:2|0:0,0:0:0:0:
349,332,196866,1,10,0:0:0:0:
349,332,196983,2,0,P|323:287|326:248,1,86.2500016450882,2|8,3:2|0:0,0:0:0:0:
377,126,197452,1,2,3:2:0:0:
423,258,197686,1,10,0:0:0:0:
376,144,197921,1,0,3:0:0:0:
249,245,198155,1,10,0:0:0:0:
173,75,198390,6,0,P|218:57|266:79,1,86.2500016450882,2|0,3:2|0:0,0:0:0:0:
272,91,198741,1,10,0:0:0:0:
272,91,198858,2,0,L|298:183,1,86.2500016450882,2|8,3:2|0:0,0:0:0:0:
225,327,199327,2,0,L|251:235,1,86.2500016450882,0|8,3:0|0:0,0:0:0:0:
133,328,199796,1,2,3:2:0:0:
133,328,199913,1,10,0:0:0:0:
133,328,200030,1,2,0:0:0:0:
35,170,200265,6,0,B|62:136|62:136|115:136,1,86.2500016450882,2|0,3:2|0:0,0:0:0:0:
134,139,200616,1,10,0:0:0:0:
134,139,200733,2,0,P|156:93|161:46,1,86.2500016450882,2|8,3:2|0:0,0:0:0:0:
206,199,201202,1,2,3:2:0:0:
264,21,201436,2,0,P|244:59|236:101,1,86.2500016450882,10|0,0:0|3:0,0:0:0:0:
369,55,201905,1,10,0:0:0:0:
336,200,202140,5,0,3:2:0:0:
280,41,202374,1,2,0:0:0:0:
280,41,202491,1,10,0:0:0:0:
280,41,202608,1,2,3:2:0:0:
200,224,202843,1,8,0:0:0:0:
391,143,203077,5,2,3:2:0:0:
141,169,203311,1,14,0:0:0:0:
352,316,203546,1,14,3:2:0:0:
336,200,203780,1,2,0:0:0:0:
245,351,204015,6,0,L|137:353,1,86.2500016450882,2|0,3:2|0:0,0:0:0:0:
133,355,204366,1,10,0:0:0:0:
133,355,204483,2,0,P|140:308|130:261,1,86.2500016450882,2|8,3:2|0:0,0:0:0:0:
62,135,204952,5,2,3:2:0:0:
133,270,205186,1,10,0:0:0:0:
64,157,205421,1,0,3:2:0:0:
220,249,205655,1,10,0:0:0:0:
226,60,205890,6,0,B|190:83|190:83|183:156,1,86.2500016450882,0|2,3:0|0:0,0:0:0:0:
190,155,206241,1,10,0:0:0:0:
190,155,206358,2,0,P|245:146|290:159,1,86.2500016450882,2|8,3:2|0:0,0:0:0:0:
352,272,206827,1,0,3:0:0:0:
412,123,207061,1,8,0:0:0:0:
465,305,207296,1,2,3:2:0:0:
465,305,207413,1,10,0:0:0:0:
465,305,207530,1,2,0:0:0:0:
480,73,207765,6,0,P|420:43|355:61,1,129.375002467632,2|10,3:2|0:0,0:0:0:0:
339,69,208233,1,2,3:2:0:0:
190,12,208468,1,10,0:0:0:0:
166,212,208702,2,0,P|201:143|202:95,1,86.2500016450882,2|8,3:2|0:0,0:0:0:0:
278,1,209171,1,2,3:2:0:0:
324,207,209405,1,0,0:0:0:0:
3,91,209640,6,0,L|131:80,1,129.375002467632,2|10,3:2|0:0,0:0:0:0:
157,78,210108,1,2,0:0:0:0:
0,316,210343,1,10,0:0:0:0:
239,112,210577,1,2,0:0:0:0:
14,299,210811,1,10,0:0:0:0:
256,384,211046,1,2,0:0:0:0:
256,384,211163,1,10,0:0:0:0:
256,384,211280,1,2,0:0:0:0:
335,71,211515,6,0,L|343:124,1,48.7499977684022,14|0,3:2|0:0,0:0:0:0:
398,184,211749,1,2,3:2:0:0:
398,184,211866,1,10,0:0:0:0:
398,184,211983,2,0,L|390:237,1,48.7499977684022,10|0,3:2|0:0,0:0:0:0:
233,74,212218,1,10,3:2:0:0:
144,252,212452,5,2,3:2:0:0:
231,45,212686,1,8,3:2:0:0:
100,178,212921,1,10,3:2:0:0:
269,245,213155,1,2,3:2:0:0:
138,105,213390,6,0,P|73:100|32:128,1,97.4999955368044,10|0,3:2|3:2,0:0:0:0:
28,137,213741,1,10,0:0:0:0:
15,163,213858,2,0,L|23:265,1,97.4999955368044,10|8,3:2|3:2,0:0:0:0:
151,360,214327,1,2,3:2:0:0:
209,185,214561,1,10,3:2:0:0:
338,340,214796,1,10,3:2:0:0:
310,329,214913,1,8,0:0:0:0:
283,315,215030,1,2,3:2:0:0:
384,70,215265,6,0,P|367:139|373:179,1,97.4999955368044,10|2,3:2|3:2,0:0:0:0:
384,189,215616,1,10,0:0:0:0:
400,212,215733,2,0,P|417:281|411:321,1,97.4999955368044,10|10,3:2|3:2,0:0:0:0:
186,151,216202,1,2,3:2:0:0:
177,179,216319,1,2,0:0:0:0:
175,208,216436,1,10,3:2:0:0:
266,72,216671,1,8,3:2:0:0:
98,133,216905,1,2,3:2:0:0:
302,221,217140,6,0,L|405:211,1,97.4999955368044,10|2,3:2|3:2,0:0:0:0:
428,208,217491,1,10,0:0:0:0:
457,206,217608,2,0,P|438:155|447:99,1,97.4999955368044,8|10,3:2|3:2,0:0:0:0:
263,48,218077,5,10,3:2:0:0:
289,60,218194,1,2,0:0:0:0:
318,57,218311,1,14,3:2:0:0:
137,30,218546,1,14,3:2:0:0:
148,77,218663,1,2,0:0:0:0:
145,125,218780,1,2,3:2:0:0:
14,265,219015,5,6,3:2:0:0:
29,246,219132,1,2,3:2:0:0:
50,234,219249,1,2,3:2:0:0:
74,232,219366,1,2,3:2:0:0:
97,240,219483,1,2,3:2:0:0:
120,248,219601,1,2,3:2:0:0:
144,246,219718,1,2,3:2:0:0:
165,234,219835,1,2,3:2:0:0:
181,216,219952,5,2,3:2:0:0:
152,185,220069,1,2,3:2:0:0:
111,174,220186,1,2,3:2:0:0:
71,186,220303,1,2,3:2:0:0:
44,218,220420,1,2,3:2:0:0:
38,260,220537,1,2,3:2:0:0:
56,298,220655,1,2,3:2:0:0:
91,321,220772,1,2,3:2:0:0:
133,322,220890,6,0,L|195:317,1,48.7499977684022,2|2,3:2|3:2,0:0:0:0:
367,231,221124,2,0,L|305:225,1,48.7499977684022,2|2,3:2|3:2,0:0:0:0:
148,136,221358,6,0,L|153:197,1,48.7499977684022,2|2,3:2|3:2,0:0:0:0:
267,384,221592,2,0,L|272:322,1,48.7499977684022,2|2,3:2|3:2,0:0:0:0:
359,62,221827,2,0,L|362:92,6,24.3749988842011,2|0|0|0|2|0|0,3:2|0:0|3:0|0:0|3:2|0:0|3:0,0:0:0:0:
426,140,222296,2,0,L|423:170,6,24.3749988842011,2|0|0|0|2|0|0,3:2|0:0|3:0|0:0|3:2|0:0|3:0,0:0:0:0:
367,231,222765,5,2,3:2:0:0:
271,186,222999,1,2,0:0:0:0:
216,121,223233,1,2,0:0:0:0:
218,81,223468,1,2,0:0:0:0:
129,128,223702,5,2,0:0:0:0:
77,240,223936,1,2,0:0:0:0:
176,376,224171,1,2,0:0:0:0:
335,119,224640,5,8,0:0:0:0:
77,240,224874,1,0,3:0:0:0:
362,318,225108,5,8,0:0:0:0:
48,243,225343,1,0,3:0:0:0:
242,99,225577,5,8,0:0:0:0:
129,365,225811,1,0,3:0:0:0:
56,7,226046,1,12,0:0:0:0:
56,7,226515,6,0,P|115:63|127:99,1,116.250000886917,2|0,3:2|0:0,0:0:0:0:
139,126,226866,1,8,0:0:0:0:
154,157,226983,2,0,P|179:198|233:239,1,116.250000886917,2|0,3:2|0:0,0:0:0:0:
355,103,227452,1,2,3:2:0:0:
299,276,227686,1,2,0:0:0:0:
262,139,227921,1,2,3:2:0:0:
300,305,228155,1,2,0:0:0:0:
457,165,228390,6,0,B|486:200|486:200|482:331,1,174.375001330376,2|8,3:2|0:0,0:0:0:0:
478,357,228858,2,0,P|424:322|369:328,1,116.250000886917,2|2,3:2|0:0,0:0:0:0:
153,353,229327,1,2,3:2:0:0:
299,276,229561,1,2,0:0:0:0:
98,222,229796,2,0,L|169:234,1,58.1250004434586,2|8,3:2|0:0,0:0:0:0:
315,276,230030,1,2,0:0:0:0:
52,290,230265,6,0,P|19:218|42:157,1,116.250000886917,2|0,3:2|0:0,0:0:0:0:
41,159,230617,1,8,0:0:0:0:
60,137,230734,2,0,P|93:65|70:4,1,116.250000886917,0|2,3:2|0:0,0:0:0:0:
166,138,231202,1,2,3:2:0:0:
191,123,231319,1,2,0:0:0:0:
219,117,231436,1,2,0:0:0:0:
291,244,231671,1,0,3:0:0:0:
344,71,231905,1,2,0:0:0:0:
215,280,232140,6,0,P|269:325|365:283,1,174.375001330376,2|8,3:2|0:0,0:0:0:0:
377,269,232608,2,0,L|398:142,1,116.250000886917,0|2,3:0|0:0,0:0:0:0:
233,54,233077,5,2,3:2:0:0:
228,82,233194,1,2,0:0:0:0:
238,109,233311,1,6,0:0:0:0:
58,183,233546,1,6,3:2:0:0:
105,161,233663,1,10,0:0:0:0:
156,171,233780,1,10,0:0:0:0:
171,322,234015,6,0,B|131:340|131:340|151:202,1,174.375001330376,8|2,3:2|1:2,0:0:0:0:
156,171,234483,2,0,L|175:53,1,116.250000886917,10|2,3:2|0:0,0:0:0:0:
263,263,234952,1,10,3:2:0:0:
58,183,235186,1,2,1:2:0:0:
244,184,235421,1,10,3:2:0:0:
171,322,235655,1,2,0:0:0:0:
156,171,235890,6,0,P|203:110|266:94,1,116.250000886917,10|0,3:2|0:0,0:0:0:0:
289,97,236241,1,2,1:2:0:0:
341,99,236358,2,0,L|461:98,1,116.250000886917,10|2,3:2|0:0,0:0:0:0:
414,312,236827,1,10,3:2:0:0:
459,78,237061,1,2,0:0:0:0:
482,266,237296,2,0,L|475:202,1,58.1250004434586,10|0,3:2|1:0,0:0:0:0:
457,98,237530,1,2,0:0:0:0:
289,329,237765,6,0,L|165:324,1,116.250000886917,10|2,3:2|0:0,0:0:0:0:
120,322,238116,1,0,1:0:0:0:
120,322,238233,2,0,P|137:261|132:203,1,116.250000886917,10|2,3:2|0:0,0:0:0:0:
29,83,238702,5,10,3:2:0:0:
133,208,238936,1,2,0:0:0:0:
222,36,239171,2,0,L|339:42,1,116.250000886917,10|2,3:2|0:0,0:0:0:0:
315,246,239640,5,6,3:2:0:0:
410,99,239874,1,2,0:0:0:0:
465,292,240108,1,0,1:0:0:0:
360,162,240343,1,2,0:0:0:0:
259,313,240577,5,0,1:0:0:0:
228,282,240694,1,0,1:0:0:0:
219,240,240811,1,0,1:0:0:0:
233,200,240928,1,0,1:0:0:0:
268,174,241045,1,4,2:0:0:0:
268,174,241515,6,0,P|186:203|90:152,1,150,8|0,3:2|0:0,0:0:0:0:
83,159,241866,1,2,1:2:0:0:
90,210,241983,2,0,L|100:360,1,150,10|2,3:2|0:0,0:0:0:0:
336,286,242452,5,10,3:2:0:0:
73,365,242686,1,2,1:2:0:0:
373,362,242921,2,0,P|420:292|388:223,1,150,10|2,3:2|0:0,0:0:0:0:
127,146,243390,6,0,B|187:170|187:170|340:111,1,225,10|2,3:2|1:2,0:0:0:0:
385,92,243858,2,0,P|374:167|406:243,1,150,10|2,3:2|0:0,0:0:0:0:
488,39,244327,1,10,3:2:0:0:
445,295,244561,1,2,0:0:0:0:
266,140,244796,2,0,L|336:112,1,75,10|0,3:2|1:0,0:0:0:0:
421,263,245030,1,2,0:0:0:0:
183,93,245265,6,0,P|179:185|224:230,1,150,8|0,3:2|0:0,0:0:0:0:
259,251,245616,1,2,1:2:0:0:
212,274,245733,2,0,L|51:286,1,150,10|2,3:2|0:0,0:0:0:0:
56,72,246202,1,10,3:2:0:0:
75,120,246319,1,2,0:0:0:0:
74,172,246436,1,2,1:2:0:0:
17,354,246671,1,10,3:2:0:0:
177,178,246905,1,2,0:0:0:0:
305,375,247140,6,0,B|352:357|352:357|371:236,1,150,10|0,3:2|0:0,0:0:0:0:
371,206,247491,1,2,1:2:0:0:
326,233,247608,2,0,P|285:165|291:91,1,150,10|2,3:2|0:0,0:0:0:0:
480,82,248077,5,10,3:2:0:0:
435,109,248194,1,2,0:0:0:0:
383,100,248311,1,6,0:0:0:0:
184,22,248546,1,14,3:2:0:0:
109,19,248663,1,0,1:0:0:0:
43,54,248780,1,2,0:0:0:0:
101,298,249015,6,0,L|115:146,1,150,8|0,3:2|0:0,0:0:0:0:
122,104,249366,1,2,1:2:0:0:
161,126,249483,2,0,P|244:151|303:129,1,150,10|2,3:2|0:0,0:0:0:0:
253,357,249952,1,10,3:2:0:0:
304,103,250186,1,2,1:2:0:0:
333,320,250421,1,10,3:2:0:0:
300,130,250655,1,2,0:0:0:0:
44,201,250890,6,0,B|110:239|110:239|267:218,1,225,10|2,3:2|1:2,0:0:0:0:
301,211,251358,2,0,L|451:193,1,150,10|2,3:2|0:0,0:0:0:0:
188,140,251827,1,10,3:2:0:0:
481,185,252061,1,2,0:0:0:0:
258,304,252296,2,0,L|341:293,1,75,10|0,3:2|1:0,0:0:0:0:
201,157,252530,1,2,0:0:0:0:
134,333,252765,5,2,3:2:0:0:
240,83,252999,1,2,0:0:0:0:
141,354,253233,1,10,0:0:0:0:
186,131,253468,1,2,0:0:0:0:
17,224,253702,5,2,3:2:0:0:
324,187,253936,1,2,0:0:0:0:
127,355,254171,1,10,0:0:0:0:
240,83,254405,1,2,0:0:0:0:
464,366,254640,5,2,3:2:0:0:
479,335,254757,1,2,0:0:0:0:
484,300,254874,1,2,0:0:0:0:
479,264,254991,1,2,0:0:0:0:
463,233,255108,1,2,0:0:0:0:
439,185,255225,1,2,0:0:0:0:
429,133,255342,1,2,0:0:0:0:
433,80,255459,1,2,0:0:0:0:
450,30,255577,2,0,P|422:41|406:40,6,37.5,2|0|2|0|2|0|2,0:0|0:0|0:0|0:0|0:0|0:0|0:0,0:0:0:0:
352,89,256046,2,0,P|323:78|302:82,6,37.5,2|0|2|0|2|0|2,0:0|0:0|0:0|0:0|0:0|0:0|0:0,0:0:0:0:
240,83,256515,5,8,3:0:0:0:
