osu file format v14

[General]
AudioFilename: audio.mp3
AudioLeadIn: 0
PreviewTime: 55929
Countdown: 0
SampleSet: Soft
StackLeniency: 0.5
Mode: 0
LetterboxInBreaks: 0
WidescreenStoryboard: 1

[Editor]
DistanceSpacing: 1
BeatDivisor: 4
GridSize: 32
TimelineZoom: 2.899999

[Metadata]
Title:Requiem For A Nightmare
TitleUnicode:Requiem For A Nightmare
Artist:SOUND HOLIC
ArtistUnicode:SOUND HOLIC
Creator:AYE1337
Version:Lunatic
Source:東方紅魔郷 ~ the Embodiment of Scarlet Devil.
Tags:touhou zikee ZUN trance SOUND HOLIC MEETS TOHO ~東方的紅蓮烈火弾~ electronic instrumental remilia scarlet Septette for the Dead Princess 東方Project EOSD Team Shanghai Alice th6 霧雨 -KIRISAME- C90
BeatmapID:3648925
BeatmapSetID:1781824

[Difficulty]
HPDrainRate:5
CircleSize:4
OverallDifficulty:8
ApproachRate:8
SliderMultiplier:1.7
SliderTickRate:1

[Events]
//Background and Video events
0,0,"65954626_p0.jpg",0,0
//Break Periods
2,52700,55179
2,110986,136500
2,251557,274607
//Storyboard Layer 0 (Background)
//Storyboard Layer 1 (Fail)
//Storyboard Layer 2 (Pass)
//Storyboard Layer 3 (Foreground)
//Storyboard Layer 4 (Overlay)
//Storyboard Sound Samples

[TimingPoints]
1072,428.571428571429,4,2,0,5,1,0
28500,-100,4,2,0,50,0,0
55929,-90.9090909090909,4,2,0,60,0,0
68786,-90.9090909090909,4,2,0,65,0,0
80357,-90.9090909090909,4,2,0,70,0,0
81643,-90.9090909090909,4,2,0,75,0,0
83357,-76.9230769230769,4,2,0,80,0,0
96000,-133.333333333333,4,2,0,80,0,0
96643,-76.9230769230769,4,2,0,80,0,0
138214,-133.333333333333,4,2,0,57,0,0
145286,-133.333333333333,4,2,0,60,0,0
151929,-133.333333333333,4,2,0,65,0,0
159000,-133.333333333333,4,2,0,70,0,0
162429,-133.333333333333,4,3,0,75,0,0
163929,-133.333333333333,4,3,0,80,0,0
165643,-133.333333333333,4,2,0,50,0,0
165857,-153.846153846153,4,2,0,50,0,0
166072,-181.818181818181,4,2,0,50,0,0
166286,-222.222222222221,4,2,0,50,0,0
166500,-285.714285714284,4,2,0,50,0,0
166714,-399.999999999997,4,2,0,70,0,0
167357,-66.6666666666667,4,2,0,80,0,0
193822,-133.333333333333,4,2,0,80,0,0
194357,-66.6666666666667,4,2,0,80,0,0
194786,-66.6666666666667,4,2,0,80,0,1
222214,-86.9565217391304,4,2,0,65,0,0
246643,-86.9565217391304,4,2,0,70,0,0
248143,-86.9565217391304,4,2,0,75,0,0
249857,-86.9565217391304,4,2,0,50,0,0
250072,-95.2380952380952,4,2,0,52,0,0
250286,-105.263157894737,4,2,0,54,0,0
250500,-117.647058823529,4,2,0,56,0,0
250714,-133.333333333333,4,2,0,58,0,0
250929,-153.846153846154,4,2,0,60,0,0
251143,-181.818181818182,4,2,0,62,0,0
251357,-181.818181818182,4,2,0,65,0,0
275250,-181.818181818182,4,3,0,50,0,0
276643,-181.818181818182,4,3,0,65,0,0
277072,-181.818181818182,4,3,0,70,0,0
277929,-181.818181818182,4,3,0,75,0,0
278786,-90.9090909090909,4,2,0,70,0,0
296143,-90.9090909090909,4,2,0,68,0,0
296464,-90.9090909090909,4,2,0,66,0,0
296786,-100,4,2,0,64,0,0
297107,-111.111111111111,4,2,0,62,0,0
297857,-125,4,2,0,60,0,0
298179,-142.857142857143,4,2,0,58,0,0
298822,-166.666666666667,4,2,0,56,0,0
299572,-166.666666666667,4,2,0,54,0,0
299893,-200,4,2,0,52,0,0
300214,-250.000000000001,4,2,0,50,0,0
300536,-333.333333333334,4,2,0,50,0,0
300857,-500.000000000003,4,2,0,50,0,0
302786,-500.000000000003,4,3,0,60,0,0
303643,-500.000000000003,4,3,0,65,0,0
304286,-100,4,3,0,65,0,0
304500,-100,4,3,0,70,0,0
305357,-100,4,3,0,75,0,0
306214,-100,4,2,0,50,0,0
306429,-111.111111111111,4,2,0,50,0,0
306643,-125,4,2,0,50,0,0
306857,-142.857142857143,4,2,0,50,0,0
307072,-166.666666666667,4,2,0,50,0,0
307286,-200,4,2,0,70,0,0
307929,-66.6666666666667,4,2,0,80,0,0
335357,-66.6666666666667,4,2,0,80,0,1
347143,-133.333333333333,4,2,0,80,0,1
349072,-66.6666666666667,4,2,0,80,0,1
357429,-100,4,2,0,80,0,1
362786,-66.6666666666667,4,2,0,80,0,0
363214,-66.6666666666667,4,2,0,70,0,0
363643,-66.6666666666667,4,2,0,60,0,0
364072,-66.6666666666667,4,2,0,50,0,0
364500,-66.6666666666667,4,2,0,40,0,0
364929,-66.6666666666667,4,2,0,30,0,0
365357,-66.6666666666667,4,2,0,20,0,0
365786,-66.6666666666667,4,2,0,10,0,0
366214,-66.6666666666667,4,2,0,5,0,0

[Colours]
Combo1 : 198,177,209
Combo2 : 148,77,225
Combo3 : 106,176,191
Combo4 : 224,75,132

[HitObjects]
27,168,28500,5,4,2:1:0:0:
102,230,28714,1,0,0:0:0:0:
102,230,28822,1,0,0:0:0:0:
102,230,28929,2,0,L|199:215,2,85,0|0|4,1:1|0:0|2:3,0:0:0:0:
317,0,29786,2,0,L|293:99,1,85,2|0,1:2|0:0,0:0:0:0:
398,128,30214,5,4,3:3:0:0:
335,187,30428,1,0,0:0:0:0:
335,187,30536,1,0,0:0:0:0:
335,187,30643,2,0,L|238:172,2,85,0|0|4,1:1|0:0|2:3,0:0:0:0:
335,187,31500,2,0,L|355:288,1,85,2|0,1:2|0:0,0:0:0:0:
174,384,31929,6,0,L|183:331,2,42.5,4|0|0,3:3|0:0|0:0,0:0:0:0:
225,315,32357,2,0,L|121:330,1,85,0|0,1:1|0:0,0:0:0:0:
134,253,32786,2,0,L|219:241,1,85,4|0,2:3|0:0,0:0:0:0:
216,166,33214,2,0,L|112:181,1,85,0|0,1:1|0:0,0:0:0:0:
131,178,33643,1,4,2:3:0:0:
321,296,34072,1,0,1:1:0:0:
331,61,34500,1,4,2:3:0:0:
258,5,34714,1,2,2:2:0:0:
258,5,34822,1,0,0:0:0:0:
258,5,34929,2,0,L|159:25,1,85,2|2,1:3|2:2,0:0:0:0:
26,64,35357,6,0,P|7:137|1:263,2,170,4|0|4,3:3|1:1|2:3,0:0:0:0:
106,323,36643,2,0,L|197:347,1,85,2|0,1:2|0:0,0:0:0:0:
324,384,37072,2,0,P|343:311|349:185,2,170,4|0|4,3:3|1:1|3:3,0:0:0:0:
214,270,38143,1,0,0:0:0:0:
267,209,38357,2,0,L|247:106,1,85,0|0,1:1|0:0,0:0:0:0:
373,305,38786,5,4,3:3:0:0:
411,107,39214,1,0,1:1:0:0:
334,138,39429,1,0,0:0:0:0:
334,138,39536,1,0,0:0:0:0:
334,138,39643,2,0,L|238:123,1,85,4|0,2:3|0:0,0:0:0:0:
199,57,40072,2,0,L|295:42,1,85,0|0,1:1|0:0,0:0:0:0:
250,124,40500,1,4,2:3:0:0:
202,366,40929,1,2,1:2:0:0:
30,234,41357,2,0,L|50:133,2,85,4|2|0,3:3|2:2|1:1,0:0:0:0:
122,205,42000,1,2,2:2:0:0:
13,58,42214,6,0,P|62:119|166:114,4,170,4|0|4|0|4,3:3|1:1|2:3|1:1|2:3,0:0:0:0:
253,81,44357,2,0,L|235:174,1,85,2|0,1:2|0:0,0:0:0:0:
366,258,44786,1,4,3:3:0:0:
426,200,45000,2,0,L|516:185,1,85,2|0,2:2|1:1,0:0:0:0:
455,115,45429,1,2,2:2:0:0:
448,286,45643,6,0,P|376:220|278:221,4,170,4|0|4|0|4,3:3|1:1|2:3|1:1|2:3,0:0:0:0:
252,374,47786,1,0,1:1:0:0:
448,286,48214,1,4,2:3:0:0:
404,212,48429,1,0,0:0:0:0:
404,212,48536,1,0,0:0:0:0:
404,212,48643,2,0,L|389:126,1,85,2|2,1:3|2:2,0:0:0:0:
322,16,49072,6,0,B|307:53|307:53|155:83,1,170,4|0,3:3|1:1,0:0:0:0:
0,276,49929,1,4,3:3:0:0:
0,276,50036,1,0,0:0:0:0:
0,276,50143,1,0,0:0:0:0:
67,325,50357,2,0,L|124:334,2,42.5,0|0|0,1:1|0:0|0:0,0:0:0:0:
16,384,50786,6,0,L|55:192,1,170,4|0,3:3|1:1,0:0:0:0:
42,0,51643,1,4,3:3:0:0:
125,49,51857,1,0,0:0:0:0:
125,49,51964,1,0,0:0:0:0:
125,49,52072,2,0,L|217:37,1,85,0|0,1:1|0:0,0:0:0:0:
255,192,52500,5,4,3:3:0:0:
490,350,55929,6,0,L|379:378,1,93.5000028533936,4|2,2:1|2:2,1:0:0:0:
296,273,56357,1,8,2:2:0:0:
296,273,56464,1,0,0:0:0:0:
296,273,56572,1,0,0:0:0:0:
236,347,56786,1,4,2:3:0:0:
399,371,57000,2,0,L|426:252,1,93.5000028533936,2|8,2:2|2:2,0:0:0:0:
373,208,57429,2,0,L|192:255,1,187.000005706787,2|2,2:2|2:2,3:0:0:0:
21,139,58072,1,10,2:2:0:0:
124,94,58286,1,0,0:0:0:0:
124,94,58393,1,0,0:0:0:0:
124,94,58500,1,4,2:3:0:0:
127,195,58714,2,0,L|103:288,1,93.5000028533936,2|8,2:2|2:2,3:0:0:0:
21,139,59143,1,0,0:0:0:0:
306,3,59572,5,2,2:2:0:0:
384,61,59786,2,2,L|504:41,1,93.5000028533936,10|0,2:2|0:0,1:2:0:0:
490,27,60107,1,0,0:0:0:0:
505,9,60214,1,4,2:3:0:0:
384,61,60429,2,0,L|355:172,1,93.5000028533936,2|8,2:2|2:2,3:0:0:0:
462,154,60857,1,2,2:2:0:0:
196,150,61286,5,2,2:2:0:0:
173,60,61500,2,0,L|53:40,1,93.5000028533936,10|0,2:2|0:0,1:2:0:0:
67,26,61821,1,0,0:0:0:0:
52,8,61928,1,4,2:3:0:0:
173,60,62143,2,0,L|202:171,1,93.5000028533936,2|8,2:2|2:2,0:2:0:0:
278,189,62571,2,0,L|95:153,1,187.000005706787,2|2,2:2|2:2,3:0:0:0:
0,326,63214,5,10,2:2:0:0:
86,275,63429,1,0,0:0:0:0:
86,275,63536,1,0,0:0:0:0:
86,275,63643,1,4,2:3:0:0:
124,364,63857,2,0,L|231:345,1,93.5000028533936,2|8,2:2|2:2,0:0:0:0:
1,222,64286,2,0,L|209:277,1,187.000005706787,2|2,2:2|2:2,3:0:0:0:
352,374,64929,2,2,L|387:272,1,93.5000028533936,10|0,2:2|0:0,0:2:0:0:
375,263,65250,1,0,0:0:0:0:
368,240,65357,1,4,2:3:0:0:
473,265,65572,2,0,L|370:288,1,93.5000028533936,2|8,2:2|2:2,3:0:0:0:
307,195,66000,1,0,0:0:0:0:
183,14,66429,5,2,2:2:0:0:
132,95,66643,2,2,L|113:194,1,93.5000028533936,10|0,2:2|0:0,1:2:0:0:
183,14,67072,1,4,2:3:0:0:
259,71,67286,2,0,L|365:50,1,93.5000028533936,2|8,2:2|2:2,3:0:0:0:
183,14,67714,1,2,2:2:0:0:
183,14,68143,5,2,2:2:0:0:
197,147,68357,2,0,L|65:129,1,93.5000028533936,10|0,2:2|0:0,1:0:0:0:
16,174,68786,1,4,2:3:0:0:
4,194,68893,1,0,1:0:0:0:
0,217,69000,2,0,L|9:248,2,23.3750007133484,2|0|8,2:2|1:0|0:0,1:0:0:0:
78,301,69214,6,0,B|134:289,1,46.7500014266968,8|0,2:2|0:0,1:0:0:0:
190,234,69429,2,0,B|247:245,1,46.7500014266968,8|0,1:1|0:0,1:0:0:0:
270,370,69643,5,4,2:1:0:0:
293,367,69750,1,0,0:0:0:0:
316,364,69857,1,2,1:3:0:0:
404,301,70072,2,0,L|384:195,1,93.5000028533936,10|0,2:2|1:1,1:0:0:0:
404,193,70393,1,0,0:0:0:0:
421,177,70500,1,4,2:3:0:0:
438,161,70607,1,0,0:0:0:0:
456,146,70714,1,2,1:3:0:0:
512,349,70929,1,8,2:2:0:0:
404,301,71143,2,0,L|205:266,1,187.000005706787,2|2,1:3|1:3,3:0:0:0:
81,110,71786,5,10,2:2:0:0:
103,104,71893,1,0,0:0:0:0:
125,99,72000,1,0,1:1:0:0:
147,94,72107,1,0,0:0:0:0:
169,89,72214,1,4,2:3:0:0:
277,1,72429,2,0,L|249:101,1,93.5000028533936,2|8,1:3|2:2,3:0:0:0:
110,20,72857,1,0,1:1:0:0:
291,262,73286,1,2,1:3:0:0:
385,223,73500,6,2,L|509:253,1,93.5000028533936,14|0,2:2|1:1,1:2:0:0:
494,230,73822,1,0,0:0:0:0:
512,215,73929,1,4,2:3:0:0:
385,223,74143,2,0,L|402:314,1,93.5000028533936,2|8,1:3|2:2,3:0:0:0:
507,374,74572,1,2,1:3:0:0:
416,49,75000,1,2,1:3:0:0:
321,112,75214,1,14,2:2:0:0:
299,106,75321,1,0,0:0:0:0:
277,101,75428,1,0,1:1:0:0:
255,96,75535,1,0,0:0:0:0:
233,91,75642,1,4,2:3:0:0:
494,123,75857,2,2,L|511:214,1,93.5000028533936,2|8,1:3|2:2,0:2:0:0:
416,49,76286,2,0,L|226:93,1,187.000005706787,2|2,1:3|1:3,3:0:0:0:
41,202,76929,5,10,2:2:0:0:
130,245,77143,1,0,1:1:0:0:
130,245,77250,1,0,0:0:0:0:
130,245,77357,1,4,2:3:0:0:
1,349,77572,2,0,L|91:323,1,93.5000028533936,2|8,1:3|2:2,0:0:0:0:
228,203,78000,2,0,L|178:387,1,187.000005706787,2|2,1:3|1:3,3:0:0:0:
130,245,78643,5,10,2:2:0:0:
174,119,78857,1,0,1:1:0:0:
174,119,78964,1,0,0:0:0:0:
174,119,79072,1,4,2:3:0:0:
106,52,79286,2,0,L|5:32,1,93.5000028533936,2|8,1:3|2:2,0:0:0:0:
234,0,79714,1,0,1:1:0:0:
335,306,80143,1,2,1:3:0:0:
415,256,80357,5,14,1:2:0:0:
438,259,80464,1,0,3:3:0:0:
459,268,80572,1,0,3:3:0:0:
475,284,80679,1,0,3:3:0:0:
484,305,80786,1,4,3:3:0:0:
484,328,80893,1,0,3:3:0:0:
477,350,81000,1,2,1:3:0:0:
465,370,81107,1,0,3:3:0:0:
443,383,81214,2,0,L|382:375,2,46.7500014266968,8|0|2,2:2|3:3|1:3,0:0:0:0:
171,235,81643,5,4,2:3:0:0:
185,200,81750,1,0,3:3:0:0:
213,176,81857,1,2,1:3:0:0:
248,163,81964,1,0,3:3:0:0:
285,164,82072,1,14,1:2:0:0:
322,159,82179,1,0,3:3:0:0:
351,136,82286,1,0,3:3:0:0:
368,102,82393,1,0,3:3:0:0:
365,64,82500,1,4,3:3:0:0:
341,34,82607,1,0,3:3:0:0:
305,23,82714,6,2,L|217:39,1,46.7500014266968,2|0,1:3|3:3,1:0:0:0:
430,181,82929,2,2,L|445:250,1,46.7500014266968,10|0,1:1|3:3,1:0:0:0:
467,49,83143,2,2,L|540:30,1,46.7500014266968,2|0,1:3|3:3,1:0:0:0:
306,237,83357,6,2,B|270:250|270:250|183:214|66:209,1,220.999989883423,6|8,1:1|2:2,1:1:0:0:
176,0,84000,1,0,3:3:0:0:
182,32,84107,1,0,0:0:0:0:
188,64,84214,1,2,1:1:0:0:
194,96,84322,1,0,0:0:0:0:
200,128,84429,1,0,3:3:0:0:
326,71,84643,2,0,P|385:37|395:-15,1,110.499994941712,8|0,2:1|3:3,0:0:0:0:
512,170,85072,6,2,P|486:256|460:393,1,220.999989883423,2|8,1:1|2:2,1:1:0:0:
323,245,85714,1,0,3:3:0:0:
349,224,85822,1,0,0:0:0:0:
381,215,85929,1,0,1:1:0:0:
467,268,86143,1,2,2:1:0:0:
461,384,86357,1,10,2:1:0:0:
461,384,86464,1,0,0:0:0:0:
336,364,86679,1,2,2:1:0:0:
313,339,86786,6,2,B|262:336|219:347|219:347|190:375|190:375|103:383,1,220.999989883423,4|8,1:1|2:2,1:1:0:0:
102,126,87429,1,0,3:3:0:0:
133,118,87536,1,0,0:0:0:0:
163,127,87643,1,2,1:1:0:0:
186,150,87750,1,0,0:0:0:0:
193,182,87857,1,0,3:3:0:0:
1,247,88072,2,0,P|74:225|128:214,1,110.499994941712,8|0,2:1|3:3,0:0:0:0:
133,238,88393,1,0,0:0:0:0:
141,269,88500,5,2,1:1:0:0:
218,339,88714,1,0,3:3:0:0:
301,210,88929,1,8,2:2:0:0:
308,177,89036,1,0,0:0:0:0:
315,144,89143,1,0,3:3:0:0:
323,111,89250,1,0,0:0:0:0:
331,79,89357,1,0,1:1:0:0:
414,180,89572,1,2,2:1:0:0:
365,320,89786,5,10,2:1:0:0:
365,320,89893,1,0,0:0:0:0:
230,276,90107,1,2,2:1:0:0:
207,299,90214,2,2,L|193:367,2,55.2499974708558,6|0|0,1:2|0:0|3:3,0:2:0:0:
365,320,90643,2,2,B|430:302|430:302|491:317,1,110.499994941712,10|0,2:2|3:3,0:2:0:0:
475,233,90964,2,2,L|507:43,1,165.749992412568,2|2,2:2|2:1,0:2:0:0:
276,131,91500,5,10,2:1:0:0:
276,131,91607,1,0,0:0:0:0:
185,80,91821,1,2,2:1:0:0:
206,54,91928,2,2,L|193:-15,2,55.2499974708558,6|0|0,1:2|0:0|3:3,0:2:0:0:
276,131,92357,2,2,B|341:148|341:148|402:134,1,110.499994941712,10|0,2:2|3:3,0:2:0:0:
386,221,92678,2,2,L|418:411,1,165.749992412568,2|2,2:2|3:1,0:2:0:0:
294,277,93214,1,10,2:1:0:0:
294,277,93322,1,0,0:0:0:0:
260,384,93536,1,2,2:1:0:0:
231,367,93643,6,2,B|156:335|148:368|84:353|94:319|18:315,1,220.999989883423,4|8,1:2|2:2,1:1:0:0:
152,253,94286,1,0,3:3:0:0:
172,226,94393,1,0,0:0:0:0:
178,193,94500,2,0,L|154:77,1,110.499994941712,2|0,1:1|3:3,3:0:0:0:
290,0,94929,2,0,L|265:126,1,110.499994941712,8|0,2:1|3:3,3:0:0:0:
35,127,95357,5,6,1:1:0:0:
103,19,95572,1,2,3:1:0:0:
132,4,95679,1,2,0:1:0:0:
268,108,95893,1,2,2:1:0:0:
249,133,96000,6,2,P|174:155|106:187,1,127.500004863739,2|0,3:1|3:3,1:1:0:0:
398,346,96643,1,10,2:1:0:0:
440,335,96750,1,8,3:3:0:0:
476,309,96857,1,2,3:1:0:0:
497,270,96964,1,8,3:3:0:0:
496,225,97072,6,2,B|481:190|481:190|520:112|498:-35,1,220.999989883423,6|8,1:1|2:2,1:0:0:0:
305,174,97714,1,0,3:3:0:0:
333,190,97822,1,0,0:0:0:0:
355,213,97929,1,2,1:1:0:0:
371,241,98036,1,0,0:0:0:0:
380,272,98143,1,0,3:3:0:0:
512,112,98357,2,0,P|462:140|384:165,1,110.499994941712,8|0,2:1|3:3,0:0:0:0:
292,260,98786,6,2,P|207:234|53:205,1,220.999989883423,2|8,1:1|2:2,1:1:0:0:
0,326,99429,1,0,3:3:0:0:
0,326,99536,1,0,0:0:0:0:
0,326,99643,1,0,1:1:0:0:
85,285,99857,1,2,2:1:0:0:
185,315,100072,1,10,2:1:0:0:
185,315,100179,1,0,0:0:0:0:
103,370,100393,1,2,2:1:0:0:
75,383,100500,6,2,B|64:253|162:314|146:131,1,220.999989883423,4|8,1:1|2:2,1:1:0:0:
247,0,101143,1,0,3:3:0:0:
244,32,101250,1,0,0:0:0:0:
224,58,101357,1,2,1:1:0:0:
193,70,101464,1,0,0:0:0:0:
160,60,101572,1,0,3:3:0:0:
27,16,101786,2,0,P|46:82|54:132,1,110.499994941712,8|0,2:1|3:3,0:0:0:0:
73,148,102107,1,0,0:0:0:0:
101,164,102214,5,2,1:1:0:0:
160,60,102429,1,0,3:3:0:0:
267,126,102643,1,8,2:2:0:0:
298,136,102750,1,0,0:0:0:0:
329,146,102857,1,0,3:3:0:0:
360,156,102964,1,0,0:0:0:0:
391,166,103072,1,0,1:1:0:0:
492,104,103286,1,2,2:1:0:0:
512,229,103500,5,10,2:1:0:0:
512,229,103607,1,0,0:0:0:0:
427,304,103822,1,2,2:1:0:0:
401,326,103929,2,2,L|330:342,2,55.2499974708558,6|0|0,1:2|0:0|3:3,0:2:0:0:
208,232,104357,2,2,B|235:262|235:262|303:276,1,110.499994941712,10|0,2:2|3:3,0:2:0:0:
346,337,104679,2,2,L|320:174,1,165.749992412568,2|2,2:2|2:1,0:2:0:0:
399,148,105214,5,10,2:1:0:0:
399,148,105321,1,0,0:0:0:0:
315,63,105536,1,2,2:1:0:0:
289,78,105643,2,2,L|218:62,2,55.2499974708558,6|0|0,1:2|0:0|3:3,0:2:0:0:
97,173,106071,2,2,B|124:142|124:142|192:128,1,110.499994941712,10|0,2:2|3:3,0:2:0:0:
234,66,106393,2,2,L|207:229,1,165.749992412568,2|2,2:2|3:1,0:2:0:0:
22,312,106929,5,10,2:1:0:0:
22,312,107036,1,0,0:0:0:0:
101,370,107250,1,2,2:1:0:0:
131,383,107357,2,2,P|208:364|366:347,1,220.999989883423,4|8,1:2|2:2,1:1:0:0:
504,161,108000,1,0,3:3:0:0:
480,137,108107,1,0,3:3:0:0:
447,129,108214,1,2,1:1:0:0:
416,141,108322,1,0,3:3:0:0:
396,167,108429,1,0,3:3:0:0:
395,200,108536,1,0,3:3:0:0:
380,229,108643,1,8,2:1:0:0:
349,240,108750,1,0,3:3:0:0:
316,234,108857,1,0,3:3:0:0:
285,246,108964,1,0,3:3:0:0:
269,275,109072,1,6,1:1:0:0:
363,384,109286,5,2,3:1:0:0:
370,351,109393,1,2,2:1:0:0:
464,285,109607,1,2,2:1:0:0:
471,252,109714,6,2,B|350:206|435:152|268:116,1,220.999989883423,2|0,3:1|3:3,3:1:0:0:
206,6,110357,2,0,L|197:40,2,27.6249987354279,10|0|8,2:1|0:0|3:3,0:0:0:0:
219,109,110572,2,0,L|153:131,1,55.2499974708558,2|8,3:1|3:3,0:0:0:0:
51,18,110786,5,6,1:2:0:0:
60,322,138214,6,0,L|43:407,1,63.7500024318696,4|2,1:2|3:3,0:0:0:0:
210,314,138643,1,10,2:2:0:0:
212,319,138750,1,2,2:3:0:0:
138,275,138964,1,2,2:2:0:0:
136,280,139071,1,2,2:3:0:0:
84,204,139286,1,2,3:2:0:0:
86,209,139393,1,2,2:3:0:0:
12,165,139607,1,2,2:2:0:0:
10,170,139714,2,0,L|-1:236,1,63.7500024318696,2|0,3:3|3:3,0:0:0:0:
148,31,140143,5,2,3:3:0:0:
234,72,140357,2,0,L|247:129,1,31.8750012159348,10|2,2:2|2:3,0:0:0:0:
158,160,140679,2,0,L|151:129,1,31.8750012159348,2|2,2:2|2:3,0:0:0:0:
65,118,141000,2,0,L|58:87,1,31.8750012159348,2|2,3:2|2:3,0:0:0:0:
110,22,141322,1,2,2:2:0:0:
113,17,141429,2,0,L|186:9,1,63.7500024318696,2|0,3:3|3:3,0:0:0:0:
359,165,141857,5,2,3:3:0:0:
429,106,142072,1,10,2:2:0:0:
428,98,142179,1,2,2:3:0:0:
481,173,142393,1,2,2:2:0:0:
486,167,142500,1,2,2:3:0:0:
346,69,142714,1,2,3:2:0:0:
342,75,142821,1,2,2:3:0:0:
288,0,143035,1,2,2:2:0:0:
291,6,143143,2,0,L|371:-8,1,63.7500024318696,2|0,3:3|3:3,3:3:0:0:
359,165,143572,5,2,3:3:0:0:
283,232,143786,2,0,L|292:273,1,31.8750012159348,10|2,2:2|2:3,0:0:0:0:
212,181,144107,2,0,L|206:150,1,31.8750012159348,2|2,2:2|2:3,0:0:0:0:
471,314,144429,2,0,L|477:345,1,31.8750012159348,2|2,3:2|2:3,0:0:0:0:
387,281,144750,2,0,L|381:250,2,31.8750012159348,2|2|2,2:2|3:3|2:2,0:0:0:0:
337,346,145071,1,4,2:2:0:0:
170,343,145286,5,2,3:3:0:0:
198,264,145500,1,10,2:2:0:0:
204,262,145607,1,2,2:3:0:0:
116,216,145822,1,2,2:2:0:0:
122,218,145929,1,2,2:3:0:0:
89,303,146143,1,2,3:2:0:0:
95,301,146250,1,2,2:3:0:0:
0,318,146465,1,2,2:2:0:0:
6,320,146572,2,0,L|18:245,1,63.7500024318696,2|0,3:3|3:3,0:0:0:0:
198,105,147000,5,2,3:3:0:0:
90,127,147214,2,0,L|120:119,1,31.8750012159348,10|2,2:2|2:3,0:0:0:0:
174,0,147536,2,0,L|181:30,1,31.8750012159348,2|2,2:2|2:3,0:0:0:0:
304,78,147857,2,0,L|273:85,1,31.8750012159348,2|2,3:2|2:3,0:0:0:0:
215,181,148179,1,2,2:2:0:0:
223,212,148286,2,0,L|240:287,1,63.7500024318696,2|0,3:3|3:3,0:0:0:0:
455,377,148714,5,2,3:3:0:0:
389,297,148929,1,10,2:2:0:0:
391,291,149036,1,2,2:3:0:0:
393,284,149143,1,0,3:3:0:0:
395,278,149250,1,2,2:2:0:0:
397,272,149357,1,2,2:3:0:0:
290,337,149572,1,2,3:2:0:0:
291,343,149679,1,2,2:3:0:0:
370,384,149893,1,2,2:2:0:0:
370,384,150000,2,0,L|443:374,1,63.7500024318696,2|0,3:3|3:3,0:0:0:0:
504,138,150429,5,2,3:3:0:0:
392,35,150750,1,2,2:3:0:0:
504,138,151072,5,2,2:3:0:0:
416,117,151286,1,2,3:2:0:0:
409,119,151393,1,2,2:3:0:0:
338,169,151607,1,2,2:2:0:0:
255,151,151822,1,2,2:2:0:0:
248,153,151929,6,0,L|232:237,1,63.7500024318696,4|2,2:2|3:3,0:0:0:0:
45,215,152357,1,10,3:2:0:0:
15,202,152464,1,2,3:3:0:0:
0,173,152572,1,0,3:3:0:0:
6,141,152679,1,2,3:2:0:0:
29,119,152786,2,0,L|21:69,2,31.8750012159348,2|0|2,3:3|3:0|3:2,0:0:0:0:
75,32,153107,2,0,L|67:-18,2,31.8750012159348,2|8|2,3:3|3:2|3:2,0:0:0:0:
148,60,153429,1,2,3:3:0:0:
206,205,153643,5,0,3:3:0:0:
236,215,153750,1,0,3:0:0:0:
266,224,153857,1,2,3:3:0:0:
296,234,153964,1,0,3:0:0:0:
326,244,154072,1,10,3:2:0:0:
356,254,154179,2,0,L|411:273,2,31.8750012159348,2|0|2,3:3|3:3|3:2,0:0:0:0:
426,197,154500,2,0,L|481:178,2,31.8750012159348,2|0|2,3:3|3:0|3:2,0:0:0:0:
436,113,154822,2,0,L|469:65,2,31.8750012159348,2|8|2,3:3|3:2|3:2,0:0:0:0:
402,34,155143,1,2,3:3:0:0:
292,165,155357,5,0,3:3:0:0:
391,364,155572,5,2,3:3:0:0:
362,378,155679,1,0,3:0:0:0:
330,384,155786,1,10,3:2:0:0:
299,375,155893,1,2,3:3:0:0:
273,355,156000,1,0,3:3:0:0:
257,327,156107,1,2,3:2:0:0:
254,295,156214,2,0,L|266:241,2,31.8750012159348,2|0|2,3:3|3:0|3:2,0:0:0:0:
334,232,156536,2,0,L|388:244,2,31.8750012159348,2|8|2,3:3|3:2|3:2,0:0:0:0:
214,197,156857,2,0,L|202:143,1,31.8750012159348,2|0,3:3|3:0,0:0:0:0:
296,46,157072,5,0,3:3:0:0:
132,89,157286,5,2,3:3:0:0:
101,81,157393,1,0,3:0:0:0:
74,63,157500,1,10,3:2:0:0:
57,36,157607,1,2,3:3:0:0:
48,5,157714,2,0,L|101:-3,1,31.8750012159348,0|2,3:3|3:2,0:0:0:0:
213,50,157929,2,0,L|200:107,2,31.8750012159348,2|0|2,3:3|3:0|3:2,0:0:0:0:
177,153,158250,2,0,L|164:210,2,31.8750012159348,2|8|2,3:3|3:2|3:2,0:0:0:0:
92,159,158572,1,2,3:3:0:0:
61,167,158679,1,2,3:2:0:0:
39,190,158786,1,4,3:2:0:0:
164,316,159000,5,2,3:3:0:0:
194,324,159107,1,0,3:0:0:0:
225,331,159214,1,10,3:2:0:0:
256,338,159322,2,0,L|318:330,2,31.8750012159348,2|0|2,3:3|3:3|3:2,0:0:0:0:
337,272,159643,2,0,L|327:214,2,31.8750012159348,2|0|2,3:3|3:0|3:2,0:0:0:0:
380,378,159964,2,0,L|438:368,2,31.8750012159348,2|8|2,3:3|3:2|3:2,0:0:0:0:
470,312,160286,2,0,L|460:254,1,31.8750012159348,2|0,3:3|3:0,0:0:0:0:
434,135,160500,5,0,3:3:0:0:
336,164,160714,5,2,3:3:0:0:
308,147,160822,1,0,3:0:0:0:
289,121,160929,1,10,3:2:0:0:
284,89,161036,1,2,3:3:0:0:
288,57,161143,1,0,3:3:0:0:
310,34,161250,1,2,3:2:0:0:
340,23,161357,2,0,L|395:26,2,31.8750012159348,2|0|2,3:3|3:0|3:2,0:0:0:0:
231,1,161679,2,0,L|176:-2,2,31.8750012159348,2|8|2,3:3|3:2|3:2,0:0:0:0:
369,97,162000,2,0,L|424:100,1,31.8750012159348,2|0,3:3|3:0,0:0:0:0:
233,182,162214,5,0,3:3:0:0:
83,65,162429,5,2,3:3:0:0:
54,79,162536,1,0,0:0:0:0:
30,100,162643,1,10,3:2:0:0:
12,126,162750,1,2,3:3:0:0:
3,157,162857,1,0,3:3:0:0:
2,191,162964,1,2,3:2:0:0:
9,222,163071,1,2,3:3:0:0:
24,250,163179,1,0,0:0:0:0:
46,273,163286,1,2,3:2:0:0:
73,289,163393,1,2,3:3:0:0:
104,298,163500,1,8,3:2:0:0:
136,299,163607,1,2,3:2:0:0:
166,291,163714,1,2,3:3:0:0:
194,276,163821,1,0,0:0:0:0:
217,254,163929,5,0,3:3:0:0:
225,223,164037,1,0,0:0:0:0:
240,195,164144,1,2,3:3:0:0:
261,172,164251,1,0,0:0:0:0:
288,155,164358,1,10,3:2:0:0:
319,146,164465,1,2,3:3:0:0:
350,146,164572,1,0,3:3:0:0:
381,152,164679,1,2,3:2:0:0:
408,167,164787,1,2,3:3:0:0:
432,189,164894,1,0,0:0:0:0:
448,216,165001,1,2,3:2:0:0:
458,246,165108,1,2,3:3:0:0:
459,278,165215,1,8,3:2:0:0:
451,309,165322,1,2,3:2:0:0:
439,338,165429,1,2,3:3:0:0:
419,357,165536,1,2,3:2:0:0:
390,370,165643,6,0,L|380:326,1,31.8750012159348,4|0,3:2|0:0,0:0:0:0:
327,293,165857,2,0,L|318:252,1,27.6249987354279,2|0,2:2|0:0,0:0:0:0:
266,336,166072,2,0,L|271:359,1,23.3750007133484,2|0,2:2|0:0,0:0:0:0:
204,298,166286,2,0,L|198:271,1,19.1249994163513,2|0,2:2|0:0,0:0:0:0:
138,331,166500,2,0,L|142:348,1,14.874999546051,2|0,2:2|1:1,0:0:0:0:
66,314,166714,6,0,L|67:307,2,5.3125,2|0|0,1:2|3:3|1:1,0:0:0:0:
204,383,166929,1,2,1:1:0:0:
327,293,167143,1,2,1:1:0:0:
138,234,167357,6,2,B|145:162|114:111|39:250|-49:79|122:23|170:67|235:71|144:131,1,318.750012159348,6|0,1:1|0:0,3:1:0:0:
233,155,168000,2,0,L|310:137,1,63.7500024318696,2|2,3:1|2:2,0:0:0:0:
435,0,168214,2,0,L|397:152,1,127.500004863739,2|2,1:1|3:2,0:0:0:0:
379,144,168536,1,2,2:1:0:0:
288,15,168750,1,2,0:0:0:0:
264,32,168857,2,2,B|290:71|290:71|255:222|255:222|287:294,1,255.000009727478,2|0,3:1|3:3,0:1:0:0:
487,173,169500,2,0,B|477:198|477:198|358:238,1,127.500004863739,8|0,3:1|3:3,0:0:0:0:
360,253,169822,2,0,L|327:385,1,127.500004863739
360,374,170143,6,0,B|379:381|379:381|438:364,1,63.7500024318696,2|0,3:2|0:0,0:0:0:0:
276,270,170357,2,0,L|216:290,1,63.7500024318696,10|0,3:1|0:0,0:0:0:0:
152,369,170572,1,2,3:2:0:0:
122,162,170786,6,2,B|56:176|34:225|101:288|149:215|215:220|223:329,1,255.000009727478,2|10,1:1|3:1,0:1:0:0:
236,26,171429,1,0,3:3:0:0:
267,25,171536,1,0,0:0:0:0:
294,41,171643,2,0,P|306:106|256:166,1,127.500004863739,2|2,1:1|3:2,0:0:0:0:
244,165,171964,2,0,L|210:308,1,127.500004863739,2|2,2:1|2:2,0:0:0:0:
233,318,172286,6,2,B|277:358|418:371|442:252|310:292|361:189|454:180,1,318.750012159348,2|0,3:1|0:0,2:1:0:0:
466,194,172929,2,0,L|488:288,1,63.7500024318696,8|0,3:1|0:0,0:0:0:0:
512,45,173143,1,0,3:3:0:0:
512,45,173250,1,0,0:0:0:0:
512,45,173357,1,0,1:1:0:0:
430,98,173572,1,0,3:3:0:0:
512,259,173786,6,0,L|442:282,1,63.7500024318696,10|0,3:1|0:0,0:0:0:0:
373,162,174000,2,0,L|443:185,1,63.7500024318696,2|0,3:2|0:0,0:0:0:0:
512,343,174214,6,2,B|363:297|363:297|333:237|333:237|299:218|226:204,1,318.750012159348,6|0,1:1|0:0,3:1:0:0:
217,228,174857,2,0,L|237:328,1,63.7500024318696,2|2,3:1|2:2,0:0:0:0:
64,166,175072,1,2,1:1:0:0:
166,77,175286,1,2,3:2:0:0:
178,52,175393,1,2,2:1:0:0:
193,25,175500,2,0,L|116:4,1,63.7500024318696,8|0,3:1|2:2,0:0:0:0:
64,166,175714,6,2,B|70:86|175:106|266:113|343:56|261:-6,1,318.750012159348,2|0,3:1|0:0,2:1:0:0:
300,13,176357,2,0,L|383:34,1,63.7500024318696,10|0,3:1|0:0,0:0:0:0:
271,108,176572,1,2,3:3:0:0:
131,8,176786,2,0,L|193:25,1,63.7500024318696,2|0,1:1|0:0,0:0:0:0:
271,108,177000,1,2,3:3:0:0:
127,135,177214,6,0,L|144:196,1,63.7500024318696,10|0,3:1|0:0,0:0:0:0:
269,196,177429,2,0,L|362:169,1,63.7500024318696,2|0,3:3|0:0,0:0:0:0:
189,384,177643,6,2,B|149:292|247:214|324:248|271:80|117:111|-13:225|100:293|157:278,1,446.250017023087,2|0,1:1|0:0,3:1:0:0:
143,284,178500,1,0,1:1:0:0:
147,296,178607,1,0,0:0:0:0:
151,308,178714,1,0,3:3:0:0:
80,343,178929,1,8,3:1:0:0:
277,381,179143,1,0,3:3:0:0:
246,158,179357,5,6,1:1:0:0:
171,98,179572,1,2,3:3:0:0:
128,110,179679,1,2,3:2:0:0:
339,216,179893,1,2,1:3:0:0:
351,173,180000,1,2,3:2:0:0:
351,173,180429,5,0,3:3:0:0:
334,19,180643,1,2,1:1:0:0:
374,0,180750,1,0,3:3:0:0:
418,0,180857,1,0,3:3:0:0:
458,18,180964,1,0,3:3:0:0:
485,53,181072,6,2,B|507:123|370:73|329:266|656:198|487:57,1,318.750012159348,6|0,1:1|0:0,3:1:0:0:
495,101,181714,2,0,L|471:195,1,63.7500024318696,2|2,3:1|2:2,0:0:0:0:
410,383,181929,2,0,B|368:339|434:299|353:236,1,127.500004863739,2|2,1:1|3:2,0:0:0:0:
394,234,182250,1,2,2:1:0:0:
512,314,182464,1,0,0:0:0:0:
491,340,182572,2,2,B|405:299|297:298|297:298|233:251,1,255.000009727478,2|0,3:1|3:3,0:1:0:0:
77,149,183214,2,0,B|35:193|101:233|20:296,1,127.500004863739,8|0,3:1|3:3,0:0:0:0:
65,296,183535,1,0,0:0:0:0:
95,304,183643,1,0,1:1:0:0:
142,223,183857,6,0,L|214:204,1,63.7500024318696,2|0,3:2|0:0,0:0:0:0:
62,371,184072,2,0,L|0:384,1,63.7500024318696,10|0,3:1|0:0,0:0:0:0:
168,384,184286,2,0,L|183:323,1,63.7500024318696,2|0,3:2|0:0,0:0:0:0:
237,124,184500,6,2,L|273:-55,1,127.500004863739,2|0,1:1|3:3,0:1:0:0:
107,53,184929,1,10,3:1:0:0:
130,193,185143,1,0,3:3:0:0:
142,223,185250,1,0,0:0:0:0:
169,240,185357,2,0,P|234:252|265:306,1,127.500004863739,2|2,1:1|3:2,0:0:0:0:
329,370,185679,2,0,B|355:293|355:293|327:226,1,127.500004863739,2|2,2:1|2:2,0:0:0:0:
337,250,186000,6,2,B|236:169|375:73|501:232|408:271|338:251,1,318.750012159348,2|0,3:1|0:0,2:1:0:0:
337,251,186643,2,0,L|359:158,1,63.7500024318696,8|0,3:1|0:0,0:0:0:0:
429,149,186857,1,0,3:3:0:0:
429,149,186964,1,0,0:0:0:0:
429,149,187072,1,0,1:1:0:0:
510,155,187286,1,0,3:3:0:0:
372,34,187500,6,0,L|297:21,1,63.7500024318696,10|0,3:1|0:0,0:0:0:0:
225,117,187714,2,0,L|300:104,1,63.7500024318696,2|0,3:2|0:0,0:0:0:0:
456,77,187929,6,2,B|494:226|494:226|462:302|462:302|464:347|490:399,1,318.750012159348,6|0,1:1|0:0,3:1:0:0:
450,384,188572,2,0,L|384:368,1,63.7500024318696,2|2,3:1|0:0,0:0:0:0:
259,272,188786,1,2,1:1:0:0:
229,260,188893,1,2,2:2:0:0:
135,368,189107,1,2,2:1:0:0:
165,356,189214,1,8,3:1:0:0:
273,384,189429,6,2,B|210:403|182:221|100:400|46:309,1,255.000009727478,2|0,3:1|3:3,0:1:0:0:
32,224,190072,2,0,L|110:242,1,63.7500024318696,10|0,3:1|0:0,0:0:0:0:
165,356,190286,1,2,3:3:0:0:
229,260,190500,1,2,1:1:0:0:
180,154,190714,1,2,3:3:0:0:
70,146,190929,2,0,L|88:74,1,63.7500024318696,10|0,3:1|0:0,0:0:0:0:
162,61,191143,2,0,L|144:-11,1,63.7500024318696,2|0,3:3|0:0,0:0:0:0:
51,12,191357,6,2,B|97:103|198:76|287:3|447:146|222:292|157:46,1,510.000019454957,2|0,1:1|1:1,3:1:0:0:
85,84,192429,2,0,L|70:146,2,63.7500024318696,0|0|8,3:3|0:0|3:1,0:0:0:0:
281,0,192857,5,0,3:3:0:0:
294,49,192964,1,2,2:2:0:0:
306,98,193072,1,6,1:1:0:0:
470,81,193286,5,2,3:1:0:0:
457,130,193393,1,2,3:2:0:0:
288,200,193607,1,2,1:1:0:0:
438,327,193822,2,0,L|425:271,4,31.8750012159348,2|0|0|0|0,3:1|3:3|3:3|3:3|3:3,0:0:0:0:
387,234,194357,5,2,3:1:0:0:
335,258,194464,1,2,3:2:0:0:
312,311,194572,1,2,3:3:0:0:
283,360,194679,1,2,3:2:0:0:
231,384,194786,1,4,1:1:0:0:
94,323,195000,5,2,3:2:0:0:
86,286,195107,1,0,0:0:0:0:
181,225,195322,1,2,2:2:0:0:
189,262,195429,1,0,3:3:0:0:
93,187,195643,1,2,1:3:0:0:
85,150,195750,1,0,0:0:0:0:
188,126,195965,1,2,2:3:0:0:
120,67,196179,1,0,0:0:0:0:
112,30,196286,1,2,3:3:0:0:
298,142,196500,5,0,1:1:0:0:
383,72,196714,5,2,3:2:0:0:
421,74,196822,1,0,0:0:0:0:
454,93,196929,1,8,2:1:0:0:
474,125,197036,1,2,2:2:0:0:
473,163,197143,1,0,3:3:0:0:
418,298,197357,1,2,1:3:0:0:
426,335,197464,1,0,0:0:0:0:
501,256,197679,1,2,2:3:0:0:
384,212,197893,1,0,0:0:0:0:
349,228,198000,2,0,P|288:216|197:205,1,127.500004863739,2|0,3:2|1:1,0:0:0:0:
96,254,198429,5,2,3:3:0:0:
0,153,198643,5,8,2:1:0:0:
33,134,198750,1,2,2:3:0:0:
17,99,198857,1,0,3:3:0:0:
51,83,198964,1,0,0:0:0:0:
36,49,199072,1,2,1:2:0:0:
130,0,199286,1,0,3:3:0:0:
118,37,199393,1,2,2:3:0:0:
153,49,199500,1,8,2:1:0:0:
142,87,199608,1,0,0:0:0:0:
177,101,199714,1,2,3:2:0:0:
238,44,199929,5,0,1:1:0:0:
339,229,200143,5,2,3:1:0:0:
331,266,200250,1,0,0:0:0:0:
415,174,200465,1,2,2:1:0:0:
463,256,200679,1,2,2:1:0:0:
455,293,200786,1,2,1:2:0:0:
360,118,201000,1,0,3:3:0:0:
391,97,201107,1,2,2:1:0:0:
430,94,201214,1,8,2:1:0:0:
464,111,201322,1,0,0:0:0:0:
485,143,201429,1,2,3:1:0:0:
373,352,201643,5,4,1:1:0:0:
249,286,201857,5,2,3:2:0:0:
212,294,201964,1,0,0:0:0:0:
152,379,202179,1,2,2:2:0:0:
32,335,202393,1,0,0:0:0:0:
69,327,202500,1,2,1:3:0:0:
78,239,202714,1,0,3:3:0:0:
70,202,202821,1,2,2:3:0:0:
156,183,203036,1,0,0:0:0:0:
164,220,203143,1,2,3:3:0:0:
84,54,203357,5,0,1:1:0:0:
202,111,203572,5,2,3:2:0:0:
295,41,203786,1,8,2:1:0:0:
332,49,203893,1,2,2:2:0:0:
279,195,204107,1,0,0:0:0:0:
242,187,204214,1,2,1:3:0:0:
363,127,204429,1,0,3:3:0:0:
400,122,204536,1,2,2:3:0:0:
437,117,204643,1,8,2:1:0:0:
474,112,204750,1,0,0:0:0:0:
512,108,204857,1,2,3:2:0:0:
401,303,205072,5,0,1:1:0:0:
216,303,205286,5,6,3:2:0:0:
203,339,205393,1,0,0:0:0:0:
165,332,205500,1,8,2:1:0:0:
151,367,205607,1,2,2:2:0:0:
286,242,205822,1,0,0:0:0:0:
273,206,205929,1,6,1:2:0:0:
235,214,206036,1,0,0:0:0:0:
221,178,206143,1,0,3:3:0:0:
183,186,206250,1,2,2:3:0:0:
171,149,206357,1,8,2:1:0:0:
256,45,206572,1,2,3:2:0:0:
256,45,206679,1,0,0:0:0:0:
256,45,206786,5,0,1:1:0:0:
322,129,207000,5,6,1:1:0:0:
285,121,207107,1,0,3:3:0:0:
129,44,207322,1,2,1:1:0:0:
166,36,207429,1,0,3:3:0:0:
90,206,207643,1,6,2:1:0:0:
73,241,207750,1,0,0:0:0:0:
36,230,207857,1,2,3:1:0:0:
20,264,207964,1,2,2:2:0:0:
221,178,208179,1,2,3:1:0:0:
238,213,208286,1,0,1:1:0:0:
275,202,208393,1,2,3:1:0:0:
291,236,208500,5,4,1:1:0:0:
112,347,208714,5,2,3:2:0:0:
120,384,208821,1,0,0:0:0:0:
172,278,209036,1,2,2:2:0:0:
234,347,209250,1,0,0:0:0:0:
242,384,209357,1,2,1:3:0:0:
330,338,209572,1,0,3:3:0:0:
338,301,209679,1,2,2:3:0:0:
422,347,209893,1,0,0:0:0:0:
430,384,210000,1,2,3:3:0:0:
511,251,210214,5,0,1:1:0:0:
393,186,210429,5,2,3:2:0:0:
378,150,210536,1,0,0:0:0:0:
384,112,210643,1,8,2:1:0:0:
411,85,210750,1,2,2:2:0:0:
447,75,210857,1,0,3:3:0:0:
342,37,211072,1,2,1:3:0:0:
334,0,211179,1,0,0:0:0:0:
466,152,211393,1,2,2:3:0:0:
303,163,211607,1,0,0:0:0:0:
266,171,211714,2,0,P|193:147|119:136,1,127.500004863739,2|0,3:2|1:1,0:0:0:0:
40,232,212143,5,2,3:3:0:0:
129,384,212357,5,8,2:1:0:0:
166,375,212464,1,2,2:3:0:0:
203,368,212572,1,0,3:3:0:0:
197,330,212679,1,0,0:0:0:0:
198,291,212786,1,2,1:2:0:0:
105,292,213000,1,0,3:3:0:0:
68,301,213107,1,2,2:3:0:0:
31,308,213215,1,8,2:1:0:0:
37,346,213322,1,0,0:0:0:0:
38,384,213429,1,2,3:2:0:0:
129,384,213643,5,0,1:1:0:0:
288,319,213857,5,2,3:1:0:0:
296,282,213964,1,0,0:0:0:0:
369,223,214179,1,2,2:1:0:0:
279,146,214393,1,2,2:1:0:0:
316,154,214500,1,2,1:2:0:0:
422,292,214714,1,0,3:3:0:0:
453,270,214822,1,2,2:1:0:0:
486,251,214929,1,8,2:1:0:0:
463,219,215036,1,0,0:0:0:0:
443,185,215143,1,2,3:1:0:0:
187,213,215357,5,4,1:1:0:0:
201,127,215572,1,2,3:2:0:0:
186,98,215679,1,0,3:3:0:0:
163,76,215786,1,8,3:1:0:0:
135,62,215893,1,2,3:2:0:0:
103,57,216000,1,0,3:3:0:0:
72,63,216107,1,0,3:3:0:0:
44,77,216214,1,2,1:3:0:0:
22,100,216322,1,0,3:3:0:0:
7,128,216429,1,0,3:3:0:0:
2,160,216536,1,2,3:3:0:0:
8,191,216643,1,8,3:1:0:0:
22,219,216750,1,0,3:3:0:0:
45,241,216857,2,0,L|53:315,1,63.7500024318696,2|0,3:3|3:3,0:0:0:0:
188,372,217072,5,4,1:1:0:0:
253,305,217286,1,2,3:2:0:0:
271,301,217393,1,0,3:3:0:0:
289,300,217500,1,8,3:1:0:0:
308,301,217607,1,2,3:2:0:0:
326,306,217714,1,0,3:3:0:0:
340,318,217821,1,0,3:3:0:0:
352,332,217928,1,2,1:3:0:0:
366,345,218036,1,0,3:3:0:0:
382,354,218143,1,0,3:3:0:0:
399,360,218250,1,2,3:3:0:0:
418,362,218357,1,8,3:1:0:0:
436,363,218464,1,0,3:3:0:0:
455,363,218572,2,0,L|472:298,1,63.7500024318696,2|0,3:2|3:3,0:0:0:0:
512,173,218786,5,4,1:1:0:0:
458,108,219000,1,2,3:2:0:0:
453,108,219107,1,0,3:3:0:0:
448,109,219214,1,8,3:1:0:0:
443,110,219321,1,2,3:2:0:0:
438,111,219428,1,0,3:3:0:0:
433,112,219535,1,0,3:3:0:0:
428,112,219642,1,2,1:2:0:0:
424,113,219750,1,0,3:3:0:0:
419,114,219857,1,0,3:3:0:0:
414,115,219964,1,2,3:3:0:0:
409,116,220071,1,8,3:1:0:0:
404,116,220178,1,0,3:3:0:0:
399,117,220285,1,2,3:2:0:0:
207,24,220500,5,4,1:1:0:0:
231,103,220714,1,2,1:1:0:0:
219,146,220822,1,4,3:2:0:0:
132,76,221036,1,2,1:1:0:0:
120,119,221144,1,0,3:3:0:0:
298,171,221357,1,6,2:1:0:0:
304,209,221464,1,0,0:0:0:0:
267,216,221572,1,2,3:1:0:0:
230,225,221679,1,6,2:2:0:0:
128,0,221893,1,2,3:1:0:0:
91,9,222000,1,0,1:1:0:0:
54,16,222108,1,2,3:1:0:0:
60,54,222214,6,0,L|274:7,1,195.500003728867,4|10,2:1|2:2,1:0:0:0:
411,110,222857,2,0,L|386:190,2,48.8750009322167,0|0|4,1:1|0:0|2:3,0:0:0:0:
310,145,223286,2,2,L|331:271,1,97.7500018644333,2|8,1:3|2:2,0:2:0:0:
512,109,223714,2,0,L|306:57,1,195.500003728867,2|2,1:3|1:3,3:0:0:0:
173,126,224357,5,10,2:2:0:0:
229,200,224572,1,0,1:1:0:0:
229,200,224679,1,0,0:0:0:0:
229,200,224786,1,4,2:3:0:0:
155,247,225000,2,0,L|27:220,1,97.7500018644333,2|8,1:3|2:2,0:0:0:0:
173,126,225429,2,0,L|207:354,1,195.500003728867,0|2,1:1|1:3,0:0:0:0:
335,384,226072,5,14,2:2:0:0:
419,331,226286,2,0,L|433:261,2,48.8750009322167,0|0|4,1:1|0:0|2:3,0:0:0:0:
297,292,226714,2,2,L|187:323,1,97.7500018644333,2|8,1:3|2:2,0:2:0:0:
335,384,227143,1,2,1:3:0:0:
382,47,227572,1,2,1:3:0:0:
303,104,227786,1,14,2:2:0:0:
268,111,227893,1,0,0:0:0:0:
234,119,228000,1,0,1:1:0:0:
200,127,228107,1,0,0:0:0:0:
166,135,228214,1,4,2:3:0:0:
343,170,228429,2,2,L|472:188,1,97.7500018644333,2|8,1:3|2:2,0:2:0:0:
258,17,228857,2,0,L|218:208,1,195.500003728867,2|2,1:3|1:3,3:0:0:0:
153,348,229500,5,10,2:2:0:0:
48,289,229714,2,0,L|-7:304,2,48.8750009322167,0|0|4,1:1|0:0|2:3,0:0:0:0:
181,278,230143,2,0,P|227:326|223:371,1,97.7500018644333,2|8,1:3|2:2,0:0:0:0:
61,384,230572,2,0,L|105:152,1,195.500003728867,2|2,1:3|1:3,3:0:0:0:
93,62,231214,1,10,2:2:0:0:
70,53,231322,1,0,0:0:0:0:
47,44,231429,1,0,1:1:0:0:
24,35,231536,1,0,0:0:0:0:
1,26,231643,1,4,2:3:0:0:
173,0,231857,2,0,L|194:110,1,97.7500018644333,2|8,1:3|2:2,0:0:0:0:
97,191,232286,1,0,1:1:0:0:
335,384,232714,5,2,1:3:0:0:
277,319,232929,2,0,B|311:286|311:286|388:305,1,97.7500018644333,14|0,2:2|1:1,1:0:0:0:
335,384,233357,1,4,2:3:0:0:
213,360,233572,2,0,L|96:339,1,97.7500018644333,2|8,1:3|2:2,0:0:0:0:
335,384,234000,1,2,1:3:0:0:
499,165,234429,1,2,1:3:0:0:
431,107,234643,2,0,B|398:141|398:141|417:218,1,97.7500018644333,14|0,2:2|1:1,1:0:0:0:
474,260,235072,1,4,2:3:0:0:
469,283,235179,1,0,3:3:0:0:
464,307,235286,6,0,L|420:316,2,24.4375004661083,0|0|0,1:1|1:1|3:3,0:0:0:0:
340,233,235500,2,0,L|256:217,1,48.8750009322167,8|0,2:1|0:0,0:0:0:0:
335,384,235714,2,0,L|319:300,1,48.8750009322167,8|0,1:1|0:0,0:0:0:0:
189,274,235929,6,0,L|168:158,1,97.7500018644333,4|2,2:1|1:3,1:0:0:0:
237,95,236357,1,10,2:2:0:0:
237,95,236464,1,0,0:0:0:0:
237,95,236572,1,0,1:1:0:0:
136,57,236786,1,4,2:3:0:0:
78,147,237000,2,0,L|176:179,1,97.7500018644333,2|8,1:3|2:2,1:0:0:0:
242,12,237429,2,0,L|281:223,1,195.500003728867,2|2,1:3|1:3,3:0:0:0:
379,312,238072,1,10,2:2:0:0:
402,318,238179,1,0,0:0:0:0:
425,324,238286,1,0,1:1:0:0:
448,330,238393,1,0,0:0:0:0:
471,337,238500,1,4,2:3:0:0:
408,230,238714,1,2,1:3:0:0:
392,210,238822,1,0,0:0:0:0:
377,190,238929,2,0,L|399:66,2,97.7500018644333,8|0|4,2:2|1:1|2:3,0:0:0:0:
290,307,239572,5,2,1:3:0:0:
290,307,239679,1,0,0:0:0:0:
290,307,239786,1,14,2:2:0:0:
205,268,240000,1,0,1:1:0:0:
204,370,240214,1,4,2:3:0:0:
289,204,240429,2,0,L|274:98,1,97.7500018644333,2|8,1:3|2:2,0:0:0:0:
96,335,240857,2,0,L|313:303,1,195.500003728867,2|2,1:3|1:3,3:0:0:0:
391,257,241500,2,0,L|404:353,1,97.7500018644333,14|0,2:2|1:1,0:0:0:0:
423,369,241822,1,0,0:0:0:0:
441,384,241929,1,4,2:3:0:0:
289,204,242143,2,2,L|163:220,1,97.7500018644333,2|8,1:3|2:2,0:2:0:0:
439,161,242572,2,0,L|398:389,1,195.500003728867,2|2,1:3|1:3,3:0:0:0:
204,370,243214,5,10,2:2:0:0:
96,335,243429,1,0,1:1:0:0:
96,335,243536,1,0,0:0:0:0:
96,335,243643,1,4,2:3:0:0:
114,244,243857,1,2,1:3:0:0:
109,219,243964,1,0,0:0:0:0:
104,194,244072,1,8,2:2:0:0:
99,170,244179,1,0,0:0:0:0:
96,143,244286,2,0,L|312:104,1,195.500003728867,2|2,1:3|1:3,3:0:0:0:
180,5,244929,6,2,L|165:116,1,97.7500018644333,10|0,2:2|1:1,0:2:0:0:
275,201,245357,1,4,2:3:0:0:
379,172,245572,1,2,1:3:0:0:
379,172,245679,1,0,0:0:0:0:
379,172,245786,1,8,2:2:0:0:
388,67,246000,2,0,L|438:285,1,195.500003728867,0|2,1:1|2:3,0:0:0:0:
324,384,246643,5,14,1:2:0:0:
304,378,246750,1,0,3:3:0:0:
285,371,246857,1,0,3:3:0:0:
266,363,246964,1,0,3:3:0:0:
250,350,247071,1,4,3:3:0:0:
240,333,247178,1,0,3:3:0:0:
236,313,247285,1,2,1:3:0:0:
231,294,247393,1,0,3:3:0:0:
220,276,247500,1,8,2:2:0:0:
205,263,247607,1,0,3:3:0:0:
187,252,247714,1,2,1:3:0:0:
169,244,247821,1,0,3:3:0:0:
150,236,247929,1,4,2:3:0:0:
87,384,248143,5,2,1:3:0:0:
66,364,248250,1,0,3:3:0:0:
46,342,248357,2,0,L|174:323,1,97.7500018644333,14|0,1:2|3:3,1:0:0:0:
169,339,248679,2,0,L|346:312,1,146.62500279665,0|2,3:3|1:3,3:0:0:0:
429,177,249214,2,0,L|433:153,2,24.4375004661083,8|0|0,1:2|0:0|3:3,0:0:0:0:
362,214,249429,1,2,1:3:0:0:
389,248,249536,1,0,3:3:0:0:
434,260,249643,1,4,1:1:0:0:
434,260,249857,6,0,L|447:318,1,48.8750009322167,2|0,2:2|0:0,0:0:0:0:
379,341,250072,2,0,L|367:394,1,44.6249986381531,2|0,2:2|0:0,0:0:0:0:
296,306,250286,2,0,L|302:345,1,40.3749989218712,2|0,2:2|0:0,0:0:0:0:
222,301,250500,2,0,L|233:267,1,36.1250006890297,2|0,2:2|0:0,0:0:0:0:
272,177,250714,2,0,L|277:209,1,31.8750012159348,2|0,2:2|0:0,0:0:0:0:
211,134,250929,2,0,L|197:174,1,27.6249987354279,2|0,2:2|0:0,0:0:0:0:
146,104,251143,2,0,L|144:81,1,23.3750007133484,2|0,2:2|0:0,0:0:0:0:
274,27,251357,5,4,2:1:0:0:
265,22,275357,6,0,L|258:-14,11,23.3750007133484,0|0|0|0|0|0|0|0|0|0|0|0,0:0|0:0|0:0|0:0|0:0|0:0|0:0|0:0|0:0|0:0|0:0|0:0,2:0:0:0:
207,71,276643,5,4,1:1:0:0:
202,69,276750,1,0,0:0:0:0:
197,67,276857,1,0,0:3:0:0:
192,65,276964,1,0,0:0:0:0:
187,63,277072,1,0,1:1:0:0:
180,62,277179,1,0,0:0:0:0:
171,64,277286,1,2,1:3:0:0:
160,68,277393,1,0,3:0:0:0:
148,76,277500,1,0,3:3:0:0:
138,89,277607,1,2,1:3:0:0:
133,107,277714,1,0,0:0:0:0:
136,127,277822,1,0,0:0:0:0:
148,146,277929,1,2,1:3:0:0:
158,169,278036,1,0,0:0:0:0:
161,196,278143,1,2,3:2:0:0:
155,225,278250,1,2,1:3:0:0:
139,253,278357,1,8,3:3:0:0:
109,271,278464,1,10,3:3:0:0:
71,270,278572,1,8,1:2:0:0:
41,246,278679,1,10,3:1:0:0:
1,239,278786,6,0,L|27:368,1,93.5000028533936,4|2,1:2|3:3,0:0:0:0:
121,366,279214,1,10,2:2:0:0:
121,366,279322,2,0,L|188:351,1,46.7500014266968,2|0,2:3|3:3,0:0:0:0:
226,302,279643,2,0,L|293:287,1,46.7500014266968,2|0,2:3|0:0,0:0:0:0:
303,171,279964,2,0,L|318:238,1,46.7500014266968,2|8,2:3|2:2,0:0:0:0:
368,272,280286,2,0,L|383:339,1,46.7500014266968,2|0,3:3|0:0,0:0:0:0:
477,183,280500,6,0,L|499:71,1,93.5000028533936,0|2,3:3|3:3,0:0:0:0:
512,0,280929,1,10,2:2:0:0:
512,0,281037,1,2,2:3:0:0:
512,0,281144,1,0,3:3:0:0:
512,0,281251,1,2,2:2:0:0:
512,0,281358,1,2,2:3:0:0:
428,25,281572,1,2,3:2:0:0:
428,25,281679,1,2,2:3:0:0:
428,25,281787,1,8,2:2:0:0:
343,45,282001,1,2,3:3:0:0:
244,152,282215,5,0,3:3:0:0:
346,194,282429,1,2,3:3:0:0:
346,194,282537,1,0,0:0:0:0:
346,194,282644,1,10,2:2:0:0:
346,194,282751,1,2,2:3:0:0:
346,194,282858,1,0,3:3:0:0:
346,194,282965,1,2,2:2:0:0:
346,194,283072,1,2,2:3:0:0:
282,251,283287,1,2,3:2:0:0:
282,251,283394,1,2,2:3:0:0:
282,251,283501,1,8,2:2:0:0:
282,251,283608,1,2,2:2:0:0:
282,251,283715,1,2,3:3:0:0:
182,225,283929,1,0,3:3:0:0:
70,115,284143,6,0,L|41:266,1,140.25000428009,2|2,3:3|2:3,0:0:0:0:
0,373,284679,1,2,2:2:0:0:
16,357,284786,2,0,L|120:376,1,93.5000028533936,2|2,2:3|3:2,0:0:0:0:
127,361,285107,1,2,2:3:0:0:
134,338,285214,1,8,2:2:0:0:
142,315,285322,1,2,2:2:0:0:
149,292,285429,1,2,3:3:0:0:
307,372,285643,5,4,2:2:0:0:
395,313,285857,2,0,L|374:239,1,46.7500014266968,2|0,3:3|0:0,0:0:0:0:
264,231,286179,2,0,L|243:157,1,46.7500014266968,2|0,2:3|3:3,0:0:0:0:
288,32,286500,2,0,L|267:106,1,46.7500014266968,2|0,2:3|0:0,0:0:0:0:
157,114,286822,2,0,L|136:188,2,46.7500014266968,2|8|2,2:3|2:2|2:2,0:0:0:0:
111,57,287143,1,2,3:3:0:0:
111,57,287250,1,0,0:0:0:0:
111,57,287357,1,0,3:3:0:0:
0,206,287572,5,2,3:3:0:0:
0,206,287679,1,0,0:0:0:0:
0,206,287786,1,10,2:2:0:0:
0,206,287893,1,2,2:3:0:0:
0,206,288000,1,0,3:3:0:0:
100,265,288214,1,2,2:3:0:0:
100,265,288321,1,0,0:0:0:0:
100,265,288428,1,2,3:2:0:0:
100,265,288535,1,2,2:3:0:0:
100,265,288642,1,8,2:2:0:0:
23,344,288857,1,2,3:3:0:0:
39,360,288964,2,0,L|138:385,1,93.5000028533936
150,371,289286,5,2,3:3:0:0:
172,364,289393,1,0,0:0:0:0:
194,358,289500,1,10,2:2:0:0:
216,352,289607,1,2,2:3:0:0:
238,347,289714,1,0,3:3:0:0:
317,271,289929,1,2,2:3:0:0:
295,264,290036,1,0,0:0:0:0:
273,258,290143,1,2,3:2:0:0:
251,252,290250,1,2,2:3:0:0:
229,247,290357,1,8,2:2:0:0:
306,163,290572,1,2,3:3:0:0:
465,5,291000,6,0,L|481:104,1,93.5000028533936,2|10,3:3|2:2,0:0:0:0:
471,119,291322,2,0,L|490:237,1,93.5000028533936,2|2,2:3|2:2,0:0:0:0:
464,221,291643,1,2,2:3:0:0:
441,226,291750,1,0,0:0:0:0:
417,229,291857,1,2,3:2:0:0:
394,233,291964,1,2,2:3:0:0:
341,339,292179,1,2,2:2:0:0:
364,344,292286,1,2,3:3:0:0:
388,347,292393,1,2,2:2:0:0:
410,351,292500,1,4,2:2:0:0:
234,255,292714,5,2,3:3:0:0:
234,255,292822,2,0,L|224:198,1,46.7500014266968,0|10,0:0|2:2,0:0:0:0:
155,185,293036,1,2,2:3:0:0:
155,185,293144,2,0,L|145:128,1,46.7500014266968,0|2,3:3|2:2,0:0:0:0:
83,100,293357,1,2,2:3:0:0:
83,100,293464,2,0,L|93:43,1,46.7500014266968,0|2,0:0|3:2,0:0:0:0:
179,14,293679,1,2,2:3:0:0:
179,14,293786,2,0,L|169:71,1,46.7500014266968,8|2,2:2|2:2,0:0:0:0:
242,85,294000,2,0,L|232:142,1,46.7500014266968,2|0,3:3|0:0,0:0:0:0:
65,237,294214,6,0,L|19:227,1,46.7500014266968,0|0,3:3|0:0,0:0:0:0:
66,359,294429,1,2,3:3:0:0:
66,359,294537,2,0,L|56:302,1,46.7500014266968,0|10,0:0|2:2,0:0:0:0:
134,275,294750,1,2,2:3:0:0:
134,275,294858,2,0,L|142:321,1,46.7500014266968,0|2,3:3|2:2,0:0:0:0:
223,346,295072,1,2,2:3:0:0:
223,346,295180,2,0,L|213:289,1,46.7500014266968,0|2,0:0|3:2,0:0:0:0:
288,260,295393,1,2,2:3:0:0:
288,260,295501,2,0,L|297:307,1,46.7500014266968,8|2,2:2|2:2,0:0:0:0:
212,178,295714,1,2,3:3:0:0:
212,178,295822,1,0,0:0:0:0:
212,178,295929,2,0,L|201:240,1,46.7500014266968,0|0,3:3|0:0,0:0:0:0:
407,128,296143,6,0,L|396:66,2,46.7500014266968,2|0|10,3:3|0:0|2:2,0:0:0:0:
333,46,296465,2,0,L|322:-16,2,46.7500014266968,2|0|2,2:3|3:3|2:2,0:0:0:0:
284,103,296786,2,0,L|293:144,2,42.5,2|0|2,2:3|0:0|3:2,0:0:0:0:
209,91,297107,2,0,L|201:51,2,38.2499988327027,2|8|2,2:3|2:2|2:2,0:0:0:0:
145,135,297429,1,2,3:3:0:0:
145,135,297536,1,0,0:0:0:0:
145,135,297643,1,0,3:3:0:0:
230,294,297857,6,0,L|217:334,2,34,2|0|10,3:3|0:0|2:2,0:0:0:0:
292,244,298179,2,0,L|303:202,1,29.7499990921021,2|0,2:3|3:3,0:0:0:0:
359,286,298393,1,2,2:2:0:0:
359,286,298500,2,0,L|370:244,1,29.7499990921021,2|0,2:3|0:0,0:0:0:0:
435,221,298714,1,2,3:2:0:0:
435,221,298822,2,0,L|425:176,2,25.4999992218018,2|8|2,2:3|2:2|2:2,0:0:0:0:
509,264,299143,1,2,3:3:0:0:
509,264,299250,1,2,2:2:0:0:
509,264,299357,1,4,2:2:0:0:
370,378,299572,6,0,L|325:390,1,25.4999992218018,2|0,3:3|0:0,0:0:0:0:
289,331,299893,2,0,L|259:322,1,21.25,2|0,2:3|3:3,0:0:0:0:
219,265,300214,2,0,L|188:272,1,17,2|0,2:3|0:0,0:0:0:0:
160,212,300536,2,0,L|143:208,1,12.7499996109009,2|8,2:3|2:2,0:0:0:0:
88,248,300857,2,0,L|76:251,1,8.5,2|0,3:3|0:0,0:0:0:0:
83,323,301072,5,0,3:3:0:0:
177,351,301286,1,2,3:3:0:0:
219,265,301607,1,2,2:3:0:0:
160,212,301929,1,2,2:3:0:0:
198,148,302250,1,2,2:3:0:0:
198,148,302572,5,2,3:3:0:0:
301,25,302786,5,0,3:3:0:0:
304,23,302893,1,0,0:0:0:0:
308,21,303000,1,2,3:3:0:0:
312,22,303107,1,0,0:0:0:0:
316,23,303214,1,10,2:2:0:0:
318,26,303321,1,2,2:3:0:0:
321,30,303428,1,0,3:3:0:0:
321,33,303535,1,2,2:2:0:0:
321,37,303643,1,2,2:3:0:0:
319,41,303750,1,0,0:0:0:0:
316,44,303857,1,2,3:2:0:0:
313,46,303964,1,2,2:3:0:0:
309,46,304071,1,8,2:2:0:0:
305,46,304178,1,2,2:2:0:0:
302,44,304286,2,0,L|314:108,1,42.5,2|0,3:3|0:0,0:0:0:0:
441,208,304500,5,0,3:3:0:0:
470,230,304607,1,0,0:0:0:0:
485,263,304714,1,2,3:3:0:0:
481,300,304821,1,0,0:0:0:0:
460,330,304928,1,10,2:2:0:0:
427,347,305035,1,2,2:3:0:0:
391,345,305142,1,0,3:3:0:0:
359,325,305249,1,2,2:2:0:0:
342,293,305357,1,2,2:3:0:0:
325,261,305465,1,0,0:0:0:0:
293,241,305572,1,2,3:2:0:0:
257,239,305679,1,2,2:3:0:0:
224,256,305786,1,8,2:2:0:0:
203,286,305893,1,2,2:2:0:0:
199,323,306000,1,2,3:3:0:0:
214,356,306107,1,2,2:2:0:0:
244,379,306214,6,0,L|308:365,1,42.5,4|0,1:2|0:0,0:0:0:0:
129,316,306429,2,0,L|66:300,1,38.2499988327027,2|0,2:2|0:0,0:0:0:0:
203,286,306643,2,0,L|262:271,1,34,2|0,2:2|0:0,0:0:0:0:
143,236,306857,2,0,L|92:223,1,29.7499990921021,2|0,2:2|0:0,0:0:0:0:
194,183,307072,2,0,L|228:174,1,25.4999992218018,2|0,2:2|1:1,0:0:0:0:
143,127,307286,6,0,L|141:114,2,10.625,2|0|0,1:2|3:3|1:1,0:0:0:0:
129,316,307500,1,2,1:1:0:0:
293,218,307714,1,2,1:1:0:0:
293,45,307929,6,2,B|355:-54|678:-12|394:25|357:96|476:122,1,318.750012159348,6|0,1:1|0:0,3:1:0:0:
450,122,308572,2,0,L|429:195,1,63.7500024318696,2|2,3:1|2:2,0:0:0:0:
348,271,308786,2,0,L|316:122,1,127.500004863739,2|2,1:1|3:2,0:0:0:0:
338,119,309107,1,2,2:1:0:0:
471,286,309322,1,0,0:0:0:0:
439,265,309429,2,2,B|277:359|227:276|274:204|205:247,1,255.000009727478,2|0,3:1|3:3,0:1:0:0:
31,115,310072,2,0,B|51:138|51:138|102:127|168:160,1,127.500004863739,8|0,3:1|3:3,0:0:0:0:
160,184,310393,2,0,B|136:217|136:217|160:329,1,127.500004863739
164,331,310714,6,0,L|236:352,1,63.7500024318696,2|0,3:2|0:0,0:0:0:0:
285,219,310929,2,0,L|213:240,1,63.7500024318696,10|0,3:1|0:0,0:0:0:0:
343,329,311143,1,2,3:2:0:0:
164,331,311357,6,2,B|67:303|-43:502|159:229|-18:246,1,255.000009727478,2|10,1:1|3:1,0:1:0:0:
94,88,312000,1,0,3:3:0:0:
131,93,312107,1,0,0:0:0:0:
161,115,312214,2,0,L|127:250,1,127.500004863739,2|2,1:1|3:2,0:0:0:0:
164,254,312536,2,0,B|197:248|205:175|240:238|332:227,1,127.500004863739,2|2,2:1|2:2,0:0:0:0:
297,192,312857,6,2,B|401:285|261:370|217:352|348:264|441:393,1,318.750012159348,2|0,3:1|0:0,2:1:0:0:
457,351,313500,2,0,L|481:271,1,63.7500024318696,8|0,3:1|0:0,0:0:0:0:
363,294,313714,1,0,3:3:0:0:
363,294,313822,1,0,0:0:0:0:
363,294,313929,1,0,1:1:0:0:
400,202,314143,1,0,3:3:0:0:
387,59,314357,6,0,L|413:142,1,63.7500024318696,10|0,3:1|0:0,0:0:0:0:
500,248,314572,2,0,L|417:289,1,63.7500024318696,2|0,3:2|0:0,0:0:0:0:
297,192,314786,6,2,B|166:160|166:160|138:95|152:36|152:36|67:2,1,318.750012159348,6|0,1:1|0:0,3:1:0:0:
70,40,315429,2,0,L|-12:61,1,63.7500024318696,2|2,3:1|0:0,0:0:0:0:
233,87,315643,1,2,1:1:0:0:
264,66,315750,1,2,2:2:0:0:
170,202,315964,1,2,2:1:0:0:
177,238,316071,1,8,3:1:0:0:
56,123,316286,6,2,B|8:181|87:311|158:166|258:293|185:378,1,318.750012159348,2|0,3:1|0:0,2:1:0:0:
172,373,316929,2,0,L|93:389,1,63.7500024318696,10|0,3:1|0:0,0:0:0:0:
41,338,317143,1,2,3:3:0:0:
177,238,317357,2,0,L|161:159,1,63.7500024318696,2|0,1:1|0:0,0:0:0:0:
212,107,317571,1,2,3:3:0:0:
202,348,317786,6,0,L|264:334,1,63.7500024318696,10|0,3:1|0:0,0:0:0:0:
86,247,318000,2,0,L|23:233,1,63.7500024318696,2|0,3:3|0:0,0:0:0:0:
185,7,318214,6,2,B|88:145|371:-29|278:222|240:220|-6:58|26:261,1,446.250017023087,2|0,1:1|0:0,3:1:0:0:
40,252,319072,1,0,1:1:0:0:
42,264,319179,1,0,0:0:0:0:
44,276,319286,1,0,3:3:0:0:
164,175,319500,1,8,3:1:0:0:
253,223,319714,1,0,3:3:0:0:
348,97,319929,5,6,1:1:0:0:
386,94,320036,1,0,0:0:0:0:
418,73,320143,1,2,3:3:0:0:
429,36,320250,1,2,3:2:0:0:
444,70,320357,1,0,0:0:0:0:
474,93,320464,1,2,1:3:0:0:
511,99,320572,1,2,3:2:0:0:
490,131,320679,1,2,0:2:0:0:
484,168,320786,1,0,0:3:0:0:
493,204,320893,1,2,0:0:0:0:
455,198,321000,1,0,3:3:0:0:
293,352,321214,5,2,1:1:0:0:
257,367,321322,1,0,3:3:0:0:
220,378,321429,1,0,3:3:0:0:
182,384,321536,1,0,3:3:0:0:
143,384,321643,6,2,B|80:358|181:261|285:250|152:296|345:225|238:135,1,318.750012159348,6|0,1:1|0:0,3:1:0:0:
217,158,322286,2,0,L|132:142,1,63.7500024318696,2|2,3:1|2:2,0:0:0:0:
332,264,322500,2,0,B|351:331|394:294|413:383,1,127.500004863739,2|2,1:1|3:2,0:0:0:0:
437,374,322822,1,2,2:1:0:0:
483,275,323036,1,0,0:0:0:0:
462,248,323143,2,2,B|419:259|419:259|330:228|186:232,1,255.000009727478,2|0,3:1|3:3,0:1:0:0:
87,167,323786,2,0,B|106:100|149:137|168:48,1,127.500004863739,8|0,3:1|3:3,0:0:0:0:
192,57,324108,1,0,0:0:0:0:
212,33,324214,1,0,1:1:0:0:
73,28,324429,6,0,L|96:104,1,63.7500024318696,2|0,3:2|0:0,0:0:0:0:
220,132,324643,2,0,L|300:120,1,63.7500024318696,10|0,3:1|0:0,0:0:0:0:
134,236,324857,2,0,L|125:300,1,63.7500024318696,2|0,3:2|0:0,0:0:0:0:
0,250,325072,6,2,P|36:189|113:165,1,127.500004863739,2|0,1:1|3:3,0:1:0:0:
218,231,325500,1,10,3:1:0:0:
339,183,325714,1,0,3:3:0:0:
369,173,325822,1,0,0:0:0:0:
395,155,325929,2,0,L|417:17,1,127.500004863739,2|2,1:1|3:2,0:0:0:0:
443,14,326250,2,0,P|357:21|307:80,1,127.500004863739,2|2,2:1|2:2,0:0:0:0:
322,76,326572,6,2,B|405:102|509:201|455:306|367:161|364:355,1,318.750012159348,2|0,3:1|0:0,2:1:0:0:
392,324,327214,2,0,L|498:351,1,63.7500024318696,8|0,3:1|0:0,0:0:0:0:
509,277,327429,1,0,3:3:0:0:
509,277,327536,1,0,0:0:0:0:
509,277,327643,1,0,1:1:0:0:
464,197,327857,1,0,3:3:0:0:
287,284,328072,6,0,L|308:360,1,63.7500024318696,10|0,3:1|0:0,0:0:0:0:
508,128,328286,2,0,L|432:107,1,63.7500024318696,2|0,3:2|0:0,0:0:0:0:
281,193,328500,6,2,B|207:214|155:252|155:252|149:337|149:337|42:318,1,318.750012159348,6|0,1:1|0:0,3:1:0:0:
41,291,329143,2,0,L|11:189,1,63.7500024318696,2|0,3:1|0:0,0:0:0:0:
200,246,329357,1,2,1:1:0:0:
119,156,329572,1,2,3:2:0:0:
89,148,329679,1,2,2:1:0:0:
60,138,329786,1,8,3:1:0:0:
126,18,330000,6,2,B|170:68|76:101|113:198|207:170|204:277,1,255.000009727478,2|0,3:1|3:3,0:1:0:0:
320,319,330643,2,0,L|388:302,1,63.7500024318696,10|0,3:1|0:0,0:0:0:0:
424,239,330857,1,2,3:3:0:0:
363,161,331072,1,2,1:1:0:0:
444,67,331286,1,2,3:3:0:0:
306,9,331500,2,0,L|324:88,1,63.7500024318696,10|0,3:1|0:0,0:0:0:0:
512,174,331714,2,0,L|432:158,1,63.7500024318696,2|0,3:3|0:0,0:0:0:0:
242,175,331929,6,2,B|94:270|124:370|327:283|326:118|428:222|325:351|541:286,1,510.000019454957,2|0,1:1|1:1,3:1:0:0:
356,286,333000,2,0,L|344:353,2,63.7500024318696,0|0|8,3:3|0:0|3:1,0:0:0:0:
512,174,333429,5,0,3:3:0:0:
498,124,333536,1,2,2:2:0:0:
485,74,333643,1,6,1:1:0:0:
337,100,333857,5,2,3:1:0:0:
323,150,333964,1,2,3:2:0:0:
438,277,334179,1,2,1:1:0:0:
268,324,334393,2,0,L|202:342,4,63.7500024318696,2|0|0|0|0,3:1|3:3|3:3|3:3|3:3,0:0:0:0:
301,253,334929,5,2,3:1:0:0:
243,250,335036,1,2,3:2:0:0:
201,211,335143,1,2,3:3:0:0:
198,153,335250,1,2,3:2:0:0:
231,108,335357,1,4,1:1:0:0:
401,0,335572,6,0,L|434:160,1,127.500004863739,2|8,3:2|2:1,1:2:0:0:
402,154,335893,1,2,2:2:0:0:
391,190,336000,1,0,3:3:0:0:
400,227,336107,1,0,0:0:0:0:
425,255,336214,2,0,L|289:298,1,127.500004863739,2|0,1:3|3:3,3:0:0:0:
285,327,336536,1,2,2:3:0:0:
277,364,336643,1,8,2:1:0:0:
240,353,336750,1,0,0:0:0:0:
201,351,336857,1,2,3:3:0:0:
164,363,336964,1,0,0:0:0:0:
135,384,337072,1,0,1:1:0:0:
0,252,337286,5,2,3:2:0:0:
36,239,337393,1,0,0:0:0:0:
61,210,337500,1,8,2:1:0:0:
74,174,337607,2,0,L|54:33,1,127.500004863739,2|0,2:2|0:0,1:2:0:0:
78,16,337929,1,2,1:3:0:0:
112,0,338036,1,0,0:0:0:0:
150,0,338143,1,0,3:3:0:0:
184,16,338250,1,2,2:3:0:0:
207,45,338357,1,8,2:1:0:0:
213,82,338464,1,0,0:0:0:0:
209,120,338572,2,2,L|188:259,1,127.500004863739,2|0,3:2|1:1,1:2:0:0:
328,354,339000,5,2,3:3:0:0:
347,321,339107,1,0,0:0:0:0:
379,301,339214,1,8,2:1:0:0:
417,299,339322,1,2,2:3:0:0:
452,311,339429,1,0,3:3:0:0:
476,340,339536,1,0,0:0:0:0:
485,376,339643,2,0,L|504:228,1,127.500004863739,2|0,1:2|3:3,1:0:0:0:
484,217,339964,1,2,2:3:0:0:
446,206,340072,1,8,2:1:0:0:
418,179,340179,1,0,0:0:0:0:
412,141,340286,2,2,L|446:-17,1,127.500004863739,2|0,3:2|1:1,1:2:0:0:
174,133,340714,6,0,B|125:120|125:120|100:127|100:127|11:103,1,127.500004863739,2|8,3:1|2:1,1:2:0:0:
214,213,341036,2,2,L|235:338,1,127.500004863739,2|2,2:1|2:1,0:0:0:0:
288,160,341357,2,0,B|337:147|337:147|362:154|362:154|451:130,1,127.500004863739,2|0,1:2|3:3,3:2:0:0:
420,103,341679,1,2,2:1:0:0:
419,64,341786,1,8,2:1:0:0:
392,36,341893,1,0,0:0:0:0:
356,22,342000,2,0,L|219:-3,1,127.500004863739,2|4,3:1|1:1,1:2:0:0:
181,384,342429,6,0,L|318:359,1,127.500004863739,2|8,3:2|2:1,1:0:0:0:
335,335,342750,1,2,2:2:0:0:
345,298,342857,1,0,3:3:0:0:
329,262,342964,1,0,0:0:0:0:
293,246,343072,2,0,L|268:113,1,127.500004863739,2|0,1:3|3:3,3:0:0:0:
235,102,343393,1,2,2:3:0:0:
197,108,343500,1,8,2:1:0:0:
172,137,343607,1,0,0:0:0:0:
165,174,343714,1,2,3:3:0:0:
140,204,343822,1,0,0:0:0:0:
102,212,343929,1,0,1:1:0:0:
0,384,344143,5,2,3:2:0:0:
20,351,344250,1,0,0:0:0:0:
53,332,344357,1,8,2:1:0:0:
90,327,344464,2,0,L|225:353,1,127.500004863739,2|0,2:2|0:0,1:2:0:0:
247,330,344786,1,2,1:3:0:0:
266,296,344893,1,0,0:0:0:0:
266,257,345000,1,0,3:3:0:0:
280,221,345107,1,2,2:3:0:0:
307,194,345214,1,8,2:1:0:0:
345,188,345322,1,0,0:0:0:0:
382,193,345429,2,2,L|416:47,1,127.500004863739,2|0,3:2|1:1,1:2:0:0:
505,317,345857,5,6,3:2:0:0:
505,317,345964,1,0,0:0:0:0:
350,272,346179,1,2,2:2:0:0:
350,272,346286,1,0,3:3:0:0:
512,236,346500,1,6,1:2:0:0:
512,236,346607,1,0,0:0:0:0:
336,355,346822,1,2,2:3:0:0:
336,355,346929,1,8,2:1:0:0:
426,299,347143,5,2,3:2:0:0:
349,146,347572,5,6,1:1:0:0:
358,109,347679,1,0,3:3:0:0:
159,240,347893,1,2,1:1:0:0:
168,277,348000,1,0,3:3:0:0:
284,65,348214,5,6,2:1:0:0:
248,288,348429,1,2,3:1:0:0:
241,326,348536,1,2,2:2:0:0:
396,221,348750,1,2,3:1:0:0:
153,165,348964,1,2,3:1:0:0:
116,156,349072,2,0,L|100:237,1,63.7500024318696,4|0,1:1|0:0,0:0:0:0:
45,322,349286,6,0,L|188:292,1,127.500004863739,2|8,3:2|2:1,1:0:0:0:
173,257,349607,1,2,2:2:0:0:
198,228,349714,1,0,3:3:0:0:
235,218,349822,1,0,0:0:0:0:
270,232,349929,2,0,L|299:389,1,127.500004863739,2|0,1:3|3:3,3:0:0:0:
329,369,350250,1,2,2:3:0:0:
367,369,350357,1,8,2:1:0:0:
399,348,350464,1,0,0:0:0:0:
413,312,350572,1,2,3:3:0:0:
406,274,350679,1,0,0:0:0:0:
379,246,350786,1,0,1:1:0:0:
512,66,351000,5,2,3:2:0:0:
489,34,351107,1,0,0:0:0:0:
452,21,351214,1,8,2:1:0:0:
413,27,351322,2,0,L|442:176,1,127.500004863739,2|0,2:2|0:0,1:0:0:0:
400,160,351643,1,2,1:3:0:0:
369,136,351750,1,0,0:0:0:0:
333,122,351857,1,0,3:3:0:0:
294,123,351964,1,2,2:3:0:0:
297,84,352072,1,8,2:1:0:0:
279,49,352179,1,0,0:0:0:0:
246,29,352286,2,2,L|74:55,1,127.500004863739,2|0,3:2|1:1,1:2:0:0:
0,248,352714,5,2,3:3:0:0:
9,285,352822,1,0,0:0:0:0:
30,316,352929,1,8,2:1:0:0:
62,336,353036,1,2,2:3:0:0:
100,339,353143,1,0,3:3:0:0:
137,331,353250,1,0,0:0:0:0:
170,312,353357,2,0,L|198:172,1,127.500004863739,2|0,1:2|3:3,1:0:0:0:
167,159,353679,1,2,2:3:0:0:
130,147,353786,1,8,2:1:0:0:
93,157,353893,1,0,0:0:0:0:
69,187,354000,2,2,L|46:26,1,127.500004863739,2|0,3:2|1:1,1:2:0:0:
317,95,354429,6,0,L|351:277,1,127.500004863739,2|8,3:1|2:1,1:1:0:0:
297,8,354750,2,0,B|245:-3|245:-3|215:12|215:12|126:-5,1,127.500004863739,2|2,2:1|2:1,1:1:0:0:
390,50,355072,2,0,B|442:39|442:39|472:54|472:54|561:37,1,127.500004863739,2|0,1:2|3:3,3:2:0:0:
480,67,355393,1,2,2:1:0:0:
470,104,355500,1,8,2:1:0:0:
478,141,355607,1,0,0:0:0:0:
506,166,355714,2,0,L|492:237,1,63.7500024318696,2|0,3:1|0:0,1:0:0:0:
464,360,355929,5,4,1:1:0:0:
452,323,356036,1,0,3:3:0:0:
420,300,356143,1,2,3:2:0:0:
382,295,356250,1,0,3:3:0:0:
349,314,356357,1,8,3:1:0:0:
316,334,356464,1,2,3:2:0:0:
277,330,356572,1,0,3:3:0:0:
249,303,356679,1,0,3:3:0:0:
241,265,356786,1,2,1:3:0:0:
247,226,356893,1,0,3:3:0:0:
242,188,357000,1,0,3:3:0:0:
215,160,357107,1,2,3:3:0:0:
177,151,357214,1,8,3:1:0:0:
140,162,357322,1,0,3:3:0:0:
121,195,357429,2,0,L|133:254,1,42.5,2|0,3:3|3:3,0:0:0:0:
52,384,357643,5,4,1:1:0:0:
66,348,357750,1,0,3:3:0:0:
96,321,357857,1,2,3:2:0:0:
138,316,357964,1,0,3:3:0:0:
176,332,358072,1,8,3:1:0:0:
207,353,358179,1,2,3:2:0:0:
244,358,358286,1,0,3:3:0:0:
282,354,358393,1,0,3:3:0:0:
315,335,358500,1,2,1:3:0:0:
336,303,358607,1,0,3:3:0:0:
347,266,358714,1,0,3:3:0:0:
338,228,358822,1,2,3:3:0:0:
314,198,358929,1,8,3:1:0:0:
292,166,359036,1,0,3:3:0:0:
289,127,359143,2,0,L|345:111,1,42.5,2|0,3:2|3:3,0:0:0:0:
505,118,359357,5,4,1:1:0:0:
486,84,359464,1,0,3:3:0:0:
461,54,359572,1,2,3:2:0:0:
430,31,359679,1,0,3:3:0:0:
394,16,359786,1,8,3:1:0:0:
357,6,359893,1,2,3:2:0:0:
319,0,360000,1,0,3:3:0:0:
280,1,360107,1,0,3:3:0:0:
242,5,360214,1,2,1:2:0:0:
207,22,360322,1,0,3:3:0:0:
176,44,360429,1,0,3:3:0:0:
147,69,360536,1,2,3:3:0:0:
125,100,360643,1,8,3:1:0:0:
110,135,360750,1,0,3:3:0:0:
102,172,360857,2,0,L|109:229,1,42.5,2|0,3:2|3:3,0:0:0:0:
278,351,361072,5,4,1:1:0:0:
412,211,361286,1,2,1:1:0:0:
421,178,361393,1,4,3:2:0:0:
182,291,361607,1,2,1:1:0:0:
149,281,361714,1,0,3:3:0:0:
413,325,361929,5,6,2:1:0:0:
281,163,362143,1,2,3:1:0:0:
278,129,362250,1,6,2:2:0:0:
180,367,362464,1,2,3:1:0:0:
131,384,362572,1,0,1:1:0:0:
86,360,362679,1,2,3:1:0:0:
80,309,362786,1,4,1:1:0:0:
256,192,362893,12,0,366214,0:0:0:0:
