osu file format v14

[General]
AudioFilename: audio.mp3
AudioLeadIn: 0
PreviewTime: -1
Countdown: 1
SampleSet: None
StackLeniency: 0.7
Mode: 3
LetterboxInBreaks: 0
SpecialStyle: 0
WidescreenStoryboard: 1

[Editor]
DistanceSpacing: 1
BeatDivisor: 4
GridSize: 32
TimelineZoom: 1.2

[Metadata]
Title:Grisaille
TitleUnicode:Grisaille
Artist:SOUND HOLIC
ArtistUnicode:SOUND HOLIC
Creator:KhoalaBear
Version:Easy
Source:Sound Voltex/Museca
Tags:
BeatmapID:1428432
BeatmapSetID:675202

[Difficulty]
HPDrainRate:5
CircleSize:4
OverallDifficulty:5
ApproachRate:5
SliderMultiplier:1.4
SliderTickRate:1

[Events]
//Background and Video events
0,0,"grisaille pic.jpg",0,0
//Break Periods
//Storyboard Layer 0 (Background)
//Storyboard Layer 1 (Fail)
//Storyboard Layer 2 (Pass)
//Storyboard Layer 3 (Foreground)
//Storyboard Sound Samples

[TimingPoints]
651,306.122448979592,4,1,0,100,1,0
59196,-50,4,1,0,100,0,0
59273,-2000,4,1,0,100,0,0
59349,-50,4,1,0,100,0,0
59426,-2000,4,1,0,100,0,0
59656,-100,4,1,0,100,0,0
61798,-50,4,1,0,100,0,0
61875,-2000,4,1,0,100,0,0
61952,-50,4,1,0,100,0,0
62028,-2000,4,1,0,100,0,0
62258,-100,4,1,0,100,0,0

[HitObjects]
64,192,651,5,0,0:0:0:0:
448,192,651,1,0,0:0:0:0:
192,192,880,128,0,4094:0:0:0:0:
320,192,1263,1,0,0:0:0:0:
448,192,1645,1,0,0:0:0:0:
320,192,1952,1,0,0:0:0:0:
448,192,2258,1,0,0:0:0:0:
320,192,2564,1,0,0:0:0:0:
448,192,2870,1,0,0:0:0:0:
320,192,3176,1,0,0:0:0:0:
448,192,3482,1,0,0:0:0:0:
320,192,3788,1,0,0:0:0:0:
448,192,4094,1,0,0:0:0:0:
153,192,4401,1,0,0:0:0:0:
320,192,4554,128,0,5166:0:0:0:0:
192,192,5242,128,0,5625:0:0:0:0:
153,192,6084,1,0,0:0:0:0:
460,192,6390,1,0,0:0:0:0:
64,192,6696,1,0,0:0:0:0:
448,192,7232,1,0,0:0:0:0:
192,192,7538,1,0,0:0:0:0:
320,192,7768,1,0,0:0:0:0:
64,192,8380,1,0,0:0:0:0:
192,192,8533,1,0,0:0:0:0:
320,192,8686,1,0,0:0:0:0:
448,192,8839,1,0,0:0:0:0:
448,192,9145,1,0,0:0:0:0:
320,192,9145,1,0,0:0:0:0:
51,192,9528,128,0,9758:0:0:0:0:
460,192,9834,128,0,10064:0:0:0:0:
51,192,10217,1,0,0:0:0:0:
460,192,10370,1,0,0:0:0:0:
51,192,10676,1,0,0:0:0:0:
448,192,10676,1,0,0:0:0:0:
192,192,10982,1,0,0:0:0:0:
448,192,11288,1,0,0:0:0:0:
320,192,11594,1,0,0:0:0:0:
448,192,11901,1,0,0:0:0:0:
192,192,12207,1,0,0:0:0:0:
192,192,12513,1,0,0:0:0:0:
64,192,12972,1,0,0:0:0:0:
192,192,12972,1,0,0:0:0:0:
448,192,13125,1,0,0:0:0:0:
320,192,13125,1,0,0:0:0:0:
192,192,13431,1,0,0:0:0:0:
448,192,13737,1,0,0:0:0:0:
320,192,14043,1,0,0:0:0:0:
448,192,14349,1,0,0:0:0:0:
448,192,14656,1,0,0:0:0:0:
192,192,14962,1,0,0:0:0:0:
448,192,15421,1,0,0:0:0:0:
320,192,15421,1,0,0:0:0:0:
64,192,15574,1,0,0:0:0:0:
192,192,15574,1,0,0:0:0:0:
448,192,15880,1,0,0:0:0:0:
192,192,16033,1,0,0:0:0:0:
320,192,16186,1,0,0:0:0:0:
192,192,16339,1,0,0:0:0:0:
448,192,16492,1,0,0:0:0:0:
192,192,16645,1,0,0:0:0:0:
64,192,16798,1,0,0:0:0:0:
320,192,16952,1,0,0:0:0:0:
64,192,17105,1,0,0:0:0:0:
320,192,17258,1,0,0:0:0:0:
64,192,17411,1,0,0:0:0:0:
448,192,17564,1,0,0:0:0:0:
320,192,17640,1,0,0:0:0:0:
448,192,17717,1,0,0:0:0:0:
320,192,17793,1,0,0:0:0:0:
448,192,17870,1,0,0:0:0:0:
320,192,18023,128,0,18253:0:0:0:0:
448,192,18023,128,0,18253:0:0:0:0:
51,192,18329,1,0,0:0:0:0:
51,192,18482,1,0,0:0:0:0:
192,192,18635,1,0,0:0:0:0:
320,192,18788,1,0,0:0:0:0:
448,192,18941,1,0,0:0:0:0:
51,192,19247,1,0,0:0:0:0:
460,192,19247,1,0,0:0:0:0:
51,192,19554,1,0,0:0:0:0:
153,192,19554,1,0,0:0:0:0:
358,192,19860,1,0,0:0:0:0:
64,192,19860,1,0,0:0:0:0:
64,192,20166,1,0,0:0:0:0:
448,192,20166,1,0,0:0:0:0:
192,192,20472,1,0,0:0:0:0:
320,192,20548,1,0,0:0:0:0:
448,192,20625,1,0,0:0:0:0:
64,192,20625,128,0,21543:0:0:0:0:
448,192,20931,1,0,0:0:0:0:
448,192,21237,1,0,0:0:0:0:
448,192,21543,1,0,0:0:0:0:
320,192,21849,1,0,0:0:0:0:
448,192,21849,1,0,0:0:0:0:
192,192,22156,1,0,0:0:0:0:
320,192,22156,1,0,0:0:0:0:
64,192,22462,1,0,0:0:0:0:
320,192,22462,1,0,0:0:0:0:
192,192,22615,1,0,0:0:0:0:
320,192,23074,128,0,23380:0:0:0:0:
448,192,23074,128,0,23380:0:0:0:0:
192,192,23533,1,0,0:0:0:0:
64,192,23763,128,0,24222:0:0:0:0:
448,192,24222,1,0,0:0:0:0:
64,192,24605,1,0,0:0:0:0:
192,192,24605,128,0,24834:0:0:0:0:
448,192,24834,128,0,25140:0:0:0:0:
320,192,24834,1,0,0:0:0:0:
320,192,25140,1,0,0:0:0:0:
192,192,25446,128,0,27666:0:0:0:0:
64,192,25676,1,0,0:0:0:0:
320,192,25829,1,0,0:0:0:0:
448,192,25982,1,0,0:0:0:0:
320,192,26135,1,0,0:0:0:0:
64,192,26288,1,0,0:0:0:0:
320,192,26441,1,0,0:0:0:0:
448,192,26594,1,0,0:0:0:0:
320,192,26747,1,0,0:0:0:0:
64,192,26901,1,0,0:0:0:0:
448,192,27054,1,0,0:0:0:0:
320,192,27207,1,0,0:0:0:0:
448,192,27360,1,0,0:0:0:0:
320,192,27513,1,0,0:0:0:0:
64,192,27666,1,0,0:0:0:0:
64,192,27895,128,0,28508:0:0:0:0:
448,192,27895,128,0,28508:0:0:0:0:
320,192,28048,1,0,0:0:0:0:
192,192,28202,1,0,0:0:0:0:
320,192,28355,1,0,0:0:0:0:
192,192,28508,1,0,0:0:0:0:
320,192,28737,1,0,0:0:0:0:
192,192,28814,1,0,0:0:0:0:
320,192,28890,1,0,0:0:0:0:
64,192,29120,1,0,0:0:0:0:
320,192,29120,1,0,0:0:0:0:
192,192,29349,1,0,0:0:0:0:
448,192,29349,1,0,0:0:0:0:
320,192,29579,1,0,0:0:0:0:
64,192,29732,1,0,0:0:0:0:
320,192,29885,1,0,0:0:0:0:
320,192,30191,1,0,0:0:0:0:
192,192,30268,1,0,0:0:0:0:
448,192,30344,128,0,31263:0:0:0:0:
64,192,30344,1,0,0:0:0:0:
64,192,30651,1,0,0:0:0:0:
64,192,30957,1,0,0:0:0:0:
64,192,31263,1,0,0:0:0:0:
64,192,31645,1,0,0:0:0:0:
192,192,31645,1,0,0:0:0:0:
320,192,31952,1,0,0:0:0:0:
192,192,31952,1,0,0:0:0:0:
192,192,32258,1,0,0:0:0:0:
448,192,32258,1,0,0:0:0:0:
320,192,32411,1,0,0:0:0:0:
64,192,32793,128,0,33176:0:0:0:0:
192,192,32793,128,0,33176:0:0:0:0:
320,192,33329,1,0,0:0:0:0:
448,192,33482,128,0,33941:0:0:0:0:
64,192,34094,1,0,0:0:0:0:
192,192,34094,1,0,0:0:0:0:
320,192,34094,1,0,0:0:0:0:
192,192,34401,1,0,0:0:0:0:
320,192,34401,1,0,0:0:0:0:
448,192,34401,1,0,0:0:0:0:
64,192,34707,1,0,0:0:0:0:
192,192,34707,1,0,0:0:0:0:
320,192,35013,1,0,0:0:0:0:
448,192,35013,1,0,0:0:0:0:
320,192,35166,128,0,37156:0:0:0:0:
448,192,35472,1,0,0:0:0:0:
192,192,35625,1,0,0:0:0:0:
64,192,35778,1,0,0:0:0:0:
192,192,35931,1,0,0:0:0:0:
448,192,36084,1,0,0:0:0:0:
192,192,36237,1,0,0:0:0:0:
64,192,36390,1,0,0:0:0:0:
192,192,36543,1,0,0:0:0:0:
448,192,36696,1,0,0:0:0:0:
64,192,36849,1,0,0:0:0:0:
192,192,37003,1,0,0:0:0:0:
64,192,37156,1,0,0:0:0:0:
320,192,37309,1,0,0:0:0:0:
448,192,37462,1,0,0:0:0:0:
64,192,37615,128,0,38074:0:0:0:0:
320,192,37615,128,0,38074:0:0:0:0:
192,192,38074,1,0,0:0:0:0:
448,192,38227,1,0,0:0:0:0:
64,192,38457,1,0,0:0:0:0:
192,192,38457,128,0,38839:0:0:0:0:
320,192,38839,128,0,39834:0:0:0:0:
448,192,38839,128,0,39834:0:0:0:0:
64,192,39069,1,0,0:0:0:0:
64,192,39222,1,0,0:0:0:0:
192,192,39375,1,0,0:0:0:0:
192,192,39528,1,0,0:0:0:0:
64,192,39681,1,0,0:0:0:0:
64,192,39834,1,0,0:0:0:0:
320,192,40217,1,0,0:0:0:0:
448,192,40217,1,0,0:0:0:0:
320,192,40370,1,0,0:0:0:0:
448,192,40370,1,0,0:0:0:0:
64,192,40676,1,0,0:0:0:0:
192,192,40676,1,0,0:0:0:0:
64,192,40829,1,0,0:0:0:0:
192,192,40829,1,0,0:0:0:0:
192,192,41135,1,0,0:0:0:0:
448,192,41135,1,0,0:0:0:0:
64,192,41288,1,0,0:0:0:0:
320,192,41288,1,0,0:0:0:0:
64,192,41594,1,0,0:0:0:0:
320,192,41594,1,0,0:0:0:0:
192,192,41747,1,0,0:0:0:0:
448,192,41747,1,0,0:0:0:0:
64,192,42054,128,0,42513:0:0:0:0:
192,192,42054,128,0,42513:0:0:0:0:
320,192,42054,128,0,42513:0:0:0:0:
448,192,42054,128,0,42513:0:0:0:0:
192,192,42666,1,0,0:0:0:0:
448,192,42666,1,0,0:0:0:0:
192,192,42819,1,0,0:0:0:0:
448,192,42819,1,0,0:0:0:0:
320,192,43125,1,0,0:0:0:0:
64,192,43125,1,0,0:0:0:0:
64,192,43278,1,0,0:0:0:0:
320,192,43278,1,0,0:0:0:0:
192,192,43584,1,0,0:0:0:0:
320,192,43584,1,0,0:0:0:0:
64,192,43737,1,0,0:0:0:0:
448,192,43737,1,0,0:0:0:0:
64,192,44043,1,0,0:0:0:0:
448,192,44043,1,0,0:0:0:0:
192,192,44196,1,0,0:0:0:0:
320,192,44196,1,0,0:0:0:0:
64,192,44503,128,0,44962:0:0:0:0:
192,192,44503,128,0,44962:0:0:0:0:
320,192,44503,128,0,44962:0:0:0:0:
448,192,44503,128,0,44962:0:0:0:0:
192,192,45421,1,0,0:0:0:0:
448,192,45421,1,0,0:0:0:0:
64,192,45727,1,0,0:0:0:0:
320,192,45727,1,0,0:0:0:0:
192,192,46033,1,0,0:0:0:0:
448,192,46033,1,0,0:0:0:0:
64,192,46339,1,0,0:0:0:0:
320,192,46339,1,0,0:0:0:0:
192,192,46645,1,0,0:0:0:0:
448,192,46645,1,0,0:0:0:0:
64,192,46952,1,0,0:0:0:0:
320,192,46952,1,0,0:0:0:0:
192,192,47258,1,0,0:0:0:0:
448,192,47258,1,0,0:0:0:0:
192,192,47564,1,0,0:0:0:0:
320,192,47564,1,0,0:0:0:0:
64,192,47870,1,0,0:0:0:0:
192,192,47870,1,0,0:0:0:0:
320,192,48023,1,0,0:0:0:0:
448,192,48023,1,0,0:0:0:0:
192,192,48329,1,0,0:0:0:0:
320,192,48329,1,0,0:0:0:0:
64,192,48559,128,0,49094:0:0:0:0:
448,192,48559,128,0,49094:0:0:0:0:
192,192,48941,1,0,0:0:0:0:
320,192,49094,1,0,0:0:0:0:
192,192,49324,1,0,0:0:0:0:
320,192,49477,1,0,0:0:0:0:
448,192,49477,1,0,0:0:0:0:
64,192,49783,1,0,0:0:0:0:
320,192,49783,128,0,50242:0:0:0:0:
448,192,50242,1,0,0:0:0:0:
192,192,50625,1,0,0:0:0:0:
64,192,50931,1,0,0:0:0:0:
192,192,50931,1,0,0:0:0:0:
320,192,51237,1,0,0:0:0:0:
64,192,51390,1,0,0:0:0:0:
192,192,51543,1,0,0:0:0:0:
448,192,51543,1,0,0:0:0:0:
320,192,51696,1,0,0:0:0:0:
320,192,52003,1,0,0:0:0:0:
192,192,52156,1,0,0:0:0:0:
448,192,52156,1,0,0:0:0:0:
64,192,52462,1,0,0:0:0:0:
64,192,52768,1,0,0:0:0:0:
192,192,52768,1,0,0:0:0:0:
448,192,53074,1,0,0:0:0:0:
320,192,53380,1,0,0:0:0:0:
448,192,53380,1,0,0:0:0:0:
192,192,53610,1,0,0:0:0:0:
320,192,53763,1,0,0:0:0:0:
64,192,53916,1,0,0:0:0:0:
448,192,53916,1,0,0:0:0:0:
192,192,54069,1,0,0:0:0:0:
320,192,54069,1,0,0:0:0:0:
192,192,54375,1,0,0:0:0:0:
320,192,54375,1,0,0:0:0:0:
64,192,54528,1,0,0:0:0:0:
448,192,54528,1,0,0:0:0:0:
192,192,54911,1,0,0:0:0:0:
64,192,55217,1,0,0:0:0:0:
192,192,55217,1,0,0:0:0:0:
320,192,55523,1,0,0:0:0:0:
320,192,55829,1,0,0:0:0:0:
448,192,55829,1,0,0:0:0:0:
192,192,56135,1,0,0:0:0:0:
448,192,56288,1,0,0:0:0:0:
64,192,56441,1,0,0:0:0:0:
320,192,56441,1,0,0:0:0:0:
320,192,56594,128,0,56977:0:0:0:0:
448,192,56977,1,0,0:0:0:0:
64,192,57130,128,0,58048:0:0:0:0:
192,192,57283,1,0,0:0:0:0:
192,192,57436,1,0,0:0:0:0:
320,192,57589,1,0,0:0:0:0:
320,192,57742,1,0,0:0:0:0:
448,192,57895,1,0,0:0:0:0:
448,192,58048,1,0,0:0:0:0:
192,192,58278,1,0,0:0:0:0:
320,192,58431,128,0,58814:0:0:0:0:
448,192,58431,128,0,58814:0:0:0:0:
64,192,58890,1,0,0:0:0:0:
448,192,58967,1,0,0:0:0:0:
64,192,59043,1,0,0:0:0:0:
448,192,59120,1,0,0:0:0:0:
64,192,59196,128,0,60115:0:0:0:0:
192,192,59349,128,0,60115:0:0:0:0:
320,192,59656,128,0,60115:0:0:0:0:
448,192,60115,1,0,0:0:0:0:
64,192,60344,1,0,0:0:0:0:
192,192,60344,1,0,0:0:0:0:
192,192,60574,1,0,0:0:0:0:
320,192,60574,1,0,0:0:0:0:
320,192,60880,1,0,0:0:0:0:
448,192,60880,1,0,0:0:0:0:
320,192,61033,128,0,61492:0:0:0:0:
448,192,61033,128,0,61492:0:0:0:0:
64,192,61339,1,0,0:0:0:0:
192,192,61492,1,0,0:0:0:0:
448,192,61798,128,0,62564:0:0:0:0:
320,192,61952,128,0,62564:0:0:0:0:
192,192,62258,128,0,62564:0:0:0:0:
64,192,62564,1,0,0:0:0:0:
320,192,62870,1,0,0:0:0:0:
192,192,62870,1,0,0:0:0:0:
64,192,63099,1,0,0:0:0:0:
320,192,63099,1,0,0:0:0:0:
192,192,63329,1,0,0:0:0:0:
64,192,63482,128,0,63788:0:0:0:0:
320,192,63482,128,0,63788:0:0:0:0:
448,192,63788,1,0,0:0:0:0:
192,192,63941,1,0,0:0:0:0:
320,192,64094,128,0,64401:0:0:0:0:
64,192,64401,1,0,0:0:0:0:
448,192,64477,1,0,0:0:0:0:
192,192,64554,1,0,0:0:0:0:
320,192,64630,1,0,0:0:0:0:
64,192,64707,128,0,65013:0:0:0:0:
448,192,65013,1,0,0:0:0:0:
192,192,65166,1,0,0:0:0:0:
320,192,65319,128,0,65625:0:0:0:0:
64,192,65625,1,0,0:0:0:0:
448,192,65778,1,0,0:0:0:0:
192,192,65931,128,0,66237:0:0:0:0:
320,192,66237,1,0,0:0:0:0:
64,192,66390,1,0,0:0:0:0:
448,192,66543,128,0,66849:0:0:0:0:
192,192,66849,1,0,0:0:0:0:
320,192,67003,1,0,0:0:0:0:
64,192,67156,128,0,67462:0:0:0:0:
448,192,67462,1,0,0:0:0:0:
192,192,67615,1,0,0:0:0:0:
320,192,67768,128,0,68074:0:0:0:0:
64,192,68074,1,0,0:0:0:0:
448,192,68227,1,0,0:0:0:0:
64,192,68380,128,0,68686:0:0:0:0:
320,192,68380,128,0,68686:0:0:0:0:
192,192,68916,1,0,0:0:0:0:
320,192,69069,1,0,0:0:0:0:
448,192,69069,1,0,0:0:0:0:
64,192,69222,1,0,0:0:0:0:
320,192,69375,1,0,0:0:0:0:
448,192,69375,1,0,0:0:0:0:
192,192,69528,1,0,0:0:0:0:
320,192,69758,1,0,0:0:0:0:
192,192,69911,1,0,0:0:0:0:
64,192,70064,1,0,0:0:0:0:
448,192,70217,1,0,0:0:0:0:
320,192,70370,1,0,0:0:0:0:
192,192,70523,1,0,0:0:0:0:
320,192,70676,1,0,0:0:0:0:
64,192,70829,1,0,0:0:0:0:
448,192,70982,1,0,0:0:0:0:
192,192,71135,1,0,0:0:0:0:
320,192,71288,1,0,0:0:0:0:
448,192,71441,1,0,0:0:0:0:
192,192,71594,1,0,0:0:0:0:
64,192,71747,1,0,0:0:0:0:
448,192,71747,1,0,0:0:0:0:
64,192,71901,1,0,0:0:0:0:
448,192,71901,1,0,0:0:0:0:
320,192,72130,1,0,0:0:0:0:
192,192,72283,1,0,0:0:0:0:
64,192,72436,1,0,0:0:0:0:
448,192,72589,1,0,0:0:0:0:
320,192,72742,1,0,0:0:0:0:
192,192,72895,1,0,0:0:0:0:
320,192,73048,1,0,0:0:0:0:
64,192,73202,1,0,0:0:0:0:
448,192,73355,1,0,0:0:0:0:
192,192,73508,1,0,0:0:0:0:
320,192,73661,1,0,0:0:0:0:
448,192,73814,1,0,0:0:0:0:
192,192,73967,1,0,0:0:0:0:
64,192,74120,1,0,0:0:0:0:
448,192,74120,1,0,0:0:0:0:
64,192,74273,1,0,0:0:0:0:
448,192,74273,1,0,0:0:0:0:
192,192,74579,1,0,0:0:0:0:
320,192,74579,1,0,0:0:0:0:
64,192,74732,1,0,0:0:0:0:
448,192,74732,1,0,0:0:0:0:
192,192,74885,1,0,0:0:0:0:
320,192,74885,1,0,0:0:0:0:
64,192,75038,1,0,0:0:0:0:
448,192,75191,1,0,0:0:0:0:
320,192,75191,1,0,0:0:0:0:
64,192,75344,1,0,0:0:0:0:
448,192,75497,1,0,0:0:0:0:
64,192,75651,1,0,0:0:0:0:
320,192,75804,1,0,0:0:0:0:
448,192,75804,1,0,0:0:0:0:
64,192,75957,1,0,0:0:0:0:
320,192,76110,1,0,0:0:0:0:
64,192,76263,1,0,0:0:0:0:
192,192,76263,1,0,0:0:0:0:
320,192,76416,1,0,0:0:0:0:
448,192,76416,1,0,0:0:0:0:
64,192,76569,1,0,0:0:0:0:
192,192,76569,1,0,0:0:0:0:
320,192,76722,1,0,0:0:0:0:
448,192,76722,1,0,0:0:0:0:
448,192,77028,1,0,0:0:0:0:
320,192,77181,1,0,0:0:0:0:
192,192,77334,1,0,0:0:0:0:
64,192,77487,1,0,0:0:0:0:
192,192,77640,1,0,0:0:0:0:
320,192,77717,1,0,0:0:0:0:
448,192,77793,1,0,0:0:0:0:
320,192,77870,1,0,0:0:0:0:
192,192,77946,1,0,0:0:0:0:
64,192,78023,1,0,0:0:0:0:
320,192,78023,1,0,0:0:0:0:
192,192,78253,1,0,0:0:0:0:
448,192,78253,1,0,0:0:0:0:
192,192,78559,1,0,0:0:0:0:
320,192,78559,1,0,0:0:0:0:
64,192,78941,1,0,0:0:0:0:
448,192,78941,1,0,0:0:0:0:
64,192,79401,1,0,0:0:0:0:
192,192,79477,1,0,0:0:0:0:
448,192,79554,1,0,0:0:0:0:
448,192,79860,1,0,0:0:0:0:
320,192,79936,1,0,0:0:0:0:
64,192,80013,1,0,0:0:0:0:
64,192,80319,1,0,0:0:0:0:
192,192,80395,1,0,0:0:0:0:
448,192,80472,1,0,0:0:0:0:
192,192,80778,1,0,0:0:0:0:
320,192,80855,1,0,0:0:0:0:
448,192,80931,1,0,0:0:0:0:
320,192,81237,1,0,0:0:0:0:
192,192,81314,1,0,0:0:0:0:
64,192,81390,1,0,0:0:0:0:
64,192,81696,1,0,0:0:0:0:
192,192,81773,1,0,0:0:0:0:
320,192,81849,1,0,0:0:0:0:
448,192,81926,1,0,0:0:0:0:
448,192,82156,1,0,0:0:0:0:
320,192,82232,1,0,0:0:0:0:
448,192,82309,1,0,0:0:0:0:
64,192,82462,1,0,0:0:0:0:
192,192,82538,1,0,0:0:0:0:
64,192,82615,1,0,0:0:0:0:
448,192,82768,1,0,0:0:0:0:
320,192,82844,1,0,0:0:0:0:
448,192,82921,1,0,0:0:0:0:
320,192,83074,1,0,0:0:0:0:
192,192,83151,1,0,0:0:0:0:
64,192,83227,1,0,0:0:0:0:
320,192,83304,1,0,0:0:0:0:
192,192,83380,1,0,0:0:0:0:
64,192,83457,1,0,0:0:0:0:
320,192,83686,128,0,84069:0:0:0:0:
448,192,83686,128,0,84069:0:0:0:0:
64,192,84145,128,0,84375:0:0:0:0:
192,192,84375,1,0,0:0:0:0:
320,192,84452,1,0,0:0:0:0:
448,192,84528,1,0,0:0:0:0:
320,192,84605,1,0,0:0:0:0:
192,192,84681,1,0,0:0:0:0:
64,192,84758,1,0,0:0:0:0:
192,192,84834,1,0,0:0:0:0:
320,192,84911,1,0,0:0:0:0:
448,192,84987,1,0,0:0:0:0:
64,192,85064,1,0,0:0:0:0:
192,192,85140,1,0,0:0:0:0:
320,192,85217,1,0,0:0:0:0:
448,192,85293,1,0,0:0:0:0:
448,192,85446,1,0,0:0:0:0:
320,192,85523,1,0,0:0:0:0:
192,192,85599,1,0,0:0:0:0:
64,192,85676,1,0,0:0:0:0:
192,192,85753,1,0,0:0:0:0:
320,192,85829,1,0,0:0:0:0:
448,192,85906,1,0,0:0:0:0:
320,192,85982,1,0,0:0:0:0:
192,192,86059,1,0,0:0:0:0:
64,192,86135,1,0,0:0:0:0:
448,192,86212,1,0,0:0:0:0:
320,192,86288,1,0,0:0:0:0:
192,192,86365,1,0,0:0:0:0:
64,192,86441,1,0,0:0:0:0:
192,192,86671,1,0,0:0:0:0:
320,192,86747,1,0,0:0:0:0:
192,192,86824,1,0,0:0:0:0:
320,192,86901,1,0,0:0:0:0:
64,192,86977,1,0,0:0:0:0:
448,192,87054,1,0,0:0:0:0:
64,192,87130,1,0,0:0:0:0:
448,192,87207,1,0,0:0:0:0:
192,192,87283,1,0,0:0:0:0:
320,192,87360,1,0,0:0:0:0:
192,192,87436,1,0,0:0:0:0:
320,192,87513,1,0,0:0:0:0:
64,192,87589,1,0,0:0:0:0:
448,192,87666,1,0,0:0:0:0:
64,192,87742,1,0,0:0:0:0:
448,192,87819,1,0,0:0:0:0:
192,192,88048,128,0,88737:0:0:0:0:
320,192,88048,128,0,88737:0:0:0:0:
64,192,88584,1,0,0:0:0:0:
448,192,88737,1,0,0:0:0:0:
64,192,89120,128,0,89579:0:0:0:0:
192,192,89809,1,0,0:0:0:0:
448,192,89962,1,0,0:0:0:0:
320,192,90115,1,0,0:0:0:0:
64,192,90268,1,0,0:0:0:0:
192,192,90421,128,0,90880:0:0:0:0:
320,192,91033,1,0,0:0:0:0:
64,192,91186,1,0,0:0:0:0:
192,192,91339,1,0,0:0:0:0:
320,192,91492,1,0,0:0:0:0:
448,192,91645,128,0,92105:0:0:0:0:
64,192,92258,1,0,0:0:0:0:
320,192,92411,1,0,0:0:0:0:
448,192,92564,1,0,0:0:0:0:
320,192,92717,1,0,0:0:0:0:
64,192,92870,128,0,93329:0:0:0:0:
448,192,93482,1,0,0:0:0:0:
192,192,93635,1,0,0:0:0:0:
448,192,93788,1,0,0:0:0:0:
64,192,93941,1,0,0:0:0:0:
192,192,94094,1,0,0:0:0:0:
320,192,94094,1,0,0:0:0:0:
192,192,94401,1,0,0:0:0:0:
320,192,94401,1,0,0:0:0:0:
448,192,94401,1,0,0:0:0:0:
64,192,94707,1,0,0:0:0:0:
448,192,94707,1,0,0:0:0:0:
320,192,95013,1,0,0:0:0:0:
64,192,95013,1,0,0:0:0:0:
192,192,95013,1,0,0:0:0:0:
320,192,95319,1,0,0:0:0:0:
64,192,95319,1,0,0:0:0:0:
448,192,95625,1,0,0:0:0:0:
192,192,95625,1,0,0:0:0:0:
64,192,95625,1,0,0:0:0:0:
192,192,95931,1,0,0:0:0:0:
448,192,95931,1,0,0:0:0:0:
448,192,96161,1,0,0:0:0:0:
320,192,96161,1,0,0:0:0:0:
64,192,96161,1,0,0:0:0:0:
64,192,96390,128,0,97156:0:0:0:0:
192,192,96390,128,0,97156:0:0:0:0:
320,192,96696,1,0,0:0:0:0:
448,192,96696,1,0,0:0:0:0:
320,192,96849,1,0,0:0:0:0:
448,192,96849,1,0,0:0:0:0:
320,192,97003,1,0,0:0:0:0:
448,192,97003,1,0,0:0:0:0:
320,192,97156,1,0,0:0:0:0:
448,192,97156,1,0,0:0:0:0:
320,192,97385,1,0,0:0:0:0:
64,192,97538,1,0,0:0:0:0:
448,192,97691,128,0,97997:0:0:0:0:
64,192,98074,1,0,0:0:0:0:
320,192,98151,1,0,0:0:0:0:
64,192,98227,1,0,0:0:0:0:
320,192,98304,1,0,0:0:0:0:
64,192,98380,1,0,0:0:0:0:
192,192,98380,1,0,0:0:0:0:
320,192,98533,1,0,0:0:0:0:
448,192,98533,1,0,0:0:0:0:
320,192,98763,128,0,99298:0:0:0:0:
448,192,98763,128,0,99298:0:0:0:0:
64,192,99298,1,0,0:0:0:0:
320,192,99605,1,0,0:0:0:0:
448,192,99911,1,0,0:0:0:0:
64,192,99911,1,0,0:0:0:0:
192,192,100217,1,0,0:0:0:0:
320,192,100370,1,0,0:0:0:0:
64,192,100523,1,0,0:0:0:0:
192,192,100523,1,0,0:0:0:0:
320,192,100676,1,0,0:0:0:0:
320,192,100906,1,0,0:0:0:0:
64,192,101135,1,0,0:0:0:0:
192,192,101135,1,0,0:0:0:0:
320,192,101441,1,0,0:0:0:0:
64,192,101747,1,0,0:0:0:0:
448,192,101747,1,0,0:0:0:0:
192,192,102054,1,0,0:0:0:0:
64,192,102360,1,0,0:0:0:0:
448,192,102360,1,0,0:0:0:0:
320,192,102666,1,0,0:0:0:0:
192,192,102819,1,0,0:0:0:0:
320,192,102972,1,0,0:0:0:0:
448,192,102972,1,0,0:0:0:0:
192,192,103202,1,0,0:0:0:0:
192,192,103431,1,0,0:0:0:0:
320,192,103584,1,0,0:0:0:0:
192,192,103661,1,0,0:0:0:0:
448,192,103737,1,0,0:0:0:0:
64,192,103814,1,0,0:0:0:0:
320,192,103890,128,0,104196:0:0:0:0:
192,192,104196,1,0,0:0:0:0:
448,192,104349,1,0,0:0:0:0:
64,192,104503,128,0,104809:0:0:0:0:
320,192,104809,1,0,0:0:0:0:
448,192,104962,1,0,0:0:0:0:
192,192,105115,128,0,105421:0:0:0:0:
320,192,105421,1,0,0:0:0:0:
64,192,105574,1,0,0:0:0:0:
448,192,105727,128,0,106033:0:0:0:0:
192,192,106033,1,0,0:0:0:0:
320,192,106186,1,0,0:0:0:0:
64,192,106339,128,0,106645:0:0:0:0:
448,192,106645,1,0,0:0:0:0:
192,192,106798,1,0,0:0:0:0:
320,192,106952,128,0,107258:0:0:0:0:
64,192,107258,1,0,0:0:0:0:
448,192,107411,1,0,0:0:0:0:
192,192,107564,128,0,107870:0:0:0:0:
448,192,107870,1,0,0:0:0:0:
320,192,108023,1,0,0:0:0:0:
192,192,108176,1,0,0:0:0:0:
448,192,108329,1,0,0:0:0:0:
192,192,108482,1,0,0:0:0:0:
448,192,108635,128,0,108941:0:0:0:0:
320,192,108941,1,0,0:0:0:0:
192,192,109094,1,0,0:0:0:0:
64,192,109247,1,0,0:0:0:0:
448,192,109401,1,0,0:0:0:0:
320,192,109554,1,0,0:0:0:0:
192,192,109707,1,0,0:0:0:0:
320,192,109860,1,0,0:0:0:0:
64,192,110013,1,0,0:0:0:0:
448,192,110166,1,0,0:0:0:0:
192,192,110319,1,0,0:0:0:0:
320,192,110472,1,0,0:0:0:0:
448,192,110625,1,0,0:0:0:0:
192,192,110778,1,0,0:0:0:0:
64,192,110931,1,0,0:0:0:0:
448,192,110931,1,0,0:0:0:0:
64,192,111084,1,0,0:0:0:0:
448,192,111084,1,0,0:0:0:0:
320,192,111314,1,0,0:0:0:0:
192,192,111467,1,0,0:0:0:0:
64,192,111620,1,0,0:0:0:0:
448,192,111773,1,0,0:0:0:0:
320,192,111926,1,0,0:0:0:0:
192,192,112079,1,0,0:0:0:0:
320,192,112232,1,0,0:0:0:0:
64,192,112385,1,0,0:0:0:0:
448,192,112538,1,0,0:0:0:0:
192,192,112691,1,0,0:0:0:0:
320,192,112844,1,0,0:0:0:0:
448,192,112997,1,0,0:0:0:0:
192,192,113151,1,0,0:0:0:0:
64,192,113304,1,0,0:0:0:0:
448,192,113304,1,0,0:0:0:0:
64,192,113457,1,0,0:0:0:0:
448,192,113457,1,0,0:0:0:0:
448,192,113686,1,0,0:0:0:0:
192,192,113839,1,0,0:0:0:0:
320,192,113992,1,0,0:0:0:0:
192,192,114145,1,0,0:0:0:0:
448,192,114298,1,0,0:0:0:0:
192,192,114452,1,0,0:0:0:0:
64,192,114605,1,0,0:0:0:0:
320,192,114758,1,0,0:0:0:0:
64,192,114911,1,0,0:0:0:0:
320,192,115064,1,0,0:0:0:0:
64,192,115217,1,0,0:0:0:0:
320,192,115370,1,0,0:0:0:0:
448,192,115523,1,0,0:0:0:0:
64,192,115676,1,0,0:0:0:0:
192,192,115829,1,0,0:0:0:0:
320,192,115982,1,0,0:0:0:0:
64,192,116288,1,0,0:0:0:0:
64,192,116441,1,0,0:0:0:0:
192,192,116594,1,0,0:0:0:0:
320,192,116747,1,0,0:0:0:0:
448,192,116901,1,0,0:0:0:0:
320,192,116977,1,0,0:0:0:0:
192,192,117054,1,0,0:0:0:0:
64,192,117130,1,0,0:0:0:0:
192,192,117207,1,0,0:0:0:0:
320,192,117207,1,0,0:0:0:0:
64,192,117513,1,0,0:0:0:0:
192,192,117513,1,0,0:0:0:0:
320,192,117819,1,0,0:0:0:0:
448,192,117819,1,0,0:0:0:0:
64,192,118125,1,0,0:0:0:0:
448,192,118125,1,0,0:0:0:0:
64,192,118431,1,0,0:0:0:0:
192,192,118508,1,0,0:0:0:0:
320,192,118584,1,0,0:0:0:0:
448,192,118737,1,0,0:0:0:0:
320,192,118890,1,0,0:0:0:0:
64,192,119043,1,0,0:0:0:0:
320,192,119196,1,0,0:0:0:0:
192,192,119349,1,0,0:0:0:0:
448,192,119503,1,0,0:0:0:0:
320,192,119656,1,0,0:0:0:0:
64,192,119809,1,0,0:0:0:0:
320,192,119962,1,0,0:0:0:0:
192,192,120115,1,0,0:0:0:0:
448,192,120268,1,0,0:0:0:0:
192,192,120421,1,0,0:0:0:0:
64,192,120574,1,0,0:0:0:0:
320,192,120727,1,0,0:0:0:0:
448,192,120727,1,0,0:0:0:0:
64,192,120880,1,0,0:0:0:0:
192,192,120880,1,0,0:0:0:0:
