osu file format v14

[General]
AudioFilename: audio.mp3
AudioLeadIn: 0
PreviewTime: 150122
Countdown: 0
SampleSet: Soft
StackLeniency: 0.7
Mode: 3
LetterboxInBreaks: 0
SpecialStyle: 0
WidescreenStoryboard: 1

[Editor]
Bookmarks: 7622,19622,42122,54122,66122,78122,102122,114122,126122,138122,162122,186122,198122,222122
DistanceSpacing: 1.2
BeatDivisor: 4
GridSize: 8
TimelineZoom: 1.2

[Metadata]
Title:Grip & Break down!!
TitleUnicode:Grip & Break down!!
Artist:SOUND HOLIC
ArtistUnicode:SOUND HOLIC
Creator:EYA-
Version:BREAK DOWN!!
Source:
Tags:
BeatmapID:1294831
BeatmapSetID:613759

[Difficulty]
HPDrainRate:8.5
CircleSize:4
OverallDifficulty:8
ApproachRate:5
SliderMultiplier:1.4
SliderTickRate:1

[Events]
//Background and Video events
0,0,"bg.png",0,0
//Break Periods
2,78322,184922
2,198322,229922
//Storyboard Layer 0 (Background)
//Storyboard Layer 1 (Fail)
//Storyboard Layer 2 (Pass)
//Storyboard Layer 3 (Foreground)
//Storyboard Sound Samples

[TimingPoints]
1622,375,4,2,0,30,1,0
78122,-100,4,2,0,30,0,1
102122,-100,4,2,0,30,0,0
138122,-100,4,2,0,30,0,1
162122,-100,4,2,0,30,0,0

[HitObjects]
192,192,1434,5,0,0:0:0:0:
448,192,1434,1,0,0:0:0:0:
64,192,1622,128,0,1715:0:0:0:0:
320,192,1622,128,0,1715:0:0:0:0:
320,192,1809,128,0,1903:0:0:0:0:
64,192,1809,128,0,1903:0:0:0:0:
448,192,1997,128,0,2184:0:0:0:0:
192,192,1997,128,0,2184:0:0:0:0:
320,192,2184,128,0,2278:0:0:0:0:
64,192,2184,128,0,2278:0:0:0:0:
64,192,2372,128,0,2465:0:0:0:0:
320,192,2372,128,0,2465:0:0:0:0:
192,192,2559,128,0,2747:0:0:0:0:
448,192,2559,128,0,2747:0:0:0:0:
320,192,2747,128,0,2840:0:0:0:0:
64,192,2747,128,0,2840:0:0:0:0:
448,192,2934,128,0,3122:0:0:0:0:
192,192,2934,128,0,3122:0:0:0:0:
320,192,3122,128,0,3215:0:0:0:0:
64,192,3122,128,0,3215:0:0:0:0:
64,192,3309,128,0,3403:0:0:0:0:
320,192,3309,128,0,3403:0:0:0:0:
192,192,3497,128,0,3684:0:0:0:0:
448,192,3497,128,0,3684:0:0:0:0:
320,192,3684,128,0,3778:0:0:0:0:
64,192,3684,128,0,3778:0:0:0:0:
448,192,3872,128,0,3965:0:0:0:0:
192,192,3872,128,0,3965:0:0:0:0:
320,192,4059,128,0,4434:0:0:0:0:
64,192,4059,128,0,4434:0:0:0:0:
192,192,4434,1,0,0:0:0:0:
448,192,4434,1,0,0:0:0:0:
320,192,4528,1,0,0:0:0:0:
64,192,4528,1,0,0:0:0:0:
192,192,4622,128,0,4715:0:0:0:0:
448,192,4622,128,0,4715:0:0:0:0:
192,192,4809,128,0,4903:0:0:0:0:
448,192,4809,128,0,4903:0:0:0:0:
320,192,4997,128,0,5184:0:0:0:0:
64,192,4997,128,0,5184:0:0:0:0:
448,192,5184,128,0,5278:0:0:0:0:
192,192,5184,128,0,5278:0:0:0:0:
448,192,5372,128,0,5465:0:0:0:0:
192,192,5372,128,0,5465:0:0:0:0:
320,192,5559,128,0,5747:0:0:0:0:
64,192,5559,128,0,5747:0:0:0:0:
192,192,5747,128,0,5840:0:0:0:0:
448,192,5747,128,0,5840:0:0:0:0:
192,192,5934,128,0,6122:0:0:0:0:
448,192,5934,128,0,6122:0:0:0:0:
64,192,6122,1,0,0:0:0:0:
320,192,6122,1,0,0:0:0:0:
192,192,6215,1,0,0:0:0:0:
320,192,6309,1,0,0:0:0:0:
448,192,6403,1,0,0:0:0:0:
64,192,6403,1,0,0:0:0:0:
192,192,6403,1,0,0:0:0:0:
320,192,6497,1,0,0:0:0:0:
448,192,6590,1,0,0:0:0:0:
320,192,6684,1,0,0:0:0:0:
64,192,6684,1,0,0:0:0:0:
192,192,6778,1,0,0:0:0:0:
448,192,6872,1,0,0:0:0:0:
64,192,6872,1,0,0:0:0:0:
192,192,6965,1,0,0:0:0:0:
320,192,6965,1,0,0:0:0:0:
64,192,7059,1,0,0:0:0:0:
448,192,7059,1,0,0:0:0:0:
320,192,7153,1,0,0:0:0:0:
192,192,7153,1,0,0:0:0:0:
448,192,7340,1,0,0:0:0:0:
192,192,7340,1,0,0:0:0:0:
64,192,7434,1,0,0:0:0:0:
320,192,7434,1,0,0:0:0:0:
192,192,7528,1,0,0:0:0:0:
448,192,7528,1,0,0:0:0:0:
320,192,7622,1,0,0:0:0:0:
64,192,7622,1,0,0:0:0:0:
448,192,7809,1,0,0:0:0:0:
192,192,7809,1,0,0:0:0:0:
320,192,7903,1,0,0:0:0:0:
64,192,7997,1,0,0:0:0:0:
192,192,7997,1,0,0:0:0:0:
448,192,8090,1,0,0:0:0:0:
320,192,8090,1,0,0:0:0:0:
192,192,8184,1,0,0:0:0:0:
64,192,8278,1,0,0:0:0:0:
448,192,8372,1,0,0:0:0:0:
320,192,8372,1,0,0:0:0:0:
192,192,8465,1,0,0:0:0:0:
64,192,8559,1,0,0:0:0:0:
320,192,8559,1,0,0:0:0:0:
448,192,8653,1,0,0:0:0:0:
64,192,8747,1,0,0:0:0:0:
192,192,8747,1,0,0:0:0:0:
320,192,8840,1,0,0:0:0:0:
448,192,8934,1,0,0:0:0:0:
64,192,8934,1,0,0:0:0:0:
192,192,9028,1,0,0:0:0:0:
320,192,9122,1,0,0:0:0:0:
64,192,9122,1,0,0:0:0:0:
448,192,9215,1,0,0:0:0:0:
320,192,9309,1,0,0:0:0:0:
192,192,9309,1,0,0:0:0:0:
64,192,9403,1,0,0:0:0:0:
448,192,9497,1,0,0:0:0:0:
320,192,9497,1,0,0:0:0:0:
192,192,9590,1,0,0:0:0:0:
64,192,9590,1,0,0:0:0:0:
320,192,9684,1,0,0:0:0:0:
448,192,9778,1,0,0:0:0:0:
320,192,9872,1,0,0:0:0:0:
64,192,9872,1,0,0:0:0:0:
192,192,9965,1,0,0:0:0:0:
448,192,10059,1,0,0:0:0:0:
320,192,10059,1,0,0:0:0:0:
64,192,10153,1,0,0:0:0:0:
448,192,10247,1,0,0:0:0:0:
192,192,10247,1,0,0:0:0:0:
320,192,10340,1,0,0:0:0:0:
448,192,10434,1,0,0:0:0:0:
192,192,10528,1,0,0:0:0:0:
64,192,10622,1,0,0:0:0:0:
320,192,10622,1,0,0:0:0:0:
448,192,10715,1,0,0:0:0:0:
192,192,10809,1,0,0:0:0:0:
320,192,10809,1,0,0:0:0:0:
64,192,10903,1,0,0:0:0:0:
448,192,10997,1,0,0:0:0:0:
320,192,10997,1,0,0:0:0:0:
192,192,11090,1,0,0:0:0:0:
64,192,11090,1,0,0:0:0:0:
320,192,11184,1,0,0:0:0:0:
448,192,11278,1,0,0:0:0:0:
64,192,11372,1,0,0:0:0:0:
320,192,11372,1,0,0:0:0:0:
192,192,11465,1,0,0:0:0:0:
64,192,11559,1,0,0:0:0:0:
448,192,11559,1,0,0:0:0:0:
320,192,11653,1,0,0:0:0:0:
192,192,11747,1,0,0:0:0:0:
448,192,11747,1,0,0:0:0:0:
64,192,11840,1,0,0:0:0:0:
320,192,11934,1,0,0:0:0:0:
448,192,11934,1,0,0:0:0:0:
192,192,12028,1,0,0:0:0:0:
64,192,12122,1,0,0:0:0:0:
448,192,12122,1,0,0:0:0:0:
320,192,12215,1,0,0:0:0:0:
192,192,12309,1,0,0:0:0:0:
64,192,12309,1,0,0:0:0:0:
448,192,12403,1,0,0:0:0:0:
320,192,12497,1,0,0:0:0:0:
64,192,12497,1,0,0:0:0:0:
192,192,12590,1,0,0:0:0:0:
448,192,12590,1,0,0:0:0:0:
320,192,12684,1,0,0:0:0:0:
192,192,12778,1,0,0:0:0:0:
64,192,12872,1,0,0:0:0:0:
448,192,12872,1,0,0:0:0:0:
320,192,12965,1,0,0:0:0:0:
192,192,13059,1,0,0:0:0:0:
64,192,13059,1,0,0:0:0:0:
448,192,13153,1,0,0:0:0:0:
320,192,13247,1,0,0:0:0:0:
64,192,13247,1,0,0:0:0:0:
192,192,13340,1,0,0:0:0:0:
320,192,13434,1,0,0:0:0:0:
448,192,13434,1,0,0:0:0:0:
64,192,13528,1,0,0:0:0:0:
192,192,13528,1,0,0:0:0:0:
448,192,13622,1,0,0:0:0:0:
320,192,13622,1,0,0:0:0:0:
192,192,13715,1,0,0:0:0:0:
64,192,13809,1,0,0:0:0:0:
448,192,13809,1,0,0:0:0:0:
320,192,13903,1,0,0:0:0:0:
192,192,13997,1,0,0:0:0:0:
64,192,13997,1,0,0:0:0:0:
320,192,14090,1,0,0:0:0:0:
448,192,14090,1,0,0:0:0:0:
192,192,14184,1,0,0:0:0:0:
64,192,14278,1,0,0:0:0:0:
320,192,14372,1,0,0:0:0:0:
448,192,14372,1,0,0:0:0:0:
192,192,14465,1,0,0:0:0:0:
64,192,14559,1,0,0:0:0:0:
320,192,14559,1,0,0:0:0:0:
448,192,14653,1,0,0:0:0:0:
192,192,14747,1,0,0:0:0:0:
64,192,14747,1,0,0:0:0:0:
320,192,14840,1,0,0:0:0:0:
448,192,14934,1,0,0:0:0:0:
64,192,14934,1,0,0:0:0:0:
192,192,15028,1,0,0:0:0:0:
320,192,15122,1,0,0:0:0:0:
448,192,15122,1,0,0:0:0:0:
64,192,15215,1,0,0:0:0:0:
192,192,15309,1,0,0:0:0:0:
448,192,15309,1,0,0:0:0:0:
320,192,15403,1,0,0:0:0:0:
192,192,15497,1,0,0:0:0:0:
64,192,15497,1,0,0:0:0:0:
320,192,15590,1,0,0:0:0:0:
448,192,15590,1,0,0:0:0:0:
192,192,15684,1,0,0:0:0:0:
64,192,15778,1,0,0:0:0:0:
448,192,15872,1,0,0:0:0:0:
320,192,15872,1,0,0:0:0:0:
192,192,15965,1,0,0:0:0:0:
64,192,16059,1,0,0:0:0:0:
448,192,16059,1,0,0:0:0:0:
320,192,16153,1,0,0:0:0:0:
192,192,16247,1,0,0:0:0:0:
64,192,16247,1,0,0:0:0:0:
320,192,16340,1,0,0:0:0:0:
448,192,16434,1,0,0:0:0:0:
64,192,16434,1,0,0:0:0:0:
192,192,16528,1,0,0:0:0:0:
320,192,16622,1,0,0:0:0:0:
448,192,16622,1,0,0:0:0:0:
64,192,16715,1,0,0:0:0:0:
192,192,16809,1,0,0:0:0:0:
448,192,16809,1,0,0:0:0:0:
320,192,16903,1,0,0:0:0:0:
192,192,16997,1,0,0:0:0:0:
64,192,16997,1,0,0:0:0:0:
448,192,17090,1,0,0:0:0:0:
320,192,17090,1,0,0:0:0:0:
64,192,17184,1,0,0:0:0:0:
192,192,17184,1,0,0:0:0:0:
320,192,17278,1,0,0:0:0:0:
448,192,17372,1,0,0:0:0:0:
64,192,17372,1,0,0:0:0:0:
192,192,17465,1,0,0:0:0:0:
320,192,17559,1,0,0:0:0:0:
448,192,17559,1,0,0:0:0:0:
192,192,17653,1,0,0:0:0:0:
64,192,17747,1,0,0:0:0:0:
448,192,17747,1,0,0:0:0:0:
320,192,17840,1,0,0:0:0:0:
192,192,17934,1,0,0:0:0:0:
64,192,17934,1,0,0:0:0:0:
320,192,18028,1,0,0:0:0:0:
448,192,18122,1,0,0:0:0:0:
192,192,18122,1,0,0:0:0:0:
64,192,18122,1,0,0:0:0:0:
448,192,18215,1,0,0:0:0:0:
320,192,18309,1,0,0:0:0:0:
448,192,18403,1,0,0:0:0:0:
192,192,18403,1,0,0:0:0:0:
64,192,18403,1,0,0:0:0:0:
64,192,18497,1,0,0:0:0:0:
192,192,18590,1,0,0:0:0:0:
320,192,18684,1,0,0:0:0:0:
448,192,18684,1,0,0:0:0:0:
64,192,18684,1,0,0:0:0:0:
320,192,18778,1,0,0:0:0:0:
64,192,18872,1,0,0:0:0:0:
192,192,18872,1,0,0:0:0:0:
448,192,18872,1,0,0:0:0:0:
192,192,18965,1,0,0:0:0:0:
320,192,19059,1,0,0:0:0:0:
64,192,19059,1,0,0:0:0:0:
448,192,19059,1,0,0:0:0:0:
448,192,19153,1,0,0:0:0:0:
320,192,19247,1,0,0:0:0:0:
64,192,19247,1,0,0:0:0:0:
192,192,19340,1,0,0:0:0:0:
320,192,19434,1,0,0:0:0:0:
448,192,19434,1,0,0:0:0:0:
64,192,19528,1,0,0:0:0:0:
448,192,19622,5,0,0:0:0:0:
192,192,19622,1,0,0:0:0:0:
320,192,19715,1,0,0:0:0:0:
64,192,19715,1,0,0:0:0:0:
192,192,19809,1,0,0:0:0:0:
448,192,19903,1,0,0:0:0:0:
320,192,19903,1,0,0:0:0:0:
64,192,19997,1,0,0:0:0:0:
192,192,19997,1,0,0:0:0:0:
320,192,20090,1,0,0:0:0:0:
448,192,20184,1,0,0:0:0:0:
192,192,20184,1,0,0:0:0:0:
320,192,20278,1,0,0:0:0:0:
64,192,20278,1,0,0:0:0:0:
192,192,20372,1,0,0:0:0:0:
320,192,20465,1,0,0:0:0:0:
448,192,20465,1,0,0:0:0:0:
64,192,20559,1,0,0:0:0:0:
192,192,20606,1,0,0:0:0:0:
448,192,20653,1,0,0:0:0:0:
320,192,20700,1,0,0:0:0:0:
192,192,20747,1,0,0:0:0:0:
64,192,20747,1,0,0:0:0:0:
448,192,20747,1,0,0:0:0:0:
320,192,20934,1,0,0:0:0:0:
448,192,21028,1,0,0:0:0:0:
192,192,21028,1,0,0:0:0:0:
64,192,21028,1,0,0:0:0:0:
320,192,21122,1,0,0:0:0:0:
64,192,21122,1,0,0:0:0:0:
192,192,21215,1,0,0:0:0:0:
448,192,21309,1,0,0:0:0:0:
64,192,21309,1,0,0:0:0:0:
320,192,21309,1,0,0:0:0:0:
192,192,21403,1,0,0:0:0:0:
64,192,21497,1,0,0:0:0:0:
320,192,21497,1,0,0:0:0:0:
448,192,21590,1,0,0:0:0:0:
192,192,21590,1,0,0:0:0:0:
320,192,21684,1,0,0:0:0:0:
64,192,21778,1,0,0:0:0:0:
192,192,21778,1,0,0:0:0:0:
448,192,21872,1,0,0:0:0:0:
320,192,21872,1,0,0:0:0:0:
192,192,21965,1,0,0:0:0:0:
64,192,22059,1,0,0:0:0:0:
320,192,22059,1,0,0:0:0:0:
448,192,22153,1,0,0:0:0:0:
192,192,22153,1,0,0:0:0:0:
320,192,22247,1,0,0:0:0:0:
64,192,22340,1,0,0:0:0:0:
192,192,22340,1,0,0:0:0:0:
448,192,22434,1,0,0:0:0:0:
320,192,22481,1,0,0:0:0:0:
64,192,22528,1,0,0:0:0:0:
192,192,22575,1,0,0:0:0:0:
320,192,22622,1,0,0:0:0:0:
448,192,22622,1,0,0:0:0:0:
64,192,22622,1,0,0:0:0:0:
192,192,22809,1,0,0:0:0:0:
320,192,22903,1,0,0:0:0:0:
448,192,22903,1,0,0:0:0:0:
64,192,22903,1,0,0:0:0:0:
192,192,22997,1,0,0:0:0:0:
448,192,22997,1,0,0:0:0:0:
320,192,23090,1,0,0:0:0:0:
64,192,23184,1,0,0:0:0:0:
192,192,23184,1,0,0:0:0:0:
320,192,23278,1,0,0:0:0:0:
192,192,23372,1,0,0:0:0:0:
448,192,23372,1,0,0:0:0:0:
64,192,23465,1,0,0:0:0:0:
320,192,23465,1,0,0:0:0:0:
192,192,23559,1,0,0:0:0:0:
320,192,23653,1,0,0:0:0:0:
448,192,23653,1,0,0:0:0:0:
64,192,23747,1,0,0:0:0:0:
192,192,23747,1,0,0:0:0:0:
320,192,23840,1,0,0:0:0:0:
448,192,23934,1,0,0:0:0:0:
192,192,23934,1,0,0:0:0:0:
320,192,24028,1,0,0:0:0:0:
64,192,24028,1,0,0:0:0:0:
192,192,24122,1,0,0:0:0:0:
320,192,24215,1,0,0:0:0:0:
448,192,24215,1,0,0:0:0:0:
192,192,24309,1,0,0:0:0:0:
64,192,24309,1,0,0:0:0:0:
320,192,24403,1,0,0:0:0:0:
64,192,24497,1,0,0:0:0:0:
192,192,24497,1,0,0:0:0:0:
448,192,24497,1,0,0:0:0:0:
320,192,24684,1,0,0:0:0:0:
448,192,24778,1,0,0:0:0:0:
192,192,24778,1,0,0:0:0:0:
64,192,24778,1,0,0:0:0:0:
320,192,24872,1,0,0:0:0:0:
64,192,24872,1,0,0:0:0:0:
192,192,24965,1,0,0:0:0:0:
64,192,25059,1,0,0:0:0:0:
320,192,25059,1,0,0:0:0:0:
448,192,25059,1,0,0:0:0:0:
192,192,25153,1,0,0:0:0:0:
448,192,25247,1,0,0:0:0:0:
320,192,25247,1,0,0:0:0:0:
64,192,25340,1,0,0:0:0:0:
192,192,25340,1,0,0:0:0:0:
320,192,25434,1,0,0:0:0:0:
448,192,25528,1,0,0:0:0:0:
192,192,25528,1,0,0:0:0:0:
320,192,25622,1,0,0:0:0:0:
64,192,25622,1,0,0:0:0:0:
192,192,25715,1,0,0:0:0:0:
320,192,25809,1,0,0:0:0:0:
448,192,25809,1,0,0:0:0:0:
64,192,25903,1,0,0:0:0:0:
192,192,25903,1,0,0:0:0:0:
320,192,25997,1,0,0:0:0:0:
448,192,26090,1,0,0:0:0:0:
192,192,26090,1,0,0:0:0:0:
320,192,26184,1,0,0:0:0:0:
64,192,26184,1,0,0:0:0:0:
192,192,26278,1,0,0:0:0:0:
320,192,26372,1,0,0:0:0:0:
448,192,26372,1,0,0:0:0:0:
64,192,26372,1,0,0:0:0:0:
192,192,26559,1,0,0:0:0:0:
320,192,26653,1,0,0:0:0:0:
448,192,26653,1,0,0:0:0:0:
64,192,26653,1,0,0:0:0:0:
192,192,26747,1,0,0:0:0:0:
448,192,26747,1,0,0:0:0:0:
320,192,26840,1,0,0:0:0:0:
192,192,26934,1,0,0:0:0:0:
64,192,26934,1,0,0:0:0:0:
448,192,26934,1,0,0:0:0:0:
320,192,27028,1,0,0:0:0:0:
64,192,27122,1,0,0:0:0:0:
192,192,27122,1,0,0:0:0:0:
448,192,27215,1,0,0:0:0:0:
320,192,27215,1,0,0:0:0:0:
192,192,27309,1,0,0:0:0:0:
64,192,27403,1,0,0:0:0:0:
320,192,27403,1,0,0:0:0:0:
192,192,27497,1,0,0:0:0:0:
448,192,27497,1,0,0:0:0:0:
320,192,27590,1,0,0:0:0:0:
192,192,27684,1,0,0:0:0:0:
64,192,27684,1,0,0:0:0:0:
448,192,27778,1,0,0:0:0:0:
320,192,27778,1,0,0:0:0:0:
192,192,27872,1,0,0:0:0:0:
320,192,27965,1,0,0:0:0:0:
448,192,27965,1,0,0:0:0:0:
64,192,28059,1,0,0:0:0:0:
192,192,28106,1,0,0:0:0:0:
448,192,28153,1,0,0:0:0:0:
320,192,28200,1,0,0:0:0:0:
448,192,28247,1,0,0:0:0:0:
192,192,28247,1,0,0:0:0:0:
64,192,28247,1,0,0:0:0:0:
320,192,28434,1,0,0:0:0:0:
448,192,28528,1,0,0:0:0:0:
64,192,28528,1,0,0:0:0:0:
192,192,28528,1,0,0:0:0:0:
320,192,28622,1,0,0:0:0:0:
64,192,28622,1,0,0:0:0:0:
64,192,28809,1,0,0:0:0:0:
448,192,28809,1,0,0:0:0:0:
192,192,28809,1,0,0:0:0:0:
320,192,28903,1,0,0:0:0:0:
448,192,28997,1,0,0:0:0:0:
192,192,28997,1,0,0:0:0:0:
64,192,29090,1,0,0:0:0:0:
320,192,29090,1,0,0:0:0:0:
192,192,29184,1,0,0:0:0:0:
320,192,29278,1,0,0:0:0:0:
448,192,29278,1,0,0:0:0:0:
192,192,29372,1,0,0:0:0:0:
64,192,29372,1,0,0:0:0:0:
320,192,29465,1,0,0:0:0:0:
448,192,29559,1,0,0:0:0:0:
192,192,29559,1,0,0:0:0:0:
64,192,29653,1,0,0:0:0:0:
320,192,29653,1,0,0:0:0:0:
192,192,29747,1,0,0:0:0:0:
320,192,29840,1,0,0:0:0:0:
448,192,29840,1,0,0:0:0:0:
192,192,29934,1,0,0:0:0:0:
64,192,29934,1,0,0:0:0:0:
320,192,30028,1,0,0:0:0:0:
448,192,30122,1,0,0:0:0:0:
192,192,30122,1,0,0:0:0:0:
64,192,30122,1,0,0:0:0:0:
320,192,30309,1,0,0:0:0:0:
448,192,30403,1,0,0:0:0:0:
192,192,30403,1,0,0:0:0:0:
64,192,30403,1,0,0:0:0:0:
320,192,30497,1,0,0:0:0:0:
64,192,30497,1,0,0:0:0:0:
64,192,30684,1,0,0:0:0:0:
448,192,30684,1,0,0:0:0:0:
192,192,30684,1,0,0:0:0:0:
320,192,30778,1,0,0:0:0:0:
64,192,30872,1,0,0:0:0:0:
192,192,30872,1,0,0:0:0:0:
448,192,30965,1,0,0:0:0:0:
320,192,30965,1,0,0:0:0:0:
192,192,31059,1,0,0:0:0:0:
320,192,31153,1,0,0:0:0:0:
64,192,31153,1,0,0:0:0:0:
192,192,31247,1,0,0:0:0:0:
448,192,31247,1,0,0:0:0:0:
320,192,31340,1,0,0:0:0:0:
192,192,31434,1,0,0:0:0:0:
64,192,31434,1,0,0:0:0:0:
320,192,31528,1,0,0:0:0:0:
448,192,31528,1,0,0:0:0:0:
192,192,31622,1,0,0:0:0:0:
64,192,31715,1,0,0:0:0:0:
320,192,31715,1,0,0:0:0:0:
192,192,31809,1,0,0:0:0:0:
448,192,31809,1,0,0:0:0:0:
320,192,31903,1,0,0:0:0:0:
448,192,31997,1,0,0:0:0:0:
192,192,31997,1,0,0:0:0:0:
64,192,31997,1,0,0:0:0:0:
320,192,32184,1,0,0:0:0:0:
448,192,32278,1,0,0:0:0:0:
64,192,32278,1,0,0:0:0:0:
192,192,32278,1,0,0:0:0:0:
320,192,32372,1,0,0:0:0:0:
64,192,32372,1,0,0:0:0:0:
192,192,32559,1,0,0:0:0:0:
448,192,32559,1,0,0:0:0:0:
64,192,32559,1,0,0:0:0:0:
320,192,32653,1,0,0:0:0:0:
192,192,32747,1,0,0:0:0:0:
448,192,32747,1,0,0:0:0:0:
320,192,32840,1,0,0:0:0:0:
64,192,32840,1,0,0:0:0:0:
192,192,32934,1,0,0:0:0:0:
320,192,33028,1,0,0:0:0:0:
448,192,33028,1,0,0:0:0:0:
192,192,33122,1,0,0:0:0:0:
64,192,33122,1,0,0:0:0:0:
320,192,33215,1,0,0:0:0:0:
448,192,33309,1,0,0:0:0:0:
192,192,33309,1,0,0:0:0:0:
320,192,33403,1,0,0:0:0:0:
64,192,33403,1,0,0:0:0:0:
192,192,33497,1,0,0:0:0:0:
320,192,33590,1,0,0:0:0:0:
448,192,33590,1,0,0:0:0:0:
64,192,33684,1,0,0:0:0:0:
192,192,33684,1,0,0:0:0:0:
320,192,33778,1,0,0:0:0:0:
448,192,33872,1,0,0:0:0:0:
192,192,33872,1,0,0:0:0:0:
320,192,33965,1,0,0:0:0:0:
64,192,33965,1,0,0:0:0:0:
192,192,34059,1,0,0:0:0:0:
320,192,34153,1,0,0:0:0:0:
448,192,34153,1,0,0:0:0:0:
64,192,34153,1,0,0:0:0:0:
192,192,34340,1,0,0:0:0:0:
448,192,34340,1,0,0:0:0:0:
448,192,34434,1,0,0:0:0:0:
64,192,34434,1,0,0:0:0:0:
320,192,34434,1,0,0:0:0:0:
192,192,34528,1,0,0:0:0:0:
64,192,34622,1,0,0:0:0:0:
448,192,34622,1,0,0:0:0:0:
192,192,34715,1,0,0:0:0:0:
320,192,34715,1,0,0:0:0:0:
448,192,34809,1,0,0:0:0:0:
64,192,34903,1,0,0:0:0:0:
320,192,34903,1,0,0:0:0:0:
192,192,34997,1,0,0:0:0:0:
448,192,34997,1,0,0:0:0:0:
64,192,35090,1,0,0:0:0:0:
320,192,35184,1,0,0:0:0:0:
448,192,35184,1,0,0:0:0:0:
192,192,35278,1,0,0:0:0:0:
64,192,35278,1,0,0:0:0:0:
320,192,35372,1,0,0:0:0:0:
448,192,35465,1,0,0:0:0:0:
192,192,35465,1,0,0:0:0:0:
320,192,35559,1,0,0:0:0:0:
64,192,35559,1,0,0:0:0:0:
192,192,35653,1,0,0:0:0:0:
320,192,35747,1,0,0:0:0:0:
448,192,35747,1,0,0:0:0:0:
64,192,35747,1,0,0:0:0:0:
192,192,35934,1,0,0:0:0:0:
320,192,36028,1,0,0:0:0:0:
448,192,36028,1,0,0:0:0:0:
64,192,36028,1,0,0:0:0:0:
448,192,36122,1,0,0:0:0:0:
192,192,36122,1,0,0:0:0:0:
320,192,36309,1,0,0:0:0:0:
448,192,36309,1,0,0:0:0:0:
64,192,36309,1,0,0:0:0:0:
192,192,36403,1,0,0:0:0:0:
320,192,36497,1,0,0:0:0:0:
448,192,36497,1,0,0:0:0:0:
192,192,36590,1,0,0:0:0:0:
64,192,36590,1,0,0:0:0:0:
320,192,36684,1,0,0:0:0:0:
448,192,36778,1,0,0:0:0:0:
64,192,36778,1,0,0:0:0:0:
192,192,36872,1,0,0:0:0:0:
320,192,36872,1,0,0:0:0:0:
64,192,36965,1,0,0:0:0:0:
192,192,37059,1,0,0:0:0:0:
448,192,37059,1,0,0:0:0:0:
320,192,37153,1,0,0:0:0:0:
64,192,37153,1,0,0:0:0:0:
448,192,37247,1,0,0:0:0:0:
192,192,37340,1,0,0:0:0:0:
64,192,37340,1,0,0:0:0:0:
448,192,37434,1,0,0:0:0:0:
320,192,37481,1,0,0:0:0:0:
64,192,37528,1,0,0:0:0:0:
192,192,37575,1,0,0:0:0:0:
64,192,37622,1,0,0:0:0:0:
320,192,37622,1,0,0:0:0:0:
448,192,37622,1,0,0:0:0:0:
192,192,37809,1,0,0:0:0:0:
320,192,37903,1,0,0:0:0:0:
448,192,37903,1,0,0:0:0:0:
64,192,37903,1,0,0:0:0:0:
192,192,37997,1,0,0:0:0:0:
448,192,37997,1,0,0:0:0:0:
320,192,38184,1,0,0:0:0:0:
448,192,38184,1,0,0:0:0:0:
64,192,38184,1,0,0:0:0:0:
192,192,38278,1,0,0:0:0:0:
320,192,38372,1,0,0:0:0:0:
448,192,38372,1,0,0:0:0:0:
192,192,38465,1,0,0:0:0:0:
64,192,38465,1,0,0:0:0:0:
320,192,38559,1,0,0:0:0:0:
448,192,38653,1,0,0:0:0:0:
64,192,38653,1,0,0:0:0:0:
192,192,38747,1,0,0:0:0:0:
320,192,38747,1,0,0:0:0:0:
64,192,38840,1,0,0:0:0:0:
192,192,38934,1,0,0:0:0:0:
448,192,38934,1,0,0:0:0:0:
320,192,39028,1,0,0:0:0:0:
64,192,39028,1,0,0:0:0:0:
192,192,39122,1,0,0:0:0:0:
320,192,39215,1,0,0:0:0:0:
448,192,39215,1,0,0:0:0:0:
192,192,39309,1,0,0:0:0:0:
64,192,39309,1,0,0:0:0:0:
320,192,39403,1,0,0:0:0:0:
448,192,39497,1,0,0:0:0:0:
192,192,39497,1,0,0:0:0:0:
64,192,39497,1,0,0:0:0:0:
320,192,39684,1,0,0:0:0:0:
448,192,39778,1,0,0:0:0:0:
64,192,39778,1,0,0:0:0:0:
192,192,39778,1,0,0:0:0:0:
320,192,39872,1,0,0:0:0:0:
64,192,39872,1,0,0:0:0:0:
448,192,40059,1,0,0:0:0:0:
192,192,40059,1,0,0:0:0:0:
64,192,40059,1,0,0:0:0:0:
320,192,40153,1,0,0:0:0:0:
192,192,40247,1,0,0:0:0:0:
448,192,40247,1,0,0:0:0:0:
320,192,40340,1,0,0:0:0:0:
64,192,40340,1,0,0:0:0:0:
192,192,40434,1,0,0:0:0:0:
320,192,40528,1,0,0:0:0:0:
448,192,40528,1,0,0:0:0:0:
64,192,40622,1,0,0:0:0:0:
192,192,40622,1,0,0:0:0:0:
320,192,40715,1,0,0:0:0:0:
448,192,40715,1,0,0:0:0:0:
64,192,40809,1,0,0:0:0:0:
192,192,40809,1,0,0:0:0:0:
320,192,40903,1,0,0:0:0:0:
448,192,40903,1,0,0:0:0:0:
192,192,40997,1,0,0:0:0:0:
64,192,40997,1,0,0:0:0:0:
320,192,41090,1,0,0:0:0:0:
448,192,41090,1,0,0:0:0:0:
192,192,41184,1,0,0:0:0:0:
64,192,41184,1,0,0:0:0:0:
320,192,41278,1,0,0:0:0:0:
448,192,41278,1,0,0:0:0:0:
192,192,41372,1,0,0:0:0:0:
64,192,41372,1,0,0:0:0:0:
448,192,41372,1,0,0:0:0:0:
448,192,41653,1,0,0:0:0:0:
64,192,41653,1,0,0:0:0:0:
320,192,41653,1,0,0:0:0:0:
192,192,41934,1,0,0:0:0:0:
64,192,41934,1,0,0:0:0:0:
320,192,41934,1,0,0:0:0:0:
64,192,42028,1,0,0:0:0:0:
448,192,42028,1,0,0:0:0:0:
192,192,42122,1,0,0:0:0:0:
448,192,42122,1,0,0:0:0:0:
320,192,42122,128,0,42309:0:0:0:0:
448,192,42309,1,0,0:0:0:0:
64,192,42309,1,0,0:0:0:0:
192,192,42403,1,0,0:0:0:0:
192,192,42497,128,0,42684:0:0:0:0:
320,192,42497,1,0,0:0:0:0:
448,192,42497,1,0,0:0:0:0:
64,192,42684,1,0,0:0:0:0:
448,192,42778,1,0,0:0:0:0:
448,192,42872,1,0,0:0:0:0:
192,192,42872,1,0,0:0:0:0:
64,192,42872,1,0,0:0:0:0:
64,192,42965,1,0,0:0:0:0:
448,192,43059,128,0,43247:0:0:0:0:
320,192,43059,1,0,0:0:0:0:
320,192,43247,1,0,0:0:0:0:
64,192,43247,1,0,0:0:0:0:
192,192,43247,1,0,0:0:0:0:
320,192,43340,1,0,0:0:0:0:
448,192,43434,1,0,0:0:0:0:
192,192,43434,1,0,0:0:0:0:
192,192,43528,1,0,0:0:0:0:
64,192,43622,128,0,43809:0:0:0:0:
448,192,43622,1,0,0:0:0:0:
320,192,43622,1,0,0:0:0:0:
320,192,43809,1,0,0:0:0:0:
192,192,43809,1,0,0:0:0:0:
320,192,43903,1,0,0:0:0:0:
448,192,43997,1,0,0:0:0:0:
64,192,43997,1,0,0:0:0:0:
192,192,43997,1,0,0:0:0:0:
192,192,44090,1,0,0:0:0:0:
320,192,44184,128,0,44372:0:0:0:0:
64,192,44184,1,0,0:0:0:0:
192,192,44372,1,0,0:0:0:0:
64,192,44372,1,0,0:0:0:0:
448,192,44372,1,0,0:0:0:0:
64,192,44465,1,0,0:0:0:0:
448,192,44559,128,0,44747:0:0:0:0:
192,192,44559,1,0,0:0:0:0:
320,192,44747,128,0,44934:0:0:0:0:
64,192,44747,1,0,0:0:0:0:
192,192,44747,1,0,0:0:0:0:
192,192,44934,128,0,45122:0:0:0:0:
448,192,44934,1,0,0:0:0:0:
448,192,45122,1,0,0:0:0:0:
320,192,45122,1,0,0:0:0:0:
64,192,45122,1,0,0:0:0:0:
448,192,45215,1,0,0:0:0:0:
64,192,45309,1,0,0:0:0:0:
320,192,45309,1,0,0:0:0:0:
192,192,45403,1,0,0:0:0:0:
448,192,45497,128,0,45684:0:0:0:0:
192,192,45497,1,0,0:0:0:0:
320,192,45497,1,0,0:0:0:0:
64,192,45684,1,0,0:0:0:0:
192,192,45684,1,0,0:0:0:0:
320,192,45778,1,0,0:0:0:0:
192,192,45872,128,0,46059:0:0:0:0:
64,192,45872,1,0,0:0:0:0:
320,192,45872,1,0,0:0:0:0:
320,192,46059,128,0,46247:0:0:0:0:
448,192,46059,1,0,0:0:0:0:
192,192,46247,1,0,0:0:0:0:
64,192,46247,1,0,0:0:0:0:
448,192,46247,1,0,0:0:0:0:
448,192,46340,1,0,0:0:0:0:
64,192,46434,128,0,46622:0:0:0:0:
192,192,46434,1,0,0:0:0:0:
192,192,46622,128,0,46809:0:0:0:0:
448,192,46622,1,0,0:0:0:0:
320,192,46622,1,0,0:0:0:0:
448,192,46809,1,0,0:0:0:0:
320,192,46809,1,0,0:0:0:0:
64,192,46809,1,0,0:0:0:0:
320,192,46903,1,0,0:0:0:0:
64,192,46997,1,0,0:0:0:0:
192,192,46997,1,0,0:0:0:0:
320,192,47090,1,0,0:0:0:0:
448,192,47090,1,0,0:0:0:0:
192,192,47184,1,0,0:0:0:0:
64,192,47184,128,0,47372:0:0:0:0:
320,192,47278,1,0,0:0:0:0:
192,192,47372,1,0,0:0:0:0:
448,192,47372,1,0,0:0:0:0:
320,192,47465,1,0,0:0:0:0:
64,192,47465,1,0,0:0:0:0:
192,192,47559,128,0,47747:0:0:0:0:
448,192,47559,1,0,0:0:0:0:
320,192,47653,1,0,0:0:0:0:
448,192,47747,1,0,0:0:0:0:
64,192,47747,1,0,0:0:0:0:
320,192,47840,1,0,0:0:0:0:
192,192,47840,1,0,0:0:0:0:
448,192,47934,1,0,0:0:0:0:
64,192,47934,1,0,0:0:0:0:
320,192,48028,1,0,0:0:0:0:
192,192,48028,1,0,0:0:0:0:
448,192,48122,128,0,48309:0:0:0:0:
64,192,48122,1,0,0:0:0:0:
320,192,48309,1,0,0:0:0:0:
192,192,48309,1,0,0:0:0:0:
192,192,48403,1,0,0:0:0:0:
448,192,48497,128,0,48684:0:0:0:0:
64,192,48497,1,0,0:0:0:0:
320,192,48497,1,0,0:0:0:0:
192,192,48684,1,0,0:0:0:0:
64,192,48684,1,0,0:0:0:0:
320,192,48778,1,0,0:0:0:0:
320,192,48872,1,0,0:0:0:0:
448,192,48872,1,0,0:0:0:0:
64,192,48872,1,0,0:0:0:0:
64,192,48965,1,0,0:0:0:0:
192,192,49059,128,0,49247:0:0:0:0:
448,192,49059,1,0,0:0:0:0:
448,192,49247,1,0,0:0:0:0:
64,192,49247,1,0,0:0:0:0:
320,192,49247,1,0,0:0:0:0:
448,192,49340,1,0,0:0:0:0:
320,192,49434,128,0,49622:0:0:0:0:
192,192,49434,1,0,0:0:0:0:
448,192,49622,128,0,49809:0:0:0:0:
64,192,49622,1,0,0:0:0:0:
192,192,49622,1,0,0:0:0:0:
320,192,49809,1,0,0:0:0:0:
64,192,49809,1,0,0:0:0:0:
192,192,49903,1,0,0:0:0:0:
192,192,49997,1,0,0:0:0:0:
448,192,49997,1,0,0:0:0:0:
320,192,49997,1,0,0:0:0:0:
320,192,50090,1,0,0:0:0:0:
64,192,50184,128,0,50372:0:0:0:0:
448,192,50184,1,0,0:0:0:0:
448,192,50372,1,0,0:0:0:0:
320,192,50372,1,0,0:0:0:0:
192,192,50372,1,0,0:0:0:0:
448,192,50465,1,0,0:0:0:0:
192,192,50559,128,0,50747:0:0:0:0:
64,192,50559,1,0,0:0:0:0:
320,192,50747,128,0,50934:0:0:0:0:
64,192,50747,1,0,0:0:0:0:
448,192,50747,1,0,0:0:0:0:
448,192,50934,128,0,51122:0:0:0:0:
192,192,50934,1,0,0:0:0:0:
192,192,51122,128,0,51215:0:0:0:0:
320,192,51122,1,0,0:0:0:0:
64,192,51122,1,0,0:0:0:0:
64,192,51215,128,0,51309:0:0:0:0:
448,192,51309,128,0,51403:0:0:0:0:
192,192,51309,1,0,0:0:0:0:
320,192,51497,128,0,51590:0:0:0:0:
64,192,51497,1,0,0:0:0:0:
448,192,51497,1,0,0:0:0:0:
192,192,51590,128,0,51684:0:0:0:0:
448,192,51684,128,0,51778:0:0:0:0:
320,192,51684,1,0,0:0:0:0:
64,192,51872,128,0,51965:0:0:0:0:
448,192,51872,1,0,0:0:0:0:
192,192,51872,1,0,0:0:0:0:
192,192,51965,128,0,52059:0:0:0:0:
448,192,52059,128,0,52153:0:0:0:0:
320,192,52153,128,0,52247:0:0:0:0:
64,192,52247,128,0,52340:0:0:0:0:
448,192,52247,1,0,0:0:0:0:
192,192,52247,1,0,0:0:0:0:
192,192,52340,128,0,52434:0:0:0:0:
448,192,52434,128,0,52528:0:0:0:0:
64,192,52434,1,0,0:0:0:0:
320,192,52528,128,0,52622:0:0:0:0:
448,192,52622,1,0,0:0:0:0:
192,192,52622,1,0,0:0:0:0:
320,192,52809,1,0,0:0:0:0:
448,192,52809,1,0,0:0:0:0:
192,192,52903,1,0,0:0:0:0:
64,192,52903,1,0,0:0:0:0:
320,192,52997,1,0,0:0:0:0:
448,192,52997,1,0,0:0:0:0:
64,192,52997,1,0,0:0:0:0:
320,192,53559,1,0,0:0:0:0:
448,192,53559,1,0,0:0:0:0:
64,192,53559,1,0,0:0:0:0:
320,192,53747,1,0,0:0:0:0:
448,192,53747,1,0,0:0:0:0:
64,192,53747,1,0,0:0:0:0:
64,192,53934,1,0,0:0:0:0:
448,192,53934,1,0,0:0:0:0:
320,192,53934,1,0,0:0:0:0:
192,192,54122,1,0,0:0:0:0:
64,192,54122,1,0,0:0:0:0:
320,192,54215,1,0,0:0:0:0:
448,192,54309,1,0,0:0:0:0:
192,192,54403,1,0,0:0:0:0:
64,192,54497,1,0,0:0:0:0:
320,192,54497,1,0,0:0:0:0:
448,192,54590,1,0,0:0:0:0:
192,192,54684,1,0,0:0:0:0:
64,192,54778,1,0,0:0:0:0:
320,192,54872,1,0,0:0:0:0:
448,192,54872,1,0,0:0:0:0:
64,192,54965,1,0,0:0:0:0:
192,192,55059,1,0,0:0:0:0:
320,192,55153,1,0,0:0:0:0:
448,192,55247,1,0,0:0:0:0:
192,192,55247,1,0,0:0:0:0:
64,192,55340,1,0,0:0:0:0:
320,192,55434,1,0,0:0:0:0:
448,192,55528,1,0,0:0:0:0:
192,192,55622,1,0,0:0:0:0:
64,192,55622,1,0,0:0:0:0:
320,192,55715,1,0,0:0:0:0:
448,192,55809,1,0,0:0:0:0:
192,192,55903,1,0,0:0:0:0:
320,192,55997,1,0,0:0:0:0:
64,192,55997,1,0,0:0:0:0:
448,192,56090,1,0,0:0:0:0:
192,192,56184,1,0,0:0:0:0:
320,192,56278,1,0,0:0:0:0:
448,192,56372,1,0,0:0:0:0:
64,192,56372,1,0,0:0:0:0:
192,192,56465,1,0,0:0:0:0:
448,192,56559,1,0,0:0:0:0:
320,192,56653,1,0,0:0:0:0:
64,192,56653,1,0,0:0:0:0:
192,192,56747,1,0,0:0:0:0:
64,192,56747,1,0,0:0:0:0:
448,192,56840,1,0,0:0:0:0:
320,192,56934,1,0,0:0:0:0:
192,192,57028,1,0,0:0:0:0:
64,192,57122,1,0,0:0:0:0:
448,192,57122,1,0,0:0:0:0:
320,192,57215,1,0,0:0:0:0:
64,192,57309,1,0,0:0:0:0:
192,192,57403,1,0,0:0:0:0:
320,192,57497,1,0,0:0:0:0:
448,192,57497,1,0,0:0:0:0:
192,192,57590,1,0,0:0:0:0:
64,192,57684,1,0,0:0:0:0:
320,192,57778,1,0,0:0:0:0:
448,192,57872,1,0,0:0:0:0:
192,192,57872,1,0,0:0:0:0:
64,192,57965,1,0,0:0:0:0:
320,192,58059,1,0,0:0:0:0:
448,192,58153,1,0,0:0:0:0:
192,192,58247,1,0,0:0:0:0:
64,192,58247,1,0,0:0:0:0:
448,192,58340,1,0,0:0:0:0:
320,192,58434,1,0,0:0:0:0:
192,192,58528,1,0,0:0:0:0:
64,192,58622,1,0,0:0:0:0:
320,192,58622,1,0,0:0:0:0:
448,192,58715,1,0,0:0:0:0:
192,192,58809,1,0,0:0:0:0:
320,192,58903,1,0,0:0:0:0:
192,192,58997,1,0,0:0:0:0:
64,192,58997,1,0,0:0:0:0:
448,192,59090,1,0,0:0:0:0:
320,192,59184,1,0,0:0:0:0:
192,192,59278,1,0,0:0:0:0:
64,192,59372,1,0,0:0:0:0:
448,192,59372,1,0,0:0:0:0:
320,192,59465,1,0,0:0:0:0:
64,192,59559,1,0,0:0:0:0:
192,192,59653,1,0,0:0:0:0:
320,192,59747,1,0,0:0:0:0:
448,192,59747,1,0,0:0:0:0:
64,192,59747,1,0,0:0:0:0:
192,192,59934,1,0,0:0:0:0:
448,192,59934,1,0,0:0:0:0:
320,192,59934,1,0,0:0:0:0:
320,192,60122,1,0,0:0:0:0:
64,192,60122,1,0,0:0:0:0:
448,192,60122,1,0,0:0:0:0:
192,192,60215,1,0,0:0:0:0:
64,192,60309,1,0,0:0:0:0:
320,192,60403,1,0,0:0:0:0:
448,192,60497,1,0,0:0:0:0:
192,192,60497,1,0,0:0:0:0:
64,192,60590,1,0,0:0:0:0:
320,192,60684,1,0,0:0:0:0:
448,192,60778,1,0,0:0:0:0:
192,192,60872,1,0,0:0:0:0:
64,192,60872,1,0,0:0:0:0:
448,192,60965,1,0,0:0:0:0:
320,192,61059,1,0,0:0:0:0:
192,192,61153,1,0,0:0:0:0:
64,192,61247,1,0,0:0:0:0:
320,192,61247,1,0,0:0:0:0:
448,192,61340,1,0,0:0:0:0:
192,192,61434,1,0,0:0:0:0:
64,192,61528,1,0,0:0:0:0:
320,192,61622,1,0,0:0:0:0:
448,192,61622,1,0,0:0:0:0:
64,192,61715,1,0,0:0:0:0:
192,192,61809,1,0,0:0:0:0:
448,192,61903,1,0,0:0:0:0:
320,192,61997,1,0,0:0:0:0:
64,192,61997,1,0,0:0:0:0:
192,192,62090,1,0,0:0:0:0:
64,192,62184,1,0,0:0:0:0:
320,192,62278,1,0,0:0:0:0:
192,192,62372,1,0,0:0:0:0:
448,192,62372,1,0,0:0:0:0:
64,192,62465,1,0,0:0:0:0:
320,192,62559,1,0,0:0:0:0:
192,192,62653,1,0,0:0:0:0:
448,192,62747,1,0,0:0:0:0:
64,192,62747,1,0,0:0:0:0:
320,192,62840,1,0,0:0:0:0:
64,192,62934,1,0,0:0:0:0:
192,192,63028,1,0,0:0:0:0:
320,192,63122,1,0,0:0:0:0:
448,192,63122,1,0,0:0:0:0:
64,192,63215,1,0,0:0:0:0:
192,192,63309,1,0,0:0:0:0:
448,192,63403,1,0,0:0:0:0:
320,192,63497,1,0,0:0:0:0:
64,192,63497,1,0,0:0:0:0:
192,192,63590,1,0,0:0:0:0:
448,192,63684,1,0,0:0:0:0:
320,192,63778,1,0,0:0:0:0:
192,192,63872,1,0,0:0:0:0:
64,192,63872,1,0,0:0:0:0:
320,192,63965,1,0,0:0:0:0:
448,192,64059,1,0,0:0:0:0:
192,192,64153,1,0,0:0:0:0:
64,192,64247,1,0,0:0:0:0:
320,192,64247,1,0,0:0:0:0:
448,192,64340,1,0,0:0:0:0:
64,192,64434,1,0,0:0:0:0:
192,192,64528,1,0,0:0:0:0:
320,192,64622,1,0,0:0:0:0:
448,192,64622,1,0,0:0:0:0:
64,192,64622,1,0,0:0:0:0:
192,192,64809,1,0,0:0:0:0:
448,192,64809,1,0,0:0:0:0:
64,192,64809,1,0,0:0:0:0:
64,192,65184,1,0,0:0:0:0:
448,192,65184,1,0,0:0:0:0:
320,192,65184,1,0,0:0:0:0:
192,192,65559,1,0,0:0:0:0:
64,192,65559,1,0,0:0:0:0:
320,192,65653,1,0,0:0:0:0:
448,192,65653,1,0,0:0:0:0:
64,192,65747,1,0,0:0:0:0:
192,192,65747,1,0,0:0:0:0:
320,192,65840,1,0,0:0:0:0:
448,192,65840,1,0,0:0:0:0:
192,192,65934,1,0,0:0:0:0:
64,192,65934,1,0,0:0:0:0:
320,192,66028,1,0,0:0:0:0:
448,192,66028,1,0,0:0:0:0:
64,192,66122,1,0,0:0:0:0:
192,192,66122,1,0,0:0:0:0:
448,192,66122,1,0,0:0:0:0:
320,192,66215,1,0,0:0:0:0:
448,192,66309,1,0,0:0:0:0:
64,192,66309,1,0,0:0:0:0:
192,192,66403,1,0,0:0:0:0:
64,192,66497,1,0,0:0:0:0:
320,192,66497,1,0,0:0:0:0:
448,192,66590,1,0,0:0:0:0:
192,192,66590,1,0,0:0:0:0:
320,192,66684,1,0,0:0:0:0:
448,192,66778,1,0,0:0:0:0:
192,192,66872,1,0,0:0:0:0:
64,192,66872,1,0,0:0:0:0:
448,192,66965,1,0,0:0:0:0:
320,192,66965,1,0,0:0:0:0:
192,192,67059,1,0,0:0:0:0:
64,192,67153,1,0,0:0:0:0:
320,192,67247,1,0,0:0:0:0:
448,192,67247,1,0,0:0:0:0:
64,192,67340,1,0,0:0:0:0:
192,192,67340,1,0,0:0:0:0:
320,192,67434,1,0,0:0:0:0:
448,192,67528,1,0,0:0:0:0:
320,192,67622,1,0,0:0:0:0:
64,192,67622,1,0,0:0:0:0:
192,192,67715,1,0,0:0:0:0:
448,192,67715,1,0,0:0:0:0:
64,192,67809,1,0,0:0:0:0:
192,192,67903,1,0,0:0:0:0:
448,192,67997,1,0,0:0:0:0:
320,192,67997,1,0,0:0:0:0:
64,192,68090,1,0,0:0:0:0:
192,192,68090,1,0,0:0:0:0:
448,192,68184,1,0,0:0:0:0:
320,192,68278,1,0,0:0:0:0:
64,192,68372,1,0,0:0:0:0:
192,192,68372,1,0,0:0:0:0:
448,192,68465,1,0,0:0:0:0:
320,192,68465,1,0,0:0:0:0:
192,192,68559,1,0,0:0:0:0:
64,192,68653,1,0,0:0:0:0:
192,192,68747,1,0,0:0:0:0:
448,192,68747,1,0,0:0:0:0:
320,192,68840,1,0,0:0:0:0:
64,192,68840,1,0,0:0:0:0:
448,192,68934,1,0,0:0:0:0:
192,192,69028,1,0,0:0:0:0:
64,192,69122,1,0,0:0:0:0:
320,192,69122,1,0,0:0:0:0:
448,192,69215,1,0,0:0:0:0:
192,192,69215,1,0,0:0:0:0:
64,192,69309,1,0,0:0:0:0:
320,192,69403,1,0,0:0:0:0:
448,192,69497,1,0,0:0:0:0:
192,192,69497,1,0,0:0:0:0:
64,192,69590,1,0,0:0:0:0:
320,192,69590,1,0,0:0:0:0:
448,192,69684,1,0,0:0:0:0:
320,192,69778,1,0,0:0:0:0:
64,192,69872,1,0,0:0:0:0:
192,192,69872,1,0,0:0:0:0:
320,192,69965,1,0,0:0:0:0:
448,192,69965,1,0,0:0:0:0:
64,192,70059,1,0,0:0:0:0:
192,192,70153,1,0,0:0:0:0:
64,192,70247,1,0,0:0:0:0:
320,192,70247,1,0,0:0:0:0:
448,192,70340,1,0,0:0:0:0:
192,192,70340,1,0,0:0:0:0:
320,192,70434,1,0,0:0:0:0:
448,192,70528,1,0,0:0:0:0:
64,192,70622,1,0,0:0:0:0:
192,192,70622,1,0,0:0:0:0:
320,192,70715,1,0,0:0:0:0:
192,192,70809,1,0,0:0:0:0:
448,192,70809,1,0,0:0:0:0:
64,192,70903,1,0,0:0:0:0:
448,192,70997,1,0,0:0:0:0:
320,192,70997,1,0,0:0:0:0:
192,192,71090,1,0,0:0:0:0:
64,192,71090,1,0,0:0:0:0:
448,192,71184,128,0,71278:0:0:0:0:
320,192,71184,1,0,0:0:0:0:
320,192,71278,128,0,71372:0:0:0:0:
448,192,71372,128,0,71465:0:0:0:0:
64,192,71372,1,0,0:0:0:0:
320,192,71465,128,0,71559:0:0:0:0:
192,192,71559,128,0,71653:0:0:0:0:
320,192,71653,128,0,71747:0:0:0:0:
448,192,71653,1,0,0:0:0:0:
192,192,71747,128,0,71840:0:0:0:0:
64,192,71840,128,0,71934:0:0:0:0:
192,192,71934,128,0,72028:0:0:0:0:
448,192,71934,1,0,0:0:0:0:
64,192,72028,128,0,72122:0:0:0:0:
448,192,72122,1,0,0:0:0:0:
320,192,72122,1,0,0:0:0:0:
192,192,72215,1,0,0:0:0:0:
64,192,72309,1,0,0:0:0:0:
320,192,72403,1,0,0:0:0:0:
448,192,72497,1,0,0:0:0:0:
192,192,72497,1,0,0:0:0:0:
64,192,72590,1,0,0:0:0:0:
320,192,72590,1,0,0:0:0:0:
448,192,72684,1,0,0:0:0:0:
320,192,72778,1,0,0:0:0:0:
192,192,72872,1,0,0:0:0:0:
64,192,72872,1,0,0:0:0:0:
320,192,72965,1,0,0:0:0:0:
448,192,72965,1,0,0:0:0:0:
192,192,73059,1,0,0:0:0:0:
64,192,73153,1,0,0:0:0:0:
192,192,73247,1,0,0:0:0:0:
448,192,73247,1,0,0:0:0:0:
320,192,73340,1,0,0:0:0:0:
64,192,73340,1,0,0:0:0:0:
448,192,73434,1,0,0:0:0:0:
192,192,73528,1,0,0:0:0:0:
64,192,73622,1,0,0:0:0:0:
320,192,73622,1,0,0:0:0:0:
448,192,73715,1,0,0:0:0:0:
192,192,73715,1,0,0:0:0:0:
320,192,73809,1,0,0:0:0:0:
64,192,73903,1,0,0:0:0:0:
320,192,73997,1,0,0:0:0:0:
448,192,73997,1,0,0:0:0:0:
64,192,74090,1,0,0:0:0:0:
192,192,74090,1,0,0:0:0:0:
448,192,74184,1,0,0:0:0:0:
320,192,74278,1,0,0:0:0:0:
448,192,74372,1,0,0:0:0:0:
192,192,74372,1,0,0:0:0:0:
64,192,74465,1,0,0:0:0:0:
320,192,74465,1,0,0:0:0:0:
192,192,74559,1,0,0:0:0:0:
64,192,74653,1,0,0:0:0:0:
320,192,74747,1,0,0:0:0:0:
448,192,74747,1,0,0:0:0:0:
192,192,74840,1,0,0:0:0:0:
64,192,74840,1,0,0:0:0:0:
448,192,74934,1,0,0:0:0:0:
192,192,75028,1,0,0:0:0:0:
64,192,75122,1,0,0:0:0:0:
320,192,75122,1,0,0:0:0:0:
448,192,75215,1,0,0:0:0:0:
192,192,75215,1,0,0:0:0:0:
64,192,75309,1,0,0:0:0:0:
320,192,75403,1,0,0:0:0:0:
448,192,75497,1,0,0:0:0:0:
192,192,75497,1,0,0:0:0:0:
64,192,75590,1,0,0:0:0:0:
320,192,75590,1,0,0:0:0:0:
448,192,75684,1,0,0:0:0:0:
192,192,75778,1,0,0:0:0:0:
64,192,75872,1,0,0:0:0:0:
320,192,75872,1,0,0:0:0:0:
192,192,75965,1,0,0:0:0:0:
448,192,75965,1,0,0:0:0:0:
320,192,76059,1,0,0:0:0:0:
448,192,76153,1,0,0:0:0:0:
192,192,76247,1,0,0:0:0:0:
64,192,76247,1,0,0:0:0:0:
320,192,76340,1,0,0:0:0:0:
448,192,76340,1,0,0:0:0:0:
192,192,76434,1,0,0:0:0:0:
320,192,76528,1,0,0:0:0:0:
64,192,76622,1,0,0:0:0:0:
448,192,76622,1,0,0:0:0:0:
192,192,76622,1,0,0:0:0:0:
192,192,76809,1,0,0:0:0:0:
320,192,76903,1,0,0:0:0:0:
64,192,76997,1,0,0:0:0:0:
448,192,76997,1,0,0:0:0:0:
192,192,76997,1,0,0:0:0:0:
320,192,77184,1,0,0:0:0:0:
192,192,77278,1,0,0:0:0:0:
64,192,77372,1,0,0:0:0:0:
320,192,77372,1,0,0:0:0:0:
448,192,77372,1,0,0:0:0:0:
64,192,78122,1,0,0:0:0:0:
448,192,78122,1,0,0:0:0:0:
192,192,78122,1,0,0:0:0:0:
192,192,186122,132,0,186309:0:0:0:0:
448,192,186122,128,0,186215:0:0:0:0:
64,192,186122,128,0,186215:0:0:0:0:
320,192,186122,1,0,0:0:0:0:
448,192,186309,1,0,0:0:0:0:
320,192,186309,128,0,186403:0:0:0:0:
320,192,186497,128,0,186684:0:0:0:0:
64,192,186497,128,0,186590:0:0:0:0:
192,192,186497,128,0,186590:0:0:0:0:
64,192,186684,1,0,0:0:0:0:
448,192,186684,128,0,186778:0:0:0:0:
448,192,186872,128,0,187059:0:0:0:0:
192,192,186872,128,0,186965:0:0:0:0:
320,192,186872,128,0,186965:0:0:0:0:
320,192,187059,1,0,0:0:0:0:
64,192,187059,128,0,187153:0:0:0:0:
448,192,187247,128,0,187340:0:0:0:0:
64,192,187247,128,0,187434:0:0:0:0:
192,192,187247,128,0,187340:0:0:0:0:
192,192,187434,1,0,0:0:0:0:
448,192,187622,128,0,187809:0:0:0:0:
192,192,187622,1,0,0:0:0:0:
320,192,187622,128,0,187715:0:0:0:0:
64,192,187622,128,0,187715:0:0:0:0:
64,192,187809,1,0,0:0:0:0:
192,192,187809,128,0,187903:0:0:0:0:
192,192,187997,128,0,188184:0:0:0:0:
448,192,187997,128,0,188090:0:0:0:0:
320,192,187997,128,0,188090:0:0:0:0:
320,192,188184,1,0,0:0:0:0:
64,192,188184,128,0,188278:0:0:0:0:
64,192,188372,128,0,188559:0:0:0:0:
192,192,188372,128,0,188465:0:0:0:0:
448,192,188372,128,0,188465:0:0:0:0:
448,192,188559,1,0,0:0:0:0:
320,192,188559,128,0,188653:0:0:0:0:
320,192,188747,128,0,188934:0:0:0:0:
192,192,188747,128,0,188840:0:0:0:0:
64,192,188747,128,0,188840:0:0:0:0:
192,192,188934,1,0,0:0:0:0:
448,192,189122,128,0,189309:0:0:0:0:
64,192,189122,128,0,189215:0:0:0:0:
320,192,189122,128,0,189215:0:0:0:0:
192,192,189122,1,0,0:0:0:0:
320,192,189309,1,0,0:0:0:0:
192,192,189309,128,0,189403:0:0:0:0:
192,192,189497,128,0,189684:0:0:0:0:
448,192,189497,128,0,189590:0:0:0:0:
64,192,189497,128,0,189590:0:0:0:0:
448,192,189684,1,0,0:0:0:0:
320,192,189684,128,0,189778:0:0:0:0:
192,192,189872,128,0,189965:0:0:0:0:
320,192,189872,128,0,190059:0:0:0:0:
64,192,189872,128,0,189965:0:0:0:0:
192,192,190059,1,0,0:0:0:0:
448,192,190059,128,0,190153:0:0:0:0:
64,192,190247,128,0,190340:0:0:0:0:
448,192,190247,128,0,190434:0:0:0:0:
320,192,190247,128,0,190340:0:0:0:0:
64,192,190434,1,0,0:0:0:0:
192,192,190622,128,0,190809:0:0:0:0:
448,192,190622,128,0,190715:0:0:0:0:
320,192,190622,128,0,190715:0:0:0:0:
64,192,190622,1,0,0:0:0:0:
320,192,190809,1,0,0:0:0:0:
64,192,190809,128,0,190903:0:0:0:0:
64,192,190997,128,0,191184:0:0:0:0:
192,192,190997,128,0,191090:0:0:0:0:
448,192,190997,128,0,191090:0:0:0:0:
448,192,191184,1,0,0:0:0:0:
320,192,191184,128,0,191278:0:0:0:0:
448,192,191372,1,0,0:0:0:0:
64,192,191372,128,0,191465:0:0:0:0:
192,192,191372,128,0,191465:0:0:0:0:
320,192,191372,128,0,191653:0:0:0:0:
64,192,191653,1,0,0:0:0:0:
192,192,191653,1,0,0:0:0:0:
448,192,191653,128,0,191934:0:0:0:0:
64,192,191934,1,0,0:0:0:0:
192,192,191934,1,0,0:0:0:0:
192,192,192122,128,0,192215:0:0:0:0:
64,192,192122,128,0,192215:0:0:0:0:
448,192,192122,128,0,192309:0:0:0:0:
320,192,192215,1,0,0:0:0:0:
192,192,192309,1,0,0:0:0:0:
320,192,192309,128,0,192403:0:0:0:0:
64,192,192403,1,0,0:0:0:0:
192,192,192497,128,0,192590:0:0:0:0:
320,192,192497,128,0,192684:0:0:0:0:
64,192,192497,128,0,192590:0:0:0:0:
448,192,192590,1,0,0:0:0:0:
192,192,192684,1,0,0:0:0:0:
448,192,192684,128,0,192778:0:0:0:0:
64,192,192778,1,0,0:0:0:0:
448,192,192872,128,0,193059:0:0:0:0:
320,192,192872,128,0,192965:0:0:0:0:
192,192,192872,128,0,192965:0:0:0:0:
64,192,192965,1,0,0:0:0:0:
64,192,193059,128,0,193153:0:0:0:0:
320,192,193059,1,0,0:0:0:0:
192,192,193153,1,0,0:0:0:0:
64,192,193247,128,0,193434:0:0:0:0:
320,192,193247,128,0,193340:0:0:0:0:
448,192,193247,128,0,193340:0:0:0:0:
192,192,193340,1,0,0:0:0:0:
448,192,193434,1,0,0:0:0:0:
192,192,193434,128,0,193528:0:0:0:0:
320,192,193528,1,0,0:0:0:0:
192,192,193622,128,0,193809:0:0:0:0:
64,192,193622,128,0,193715:0:0:0:0:
448,192,193622,128,0,193715:0:0:0:0:
320,192,193715,1,0,0:0:0:0:
320,192,193809,128,0,193903:0:0:0:0:
64,192,193809,1,0,0:0:0:0:
448,192,193903,1,0,0:0:0:0:
320,192,193997,128,0,194184:0:0:0:0:
192,192,193997,128,0,194090:0:0:0:0:
64,192,193997,128,0,194090:0:0:0:0:
448,192,194090,1,0,0:0:0:0:
448,192,194184,128,0,194278:0:0:0:0:
192,192,194184,1,0,0:0:0:0:
64,192,194278,1,0,0:0:0:0:
448,192,194372,128,0,194559:0:0:0:0:
320,192,194372,128,0,194465:0:0:0:0:
192,192,194372,128,0,194465:0:0:0:0:
64,192,194465,1,0,0:0:0:0:
64,192,194559,128,0,194653:0:0:0:0:
320,192,194559,1,0,0:0:0:0:
192,192,194653,1,0,0:0:0:0:
64,192,194747,128,0,194934:0:0:0:0:
320,192,194747,128,0,194840:0:0:0:0:
448,192,194747,128,0,194840:0:0:0:0:
192,192,194840,1,0,0:0:0:0:
192,192,194934,128,0,195028:0:0:0:0:
448,192,194934,1,0,0:0:0:0:
320,192,195028,1,0,0:0:0:0:
192,192,195122,128,0,195309:0:0:0:0:
448,192,195122,128,0,195215:0:0:0:0:
64,192,195122,128,0,195215:0:0:0:0:
320,192,195215,1,0,0:0:0:0:
64,192,195309,1,0,0:0:0:0:
320,192,195309,128,0,195403:0:0:0:0:
448,192,195403,1,0,0:0:0:0:
320,192,195497,128,0,195684:0:0:0:0:
64,192,195497,128,0,195590:0:0:0:0:
192,192,195497,128,0,195590:0:0:0:0:
448,192,195590,1,0,0:0:0:0:
64,192,195684,1,0,0:0:0:0:
448,192,195684,128,0,195778:0:0:0:0:
192,192,195778,1,0,0:0:0:0:
448,192,195872,128,0,196059:0:0:0:0:
320,192,195872,128,0,195965:0:0:0:0:
64,192,195872,128,0,195965:0:0:0:0:
192,192,195965,1,0,0:0:0:0:
320,192,196059,1,0,0:0:0:0:
192,192,196059,128,0,196153:0:0:0:0:
64,192,196153,1,0,0:0:0:0:
192,192,196247,128,0,196434:0:0:0:0:
320,192,196247,128,0,196340:0:0:0:0:
448,192,196247,128,0,196340:0:0:0:0:
64,192,196340,1,0,0:0:0:0:
448,192,196434,1,0,0:0:0:0:
64,192,196434,128,0,196528:0:0:0:0:
320,192,196528,1,0,0:0:0:0:
64,192,196622,128,0,196809:0:0:0:0:
192,192,196622,128,0,196715:0:0:0:0:
448,192,196622,128,0,196715:0:0:0:0:
320,192,196715,1,0,0:0:0:0:
192,192,196809,1,0,0:0:0:0:
320,192,196809,128,0,196903:0:0:0:0:
448,192,196903,1,0,0:0:0:0:
320,192,196997,128,0,197184:0:0:0:0:
64,192,196997,128,0,197090:0:0:0:0:
192,192,196997,128,0,197090:0:0:0:0:
448,192,197372,1,0,0:0:0:0:
192,192,197372,1,0,0:0:0:0:
320,192,197465,1,0,0:0:0:0:
448,192,197559,1,0,0:0:0:0:
64,192,197559,1,0,0:0:0:0:
320,192,197653,1,0,0:0:0:0:
448,192,197747,1,0,0:0:0:0:
192,192,197747,1,0,0:0:0:0:
320,192,197840,1,0,0:0:0:0:
64,192,197934,1,0,0:0:0:0:
448,192,197934,1,0,0:0:0:0:
320,192,198028,1,0,0:0:0:0:
192,192,198122,1,0,0:0:0:0:
448,192,198122,1,0,0:0:0:0:
64,192,198122,1,0,0:0:0:0:
320,192,231122,5,0,0:0:0:0:
192,192,231168,1,0,0:0:0:0:
64,192,231215,1,0,0:0:0:0:
448,192,231262,1,0,0:0:0:0:
320,192,231309,1,0,0:0:0:0:
320,192,231497,1,0,0:0:0:0:
192,192,231543,1,0,0:0:0:0:
64,192,231590,1,0,0:0:0:0:
448,192,231637,1,0,0:0:0:0:
320,192,231684,1,0,0:0:0:0:
192,192,231872,1,0,0:0:0:0:
320,192,231918,1,0,0:0:0:0:
448,192,231965,1,0,0:0:0:0:
192,192,232059,1,0,0:0:0:0:
320,192,232106,1,0,0:0:0:0:
448,192,232153,1,0,0:0:0:0:
64,192,232200,1,0,0:0:0:0:
192,192,232247,1,0,0:0:0:0:
192,192,232434,1,0,0:0:0:0:
320,192,232481,1,0,0:0:0:0:
448,192,232528,1,0,0:0:0:0:
64,192,232575,1,0,0:0:0:0:
192,192,232622,1,0,0:0:0:0:
448,192,232809,1,0,0:0:0:0:
320,192,232809,1,0,0:0:0:0:
64,192,232809,1,0,0:0:0:0:
448,192,232903,1,0,0:0:0:0:
320,192,232903,1,0,0:0:0:0:
192,192,232903,1,0,0:0:0:0:
64,192,232997,1,0,0:0:0:0:
320,192,232997,1,0,0:0:0:0:
448,192,232997,1,0,0:0:0:0:
448,192,233559,1,0,0:0:0:0:
320,192,233559,1,0,0:0:0:0:
192,192,233559,1,0,0:0:0:0:
64,192,233559,1,0,0:0:0:0:
448,192,233747,1,0,0:0:0:0:
320,192,233747,1,0,0:0:0:0:
192,192,233747,1,0,0:0:0:0:
64,192,233747,1,0,0:0:0:0:
64,192,233934,1,0,0:0:0:0:
192,192,233934,1,0,0:0:0:0:
320,192,233934,1,0,0:0:0:0:
448,192,233934,1,0,0:0:0:0:
