osu file format v14

[General]
AudioFilename: audio.mp3
AudioLeadIn: 0
PreviewTime: 107536
Countdown: 0
SampleSet: Normal
StackLeniency: 0.7
Mode: 0
LetterboxInBreaks: 0
WidescreenStoryboard: 1

[Editor]
Bookmarks: 10189,16312,34831,93607,113505
DistanceSpacing: 1.1
BeatDivisor: 2
GridSize: 16
TimelineZoom: 1.4

[Metadata]
Title:GRISAILLE
TitleUnicode:GRISAILLE
Artist:SOUND HOLIC
ArtistUnicode:SOUND HOLIC
Creator:Zunv
Version:Easy
Source:
Tags:Nana Takahashi
BeatmapID:1121644
BeatmapSetID:526448

[Difficulty]
HPDrainRate:2
CircleSize:2.5
OverallDifficulty:1
ApproachRate:3
SliderMultiplier:0.8
SliderTickRate:1

[Events]
//Background and Video events
0,0,"Konachan.com - 185613 sample.jpg",0,0
//Break Periods
2,130848,136249
2,147531,150943
//Storyboard Layer 0 (Background)
//Storyboard Layer 1 (Fail)
//Storyboard Layer 2 (Pass)
//Storyboard Layer 3 (Foreground)
//Storyboard Sound Samples

[TimingPoints]
394,306.122448979592,4,1,0,100,1,0
853,306.122448979592,4,1,0,100,1,0
18761,306.122448979592,4,1,0,100,1,0
20138,306.122448979592,4,1,0,100,1,0
49372,-100,4,1,0,100,0,1
59015,-100,4,1,0,100,0,0
59168,-100,4,1,0,100,0,1
69117,-100,4,1,0,100,0,0
77536,306.122448979592,4,1,0,100,1,0
78914,306.122448979592,4,1,0,100,1,0
108148,-100,4,1,0,100,0,1
117791,-100,4,1,0,100,0,0
117944,-100,4,1,0,100,0,1
127893,-100,4,1,0,100,0,0
136312,306.122448979592,4,1,0,100,1,0
137536,-100,4,1,0,100,0,0
137689,306.122448979592,4,1,0,100,1,0
147332,-100,4,1,0,100,0,0
166923,-100,4,1,0,100,0,1
175495,306.122448979592,4,1,0,100,1,1
176719,-100,4,1,0,100,0,0
176872,306.122448979592,4,1,0,100,1,0

[HitObjects]
295,103,10189,6,0,P|262:173|187:190,1,160,4|0,0:0|0:0,0:0:0:0:
245,24,11414,2,0,P|320:8|379:59,1,160,4|0,0:0|0:0,0:0:0:0:
428,227,12638,6,0,L|274:281,1,160,4|0,0:0|0:0,0:0:0:0:
101,300,13863,2,0,B|181:268|181:268|213:204|213:204|293:172,1,240,4|8,0:0|0:0,0:0:0:0:
328,252,15087,6,0,P|372:140|274:88,1,240,6|0,0:0|0:0,0:0:0:0:
201,109,16312,2,0,L|47:163,1,160,4|0,0:0|0:0,0:0:0:0:
172,281,17536,6,0,B|235:251|238:193|307:164,1,160,6|0,0:0|0:0,0:0:0:0:
163,48,18761,2,0,L|88:74,1,80,8|8,0:0|0:0,0:0:0:0:
87,162,19373,1,8,0:0:0:0:
149,224,19679,2,0,B|205:259|205:259|293:256,1,120,8|4,0:0|0:0,0:0:0:0:
351,107,20750,5,0,0:0:0:0:
178,139,21362,1,0,0:0:0:0:
315,28,21974,1,0,0:0:0:0:
418,170,22586,6,0,P|375:261|319:286,1,160,0|0,0:0|0:0,0:0:0:0:
149,301,23811,1,0,0:0:0:0:
225,143,24423,1,0,0:0:0:0:
324,284,25035,6,0,L|388:117,1,160,0|0,0:0|0:0,0:0:0:0:
224,64,26260,1,0,0:0:0:0:
256,240,26872,1,0,0:0:0:0:
144,112,27484,6,0,P|96:176|96:288,1,160,0|0,0:0|0:0,0:0:0:0:
0,96,28709,1,0,0:0:0:0:
160,0,29321,1,0,0:0:0:0:
160,176,29933,6,0,B|205:257|245:188|304:277,1,160,12|0,0:0|0:0,0:0:0:0:
416,384,31158,1,0,0:0:0:0:
464,208,31770,1,0,0:0:0:0:
400,48,32382,2,0,P|320:16|240:48,1,160,0|0,0:0|0:0,0:0:0:0:
46,323,34219,1,0,0:0:0:0:
149,180,34831,6,0,P|199:140|288:165,1,160,0|0,0:0|0:0,0:0:0:0:
144,268,36056,2,0,P|84:241|66:150,1,160,0|0,0:0|0:0,0:0:0:0:
198,41,37280,1,0,0:0:0:0:
368,84,37893,1,0,0:0:0:0:
402,256,38505,2,0,L|241:208,1,160,0|0,0:0|0:0,0:0:0:0:
133,76,39730,5,0,0:0:0:0:
394,37,40648,1,0,0:0:0:0:
272,272,41566,2,0,B|256:192|288:192|272:80,1,160,6|0,0:0|0:0,0:0:0:0:
96,304,43097,1,0,0:0:0:0:
208,64,44015,6,0,P|275:30|357:92,1,160,6|0,0:0|0:0,0:0:0:0:
409,230,45240,1,8,0:0:0:0:
276,114,45852,1,8,0:0:0:0:
238,284,46464,1,8,0:0:0:0:
355,152,47076,2,0,P|309:195|251:197,1,120,8|8,0:0|0:0,0:0:0:0:
188,139,47842,1,8,0:0:0:0:
211,54,48148,2,0,P|135:69|99:137,1,160,8|0,0:0|0:0,0:0:0:0:
272,173,49372,6,0,B|216:271|173:185|120:288,1,200,2|0,0:0|0:0,0:0:0:0:
273,375,50750,2,0,B|298:331|298:331|308:284|308:284|346:236,1,160,0|0,0:0|0:0,0:0:0:0:
179,180,51974,2,0,P|226:103|290:71,1,160,2|0,0:0|0:0,0:0:0:0:
236,240,53199,2,0,P|189:317|125:349,1,160,2|0,0:0|0:0,0:0:0:0:
151,173,54423,6,0,P|245:132|316:170,1,160,0|0,0:0|0:0,0:0:0:0:
428,264,55648,1,2,0:0:0:0:
276,353,56260,1,0,0:0:0:0:
156,224,56872,2,0,B|204:208|204:208|244:169|244:169|308:144,1,160,0|0,0:0|0:0,0:0:0:0:
460,208,58097,2,0,L|305:253,2,160,0|0|0,0:0|0:0|0:0,0:0:0:0:
324,95,59934,5,0,0:0:0:0:
149,75,60546,2,0,P|86:142|71:229,1,160,0|0,0:0|0:0,0:0:0:0:
245,226,61770,2,0,P|308:159|323:72,1,160,6|0,0:0|0:0,0:0:0:0:
149,75,62995,1,0,0:0:0:0:
157,250,63607,2,0,B|179:289|179:289|248:340|248:340|271:379,1,160,0|2,0:0|0:0,0:0:0:0:
415,278,64832,5,0,0:0:0:0:
375,106,65444,1,2,0:0:0:0:
321,273,66056,1,0,0:0:0:0:
465,172,66668,1,0,0:0:0:0:
288,167,67281,1,0,0:0:0:0:
139,260,67893,2,0,P|107:164|123:100,1,160,0|0,0:0|0:0,0:0:0:0:
236,47,68964,6,0,L|250:200,1,120,6|8,0:0|0:0,0:0:0:0:
85,316,70189,6,0,L|99:163,1,120,8|8,0:0|0:0,0:0:0:0:
299,279,71413,6,0,L|418:268,1,120,8|8,0:0|0:0,0:0:0:0:
257,117,72638,6,0,L|137:106,1,120,8|8,0:0|0:0,0:0:0:0:
335,201,73862,2,0,P|374:122|321:27,1,200,8|0,0:0|0:0,0:0:0:0:
151,2,75240,5,0,0:0:0:0:
113,173,75852,1,0,0:0:0:0:
288,192,76464,2,0,P|288:272|224:320,1,160,0|0,0:0|0:0,0:0:0:0:
97,322,77536,2,0,L|65:242,1,80,8|8,0:0|0:0,0:0:0:0:
113,173,78148,2,0,L|145:93,1,80,8|8,0:0|0:0,0:0:0:0:
271,71,78913,5,4,0:0:0:0:
400,192,79526,1,0,0:0:0:0:
224,192,80138,1,0,0:0:0:0:
377,106,80750,2,0,P|464:128|490:197,1,160,0|0,0:0|0:0,0:0:0:0:
432,353,81975,2,0,B|400:305|400:305|336:273|336:273|304:225,1,160,0|0,0:0|0:0,0:0:0:0:
238,90,83199,1,0,0:0:0:0:
118,325,84118,5,8,0:0:0:0:
267,231,84730,1,8,0:0:0:0:
111,148,85342,2,0,P|81:110|85:46,2,80,8|0|0,0:0|0:0|0:0,0:0:0:0:
274,81,86567,1,8,0:0:0:0:
328,248,87179,2,0,L|433:289,2,80,8|0|0,0:0|0:0|0:0,0:0:0:0:
242,229,88097,1,0,0:0:0:0:
389,132,88709,6,0,B|417:212|465:169|495:250,1,160,8|0,0:0|0:0,0:0:0:0:
325,193,89934,2,0,P|314:87|370:49,1,160,0|0,0:0|0:0,0:0:0:0:
194,141,91158,2,0,P|182:246|126:277,1,160,0|0,0:0|0:0,0:0:0:0:
42,128,92383,2,0,L|126:195,2,80,0|0|0,0:0|0:0|0:0,0:0:0:0:
140,40,93454,5,0,0:0:0:0:
362,21,94220,2,0,L|348:180,1,160,0|0,0:0|0:0,0:0:0:0:
208,287,95444,2,0,L|194:127,1,160,0|0,0:0|0:0,0:0:0:0:
293,272,96669,2,0,P|262:354|189:369,1,160,0|0,0:0|0:0,0:0:0:0:
35,303,97893,1,0,0:0:0:0:
208,287,98505,5,0,0:0:0:0:
405,111,99424,1,0,0:0:0:0:
144,144,100342,2,0,B|192:224|96:224|144:304,1,160,6|0,0:0|0:0,0:0:0:0:
384,208,101873,2,0,L|512:160,2,120,0|0|6,0:0|0:0|0:0,0:0:0:0:
224,272,103403,5,0,0:0:0:0:
192,96,104016,1,8,0:0:0:0:
352,160,104628,2,0,L|387:352,1,160,8|8,0:0|0:0,0:0:0:0:
434,149,105852,2,0,L|405:17,1,120,4|0,0:0|0:0,0:0:0:0:
320,32,106618,1,0,0:0:0:0:
240,48,106924,2,0,P|271:98|355:107,1,120,0|4,0:0|0:0,0:0:0:0:
233,313,108148,2,0,L|109:285,1,120,6|8,0:0|0:0,0:0:0:0:
96,112,109220,2,0,L|176:96,1,80,8|0,0:0|0:0,0:0:0:0:
352,80,110138,1,0,0:0:0:0:
240,256,110750,2,0,P|320:256|352:176,1,160,6|0,0:0|0:0,0:0:0:0:
208,80,111975,2,0,L|128:16,2,80,0|8|0,0:0|0:0|0:0,0:0:0:0:
383,80,113199,5,4,0:0:0:0:
240,192,113811,2,0,L|177:241,2,80,0|8|0,0:0|0:0|0:0,0:0:0:0:
416,192,115036,1,0,0:0:0:0:
265,283,115648,2,0,P|206:334|120:313,1,160,0|0,0:0|0:0,0:0:0:0:
253,195,116873,2,0,P|326:220|351:305,1,160,0|8,0:0|0:0,0:0:0:0:
221,284,117944,2,0,B|167:275|167:275|119:223,1,120,6|8,0:0|0:0,0:0:0:0:
240,96,119016,2,0,L|319:102,1,80,8|0,0:0|0:0,0:0:0:0:
186,217,119934,1,0,0:0:0:0:
352,176,120546,2,0,L|365:335,1,160,6|0,0:0|0:0,0:0:0:0:
262,192,121771,2,0,P|270:136|308:96,2,80,0|8|0,0:0|0:0|0:0,0:0:0:0:
340,349,122995,5,0,0:0:0:0:
390,180,123607,1,0,0:0:0:0:
215,206,124220,1,0,0:0:0:0:
265,37,124832,1,0,0:0:0:0:
308,207,125444,1,0,0:0:0:0:
139,156,126056,1,0,0:0:0:0:
181,326,126669,2,0,L|292:335,1,80,0|8,0:0|0:0,0:0:0:0:
141,148,127740,5,6,0:0:0:0:
256,192,127893,12,0,130648,0:0:0:0:
116,95,137689,6,0,L|156:185,1,80,0|8,0:0|0:0,0:0:0:0:
236,168,138301,1,0,0:0:0:0:
144,17,138914,2,0,P|98:14|36:119,1,160,0|0,0:0|0:0,0:0:0:0:
82,264,140138,6,0,L|122:354,1,80,0|8,0:0|0:0,0:0:0:0:
202,337,140750,1,0,0:0:0:0:
326,212,141362,2,0,B|258:147|351:122|253:65,1,160,0|0,0:0|0:0,0:0:0:0:
90,74,142587,6,0,L|10:106,1,80,0|8,0:0|0:0,0:0:0:0:
75,167,143199,2,0,L|155:199,1,80,8|8,0:0|0:0,0:0:0:0:
213,132,143811,2,0,L|287:102,1,80,0|8,0:0|0:0,0:0:0:0:
349,39,144424,6,0,L|423:68,1,80,0|8,0:0|0:0,0:0:0:0:
363,133,145036,2,0,L|437:162,2,80,0|8|8,0:0|0:0|0:0,0:0:0:0:
297,191,145954,1,8,0:0:0:0:
277,105,146260,2,0,P|215:215|325:274,1,280,8|4,0:0|0:0,0:0:0:0:
144,144,152383,5,0,0:0:0:0:
208,304,152995,1,0,0:0:0:0:
256,144,153607,1,0,0:0:0:0:
117,253,154219,1,0,0:0:0:0:
293,252,154831,2,0,L|358:207,2,80,0|0|0,0:0|0:0|0:0,0:0:0:0:
138,337,155903,2,0,P|61:320|39:219,1,160,0|0,0:0|0:0,0:0:0:0:
50,71,157128,2,0,L|171:12,1,120,6|8,0:0|0:0,0:0:0:0:
299,127,158199,1,8,0:0:0:0:
123,134,158811,2,0,L|55:212,1,80,8|0,0:0|0:0,0:0:0:0:
246,194,159729,6,0,P|215:112|262:50,1,160,4|0,0:0|0:0,0:0:0:0:
427,56,160954,1,0,0:0:0:0:
340,209,161566,2,0,L|272:287,1,80,0|0,0:0|0:0,0:0:0:0:
201,287,162178,2,0,P|244:346|343:338,1,160,4|0,0:0|0:0,0:0:0:0:
432,208,163403,6,0,B|424:122|367:151|373:58,1,160,4|0,0:0|0:0,0:0:0:0:
240,192,164627,1,6,0:0:0:0:
176,32,165240,1,6,0:0:0:0:
153,206,165852,2,0,P|173:250|222:276,2,80,6|0|0,0:0|0:0|0:0,0:0:0:0:
201,83,166923,6,0,B|265:51|265:115|345:83,1,120,6|8,0:0|0:0,0:0:0:0:
364,165,167689,2,0,P|405:99|381:34,1,120,8|8,0:0|0:0,0:0:0:0:
487,157,168607,2,0,L|460:270,1,80,8|8,0:0|0:0,0:0:0:0:
341,271,169373,2,0,P|292:250|260:173,1,120,8|8,0:0|0:0,0:0:0:0:
246,106,170138,1,8,0:0:0:0:
356,178,170597,2,0,P|404:198|436:275,1,120,8|8,0:0|0:0,0:0:0:0:
233,341,171822,2,0,L|103:327,1,120,12|0,0:0|0:0,0:0:0:0:
35,368,172587,2,0,P|30:302|111:241,1,160,4|0,0:0|0:0,0:0:0:0:
270,260,173811,2,0,P|268:181|218:121,1,160,0|0,0:0|0:0,0:0:0:0:
363,21,175036,2,0,L|476:58,1,120,4|8,0:0|0:0,0:0:0:0:
426,130,175801,2,0,L|350:155,2,80,8|8|8,0:0|0:0|0:0,0:0:0:0:
256,192,176872,12,0,179321,0:0:0:0:
