osu file format v14

[General]
AudioFilename: audio.mp3
AudioLeadIn: 0
PreviewTime: 58657
Countdown: 0
SampleSet: Soft
StackLeniency: 0.7
Mode: 0
LetterboxInBreaks: 0
WidescreenStoryboard: 0

[Editor]
Bookmarks: 2407,19282,26782,58657,79282,88657,120532,141157,161782,204907,225532
DistanceSpacing: 1
BeatDivisor: 4
GridSize: 4
TimelineZoom: 1

[Metadata]
Title:Fushigi no Kuni no Christmas
TitleUnicode:不思議の国のクリスマス
Artist:SOUND HOLIC
ArtistUnicode:SOUND HOLIC
Creator:-Faded-
Version:Normal
Source:秋霜玉
Tags:3L MasKaleido Blue E 秘 -HIME- Magical Girl Crusade Ghostly Field Club Winter Xmas in wonderland
BeatmapID:1445817
BeatmapSetID:683589

[Difficulty]
HPDrainRate:4
CircleSize:2.7
OverallDifficulty:5
ApproachRate:5
SliderMultiplier:1.2
SliderTickRate:1

[Events]
//Background and Video events
0,0,"52c2ad6d-4efe-4446-abf333-01ad8944ded5.png",0,0
//Break Periods
2,19482,25462
2,81157,87457
2,143032,149332
2,161981,164332
//Storyboard Layer 0 (Background)
//Storyboard Layer 1 (Fail)
//Storyboard Layer 2 (Pass)
//Storyboard Layer 3 (Foreground)
//Storyboard Sound Samples

[TimingPoints]
2407,468.75,4,2,1,60,1,0
58657,-83.3333333333333,4,2,1,60,0,1
79282,-100,4,2,1,60,0,0
120532,-83.3333333333333,4,2,1,60,0,1
141157,-100,4,2,1,60,0,0
165532,-83.3333333333333,4,2,1,60,0,1
182407,-100,4,2,1,60,0,0
184282,-83.3333333333333,4,2,1,60,0,1
204907,-100,4,2,1,60,0,0
223657,-100,4,2,1,50,0,0
224594,-100,4,2,1,40,0,0
225532,-100,4,2,1,30,0,0

[Colours]
Combo1 : 128,207,255
Combo2 : 255,132,132
Combo3 : 128,255,128

[HitObjects]
408,128,2407,6,0,P|344:135|296:195,2,120,6|0|2,0:0|0:0|0:0,0:0:0:0:
500,204,3813,2,0,B|468:252|396:248|396:248|360:308|276:300,1,240
180,268,5219,2,0,P|164:208|180:152,1,120,2|0,0:0|0:0,0:0:0:0:
268,72,6157,6,0,P|228:40|148:40,1,120,2|0,0:0|0:0,0:0:0:0:
64,112,7094,2,0,B|64:168|32:192|32:192|64:224|64:280,1,180,2|0,0:0|0:0,0:0:0:0:
92,328,8032,2,0,B|164:328|164:328|192:340|192:340|284:340,1,180,2|0,0:0|0:0,0:0:0:0:
328,336,8969,1,2,0:0:0:0:
384,96,9907,6,0,P|336:84|260:104,2,120,2|0|2,0:0|0:0|0:0,0:0:0:0:
460,188,11313,2,0,L|456:268,1,60
436,304,11782,2,0,P|388:332|304:324,1,120,2|0,0:0|0:0,0:0:0:0:
228,264,12719,2,0,P|176:252|96:276,1,120,2|0,0:0|0:0,0:0:0:0:
20,340,13657,6,0,P|68:284|60:176,1,180,2|0,0:0|0:0,0:0:0:0:
24,136,14594,2,0,P|8:92|16:24,2,90,2|2|2,0:0|0:0|0:0,0:0:0:0:
63,182,15532,2,0,P|115:178|200:80,1,180,2|0,0:0|0:0,0:0:0:0:
208,32,16469,1,2,0:0:0:0:
256,192,16938,12,4,19282,0:0:0:0:
204,64,26782,6,0,L|328:60,1,120,6|8,0:0|0:0,0:0:0:0:
440,88,27719,2,2,P|456:136|428:208,1,120,2|8,0:0|0:0,0:0:0:0:
320,236,28657,2,0,L|200:232,1,120,2|8,0:0|0:0,0:0:0:0:
80,220,29594,2,0,P|88:160|188:184,1,180,2|0,0:0|0:0,0:0:0:0:
200,232,30532,6,0,L|196:368,1,120,2|8,0:0|0:0,0:0:0:0:
315,351,31469,2,0,L|312:232,1,120,2|8,0:0|0:0,0:0:0:0:
376,128,32407,2,0,P|320:107|263:121,1,120,2|8,0:0|0:0,0:0:0:0:
188,212,33344,2,0,P|144:168|184:44,1,180,2|0,0:0|0:0,0:0:0:0:
212,24,34282,6,0,P|268:8|340:20,1,120,6|8,0:0|0:0,0:0:0:0:
396,112,35219,2,0,P|340:128|268:116,1,120,2|8,0:0|0:0,0:0:0:0:
196,204,36157,2,0,P|236:228|380:236,1,180,2|0,0:0|0:0,0:0:0:0:
420,212,37094,2,0,P|452:220|416:336,1,180,2|0,0:0|0:0,0:0:0:0:
380,352,38032,6,0,P|304:360|240:348,1,120,2|8,0:0|0:0,0:0:0:0:
180,264,38969,2,0,P|120:257|62:270,1,120,2|8,0:0|0:0,0:0:0:0:
24,152,39907,2,0,P|96:132|216:148,1,180,2|0,0:0|0:0,0:0:0:0:
252,172,40844,2,0,L|380:168,1,120,2|8,0:0|0:0,0:0:0:0:
456,256,41782,6,0,P|500:176|428:56,1,240,6|2,0:0|0:0,0:0:0:0:
312,40,43188,1,2,0:0:0:0:
232,128,43657,2,0,P|240:308|240:308,1,180,8|0,0:0|0:0,0:0:0:0:
264,364,44594,1,2,0:0:0:0:
312,132,45532,6,0,B|252:108|196:136|196:136|136:164|64:124,1,240,2|2,0:0|0:0,0:0:0:0:
140,28,46938,1,2,0:0:0:0:
260,24,47407,2,2,P|312:28|376:55,1,120,8|2,0:0|0:0,0:0:0:0:
417,165,48344,2,0,P|413:213|313:297,1,180,2|0,0:0|0:0,0:0:0:0:
264,300,49282,6,2,L|152:296,2,90
220,188,50453,2,0,L|92:184,1,120,2|0,0:0|0:0,0:0:0:0:
48,156,51157,2,2,P|44:112|64:64,2,90
76,272,52328,2,0,L|196:276,1,120,2|0,0:0|0:0,0:0:0:0:
252,296,53032,6,2,L|360:292,2,90
196,188,54203,2,2,L|128:184,2,60
256,192,54907,12,4,56782,0:0:0:0:
184,104,58657,6,0,P|108:88|45:103,2,143.999995605469,4|8|2,1:0|0:0|0:0,0:0:0:0:
312,220,60063,2,0,P|344:228|383:219,1,71.9999978027344,8|0,0:0|0:0,0:0:0:0:
468,208,60532,2,0,P|458:176|432:146,1,71.9999978027344,2|0,0:0|0:0,0:0:0:0:
380,80,61000,2,0,P|357:103|344:141,1,71.9999978027344,8|0,0:0|0:0,0:0:0:0:
312,220,61469,2,0,L|320:372,1,143.999995605469,2|8,0:0|0:0,0:0:0:0:
160,300,62407,6,0,L|164:212,1,71.9999978027344,2|0,0:0|0:0,0:0:0:0:
104,164,62875,2,0,L|108:76,1,71.9999978027344,8|0,0:0|0:0,0:0:0:0:
180,44,63344,2,2,P|232:48|296:104,2,107.999996704102
107,92,64282,2,2,P|55:88|-9:32,2,107.999996704102
184,132,65219,2,2,L|180:280,1,143.999995605469,2|8,0:0|0:0,0:0:0:0:
320,380,66157,6,0,P|348:332|336:240,2,143.999995605469,4|8|2,0:0|0:0|0:0,0:0:0:0:
180,276,67563,2,0,P|176:232|196:184,1,71.9999978027344,8|0,0:0|0:0,0:0:0:0:
152,124,68032,2,0,P|196:120|244:140,1,71.9999978027344,2|0,0:0|0:0,0:0:0:0:
304,96,68500,2,0,P|308:140|288:188,1,71.9999978027344,8|0,0:0|0:0,0:0:0:0:
380,196,68969,2,0,P|288:252|240:228,1,143.999995605469,2|8,0:0|0:0,0:0:0:0:
96,200,69907,6,0,P|89:235|93:270,1,71.9999978027344,2|0,0:0|0:0,0:0:0:0:
148,340,70375,2,0,L|240:344,1,71.9999978027344,8|0,0:0|0:0,0:0:0:0:
296,300,70844,2,2,L|300:192,2,107.999996704102
380,324,71782,2,2,L|384:216,2,107.999996704102
464,348,72719,2,0,L|468:184,1,143.999995605469,2|8,0:0|0:0,0:0:0:0:
360,68,73657,6,0,P|304:48|204:56,1,143.999995605469,6|8,0:0|0:0,0:0:0:0:
92,164,74594,2,0,L|88:307,1,143.999995605469,2|8,0:0|0:0,0:0:0:0:
156,360,75297,1,0,0:0:0:0:
220,304,75532,2,2,L|224:216,1,71.9999978027344
228,144,76000,1,10,0:0:0:0:
304,184,76235,1,6,0:0:0:0:
416,52,76703,2,2,L|412:144,2,71.9999978027344
256,192,77407,12,4,79282,0:0:0:0:
320,248,88657,6,0,P|372:240|424:168,1,120,6|8,0:0|0:0,0:0:0:0:
356,88,89594,2,0,P|304:96|252:168,1,120,2|8,0:0|0:0,0:0:0:0:
204,252,90532,2,0,L|68:244,1,120,2|8,0:0|0:0,0:0:0:0:
12,148,91469,2,0,P|20:76|120:32,1,180,2|0,0:0|0:0,0:0:0:0:
164,52,92407,6,0,L|304:48,1,120,2|8,0:0|0:0,0:0:0:0:
332,160,93344,2,0,L|192:164,1,120,2|8,0:0|0:0,0:0:0:0:
168,276,94282,2,0,L|308:272,1,120,2|8,0:0|0:0,0:0:0:0:
380,352,95219,2,0,P|416:304|380:192,1,180,2|0,0:0|0:0,0:0:0:0:
336,160,96157,6,0,P|320:104|348:32,1,120,6|8,0:0|0:0,0:0:0:0:
456,48,97094,2,0,P|472:104|444:176,1,120,2|8,0:0|0:0,0:0:0:0:
388,264,98032,2,0,B|336:280|296:260|296:260|256:240|200:260,1,180,2|0,0:0|0:0,0:0:0:0:
152,248,98969,2,0,P|112:216|192:200,1,180,2|0,0:0|0:0,0:0:0:0:
212,255,99907,6,0,L|208:376,1,120,2|8,0:0|0:0,0:0:0:0:
328,360,100844,2,0,L|332:239,1,120,2|8,0:0|0:0,0:0:0:0:
336,120,101782,2,0,P|288:80|184:124,1,180,2|0,0:0|0:0,0:0:0:0:
180,176,102719,2,0,B|196:216|168:256|184:296,1,120,2|8,0:0|0:0,0:0:0:0:
296,336,103657,6,0,P|440:296|464:200,1,240,6|2,0:0|0:0,0:0:0:0:
436,104,105063,1,2,0:0:0:0:
316,96,105532,2,0,P|272:108|228:224,1,180,8|0,0:0|0:0,0:0:0:0:
252,280,106469,1,2,0:0:0:0:
480,352,107407,6,0,P|504:300|368:208,1,240,2|2,0:0|0:0,0:0:0:0:
284,260,108813,1,2,0:0:0:0:
188,192,109282,2,0,P|176:128|192:68,1,120,8|8,0:0|0:0,0:0:0:0:
294,20,110219,2,0,P|338:16|450:104,1,180,2|0,0:0|0:0,0:0:0:0:
466,144,111157,6,2,L|462:236,2,90
354,188,112328,2,0,L|346:316,1,120,2|0,0:0|0:0,0:0:0:0:
302,348,113032,2,2,P|266:360|206:356,2,90
242,244,114203,2,2,P|202:216|122:236,1,120,2|0,0:0|0:0,0:0:0:0:
102,276,114907,6,2,L|110:368,2,90
66,160,116078,2,2,L|70:96,2,60
256,192,116782,12,4,118657,0:0:0:0:
160,272,120532,6,0,P|232:292|320:268,2,143.999995605469,4|8|2,1:0|0:0|0:0,0:0:0:0:
92,112,121938,2,0,L|88:36,1,71.9999978027344,8|0,0:0|0:0,0:0:0:0:
172,52,122407,2,0,L|176:128,1,71.9999978027344,2|0,0:0|0:0,0:0:0:0:
260,136,122875,2,0,L|256:60,1,71.9999978027344,8|0,0:0|0:0,0:0:0:0:
340,80,123344,2,0,L|348:252,1,143.999995605469,2|8,0:0|0:0,0:0:0:0:
228,348,124282,6,0,P|184:352|144:336,1,71.9999978027344,2|0,0:0|0:0,0:0:0:0:
100,280,124750,2,0,P|96:236|112:196,1,71.9999978027344,8|0,0:0|0:0,0:0:0:0:
172,156,125219,2,2,P|144:132|76:128,2,107.999996704102
256,180,126157,2,2,P|290:167|328:110,2,107.999996704102
192,240,127094,2,2,P|185:276|236:368,1,143.999995605469,2|8,0:0|0:0,0:0:0:0:
408,352,128032,6,0,P|451:296|449:225,2,143.999995605469,6|8|2,0:0|0:0|0:0,0:0:0:0:
312,208,129438,2,0,P|312:163|329:121,1,71.9999978027344,8|0,0:0|0:0,0:0:0:0:
394,94,129907,2,0,P|431:116|460:152,1,71.9999978027344,2|0,0:0|0:0,0:0:0:0:
449,225,130375,2,0,P|410:246|365:253,1,71.9999978027344,8|0,0:0|0:0,0:0:0:0:
308,296,130844,2,0,P|244:268|156:292,1,143.999995605469,2|8,0:0|0:0,0:0:0:0:
28,184,131782,6,0,P|60:192|112:188,1,71.9999978027344,2|0,0:0|0:0,0:0:0:0:
184,188,132250,2,0,P|174:156|145:113,1,71.9999978027344,8|0,0:0|0:0,0:0:0:0:
140,36,132719,2,2,P|85:71|68:120,2,107.999996704102
228,24,133657,2,2,L|340:28,2,107.999996704102
248,108,134594,2,2,L|420:116,1,143.999995605469,2|8,0:0|0:0,0:0:0:0:
468,272,135532,6,0,P|416:288|304:260,1,143.999995605469,6|8,0:0|0:0,0:0:0:0:
192,172,136469,2,0,P|136:156|52:176,1,143.999995605469,2|8,0:0|0:0,0:0:0:0:
32,260,137172,1,0,0:0:0:0:
88,328,137407,2,2,P|128:332|180:320,1,71.9999978027344
220,264,137875,1,10,0:0:0:0:
244,348,138110,1,6,0:0:0:0:
396,268,138578,2,2,P|400:220|392:176,2,71.9999978027344
256,192,139282,12,4,141157,0:0:0:0:
368,120,150532,6,0,P|424:140|400:24,1,240,6|8,0:0|0:0,0:0:0:0:
292,28,151938,1,8,0:0:0:0:
280,148,152407,2,0,P|304:192|380:232,1,120,8|8,0:0|0:0,0:0:0:0:
464,292,153344,2,0,P|404:328|276:316,1,180,8|0,0:0|1:0,0:0:0:0:
240,304,154282,6,0,L|232:168,1,120,8|0,0:0|0:0,0:0:0:0:
262,66,155219,2,0,P|203:63|152:92,1,120,8|0,0:0|0:0,0:0:0:0:
60,172,156157,2,0,L|64:304,1,120,8|0,0:0|0:0,0:0:0:0:
168,352,157094,2,0,L|287:355,1,120,8|0,0:0|0:0,0:0:0:0:
208,264,158032,6,0,L|327:267,1,120,8|0,0:0|0:0,0:0:0:0:
244,180,158969,2,0,L|363:183,1,120,8|0,0:0|0:0,0:0:0:0:
284,96,159907,6,0,L|403:99,2,120,8|8|8,0:0|0:0|0:0,0:0:0:0:
228,76,161078,1,8,0:0:0:0:
180,52,161313,2,8,L|48:48,1,120,8|4,0:0|0:0,0:0:0:0:
316,304,165532,6,0,L|320:228,1,71.9999978027344,6|0,0:0|0:0,0:0:0:0:
276,160,166000,2,0,P|240:152|200:160,1,71.9999978027344,8|0,0:0|0:0,0:0:0:0:
148,220,166469,2,2,L|152:332,2,107.999996704102
96,148,167407,2,2,L|100:36,2,107.999996704102
40,216,168344,2,0,L|44:376,1,143.999995605469,2|8,0:0|0:0,0:0:0:0:
208,300,169282,6,0,P|268:288|352:324,2,143.999995605469,6|8|2,0:0|0:0|0:0,0:0:0:0:
320,168,170688,2,0,P|355:176|387:190,1,71.9999978027344,8|0,0:0|0:0,0:0:0:0:
448,128,171157,2,0,P|437:93|434:57,1,71.9999978027344,2|0,0:0|0:0,0:0:0:0:
352,36,171625,2,0,P|327:62|298:83,1,71.9999978027344,8|0,0:0|0:0,0:0:0:0:
220,124,172094,2,0,P|156:104|72:116,1,143.999995605469,2|8,0:0|0:0,0:0:0:0:
20,280,173032,6,0,P|60:296|104:304,1,71.9999978027344,2|0,0:0|0:0,0:0:0:0:
176,308,173500,2,0,P|211:305|246:297,1,71.9999978027344,8|0,0:0|0:0,0:0:0:0:
320,248,173969,2,2,P|335:298|308:360,2,107.999996704102
240,212,174907,2,2,P|189:199|149:145,2,107.999996704102
312,164,175844,2,2,P|347:124|436:112,1,143.999995605469,2|8,0:0|0:0,0:0:0:0:
504,272,176782,6,2,P|468:311|380:324,1,143.999995605469,6|8,0:0|0:0,0:0:0:0:
228,248,177719,2,2,P|157:252|105:300,1,143.999995605469,2|8,0:0|0:0,0:0:0:0:
32,344,178422,1,0,0:0:0:0:
24,256,178657,2,0,P|56:208|76:192,1,71.9999978027344,2|2,0:0|0:0,0:0:0:0:
144,160,179125,1,10,0:0:0:0:
72,112,179360,1,6,0:0:0:0:
224,32,179828,2,2,L|308:36,2,71.9999978027344
256,192,180532,12,4,182407,0:0:0:0:
232,192,184282,6,0,L|224:28,2,143.999995605469,4|8|2,1:0|0:0|0:0,0:0:0:0:
340,336,185688,2,0,P|384:308|428:304,1,71.9999978027344,8|0,0:0|0:0,0:0:0:0:
468,248,186157,2,0,P|424:220|380:216,1,71.9999978027344,2|0,0:0|0:0,0:0:0:0:
340,160,186625,2,0,P|384:132|428:128,1,71.9999978027344,8|0,0:0|0:0,0:0:0:0:
488,144,187094,2,0,P|472:76|400:44,1,143.999995605469,2|8,0:0|0:0,0:0:0:0:
248,100,188032,5,2,0:0:0:0:
276,272,188500,2,0,P|336:248|360:224,1,71.9999978027344,8|0,0:0|0:0,0:0:0:0:
404,304,188969,2,0,P|368:332|268:360,1,143.999995605469,2|8,0:0|0:0,0:0:0:0:
108,320,189907,6,0,B|88:264|104:216|104:216|128:152|104:96,1,215.999993408203,2|0,0:0|0:0,0:0:0:0:
32,68,190844,2,0,P|80:24|168:44,1,143.999995605469,2|8,0:0|0:0,0:0:0:0:
288,144,191782,6,0,L|448:136,2,143.999995605469,4|8|2,0:0|0:0|0:0,0:0:0:0:
176,276,193188,2,0,P|136:284|96:272,1,71.9999978027344,8|0,0:0|0:0,0:0:0:0:
20,268,193657,2,0,P|33:229|63:200,1,71.9999978027344,2|0,0:0|0:0,0:0:0:0:
104,136,194125,2,0,P|130:166|140:207,1,71.9999978027344,8|0,0:0|0:0,0:0:0:0:
176,276,194594,2,0,P|204:328|288:360,1,143.999995605469,2|8,0:0|0:0,0:0:0:0:
448,320,195532,5,2,0:0:0:0:
328,196,196000,2,0,B|316:156|328:124|328:124|340:88|328:32,2,143.999995605469,8|2|8,0:0|0:0|0:0,0:0:0:0:
176,276,197407,6,0,B|188:224|168:176|168:176|144:116|172:52,1,215.999993408203,2|0,0:0|0:0,0:0:0:0:
80,52,198344,2,0,P|68:108|88:208,1,143.999995605469,2|8,0:0|0:0,0:0:0:0:
188,328,199282,6,0,L|348:320,1,143.999995605469,6|8,0:0|0:0,0:0:0:0:
440,184,200219,2,0,L|280:176,1,143.999995605469,2|8,0:0|0:0,0:0:0:0:
220,132,200922,1,0,0:0:0:0:
280,68,201157,2,2,L|356:60,1,71.9999978027344
432,100,201625,1,10,0:0:0:0:
424,12,201860,1,6,0:0:0:0:
504,164,202328,2,2,L|492:248,2,71.9999978027344
256,192,203032,12,4,204907,0:0:0:0:
324,76,206782,6,0,P|376:60|460:76,1,120,6|8,0:0|0:0,0:0:0:0:
452,188,207719,2,0,P|400:204|316:188,1,120,2|8,0:0|0:0,0:0:0:0:
224,148,208657,2,0,P|164:140|107:156,1,120,2|8,0:0|0:0,0:0:0:0:
40,256,209594,2,2,P|88:276|152:268,2,90
20,200,210532,6,0,L|24:56,1,120,2|8,0:0|0:0,0:0:0:0:
140,48,211469,2,0,L|136:192,1,120,2|8,0:0|0:0,0:0:0:0:
248,216,212407,2,0,L|252:72,1,120,2|8,0:0|0:0,0:0:0:0:
368,64,213344,2,0,L|364:208,1,120,2|8,0:0|0:0,0:0:0:0:
456,260,214282,6,0,P|416:292|340:300,1,120,2|8,0:0|0:0,0:0:0:0:
252,232,215219,2,0,P|244:181|275:111,1,120,2|8,0:0|0:0,0:0:0:0:
380,68,216157,2,0,P|427:86|472:148,1,120,2|8,0:0|0:0,0:0:0:0:
456,260,217094,2,0,P|416:292|340:300,1,120,2|8,0:0|0:0,0:0:0:0:
364,184,218032,6,0,L|372:52,1,120,2|8,0:0|0:0,0:0:0:0:
252,80,218969,2,0,L|260:212,1,120,2|8,0:0|0:0,0:0:0:0:
148,156,219907,2,0,L|156:24,1,120,2|8,0:0|0:0,0:0:0:0:
44,84,220844,2,0,L|52:216,1,120,2|8,0:0|0:0,0:0:0:0:
112,308,221782,6,0,P|156:324|240:296,1,120,2|8,0:0|0:0,0:0:0:0:
288,204,222719,2,0,P|279:157|213:99,1,120,2|8,0:0|0:0,0:0:0:0:
292,4,223657,2,0,P|368:68|404:200,1,240,2|2,0:0|0:0,0:0:0:0:
164,216,225532,5,2,0:0:0:0:
