osu file format v14

[General]
AudioFilename: audio.mp3
AudioLeadIn: 0
PreviewTime: 154972
Countdown: 0
SampleSet: Drum
StackLeniency: 0.7
Mode: 0
LetterboxInBreaks: 0
WidescreenStoryboard: 1

[Editor]
Bookmarks: 93134,105521,117908,128747,142682,155069,167456,179843,189134,198424,210811,223198,235585,244876,254166,266553,278940,291327,303714,316101,328489
DistanceSpacing: 0.5
BeatDivisor: 4
GridSize: 16
TimelineZoom: 1.7

[Metadata]
Title:EXISTENCE
TitleUnicode:EXISTENCE
Artist:SOUND HOLIC
ArtistUnicode:SOUND HOLIC
Creator:Luscent
Version:DISCONTINUOUS
Source:東方地霊殿 ~ Subterranean Animism.
Tags:mirash owc 2020 finals dt4 last remote ラストリモート touhou chireiden project 東方project th11 11 Extra stage zun touhou c90 Koishi Komeiji 古明地こいし electronic instrumental video game
BeatmapID:3634667
BeatmapSetID:1774999

[Difficulty]
HPDrainRate:7
CircleSize:4
OverallDifficulty:8
ApproachRate:8
SliderMultiplier:1.5
SliderTickRate:1

[Events]
//Background and Video events
0,0,"creepyimageinyourfolder.jpg",0,0
//Break Periods
2,180107,188448
2,223462,233351
//Storyboard Layer 0 (Background)
//Storyboard Layer 1 (Fail)
//Storyboard Layer 2 (Pass)
//Storyboard Layer 3 (Foreground)
//Storyboard Layer 4 (Overlay)
//Storyboard Sound Samples

[TimingPoints]
295,387.096774193548,4,3,0,50,1,0
68424,-133.333333333333,4,3,0,50,0,0
74617,-133.333333333333,4,2,0,50,0,0
77714,-133.333333333333,4,1,0,60,0,0
80133,-100,4,3,0,50,0,0
80811,-100,4,2,0,70,0,0
92424,-66.6666666666667,4,3,0,90,0,0
93198,-100,4,2,0,70,0,0
105585,-83.3333333333333,4,3,0,80,0,0
130359,-83.3333333333333,4,2,0,85,0,0
155133,-83.3333333333333,4,3,0,75,0,0
155327,-100,4,3,0,75,0,0
189198,-100,4,3,0,60,0,0
189972,-133.333333333333,4,2,0,50,0,0
198488,-133.333333333333,4,2,0,60,0,0
210875,-100,4,2,0,70,0,0
236230,-133.333333333333,4,2,0,60,0,0
248036,-133.333333333333,4,2,0,70,0,0
249585,-133.333333333333,4,2,0,75,0,0
252682,-100,4,3,0,70,0,0
254230,-100,4,3,0,85,0,0
254617,-83.3333333333333,4,2,0,85,0,0

[Colours]
Combo1 : 13,242,47
Combo2 : 98,167,35
Combo3 : 94,179,142
Combo4 : 194,164,71

[HitObjects]
77,44,68424,6,0,P|71:117|70:161,1,112.500004291535,4|0,1:0|0:0,0:0:0:0:
82,167,68907,2,0,P|77:200|74:235,1,56.2500021457673,2|0,0:0|0:0,0:0:0:0:
130,283,69294,1,0,0:0:0:0:
130,283,69391,2,0,P|126:317|123:348,1,56.2500021457673,2|2,0:0|0:0,0:0:0:0:
286,268,69972,5,2,0:0:0:0:
250,199,70165,1,0,0:0:0:0:
311,151,70359,1,0,0:0:0:0:
311,151,70456,2,0,L|378:172,1,56.2500021457673,2|2,0:0|0:0,0:0:0:0:
447,68,70940,2,0,P|398:74|373:80,1,56.2500021457673,2|2,0:0|0:0,0:0:0:0:
374,72,71230,1,2,0:0:0:0:
294,65,71424,2,0,P|280:40|276:24,1,28.1250010728836,2|2,0:0|0:0,0:0:0:0:
185,39,71714,6,0,P|170:88|160:130,1,84.3750032186509,2|2,0:0|0:0,0:0:0:0:
88,137,72198,2,0,P|103:186|109:226,1,84.3750032186509,2|2,0:0|0:0,0:0:0:0:
145,282,72682,2,0,P|137:305|134:319,1,28.1250010728836,2|2,0:0|0:0,0:0:0:0:
194,355,72972,6,0,P|241:342|288:331,3,84.3750032186509,2|2|2|2,0:0|0:0|0:0|0:0,0:0:0:0:
311,263,74036,2,0,P|351:263|389:263,1,56.2500021457673,0|2,0:0|0:0,0:0:0:0:
380,274,74327,1,2,0:0:0:0:
257,146,74617,6,0,P|260:93|259:72,1,56.2500021457673,2|0,0:0|0:0,0:0:0:0:
209,31,75004,1,2,0:0:0:0:
195,43,75101,1,0,0:0:0:0:
181,56,75198,2,0,P|128:53|106:53,1,56.2500021457673,2|0,0:0|0:0,0:0:0:0:
101,128,75585,2,0,P|154:125|176:125,1,56.2500021457673,2|0,0:0|0:0,0:0:0:0:
193,193,75972,2,0,P|185:254|181:314,1,112.500004291535,2|2,0:0|0:0,0:0:0:0:
218,375,76553,1,0,0:0:0:0:
278,334,76746,1,2,0:0:0:0:
300,264,76940,1,2,0:0:0:0:
282,193,77133,1,0,0:0:0:0:
258,123,77327,1,2,0:0:0:0:
272,51,77520,1,0,0:0:0:0:
66,59,77714,5,2,1:0:0:0:
24,125,77907,2,0,P|28:142|31:177,1,28.1250010728836,2|0,0:0|0:0,0:0:0:0:
65,219,78198,2,0,P|77:207|106:186,1,28.1250010728836,2|0,0:0|0:0,0:0:0:0:
130,137,78488,2,0,P|113:131|81:117,1,28.1250010728836,2|2,0:0|0:0,0:0:0:0:
174,271,78778,1,2,0:0:0:0:
157,274,78875,1,0,0:0:0:0:
140,276,78972,1,2,0:0:0:0:
123,279,79069,1,2,0:0:0:0:
106,282,79165,1,0,0:0:0:0:
83,298,79262,5,2,0:0:0:0:
143,356,79456,2,0,P|141:378|139:397,1,28.1250010728836,2|0,0:0|0:0,0:0:0:0:
222,350,79746,2,0,P|220:336|219:321,1,28.1250010728836,2|0,0:0|0:0,0:0:0:0:
296,360,80036,1,2,0:0:0:0:
324,373,80133,2,0,L|354:361,10,18.75
389,288,80811,6,0,P|381:240|383:186,1,75,4|0,1:0|0:0,0:0:0:0:
356,184,81101,2,0,L|312:192,1,37.5,2|8,0:0|1:0,0:0:0:0:
237,172,81391,1,2,0:0:0:0:
315,87,81585,2,0,P|367:100|413:106,1,75,0|0,1:0|0:0,0:0:0:0:
419,83,81875,2,0,L|463:91,1,37.5,2|8,0:0|1:0,0:0:0:0:
261,0,82165,5,2,0:0:0:0:
261,0,82262,1,0,0:0:0:0:
261,0,82359,2,0,P|253:42|250:62,3,37.5,0|0|0|0,1:0|0:0|0:0|0:0,0:0:0:0:
221,55,82746,1,8,1:0:0:0:
128,56,82940,5,2,0:0:0:0:
64,113,83133,1,0,1:0:0:0:
121,173,83327,1,2,0:2:0:0:
121,173,83424,1,0,1:0:0:0:
191,126,83617,1,2,0:0:0:0:
191,126,83714,1,0,1:0:0:0:
226,139,83811,1,0,0:0:0:0:
260,152,83907,5,4,1:2:0:0:
368,101,84101,2,0,P|370:137|372:157,1,37.5,2|0,0:0|1:0,0:0:0:0:
453,205,84391,2,0,P|417:207|397:209,1,37.5,2|0,0:0|1:0,0:0:0:0:
320,285,84682,2,0,P|323:226|317:175,1,75,0|2,1:0|1:2,0:0:0:0:
447,39,85069,1,8,1:0:0:0:
453,60,85165,1,2,0:0:0:0:
461,80,85262,1,2,0:0:0:0:
469,100,85359,1,0,0:0:0:0:
451,133,85456,5,0,1:0:0:0:
414,124,85553,1,0,0:0:0:0:
388,96,85649,1,2,0:0:0:0:
378,59,85746,1,0,1:0:0:0:
303,11,85940,2,0,P|274:25|258:30,1,37.5,2|0,0:0|1:0,0:0:0:0:
235,107,86230,2,0,P|217:100|201:91,1,37.5,0|0,1:0|0:0,0:0:0:0:
135,30,86520,1,0,1:0:0:0:
116,34,86617,1,8,1:0:0:0:
9,17,86811,1,8,0:0:0:0:
10,121,87004,6,0,P|20:182|27:221,1,75,4|2,1:0|0:0,0:0:0:0:
12,231,87294,1,0,1:0:0:0:
118,202,87488,2,0,P|141:183|152:175,1,37.5,2|0,0:0|1:0,0:0:0:0:
161,299,87778,2,0,P|175:310|190:322,1,37.5,2|0,0:0|1:0,0:0:0:0:
49,341,88069,1,2,0:0:0:0:
55,323,88165,1,8,1:0:0:0:
231,211,88359,1,0,1:0:0:0:
289,278,88553,6,0,P|348:272|394:270,1,75,0|2,1:0|0:0,0:0:0:0:
398,284,88843,1,0,1:0:0:0:
471,199,89036,2,0,P|435:203|418:204,1,37.5,2|0,0:0|1:0,0:0:0:0:
384,116,89327,2,0,P|420:120|437:121,1,37.5,2|0,0:0|1:0,0:0:0:0:
473,31,89617,1,2,0:0:0:0:
454,32,89714,1,8,1:0:0:0:
281,92,89907,5,2,1:0:0:0:
243,87,90004,1,2,0:0:0:0:
205,82,90101,1,0,1:0:0:0:
122,27,90294,2,0,L|79:18,1,37.5,2|0,0:0|1:0,0:0:0:0:
25,102,90585,2,0,L|68:93,1,37.5,2|0,0:0|1:0,0:0:0:0:
130,144,90875,1,2,0:0:0:0:
130,144,90972,1,0,1:0:0:0:
122,180,91069,1,2,0:0:0:0:
114,216,91165,1,0,0:0:0:0:
107,252,91262,1,8,1:0:0:0:
27,343,91456,5,2,1:0:0:0:
60,359,91553,1,2,0:0:0:0:
93,376,91649,2,0,P|150:353|181:345,1,75,0|2,1:0|0:0,0:0:0:0:
265,257,92036,2,0,P|348:277|367:282,1,75,8|0,1:0|0:0,0:0:0:0:
374,265,92327,1,2,0:3:0:0:
410,258,92424,6,0,P|410:194|395:95,1,112.500004291535,4|0,3:0|0:0,0:0:0:0:
106,145,92811,2,0,P|101:201|102:258,1,112.500004291535,4|0,1:0|0:0,0:0:0:0:
254,185,93198,5,4,1:0:0:0:
260,148,93294,2,0,P|258:79|260:47,1,75,0|2,0:0|0:0,0:0:0:0:
271,37,93585,1,8,1:0:0:0:
174,12,93778,1,2,0:0:0:0:
138,98,93972,2,0,P|149:125|156:148,1,37.5,0|0,1:0|0:0,0:0:0:0:
183,214,94262,2,0,P|172:241|165:264,1,37.5,2|8,0:0|1:0,0:0:0:0:
153,334,94553,1,2,0:0:0:0:
161,350,94649,1,0,0:0:0:0:
198,346,94746,6,0,P|225:357|248:364,3,37.5,0|0|0|0,1:0|0:0|0:0|0:0,0:0:0:0:
293,317,95133,1,8,1:0:0:0:
411,320,95327,1,2,0:0:0:0:
358,215,95520,1,0,1:0:0:0:
336,222,95617,1,2,0:0:0:0:
341,107,95811,1,0,1:0:0:0:
362,114,95907,1,2,0:0:0:0:
407,17,96101,5,0,1:0:0:0:
442,28,96198,1,0,0:0:0:0:
477,39,96294,1,4,1:2:0:0:
487,131,96488,1,2,0:0:0:0:
460,145,96585,2,0,L|468:232,1,75,0|2,1:0|0:0,0:0:0:0:
445,240,96875,1,0,1:0:0:0:
309,144,97069,6,0,L|263:152,1,37.5,0|0,1:0|0:0,0:0:0:0:
194,149,97262,2,0,L|202:195,1,37.5,2|0,1:2|0:0,0:0:0:0:
201,265,97456,2,0,L|247:257,3,37.5,8|2|2|0,1:0|0:0|0:0|0:0,0:0:0:0:
198,343,97843,5,0,1:0:0:0:
179,348,97940,1,0,0:0:0:0:
161,353,98036,1,2,0:0:0:0:
143,360,98133,2,0,L|58:343,1,75,0|2,1:0|0:0,0:0:0:0:
51,351,98424,1,0,1:0:0:0:
57,263,98617,2,0,P|65:238|70:219,1,37.5,0|0,1:0|0:0,0:0:0:0:
113,154,98907,2,0,P|105:129|100:110,1,37.5,0|8,1:0|1:0,0:0:0:0:
13,113,99198,1,8,0:0:0:0:
105,15,99391,6,0,P|140:27|199:39,1,75,4|2,1:0|0:0,0:0:0:0:
194,29,99682,1,0,1:0:0:0:
247,119,99875,1,2,0:0:0:0:
238,135,99972,2,0,P|274:126|309:114,1,75,0|2,1:0|0:0,0:0:0:0:
327,107,100262,1,0,1:0:0:0:
395,34,100456,1,2,0:0:0:0:
395,34,100553,2,0,L|410:80,1,37.5,8|0,1:0|0:0,0:0:0:0:
462,123,100746,2,0,L|447:169,1,37.5,0|0,1:0|0:0,0:0:0:0:
383,202,100940,5,0,1:0:0:0:
401,224,101036,2,0,P|399:288|397:322,1,75,0|0,0:0|1:0,0:0:0:0:
416,323,101327,1,8,1:0:0:0:
335,366,101520,2,0,P|288:358|241:350,1,75,0|2,1:0|0:0,0:0:0:0:
231,359,101811,1,0,1:0:0:0:
157,279,102004,2,0,P|163:245|163:223,1,37.5,2|8,0:0|1:0,0:0:0:0:
260,157,102294,5,2,1:0:0:0:
255,194,102391,1,2,0:0:0:0:
250,231,102488,1,0,1:0:0:0:
170,162,102682,2,0,P|136:156|114:156,1,37.5,2|0,0:0|1:0,0:0:0:0:
247,90,102972,2,0,P|253:56|253:34,1,37.5,2|0,0:0|1:0,0:0:0:0:
345,170,103263,1,2,0:0:0:0:
345,170,103359,1,0,1:0:0:0:
307,167,103456,1,2,0:0:0:0:
269,165,103553,1,0,0:0:0:0:
231,163,103649,1,8,1:0:0:0:
101,94,103843,5,2,1:0:0:0:
57,107,103940,1,2,0:0:0:0:
15,123,104036,1,0,1:0:0:0:
49,1,104230,2,0,P|73:15|93:23,1,37.5,2|0,0:0|1:0,0:0:0:0:
186,59,104521,1,0,1:0:0:0:
186,59,104617,1,2,1:2:0:0:
229,46,104714,1,0,1:0:0:0:
280,30,104810,1,2,1:0:0:0:
323,18,104907,1,0,1:0:0:0:
336,61,105005,1,2,1:2:0:0:
352,112,105101,1,0,1:0:0:0:
364,155,105198,1,8,1:0:0:0:
321,168,105295,1,2,1:0:0:0:
270,184,105391,1,0,1:0:0:0:
227,196,105488,1,0,1:0:0:0:
211,153,105585,6,0,L|416:178,1,179.999994506836,4|8,1:0|0:0,0:0:0:0:
496,94,106165,1,2,0:0:0:0:
403,83,106359,1,4,0:0:0:0:
466,210,106553,1,0,0:0:0:0:
466,210,106649,1,2,0:0:0:0:
466,210,106746,2,0,P|503:250|513:291,1,89.9999972534181,8|2,0:0|0:0,0:0:0:0:
466,354,107133,5,4,0:0:0:0:
378,253,107327,1,0,0:0:0:0:
378,253,107424,1,2,0:0:0:0:
378,253,107520,1,8,0:0:0:0:
280,334,107714,1,2,0:0:0:0:
204,271,107907,1,4,0:0:0:0:
169,282,108004,1,0,0:0:0:0:
134,293,108101,1,2,0:0:0:0:
99,304,108198,1,0,0:0:0:0:
64,313,108294,2,0,P|71:272|78:253,1,44.999998626709,8|0,0:0|0:0,0:0:0:0:
73,194,108488,2,0,P|114:201|133:208,1,44.999998626709,2|0,0:0|0:0,0:0:0:0:
194,194,108682,6,0,P|186:142|181:-1,1,179.999994506836,4|8,0:0|0:0,0:0:0:0:
83,97,109262,1,2,0:0:0:0:
276,123,109456,2,0,P|331:107|367:92,1,89.9999972534181,4|0,0:0|0:0,0:0:0:0:
380,64,109746,1,2,0:0:0:0:
399,33,109843,2,0,P|422:88|439:130,1,89.9999972534181,8|2,0:0|0:0,0:0:0:0:
489,217,110230,6,0,P|446:210|425:208,1,44.999998626709,6|0,0:1|0:0,0:0:0:0:
372,184,110424,2,0,P|369:237|360:343,1,134.999995880127,2|0,0:1|0:0,0:0:0:0:
338,346,110811,1,8,0:0:0:0:
241,298,111004,1,4,0:0:0:0:
250,332,111101,1,8,0:0:0:0:
146,362,111294,1,4,0:0:0:0:
153,326,111391,1,8,0:0:0:0:
159,290,111488,1,2,0:0:0:0:
166,254,111585,1,4,0:0:0:0:
133,152,111778,5,4,0:2:0:0:
247,182,111972,1,2,0:0:0:0:
275,76,112165,1,8,0:0:0:0:
165,43,112359,1,2,0:0:0:0:
354,181,112553,6,0,P|423:161|461:147,1,89.9999972534181,4|2,0:0|0:0,0:0:0:0:
462,126,112843,2,0,P|479:186|498:239,1,89.9999972534181,2|0,0:0|0:0,0:0:0:0:
470,243,113133,1,2,0:0:0:0:
289,327,113327,5,4,0:2:0:0:
167,246,113520,1,2,0:0:0:0:
146,384,113714,1,8,0:0:0:0:
202,320,113907,1,2,0:0:0:0:
52,263,114101,6,0,P|56:207|60:159,1,89.9999972534181,4|0,0:0|0:0,0:0:0:0:
50,152,114391,1,2,0:0:0:0:
42,130,114488,1,8,0:0:0:0:
224,34,114682,5,4,0:0:0:0:
216,68,114778,1,2,0:0:0:0:
208,103,114875,1,4,0:0:0:0:
272,221,115069,1,2,0:0:0:0:
387,141,115262,2,0,P|448:152|489:157,1,89.9999972534181,8|0,0:0|0:0,0:0:0:0:
353,66,115649,1,4,0:0:0:0:
285,145,115843,1,0,0:0:0:0:
285,145,115940,1,0,0:0:0:0:
285,145,116036,1,8,0:0:0:0:
359,215,116230,1,2,0:0:0:0:
186,164,116424,6,0,P|125:175|84:180,1,89.9999972534181,4|2,0:2|0:0,0:0:0:0:
19,125,116811,1,8,0:0:0:0:
110,89,117004,1,0,0:0:0:0:
19,211,117198,1,4,0:0:0:0:
156,170,117391,1,0,0:0:0:0:
156,170,117488,1,0,0:0:0:0:
156,170,117585,1,8,0:0:0:0:
106,253,117778,1,0,0:0:0:0:
238,250,117972,6,0,P|324:236|419:224,1,179.999994506836,4|8,1:0|0:0,0:0:0:0:
336,152,118553,1,2,0:0:0:0:
270,83,118746,1,4,0:0:0:0:
238,176,118940,1,0,0:0:0:0:
238,176,119036,1,2,0:0:0:0:
238,176,119133,2,0,L|140:164,1,89.9999972534181,8|2,0:0|0:0,0:0:0:0:
31,62,119520,5,4,0:0:0:0:
106,1,119714,1,0,0:0:0:0:
106,1,119811,1,2,0:0:0:0:
106,1,119907,1,8,0:0:0:0:
167,78,120101,1,2,0:0:0:0:
93,138,120294,2,0,P|85:195|72:322,1,179.999994506836,4|8,0:0|0:0,0:0:0:0:
196,367,120875,1,2,0:0:0:0:
344,248,121069,6,0,P|394:250|459:258,1,89.9999972534181,4|0,0:0|0:0,0:0:0:0:
327,167,121456,1,8,0:0:0:0:
241,280,121649,1,2,0:0:0:0:
241,280,121746,1,0,0:0:0:0:
241,280,121843,1,4,0:0:0:0:
344,373,122036,1,0,0:0:0:0:
344,373,122133,1,2,0:0:0:0:
344,373,122230,2,0,P|348:328|350:283,1,89.9999972534181,8|2,0:0|0:0,0:0:0:0:
186,97,122617,6,0,P|186:169|179:285,1,179.999994506836,6|0,0:1|0:0,0:0:0:0:
105,223,123198,1,8,0:0:0:0:
105,223,123294,1,0,0:0:0:0:
105,223,123391,2,0,P|106:163|108:120,2,89.9999972534181,4|0|8,0:0|0:0|0:0,0:0:0:0:
46,79,123972,5,4,0:0:0:0:
173,48,124165,1,4,0:2:0:0:
196,175,124359,1,2,0:0:0:0:
196,175,124456,1,0,0:0:0:0:
196,175,124553,1,8,0:0:0:0:
331,93,124746,1,2,0:0:0:0:
454,186,124940,2,0,P|371:189|301:199,1,134.999995880127,4|2,0:0|0:0,0:0:0:0:
290,174,125327,1,0,0:0:0:0:
278,258,125520,1,2,0:0:0:0:
300,379,125714,5,4,0:2:0:0:
374,306,125907,1,2,0:0:0:0:
231,270,126101,1,8,0:0:0:0:
157,343,126294,1,2,0:0:0:0:
183,348,126391,1,0,0:0:0:0:
207,354,126488,6,0,L|201:298,1,44.999998626709,4|0,0:0|0:0,0:0:0:0:
144,260,126682,2,0,L|138:204,1,44.999998626709,0|2,0:0|0:0,0:0:0:0:
83,168,126875,1,8,0:0:0:0:
79,132,126972,1,0,0:0:0:0:
75,96,127069,1,4,0:0:0:0:
71,60,127165,1,2,0:0:0:0:
65,24,127262,2,0,L|115:33,7,44.999998626709,4|0|2|0|8|0|0|0,0:0|0:0|0:0|0:0|0:0|0:0|0:0|0:0,0:0:0:0:
71,60,128036,1,4,0:0:0:0:
75,96,128132,1,0,0:0:0:0:
79,132,128229,1,2,0:0:0:0:
83,168,128326,1,0,0:0:0:0:
63,198,128424,1,8,0:0:0:0:
65,216,128520,1,0,0:0:0:0:
67,234,128617,1,2,0:0:0:0:
69,251,128714,1,0,0:0:0:0:
54,284,128811,6,0,L|23:279,28,22.4999993133545,4|0|0|0|0|0|0|0|0|0|0|0|0|0|0|0|0|0|0|0|0|0|0|0|0|0|0|0|0,0:2|0:0|0:0|0:0|0:0|0:0|0:0|0:0|0:0|0:0|0:0|0:0|0:0|0:0|0:0|0:0|0:0|0:0|0:0|0:0|0:0|0:0|0:0|0:0|0:0|0:0|0:0|0:0|0:0,0:0:0:0:
163,375,130359,6,0,P|168:315|168:252,1,89.9999972534181,4|0,1:0|0:0,0:0:0:0:
367,207,130746,1,10,1:0:0:0:
407,303,130940,1,0,0:0:0:0:
294,344,131133,2,0,P|286:277|285:187,1,134.999995880127,2|0,1:0|0:0,0:0:0:0:
260,182,131520,1,10,1:0:0:0:
307,90,131714,1,2,1:0:0:0:
195,65,131907,5,4,3:0:0:0:
270,3,132101,1,2,3:0:0:0:
270,3,132198,1,2,3:0:0:0:
270,3,132294,1,8,3:0:0:0:
307,90,132488,1,2,3:0:0:0:
420,65,132682,5,4,3:0:0:0:
488,149,132875,1,2,3:0:0:0:
488,149,132972,1,8,3:0:0:0:
394,190,133165,1,2,3:0:0:0:
394,190,133262,1,4,3:0:0:0:
474,266,133456,5,4,1:0:0:0:
458,366,133649,1,0,0:0:0:0:
349,267,133843,1,10,1:0:0:0:
367,374,134036,1,0,3:0:0:0:
367,374,134133,1,0,3:0:0:0:
367,374,134230,2,0,P|304:361|228:350,1,134.999995880127,2|2,1:0|0:1,0:0:0:0:
199,361,134617,1,10,1:0:0:0:
118,311,134811,1,2,1:0:0:0:
171,197,135004,5,4,3:0:0:0:
204,283,135198,1,2,3:0:0:0:
204,283,135294,1,2,3:0:0:0:
204,283,135391,1,8,3:0:0:0:
90,235,135585,1,2,3:0:0:0:
134,125,135778,1,4,3:0:0:0:
171,197,135972,1,2,3:0:0:0:
171,197,136069,1,8,3:0:0:0:
56,157,136262,1,2,3:0:0:0:
56,157,136359,1,4,3:0:0:0:
111,57,136553,6,0,P|191:69|270:75,1,134.999995880127,6|0,1:0|0:0,0:0:0:0:
277,58,136940,1,8,1:0:0:0:
374,172,137133,1,2,0:0:0:0:
448,137,137327,5,2,1:0:0:0:
392,251,137520,1,0,0:0:0:0:
392,251,137617,1,2,1:0:0:0:
299,162,137811,1,2,0:1:0:0:
299,162,137907,1,0,1:0:0:0:
443,101,138101,6,0,P|431:181|425:265,1,134.999995880127,4|0,1:0|0:0,0:0:0:0:
393,249,138488,1,8,1:0:0:0:
303,309,138682,1,2,0:0:0:0:
274,234,138875,5,2,1:0:0:0:
382,335,139069,1,0,0:0:0:0:
382,335,139165,1,2,1:0:0:0:
256,371,139359,1,2,0:1:0:0:
256,371,139456,1,0,1:0:0:0:
89,287,139649,6,0,P|96:232|98:118,1,134.999995880127,6|0,1:0|0:0,0:0:0:0:
119,123,140036,1,8,1:0:0:0:
43,30,140230,1,2,0:0:0:0:
16,117,140424,1,2,1:0:0:0:
20,211,140617,1,0,0:0:0:0:
20,211,140714,1,2,1:0:0:0:
3,299,140907,1,2,0:0:0:0:
21,318,141004,1,2,1:0:0:0:
39,337,141101,1,2,0:1:0:0:
57,356,141198,6,0,P|115:326|147:212,1,179.999994506836,0|8,1:0|1:0,0:0:0:0:
153,138,141778,1,0,3:0:0:0:
153,138,141875,1,2,3:0:0:0:
153,138,141972,2,0,P|220:148|251:149,1,89.9999972534181,8|8,1:0|0:0,0:0:0:0:
258,170,142262,1,0,1:0:0:0:
366,197,142456,1,2,3:3:0:0:
361,170,142553,1,8,0:0:0:0:
356,143,142649,1,0,1:0:0:0:
369,119,142746,1,4,1:0:0:0:
143,9,143133,5,10,1:0:0:0:
35,46,143327,1,0,0:0:0:0:
73,143,143520,2,0,P|151:124|217:110,1,134.999995880127,2|0,1:0|0:0,0:0:0:0:
238,99,143907,1,10,1:0:0:0:
232,189,144101,1,2,1:0:0:0:
319,243,144294,5,4,3:0:0:0:
236,342,144488,1,2,3:0:0:0:
236,342,144585,1,2,3:0:0:0:
236,342,144682,1,8,3:0:0:0:
356,374,144875,1,2,3:0:0:0:
307,319,145069,5,4,3:0:0:0:
214,244,145262,1,2,3:0:0:0:
214,244,145359,1,8,3:0:0:0:
308,171,145553,1,2,3:0:0:0:
308,171,145649,1,4,3:0:0:0:
457,291,145843,6,0,P|456:222|458:121,1,134.999995880127,4|0,1:0|0:0,0:0:0:0:
430,131,146230,1,10,1:0:0:0:
336,59,146424,1,0,3:0:0:0:
229,105,146617,1,2,1:0:0:0:
188,219,146811,1,0,0:0:0:0:
188,219,146907,1,2,0:1:0:0:
188,219,147004,1,10,1:0:0:0:
72,186,147198,1,2,1:0:0:0:
50,96,147391,5,4,3:0:0:0:
146,154,147585,1,2,3:0:0:0:
146,154,147682,1,2,3:0:0:0:
146,154,147778,1,8,3:0:0:0:
109,263,147972,1,2,3:0:0:0:
227,357,148165,1,4,3:0:0:0:
372,315,148359,1,0,1:0:0:0:
372,315,148456,1,2,1:0:0:0:
461,294,148649,1,2,1:1:0:0:
461,294,148746,1,0,1:0:0:0:
445,261,148843,1,2,1:2:0:0:
471,236,148940,5,6,1:0:0:0:
174,93,149327,1,8,1:0:0:0:
264,21,149520,1,2,0:0:0:0:
157,10,149714,1,2,1:0:0:0:
272,108,149907,1,0,1:0:0:0:
272,108,150004,1,2,1:0:0:0:
160,178,150198,1,2,1:1:0:0:
160,178,150294,1,0,1:0:0:0:
126,165,150391,1,2,1:2:0:0:
99,189,150488,5,4,1:0:0:0:
384,367,150875,1,8,1:0:0:0:
452,284,151069,1,2,0:0:0:0:
352,277,151262,1,2,1:0:0:0:
483,374,151456,1,0,1:0:0:0:
483,374,151553,1,2,1:0:0:0:
508,222,151746,1,2,1:1:0:0:
378,124,151940,1,0,1:0:0:0:
347,141,152036,6,0,P|234:161|185:171,1,134.999995880127,6|0,1:0|0:0,0:0:0:0:
183,184,152424,1,8,1:0:0:0:
46,111,152617,1,2,0:0:0:0:
52,292,152811,2,0,P|140:276|212:262,1,134.999995880127,2|2,1:0|1:0,0:0:0:0:
216,250,153198,1,0,0:0:0:0:
238,342,153391,1,2,1:0:0:0:
395,301,153585,6,0,L|361:293,12,22.4999993133545,0|0|0|0|0|0|0|0|8|0|0|0|0,3:0|3:0|3:0|3:0|3:0|3:0|3:0|3:0|1:0|3:0|3:0|3:0|3:0,3:3:0:0:
423,278,154262,1,0,1:0:0:0:
455,263,154359,2,0,L|441:199,1,44.999998626709,0|0,1:0|0:0,0:0:0:0:
364,195,154553,2,0,L|350:131,1,44.999998626709,0|0,1:0|0:0,0:0:0:0:
253,128,154746,2,0,L|287:120,6,22.4999993133545,8|0|0|0|0|0|0,1:0|3:0|3:0|3:0|3:0|3:0|3:0,3:3:0:0:
224,106,155133,5,4,1:0:0:0:
151,185,155327,2,0,L|143:230,1,37.5,2|4,0:0|0:0,0:0:0:0:
48,148,155617,2,0,L|40:193,1,37.5,2|8,0:0|0:0,0:0:0:0:
132,53,155907,5,4,0:0:0:0:
224,106,156101,2,0,L|232:151,1,37.5,2|4,0:0|0:0,0:0:0:0:
327,69,156391,2,0,L|335:114,1,37.5,2|8,0:0|0:0,0:0:0:0:
326,233,156682,5,4,0:0:0:0:
241,187,156875,1,2,0:0:0:0:
241,187,156972,1,4,0:0:0:0:
216,274,157165,1,2,0:0:0:0:
216,274,157262,1,8,0:0:0:0:
319,210,157456,5,4,0:0:0:0:
404,164,157649,1,2,0:0:0:0:
404,164,157746,1,4,0:0:0:0:
429,251,157939,1,2,0:0:0:0:
429,251,158036,1,8,0:0:0:0:
462,264,158133,1,2,0:0:0:0:
447,296,158230,5,4,0:0:0:0:
484,173,158424,2,0,L|471:121,1,37.5,2|4,0:0|0:0,0:0:0:0:
341,114,158714,2,0,L|331:150,1,37.5,2|8,0:0|0:0,0:0:0:0:
318,332,159004,5,4,0:0:0:0:
165,270,159198,2,0,P|170:241|173:215,1,37.5,2|4,0:0|0:0,0:0:0:0:
261,181,159488,2,0,P|263:199|267:217,1,37.5,2|8,0:0|0:0,0:0:0:0:
202,101,159778,5,4,0:0:0:0:
289,44,159972,1,2,0:0:0:0:
312,57,160069,1,4,0:0:0:0:
200,14,160262,1,2,0:0:0:0:
173,19,160359,1,8,0:0:0:0:
146,24,160456,1,2,0:0:0:0:
119,29,160553,1,4,0:0:0:0:
6,25,160746,1,2,0:0:0:0:
19,48,160843,1,4,0:0:0:0:
88,115,161036,1,2,0:0:0:0:
76,139,161133,1,8,0:0:0:0:
12,232,161327,5,4,0:0:0:0:
118,229,161520,2,0,P|116:244|111:277,1,37.5,2|4,0:0|0:0,0:0:0:0:
204,328,161811,2,0,P|201:309|198:290,1,37.5,2|8,0:0|0:0,0:0:0:0:
197,174,162101,5,4,0:0:0:0:
305,153,162294,2,0,P|313:114|316:89,1,37.5,2|4,0:0|0:0,0:0:0:0:
380,231,162585,2,0,P|383:249|387:267,1,37.5,2|8,0:0|0:0,0:0:0:0:
313,327,162875,5,4,0:0:0:0:
262,231,163069,1,2,0:0:0:0:
262,231,163165,1,4,0:0:0:0:
375,177,163359,1,2,0:0:0:0:
375,177,163456,1,8,0:0:0:0:
293,383,163649,5,4,0:0:0:0:
237,289,163843,1,2,0:0:0:0:
237,289,163939,1,4,0:0:0:0:
131,306,164133,1,2,0:0:0:0:
131,306,164230,1,8,0:0:0:0:
103,318,164327,1,2,0:0:0:0:
79,299,164424,5,4,0:0:0:0:
115,215,164617,1,2,0:0:0:0:
144,221,164714,1,4,0:0:0:0:
83,133,164907,1,2,0:0:0:0:
112,127,165004,1,8,0:0:0:0:
17,80,165198,5,4,0:0:0:0:
97,42,165391,1,2,0:0:0:0:
125,48,165488,1,4,0:0:0:0:
126,142,165681,1,2,0:0:0:0:
150,159,165778,1,8,0:0:0:0:
338,160,165972,5,4,0:0:0:0:
258,122,166165,1,2,0:0:0:0:
230,128,166262,1,4,0:0:0:0:
229,222,166455,1,2,0:0:0:0:
205,239,166552,1,8,0:0:0:0:
361,332,166746,5,4,0:0:0:0:
452,263,166940,1,2,0:0:0:0:
459,291,167036,1,4,0:0:0:0:
294,267,167230,1,2,0:0:0:0:
300,237,167327,1,8,0:0:0:0:
307,207,167424,1,2,0:0:0:0:
314,178,167520,5,4,1:0:0:0:
387,119,167714,2,0,L|394:169,1,37.5,2|4,0:0|0:0,0:0:0:0:
260,75,168004,2,0,L|253:125,1,37.5,2|8,0:0|0:0,0:0:0:0:
341,26,168294,5,4,0:0:0:0:
440,56,168488,2,0,L|493:44,1,37.5,2|4,0:0|0:0,0:0:0:0:
494,206,168778,1,2,0:0:0:0:
465,197,168875,1,8,0:0:0:0:
435,190,168972,1,2,0:0:0:0:
410,207,169069,5,4,0:0:0:0:
421,293,169262,1,2,0:0:0:0:
409,320,169359,1,4,0:0:0:0:
318,285,169553,1,2,0:0:0:0:
306,312,169650,1,8,0:0:0:0:
311,197,169843,5,4,0:0:0:0:
231,240,170036,1,2,0:0:0:0:
243,267,170133,1,4,0:0:0:0:
128,248,170327,1,2,0:0:0:0:
140,275,170424,1,8,0:0:0:0:
150,302,170520,1,2,0:0:0:0:
138,329,170617,5,4,0:0:0:0:
40,300,170811,2,0,P|30:276|22:253,1,37.5,2|4,0:0|0:0,0:0:0:0:
220,210,171101,2,0,P|213:227|206:244,1,37.5,2|8,0:0|0:0,0:0:0:0:
80,177,171391,5,4,0:0:0:0:
169,127,171585,2,0,P|174:97|178:70,1,37.5,2|4,0:0|0:0,0:0:0:0:
33,55,171875,2,0,P|35:73|39:92,1,37.5,2|8,0:0|0:0,0:0:0:0:
107,1,172165,5,4,0:0:0:0:
239,8,172359,1,2,0:0:0:0:
239,8,172456,1,4,0:0:0:0:
371,15,172649,1,2,0:0:0:0:
371,15,172746,1,8,0:0:0:0:
455,90,172940,5,4,0:0:0:0:
323,97,173133,1,2,0:0:0:0:
323,97,173230,1,4,0:0:0:0:
191,104,173424,1,2,0:0:0:0:
191,104,173520,1,8,0:0:0:0:
72,169,173714,5,4,0:0:0:0:
164,229,173907,2,0,P|196:210|211:203,1,37.5,2|4,0:0|0:0,0:0:0:0:
59,270,174198,2,0,P|27:251|12:244,1,37.5,2|8,0:0|0:0,0:0:0:0:
150,146,174488,5,4,0:0:0:0:
203,305,174682,2,0,P|235:324|250:331,1,37.5,2|4,0:0|0:0,0:0:0:0:
90,351,174972,2,0,P|58:370|43:377,1,37.5,2|8,0:0|0:0,0:0:0:0:
133,221,175262,5,4,0:0:0:0:
110,118,175456,1,2,0:0:0:0:
131,124,175553,1,4,0:0:0:0:
195,36,175746,1,2,0:0:0:0:
206,55,175843,1,8,0:0:0:0:
278,238,176036,5,4,0:0:0:0:
222,143,176230,1,2,0:0:0:0:
248,128,176327,1,4,0:0:0:0:
305,52,176520,1,2,0:0:0:0:
332,63,176617,1,8,0:0:0:0:
360,72,176714,1,2,0:0:0:0:
388,61,176811,6,0,L|401:104,1,37.5,4|0,0:0|0:0,0:0:0:0:
453,99,177004,2,0,L|442:142,1,37.5,4|0,0:0|0:0,0:0:0:0:
494,165,177198,2,0,L|463:197,1,37.5,8|0,0:0|0:0,0:0:0:0:
496,243,177391,2,0,L|452:255,1,37.5,4|0,0:0|0:0,0:0:0:0:
399,311,177585,1,4,0:0:0:0:
318,255,177778,1,4,0:0:0:0:
266,332,177972,1,8,0:0:0:0:
186,278,178165,1,4,0:0:0:0:
166,179,178359,5,4,0:0:0:0:
187,184,178456,1,0,0:0:0:0:
208,189,178553,1,0,0:0:0:0:
229,193,178649,1,0,0:0:0:0:
250,198,178746,1,8,0:0:0:0:
271,203,178843,1,0,0:0:0:0:
292,208,178940,1,0,0:0:0:0:
313,213,179036,1,0,0:0:0:0:
347,197,179133,5,4,1:3:0:0:
347,159,179230,1,0,1:0:0:0:
329,125,179327,1,0,1:0:0:0:
313,90,179424,1,0,1:0:0:0:
324,54,179520,1,8,1:3:0:0:
359,41,179617,1,0,1:0:0:0:
395,47,179714,1,0,1:0:0:0:
411,80,179811,1,0,1:0:0:0:
411,117,179907,1,4,1:0:0:0:
185,117,189198,5,2,2:0:0:0:
348,295,193843,6,0,P|346:232|343:113,1,168.750006437302,2|0,0:0|0:0,0:0:0:0:
285,75,194617,1,0,0:0:0:0:
285,75,196165,2,0,P|287:159|296:309,1,225.000008583069,2|0,0:0|0:0,0:0:0:0:
227,364,197327,6,0,P|226:324|225:317,3,28.1250010728836
166,283,197714,2,0,P|166:263|167:259,14,14.0625005364418,0|0|0|0|0|0|0|0|0|0|0|0|0|0|0,3:0|3:0|3:0|3:0|3:0|3:0|3:0|3:0|3:0|3:0|3:0|3:0|3:0|3:0|3:0,3:3:0:0:
118,339,198488,6,0,L|47:331,2,56.2500021457673,4|0|0,1:0|0:0|0:0,0:0:0:0:
20,265,199069,2,0,P|26:211|33:85,1,168.750006437302,2|0,1:2|1:0,0:0:0:0:
162,37,200036,5,0,1:0:0:0:
230,73,200230,2,0,P|229:88|231:110,2,28.1250010728836,0|0|0,0:0|0:0|1:0,0:0:0:0:
288,19,200617,1,0,1:0:0:0:
343,78,200811,2,0,P|361:73|374:69,3,28.1250010728836,2|0|0|0,1:2|0:0|0:0|0:0,0:0:0:0:
420,12,201198,2,0,P|438:16|451:19,3,28.1250010728836,2|0|0|0,1:2|0:0|0:0|0:0,0:0:0:0:
494,82,201585,6,0,P|489:121|488:157,2,56.2500021457673,2|2|0,1:2|1:2|0:0,0:0:0:0:
430,187,202165,2,0,P|438:236|446:361,1,168.750006437302,2|0,1:2|3:0,0:0:0:0:
259,369,203133,5,0,1:0:0:0:
240,294,203327,1,0,0:0:0:0:
271,226,203520,1,0,1:0:0:0:
248,154,203714,2,0,P|245:127|244:110,2,28.1250010728836,0|0|0,0:0|0:0|1:0,0:0:0:0:
321,127,204101,1,0,1:0:0:0:
373,185,204294,1,0,1:0:0:0:
389,182,204391,1,0,0:0:0:0:
405,179,204488,1,0,0:0:0:0:
421,177,204585,1,0,0:0:0:0:
437,176,204682,6,0,P|482:170|502:166,2,56.2500021457673,2|2|0,1:2|1:2|0:0,0:0:0:0:
332,277,205262,2,0,P|273:266|156:250,1,168.750006437302,0|0,1:0|3:0,0:0:0:0:
0,161,206230,5,0,1:0:0:0:
72,134,206424,1,0,0:0:0:0:
100,207,206617,1,0,1:0:0:0:
28,235,206811,1,0,0:0:0:0:
0,161,207004,2,0,L|3:128,3,28.1250010728836,2|0|0|0,1:2|0:0|0:0|0:0,0:0:0:0:
72,134,207391,2,0,L|75:101,3,28.1250010728836,2|0|0|0,1:2|0:0|0:0|0:0,0:0:0:0:
150,115,207778,6,0,P|190:129|212:133,2,56.2500021457673,2|2|0,1:2|1:2|0:0,0:0:0:0:
258,76,208359,2,0,P|314:65|437:61,1,168.750006437302,0|0,1:0|3:0,0:0:0:0:
504,194,209327,5,0,1:0:0:0:
443,244,209520,2,0,L|452:276,2,28.1250010728836,0|0|0,0:0|0:0|1:0,0:0:0:0:
378,200,209907,1,0,1:0:0:0:
303,183,210101,2,0,L|294:215,3,28.1250010728836,2|0|0|0,1:2|0:0|0:0|0:0,0:0:0:0:
222,218,210488,1,2,1:2:0:0:
226,234,210585,1,0,0:0:0:0:
230,250,210682,1,0,1:0:0:0:
235,265,210778,1,0,0:0:0:0:
225,285,210875,6,0,P|211:348|206:383,1,75,4|0,1:0|0:0,0:0:0:0:
133,370,211262,1,8,0:0:0:0:
48,283,211456,2,0,P|61:228|76:127,1,150,2|0,1:2|0:0,0:0:0:0:
82,26,212036,1,8,0:0:0:0:
242,39,212230,5,0,1:0:0:0:
242,39,212327,1,0,0:0:0:0:
242,39,212424,1,0,1:0:0:0:
328,94,212617,2,0,P|350:78|369:63,2,37.5,0|0|8,1:0|0:0|0:0,0:0:0:0:
246,143,213004,1,0,0:0:0:0:
156,91,213198,1,0,1:0:0:0:
156,91,213294,1,0,0:0:0:0:
156,91,213391,1,0,0:0:0:0:
156,91,213488,1,0,0:0:0:0:
156,91,213585,2,0,P|159:47|160:2,1,75,8|0,0:0|1:0,0:0:0:0:
36,112,213972,6,0,P|36:143|37:177,2,37.5,2|0|0,1:2|0:0|0:0,0:0:0:0:
110,187,214359,1,8,0:0:0:0:
48,245,214553,2,0,P|116:237|220:229,1,150,2|0,1:2|1:0,0:0:0:0:
197,230,215036,1,0,0:0:0:0:
197,230,215133,1,8,0:0:0:0:
362,292,215327,5,0,1:0:0:0:
362,292,215424,1,0,0:0:0:0:
362,292,215520,2,0,P|362:243|361:195,1,75,0|0,1:0|0:0,0:0:0:0:
276,310,215907,2,0,P|279:355|281:365,3,37.5,8|0|0|0,0:0|0:0|1:0|0:0,0:0:0:0:
197,297,216294,2,0,P|194:342|192:352,3,37.5,0|0|0|0,1:0|0:0|1:0|0:0,0:0:0:0:
116,351,216682,1,8,0:0:0:0:
97,351,216778,1,0,0:0:0:0:
78,351,216875,1,0,0:0:0:0:
59,352,216972,1,0,0:0:0:0:
40,352,217069,6,0,P|45:303|47:294,2,37.5,2|0|0,1:2|0:0|0:0,0:0:0:0:
113,238,217456,1,8,0:0:0:0:
12,207,217649,2,0,P|17:154|23:40,1,150,2|0,1:2|1:0,0:0:0:0:
22,57,218133,1,0,0:0:0:0:
22,57,218230,1,8,0:0:0:0:
151,85,218424,5,0,1:0:0:0:
151,85,218520,1,0,0:0:0:0:
151,85,218617,2,0,P|207:79|238:75,1,75,0|0,1:0|0:0,0:0:0:0:
298,16,219004,1,8,0:0:0:0:
356,100,219198,1,0,1:0:0:0:
356,100,219294,1,0,0:0:0:0:
356,100,219391,1,0,1:0:0:0:
280,154,219585,1,0,0:0:0:0:
360,210,219778,1,8,0:0:0:0:
378,206,219875,1,0,0:0:0:0:
396,202,219972,1,0,1:0:0:0:
414,198,220069,1,0,0:0:0:0:
432,193,220165,6,0,P|430:168|427:146,2,37.5,2|0|0,1:2|0:0|0:0,0:0:0:0:
493,113,220553,1,8,0:0:0:0:
483,263,220746,2,0,P|441:277|318:310,1,150,2|0,1:2|1:0,0:0:0:0:
339,305,221230,1,0,0:0:0:0:
339,305,221327,1,8,0:0:0:0:
220,302,221520,5,0,1:0:0:0:
220,302,221617,1,0,0:0:0:0:
220,302,221714,1,0,1:0:0:0:
129,273,221907,1,0,0:0:0:0:
194,199,222101,1,8,0:0:0:0:
120,141,222294,1,0,0:0:0:0:
85,212,222488,5,0,1:0:0:0:
89,230,222585,1,0,0:0:0:0:
93,248,222682,1,0,1:0:0:0:
97,266,222778,1,0,0:0:0:0:
102,284,222875,2,0,L|95:309,6,18.75,0|0|0|0|0|0|0,1:0|3:0|3:0|3:0|3:0|3:0|3:0,3:3:0:0:
123,371,223262,5,4,0:0:0:0:
256,192,234101,12,4,235649,1:0:0:0:
304,125,236230,6,0,L|299:160,1,28.1250010728836,4|0,1:2|2:0,0:0:0:0:
208,125,236811,6,0,L|213:160,1,28.1250010728836,4|0,1:2|2:0,0:0:0:0:
304,125,237004,2,0,L|299:160,1,28.1250010728836,4|0,1:2|2:0,0:0:0:0:
187,225,237585,6,0,L|192:260,1,28.1250010728836,4|0,1:2|2:0,0:0:0:0:
332,224,238165,2,0,L|327:259,1,28.1250010728836,4|0,1:2|2:0,0:0:0:0:
256,362,238746,6,0,L|258:319,1,28.1250010728836,4|0,1:2|2:0,0:0:0:0:
251,261,238940,2,0,P|252:227|256:139,1,112.500004291535,4|4,0:3|1:2,0:0:0:0:
199,45,239907,6,0,P|203:79|204:89,1,28.1250010728836,4|0,1:2|2:0,0:0:0:0:
313,45,240101,2,0,P|309:79|308:89,1,28.1250010728836,4|0,1:2|2:0,0:0:0:0:
255,182,240488,1,4,0:3:0:0:
255,258,240682,2,0,P|257:314|259:370,1,112.500004291535,4|0,1:2|0:0,0:0:0:0:
173,323,241262,5,4,1:2:0:0:
121,270,241456,1,2,0:0:0:0:
69,321,241649,1,2,1:2:0:0:
125,367,241843,6,0,P|128:330|129:324,1,28.1250010728836,4|0,1:2|0:0,0:0:0:0:
184,295,242036,2,0,P|185:254|187:164,1,112.500004291535,4|6,0:3|1:2,0:0:0:0:
126,99,242811,5,2,0:0:0:0:
188,52,243004,2,0,L|191:22,1,28.1250010728836,4|0,1:2|2:0,0:0:0:0:
321,24,243198,2,0,L|324:52,1,28.1250010728836,4|0,1:2|2:0,0:0:0:0:
261,186,243778,6,0,L|260:221,1,28.1250010728836,4|0,1:2|0:0,0:0:0:0:
263,347,244359,2,0,L|262:318,1,28.1250010728836,4|0,1:2|0:0,0:0:0:0:
86,148,244940,5,2,1:0:0:0:
29,194,245133,1,0,1:0:0:0:
49,264,245327,1,2,1:0:0:0:
115,294,245520,1,0,1:0:0:0:
178,256,245714,1,2,1:0:0:0:
250,247,245907,1,0,1:0:0:0:
309,290,246101,1,2,1:0:0:0:
330,359,246294,1,2,1:0:0:0:
229,362,246488,5,2,1:0:0:0:
280,294,246682,1,0,1:0:0:0:
262,211,246875,1,2,1:0:0:0:
200,152,247069,1,0,1:0:0:0:
202,67,247262,1,2,1:0:0:0:
270,17,247456,1,2,1:0:0:0:
352,34,247649,1,2,1:0:0:0:
377,114,247843,1,2,1:0:0:0:
496,200,248036,6,0,L|507:238,7,28.1250010728836,0|0|0|0|2|0|2|0,1:0|3:0|3:0|3:0|3:1|3:0|3:1|3:0,3:3:0:0:
426,174,248811,1,2,1:0:0:0:
398,178,248907,1,0,1:0:0:0:
370,182,249004,1,2,1:0:0:0:
342,187,249101,1,0,1:0:0:0:
314,192,249198,1,2,1:0:0:0:
286,197,249294,1,0,1:0:0:0:
258,202,249391,1,2,1:0:0:0:
230,207,249488,1,0,1:0:0:0:
202,213,249585,6,0,L|191:251,7,28.1250010728836,0|0|2|0|2|0|2|0,1:0|3:0|3:1|3:0|3:1|3:0|3:1|3:0,3:3:0:0:
272,187,250360,1,2,1:0:0:0:
300,191,250456,1,0,1:0:0:0:
328,195,250553,1,2,1:0:0:0:
356,200,250650,1,0,1:0:0:0:
384,205,250747,1,2,1:0:0:0:
412,210,250843,1,0,1:0:0:0:
440,215,250940,1,2,1:0:0:0:
468,220,251037,1,0,1:0:0:0:
493,208,251133,5,4,1:2:0:0:
378,326,251520,1,2,0:0:0:0:
323,276,251714,2,0,L|295:289,2,28.1250010728836,2|0|2,0:0|0:0|0:0,0:0:0:0:
234,250,252101,1,2,0:0:0:0:
237,266,252198,1,2,0:0:0:0:
240,282,252294,1,2,0:0:0:0:
243,298,252391,1,2,0:0:0:0:
246,314,252488,1,2,0:0:0:0:
249,330,252585,1,2,0:0:0:0:
252,347,252682,6,0,L|250:365,14,18.75,4|0|0|0|0|0|0|0|0|0|0|0|0|0|0,3:2|3:0|3:0|3:0|3:0|3:0|3:0|3:0|3:0|3:0|3:0|3:0|3:0|3:0|3:0,3:3:0:0:
176,357,253456,2,0,L|165:371,14,18.75,0|0|0|0|0|0|0|0|0|0|0|0|0|0|0,3:0|3:0|3:0|3:0|3:0|3:0|3:0|3:0|3:0|3:0|3:0|3:0|3:0|3:0|3:0,3:3:0:0:
109,317,254230,1,4,1:0:0:0:
266,196,254617,5,10,1:0:0:0:
222,95,254811,1,0,0:0:0:0:
327,48,255004,2,0,P|341:156|344:213,1,134.999995880127,2|0,1:0|0:0,0:0:0:0:
366,209,255391,1,10,1:0:0:0:
287,281,255585,1,2,1:0:0:0:
381,344,255778,5,4,3:0:0:0:
504,271,255972,1,2,3:0:0:0:
504,271,256069,1,2,3:0:0:0:
504,271,256165,1,8,3:0:0:0:
376,225,256359,1,2,3:0:0:0:
376,225,256456,1,0,0:0:0:0:
376,225,256553,1,4,3:0:0:0:
284,140,256746,1,2,3:0:0:0:
284,140,256843,1,8,3:0:0:0:
199,203,257036,1,2,3:0:0:0:
199,203,257133,1,4,3:0:0:0:
98,136,257327,6,0,P|156:126|194:115,1,89.9999972534181,4|0,1:0|0:0,0:0:0:0:
101,228,257714,1,10,1:0:0:0:
0,191,257907,1,0,3:0:0:0:
21,80,258101,2,0,P|42:31|133:16,1,134.999995880127,2|2,1:0|0:1,0:0:0:0:
139,36,258488,1,10,1:0:0:0:
226,80,258682,1,2,1:0:0:0:
311,23,258875,5,4,3:0:0:0:
386,79,259069,1,2,3:0:0:0:
386,79,259165,1,2,3:0:0:0:
386,79,259262,1,8,3:0:0:0:
466,41,259456,1,2,3:0:0:0:
434,164,259649,5,4,3:0:0:0:
512,259,259843,1,2,3:0:0:0:
512,259,259940,1,8,3:0:0:0:
440,349,260133,1,2,3:0:0:0:
440,349,260230,1,4,3:0:0:0:
297,242,260424,6,0,P|248:247|141:271,1,134.999995880127,6|0,1:0|0:0,0:0:0:0:
142,292,260811,1,8,1:0:0:0:
43,201,261004,1,2,0:0:0:0:
66,99,261198,5,2,1:0:0:0:
143,192,261391,1,0,0:0:0:0:
143,192,261488,1,2,1:0:0:0:
67,275,261682,1,2,0:1:0:0:
67,275,261778,1,0,1:0:0:0:
218,222,261972,6,0,P|213:271|189:383,1,134.999995880127,4|0,1:0|0:0,0:0:0:0:
221,380,262359,1,8,1:0:0:0:
344,333,262553,1,2,0:0:0:0:
309,192,262746,5,2,1:0:0:0:
409,119,262940,1,0,0:0:0:0:
409,119,263036,1,2,1:0:0:0:
437,243,263230,1,2,0:1:0:0:
437,243,263327,1,0,1:0:0:0:
195,227,263520,6,0,P|199:173|204:123,1,89.9999972534181,6|0,1:0|0:0,0:0:0:0:
202,137,263811,1,0,0:0:0:0:
202,137,263907,1,8,1:0:0:0:
267,57,264101,1,2,0:0:0:0:
155,47,264294,1,2,1:0:0:0:
94,126,264488,1,0,0:0:0:0:
94,126,264585,1,2,1:0:0:0:
11,73,264778,1,2,0:0:0:0:
32,55,264875,1,2,1:0:0:0:
53,38,264972,1,2,0:1:0:0:
74,21,265069,6,0,P|74:73|78:211,1,179.999994506836,0|8,1:0|1:0,0:0:0:0:
167,253,265649,1,0,3:0:0:0:
167,253,265746,1,2,3:0:0:0:
167,253,265843,1,8,1:0:0:0:
155,161,266036,1,8,0:0:0:0:
181,142,266133,1,0,1:0:0:0:
262,197,266327,1,2,3:3:0:0:
288,193,266424,1,8,0:0:0:0:
314,190,266520,1,0,1:0:0:0:
340,186,266617,1,4,1:0:0:0:
246,0,267004,5,10,1:0:0:0:
155,58,267198,1,0,0:0:0:0:
262,106,267391,1,2,1:0:0:0:
374,66,267585,1,0,3:0:0:0:
387,77,267682,1,0,3:0:0:0:
399,89,267778,1,10,1:0:0:0:
499,145,267972,1,2,1:0:0:0:
426,208,268165,5,4,3:0:0:0:
490,332,268359,1,2,3:0:0:0:
490,332,268456,1,2,3:0:0:0:
490,332,268553,1,8,3:0:0:0:
354,347,268746,1,2,3:0:0:0:
292,217,268940,5,4,3:0:0:0:
246,345,269133,1,2,3:0:0:0:
246,345,269230,1,8,3:0:0:0:
155,257,269424,1,2,3:0:0:0:
155,257,269520,1,4,3:0:0:0:
69,330,269714,5,4,1:0:0:0:
61,212,269907,1,0,3:0:0:0:
50,197,270004,1,0,3:0:0:0:
39,182,270101,1,10,1:0:0:0:
32,65,270294,1,0,3:0:0:0:
166,88,270488,2,0,P|226:103|312:112,1,134.999995880127,2|2,1:0|0:1,0:0:0:0:
313,144,270875,1,10,1:0:0:0:
407,111,271069,1,2,1:0:0:0:
193,191,271262,5,4,3:0:0:0:
268,285,271456,1,2,3:0:0:0:
268,285,271553,1,2,3:0:0:0:
268,285,271649,1,8,3:0:0:0:
195,375,271843,1,2,3:0:0:0:
328,361,272036,1,4,3:0:0:0:
407,274,272230,1,0,1:0:0:0:
382,286,272327,1,2,1:0:0:0:
480,345,272520,1,2,1:1:0:0:
501,225,272714,1,2,1:2:0:0:
485,203,272811,6,0,P|426:201|322:206,1,134.999995880127,6|0,1:0|0:0,0:0:0:0:
317,219,273198,1,8,1:0:0:0:
227,148,273391,1,2,0:0:0:0:
194,273,273585,1,2,1:0:0:0:
110,204,273778,1,0,1:0:0:0:
121,228,273875,1,2,1:0:0:0:
21,256,274069,1,2,1:1:0:0:
21,256,274165,1,0,1:0:0:0:
21,256,274262,1,2,1:2:0:0:
21,256,274359,6,0,P|27:196|28:88,1,134.999995880127,6|0,1:0|0:0,0:0:0:0:
16,87,274746,1,10,1:0:0:0:
114,22,274940,1,2,0:1:0:0:
161,109,275133,1,2,1:0:0:0:
285,55,275327,1,0,1:0:0:0:
274,79,275424,1,2,1:0:0:0:
312,187,275617,1,2,1:1:0:0:
399,93,275811,1,0,1:0:0:0:
424,99,275907,6,0,P|423:155|425:256,1,134.999995880127,6|0,1:0|0:0,0:0:0:0:
417,269,276294,1,8,1:0:0:0:
321,348,276488,1,2,0:0:0:0:
204,287,276682,2,0,P|204:197|201:128,1,134.999995880127,2|2,1:0|1:0,0:0:0:0:
212,117,277069,1,0,0:0:0:0:
93,50,277262,1,2,1:0:0:0:
46,165,277456,6,0,L|51:187,12,22.4999993133545,4|0|0|0|0|0|0|0|8|0|0|0|0,3:0|3:0|3:0|3:0|3:0|3:0|3:0|3:0|3:0|3:0|3:0|3:0|3:0,3:3:0:0:
80,153,278133,1,0,1:0:0:0:
111,169,278230,1,4,1:3:0:0:
161,285,278424,1,0,1:0:0:0:
229,184,278617,2,0,L|234:162,6,22.4999993133545,8|0|0|0|0|0|0,3:0|3:0|3:0|3:0|3:0|3:0|3:0,3:3:0:0:
292,230,279004,1,4,1:0:0:0:
494,133,279391,5,10,1:0:0:0:
437,206,279585,1,0,3:0:0:0:
437,206,279682,1,0,3:0:0:0:
437,206,279778,1,2,1:0:0:0:
372,275,279972,1,0,0:0:0:0:
431,357,280165,1,10,1:0:0:0:
339,376,280359,1,2,1:0:0:0:
244,226,280553,5,4,3:0:0:0:
287,165,280746,1,2,3:0:0:0:
171,181,280940,1,8,3:0:0:0:
197,293,281133,1,2,3:0:0:0:
197,293,281230,1,0,0:0:0:0:
197,293,281327,1,4,3:0:0:0:
104,235,281520,1,2,3:0:0:0:
104,235,281617,1,8,3:0:0:0:
101,336,281810,1,2,3:0:0:0:
101,336,281907,1,4,3:0:0:0:
22,231,282101,5,4,1:0:0:0:
43,124,282294,1,0,3:0:0:0:
35,107,282391,1,0,3:0:0:0:
28,90,282488,1,10,1:0:0:0:
120,20,282682,1,0,3:0:0:0:
177,121,282875,1,2,1:0:0:0:
272,52,283069,1,0,3:0:0:0:
272,52,283165,1,2,3:1:0:0:
272,52,283262,1,10,1:0:0:0:
371,140,283456,1,2,1:0:0:0:
461,74,283649,5,4,3:0:0:0:
461,191,283843,1,2,3:0:0:0:
461,191,283940,1,2,3:0:0:0:
461,191,284036,1,8,3:0:0:0:
329,198,284230,1,2,3:0:0:0:
405,349,284424,5,4,3:0:0:0:
499,291,284617,1,2,3:0:0:0:
499,291,284714,1,8,3:0:0:0:
404,241,284907,1,2,3:0:0:0:
404,241,285004,1,4,3:0:0:0:
264,350,285198,5,6,1:0:0:0:
129,320,285391,1,0,3:0:0:0:
122,336,285488,1,0,3:0:0:0:
115,352,285585,1,8,1:0:0:0:
58,202,285778,1,2,0:0:0:0:
136,243,285972,5,2,1:0:0:0:
58,121,286165,1,0,0:0:0:0:
58,121,286262,1,2,1:0:0:0:
0,258,286456,1,2,0:1:0:0:
0,258,286553,1,0,1:0:0:0:
148,152,286746,5,4,1:0:0:0:
288,102,286940,1,0,3:0:0:0:
301,113,287036,1,0,3:0:0:0:
314,124,287133,1,8,1:0:0:0:
409,222,287327,1,2,0:0:0:0:
443,151,287520,5,2,1:0:0:0:
325,247,287714,1,0,0:0:0:0:
325,247,287811,1,2,1:0:0:0:
463,305,288004,1,2,0:1:0:0:
463,305,288101,1,0,1:0:0:0:
358,152,288294,6,0,P|339:92|257:60,1,134.999995880127,6|0,1:0|0:0,0:0:0:0:
242,67,288682,1,8,1:0:0:0:
179,116,288875,1,2,0:0:0:0:
70,52,289069,1,2,1:0:0:0:
156,23,289262,1,0,0:0:0:0:
156,23,289359,1,2,1:0:0:0:
88,127,289553,1,2,0:0:0:0:
88,153,289649,1,2,1:0:0:0:
91,179,289746,1,2,0:1:0:0:
93,205,289843,6,0,P|100:266|105:398,1,179.999994506836,0|8,1:0|1:0,0:0:0:0:
200,338,290424,1,0,3:0:0:0:
200,338,290520,1,2,3:0:0:0:
200,338,290617,1,8,1:0:0:0:
184,236,290811,1,8,0:0:0:0:
207,224,290907,1,0,1:0:0:0:
290,297,291101,1,2,3:3:0:0:
317,296,291198,1,8,0:0:0:0:
343,296,291294,1,0,1:0:0:0:
370,297,291391,1,4,1:0:0:0:
415,75,291778,5,10,1:0:0:0:
343,135,291972,1,0,0:0:0:0:
275,32,292165,1,2,1:0:0:0:
178,48,292359,1,0,3:0:0:0:
163,58,292456,1,0,3:0:0:0:
148,68,292553,1,10,1:0:0:0:
50,21,292746,1,2,1:0:0:0:
84,132,292940,5,4,3:0:0:0:
108,250,293133,1,2,3:0:0:0:
108,250,293230,1,2,3:0:0:0:
108,250,293327,1,8,3:0:0:0:
211,177,293520,1,2,3:0:0:0:
211,177,293617,1,0,0:0:0:0:
211,177,293714,1,4,3:0:0:0:
255,285,293907,1,2,3:0:0:0:
255,285,294004,1,8,3:0:0:0:
360,236,294198,1,2,3:0:0:0:
360,236,294294,1,4,3:0:0:0:
465,184,294488,6,0,P|457:121|449:29,1,134.999995880127,4|0,1:0|0:0,0:0:0:0:
419,31,294875,1,10,1:0:0:0:
335,121,295069,1,0,3:0:0:0:
251,45,295262,1,2,1:0:0:0:
175,138,295456,1,0,3:0:0:0:
249,215,295649,2,0,P|246:244|241:273,1,44.999998626709,10|0,1:0|0:0,0:0:0:0:
123,296,295843,1,2,1:0:0:0:
29,245,296036,5,4,3:0:0:0:
144,210,296230,1,2,3:0:0:0:
139,232,296327,1,2,3:0:0:0:
134,254,296424,1,8,3:0:0:0:
129,275,296520,1,2,3:0:0:0:
123,296,296617,1,2,3:0:0:0:
169,379,296811,1,4,3:0:0:0:
322,332,297004,5,0,1:0:0:0:
326,358,297101,1,2,1:0:0:0:
437,282,297294,1,2,1:1:0:0:
384,140,297488,1,2,1:2:0:0:
361,154,297585,6,0,P|275:152|191:141,1,134.999995880127,6|0,1:0|0:0,0:0:0:0:
191,156,297972,1,8,1:0:0:0:
116,81,298165,1,2,0:0:0:0:
201,16,298359,1,2,1:0:0:0:
78,0,298553,1,0,1:0:0:0:
53,11,298649,1,2,1:0:0:0:
19,123,298843,1,2,1:1:0:0:
19,123,298940,1,0,1:0:0:0:
48,142,299036,1,2,1:2:0:0:
34,175,299133,5,4,1:0:0:0:
126,371,299520,1,8,1:0:0:0:
82,273,299714,1,2,0:0:0:0:
189,274,299907,1,2,1:0:0:0:
240,374,300101,1,0,1:0:0:0:
240,374,300198,1,2,1:0:0:0:
322,263,300391,1,2,1:1:0:0:
242,144,300585,1,0,1:0:0:0:
262,113,300682,6,0,P|336:114|421:105,1,134.999995880127,6|0,1:0|0:0,0:0:0:0:
431,117,301069,1,8,1:0:0:0:
476,212,301262,1,2,0:0:0:0:
405,291,301456,1,2,1:0:0:0:
306,249,301649,1,0,0:0:0:0:
274,261,301746,1,2,1:0:0:0:
190,329,301940,1,0,0:0:0:0:
156,315,302036,1,2,1:0:0:0:
63,235,302230,6,0,L|33:247,12,22.4999993133545,4|0|0|0|0|0|0|0|8|0|0|0|0,3:0|3:0|3:0|3:0|3:0|3:0|3:0|3:0|3:0|3:0|3:0|3:0|3:0,3:3:0:0:
73,200,302907,1,0,1:0:0:0:
109,201,303004,1,4,1:3:0:0:
183,263,303198,1,0,1:0:0:0:
246,194,303391,1,8,1:3:0:0:
236,159,303488,1,0,3:0:0:0:
226,124,303585,1,0,3:0:0:0:
216,89,303682,1,0,3:0:0:0:
206,54,303778,6,0,P|268:59|355:151,1,179.999994506836,4|8,1:0|0:0,0:0:0:0:
451,167,304359,1,2,0:0:0:0:
429,369,304553,1,0,1:0:0:0:
443,266,304746,1,2,0:0:0:0:
443,266,304843,1,0,0:0:0:0:
443,266,304940,1,8,0:0:0:0:
512,354,305133,1,0,1:0:0:0:
351,243,305327,5,0,1:0:0:0:
273,337,305520,1,2,0:0:0:0:
273,337,305617,1,0,0:0:0:0:
273,337,305714,1,8,0:0:0:0:
169,276,305907,1,2,1:2:0:0:
257,212,306101,1,0,1:0:0:0:
12,20,306391,1,2,1:2:0:0:
12,20,306488,1,8,0:0:0:0:
124,23,306682,1,0,1:0:0:0:
70,134,306875,6,0,P|72:223|76:279,1,134.999995880127,4|0,1:2|1:0,0:0:0:0:
64,303,307262,1,8,0:0:0:0:
169,340,307456,1,2,1:2:0:0:
234,199,307649,5,0,1:0:0:0:
306,304,307843,1,2,0:0:0:0:
306,304,307940,1,0,0:0:0:0:
306,304,308036,1,8,0:0:0:0:
409,229,308230,1,0,1:0:0:0:
483,281,308424,5,0,1:0:0:0:
489,172,308617,1,2,0:0:0:0:
489,172,308714,1,0,0:0:0:0:
489,172,308811,1,8,0:0:0:0:
372,159,309004,1,0,1:0:0:0:
449,78,309198,1,0,1:0:0:0:
357,22,309391,1,2,0:0:0:0:
357,22,309488,1,0,1:0:0:0:
283,109,309682,1,2,0:0:0:0:
283,109,309778,1,0,1:0:0:0:
283,109,309875,1,2,0:0:0:0:
283,109,309972,5,0,1:0:0:0:
11,46,310262,1,2,1:2:0:0:
44,58,310359,1,8,0:0:0:0:
15,139,310553,1,0,1:0:0:0:
102,129,310746,1,0,1:0:0:0:
135,381,311036,1,2,1:2:0:0:
131,345,311133,1,8,0:0:0:0:
220,366,311327,1,0,1:0:0:0:
158,234,311520,5,0,1:0:0:0:
285,280,311714,1,2,1:2:0:0:
285,280,311811,1,0,0:0:0:0:
285,280,311907,1,8,0:0:0:0:
323,156,312101,1,0,1:0:0:0:
241,201,312294,1,0,1:0:0:0:
67,27,312585,1,2,1:2:0:0:
89,54,312682,1,8,0:0:0:0:
224,0,312875,1,0,1:0:0:0:
345,85,313069,5,0,1:0:0:0:
281,313,313359,1,2,1:2:0:0:
273,277,313456,1,8,0:0:0:0:
454,221,313649,1,2,1:2:0:0:
454,221,313746,1,0,0:0:0:0:
454,221,313843,1,0,1:0:0:0:
388,299,314036,2,0,L|344:287,3,29.9999990844727,0|2|0|8,1:0|0:0|0:0|0:0,0:0:0:0:
448,373,314424,1,0,1:0:0:0:
311,361,314617,5,0,1:0:0:0:
245,253,314811,1,2,0:0:0:0:
245,253,314907,1,2,1:0:0:0:
159,357,315101,1,2,0:0:0:0:
159,357,315198,1,2,1:0:0:0:
0,306,315391,5,2,1:0:0:0:
38,171,315585,1,0,1:0:0:0:
38,171,315681,1,2,1:0:0:0:
166,232,315875,1,0,1:0:0:0:
166,232,315972,1,2,1:0:0:0:
328,58,316165,6,0,P|275:65|204:169,1,179.999994506836,4|8,1:0|0:0,0:0:0:0:
319,218,316746,1,2,0:0:0:0:
442,195,316940,1,0,1:0:0:0:
464,68,317133,1,2,0:0:0:0:
464,68,317230,1,0,0:0:0:0:
464,68,317327,1,8,0:0:0:0:
344,108,317520,1,0,1:0:0:0:
235,17,317714,5,0,1:0:0:0:
173,93,317907,1,2,0:0:0:0:
173,93,318004,1,0,0:0:0:0:
173,93,318101,1,8,0:0:0:0:
87,21,318294,1,2,1:2:0:0:
13,102,318488,1,0,1:0:0:0:
41,360,318778,1,2,1:2:0:0:
57,327,318875,1,8,0:0:0:0:
173,362,319069,1,0,1:0:0:0:
145,250,319262,5,4,1:2:0:0:
428,252,319553,1,0,1:0:0:0:
392,252,319649,1,8,0:0:0:0:
468,340,319843,1,2,1:2:0:0:
512,213,320036,1,0,1:0:0:0:
424,129,320230,1,2,0:0:0:0:
446,114,320327,1,0,0:0:0:0:
468,99,320424,1,8,0:0:0:0:
374,27,320617,1,0,1:0:0:0:
269,71,320811,5,0,1:0:0:0:
212,151,321004,1,2,1:2:0:0:
154,70,321198,1,8,0:0:0:0:
91,126,321391,1,0,1:0:0:0:
57,112,321488,1,0,0:0:0:0:
22,101,321585,2,0,P|21:206|16:307,1,179.999994506836,0|8,1:0|0:0,0:0:0:0:
235,346,322165,5,0,1:0:0:0:
235,346,322262,1,0,0:0:0:0:
235,346,322359,1,0,1:0:0:0:
385,137,322649,1,2,1:2:0:0:
365,167,322746,2,0,P|298:160|245:154,1,89.9999972534181,8|0,0:0|1:0,0:0:0:0:
81,62,323133,5,0,1:0:0:0:
245,50,323327,1,2,0:0:0:0:
245,50,323424,1,2,1:2:0:0:
140,201,323617,1,2,0:0:0:0:
140,201,323714,1,2,1:2:0:0:
349,259,323907,5,0,1:0:0:0:
438,236,324101,1,2,1:2:0:0:
366,161,324294,1,8,0:0:0:0:
282,194,324488,1,0,1:0:0:0:
282,194,324585,1,0,0:0:0:0:
282,194,324682,2,0,P|292:275|302:387,1,179.999994506836,0|8,1:0|0:0,0:0:0:0:
408,356,325262,1,0,1:0:0:0:
420,255,325456,5,0,1:0:0:0:
454,9,325746,1,2,1:2:0:0:
463,43,325843,1,8,0:0:0:0:
341,77,326036,1,2,1:2:0:0:
227,19,326230,1,0,1:0:0:0:
147,71,326424,2,0,L|138:108,3,29.9999990844727,0|2|0|8,1:0|0:0|0:0|0:0,0:0:0:0:
75,22,326811,1,0,1:0:0:0:
22,128,327004,5,4,3:2:0:0:
27,154,327101,1,0,3:0:0:0:
32,180,327198,1,2,3:0:0:0:
37,206,327294,1,0,3:0:0:0:
42,232,327391,1,10,3:2:0:0:
48,258,327488,1,0,3:0:0:0:
55,284,327585,1,2,3:0:0:0:
62,310,327682,1,0,3:0:0:0:
62,345,327778,5,0,1:0:0:0:
94,328,327875,1,0,1:0:0:0:
129,321,327972,1,2,1:0:0:0:
164,324,328069,1,0,1:0:0:0:
202,346,328165,1,10,1:2:0:0:
245,357,328262,1,2,1:0:0:0:
288,346,328359,1,0,1:0:0:0:
328,326,328456,1,0,1:0:0:0:
357,291,328553,1,6,1:0:0:0:
