osu file format v14

[General]
AudioFilename: audio.mp3
AudioLeadIn: 0
PreviewTime: 58657
Countdown: 0
SampleSet: Soft
StackLeniency: 0.7
Mode: 0
LetterboxInBreaks: 0
WidescreenStoryboard: 0

[Editor]
Bookmarks: 2407,19282,26782,58657,79282,88657,120532,141157,161782,204907,225532
DistanceSpacing: 1.2
BeatDivisor: 4
GridSize: 4
TimelineZoom: 1

[Metadata]
Title:Fushigi no Kuni no Christmas
TitleUnicode:不思議の国のクリスマス
Artist:SOUND HOLIC
ArtistUnicode:SOUND HOLIC
Creator:-Faded-
Version:Hard
Source:秋霜玉
Tags:3L MasKaleido Blue E 秘 -HIME- Magical Girl Crusade Ghostly Field Club Winter Xmas in wonderland
BeatmapID:1445816
BeatmapSetID:683589

[Difficulty]
HPDrainRate:5
CircleSize:3.7
OverallDifficulty:7
ApproachRate:7.5
SliderMultiplier:1.4
SliderTickRate:1

[Events]
//Background and Video events
0,0,"52c2ad6d-4efe-4446-abf333-01ad8944ded5.png",0,0
//Break Periods
2,19482,25732
2,81157,87607
2,143032,149482
//Storyboard Layer 0 (Background)
//Storyboard Layer 1 (Fail)
//Storyboard Layer 2 (Pass)
//Storyboard Layer 3 (Foreground)
//Storyboard Sound Samples

[TimingPoints]
2407,468.75,4,2,1,60,1,0
58657,-83.3333333333333,4,2,1,60,0,1
79282,-100,4,2,1,60,0,0
120532,-83.3333333333333,4,2,1,60,0,1
141157,-100,4,2,1,60,0,0
165532,-83.3333333333333,4,2,1,60,0,1
182407,-100,4,2,1,60,0,0
184282,-83.3333333333333,4,2,1,60,0,1
204907,-100,4,2,1,60,0,0
223657,-100,4,2,1,50,0,0
224594,-100,4,2,1,40,0,0
225532,-100,4,2,1,30,0,0

[Colours]
Combo1 : 128,207,255
Combo2 : 255,132,132
Combo3 : 128,255,128

[HitObjects]
320,148,2407,6,0,P|392:152|464:108,2,140,6|0|2,0:0|0:0|0:0,0:0:0:0:
172,68,3813,2,0,P|136:60|88:64,1,70
48,124,4282,6,0,P|59:159|86:198,1,70,2|0,0:0|0:0,0:0:0:0:
140,244,4750,1,0,0:0:0:0:
60,272,4985,1,0,0:0:0:0:
172,328,5219,2,0,P|224:336|316:292,1,140,2|0,0:0|0:0,0:0:0:0:
404,156,6157,5,2,0:0:0:0:
340,104,6391,2,0,P|308:100|260:120,2,70
404,156,7094,2,2,L|412:280,2,105,2|0|0,0:0|0:0|0:0,0:0:0:0:
324,184,8032,6,2,L|332:308,2,105,2|0|0,0:0|0:0|0:0,0:0:0:0:
244,212,8969,2,0,L|252:364,1,140,2|0,0:0|0:0,0:0:0:0:
104,272,9907,6,0,L|96:124,1,140,6|0,0:0|0:0,0:0:0:0:
136,56,10610,1,0,0:0:0:0:
212,92,10844,2,0,P|276:104|364:72,1,140,2|0,0:0|0:0,0:0:0:0:
416,32,11547,1,0,0:0:0:0:
400,148,11782,5,2,0:0:0:0:
484,140,12016,1,0,0:0:0:0:
400,240,12250,1,0,0:0:0:0:
484,248,12484,1,0,0:0:0:0:
392,328,12719,2,0,P|336:356|248:344,1,140,2|0,0:0|0:0,0:0:0:0:
180,204,13657,6,0,L|176:128,2,70,2|0|0,0:0|0:0|0:0,0:0:0:0:
132,276,14360,1,0,0:0:0:0:
88,208,14594,2,0,L|84:72,2,105,2|0|0,0:0|0:0|0:0,0:0:0:0:
56,284,15532,6,0,P|88:336|156:348,2,105,2|0|0,0:0|0:0|0:0,0:0:0:0:
4,216,16469,1,2,0:0:0:0:
256,192,16938,12,4,19282,0:0:0:0:
240,24,26782,6,0,L|236:120,1,70,6|0,0:0|0:0,0:0:0:0:
232,176,27250,1,8,0:0:0:0:
308,140,27485,1,0,0:0:0:0:
364,204,27719,2,2,P|412:228|472:224,2,105
308,140,28657,6,2,L|316:24,2,105
232,176,29594,2,0,L|224:324,1,140,2|8,0:0|0:0,0:0:0:0:
156,368,30297,1,0,0:0:0:0:
92,312,30532,6,0,L|96:232,1,70,2|0,0:0|0:0,0:0:0:0:
96,160,31000,1,8,0:0:0:0:
168,116,31235,1,0,0:0:0:0:
232,176,31469,2,2,P|288:192|348:172,2,105
192,252,32407,6,2,P|240:272|316:276,2,105
156,328,33344,2,0,P|224:356|300:360,1,140,2|8,0:0|0:0,0:0:0:0:
364,324,34047,1,0,0:0:0:0:
324,196,34282,6,0,P|320:148|328:116,1,70,6|0,0:0|0:0,0:0:0:0:
392,76,34750,1,8,0:0:0:0:
472,108,34985,1,0,0:0:0:0:
476,192,35219,2,2,L|472:308,2,105
472,108,36157,6,2,P|432:72|372:64,2,105
476,192,37094,2,2,P|441:230|392:246,2,105
412,340,38032,6,0,P|368:336|300:264,1,140,2|8,0:0|0:0,0:0:0:0:
252,112,38969,2,0,P|196:96|196:172,1,140,2|8,0:0|0:0,0:0:0:0:
256,200,39672,1,0,0:0:0:0:
332,164,39907,6,2,P|344:120|332:56,2,105
392,224,40844,2,0,P|420:176|424:84,1,140,2|8,0:0|0:0,0:0:0:0:
412,316,41782,6,0,P|328:336|208:268,1,210,2|0,0:0|0:0,0:0:0:0:
192,204,42719,1,8,0:0:0:0:
276,220,42953,1,0,0:0:0:0:
244,140,43188,1,2,0:0:0:0:
160,124,43422,1,0,0:0:0:0:
332,152,43657,6,2,L|448:148,2,105
276,220,44594,1,8,0:0:0:0:
276,220,45532,6,0,P|212:220|116:104,1,210,2|0,0:0|0:0,0:0:0:0:
120,32,46469,1,8,0:0:0:0:
192,72,46703,1,0,0:0:0:0:
276,52,46938,1,2,0:0:0:0:
348,96,47172,1,0,0:0:0:0:
428,68,47407,6,0,L|500:64,1,70,2|2,0:0|0:0,0:0:0:0:
364,184,47875,2,0,L|504:176,1,140,2|10,0:0|0:0,0:0:0:0:
220,356,49282,6,0,P|208:316|232:240,2,105,6|2|2,0:0|0:0|0:0,0:0:0:0:
384,324,50453,2,0,P|392:248|364:188,1,140,2|0,0:0|0:0,0:0:0:0:
292,152,51157,6,2,L|184:156,2,105
140,224,52328,2,0,P|104:168|132:92,1,140,2|0,0:0|0:0,0:0:0:0:
204,72,53032,2,2,P|168:28|96:20,2,105
140,224,54203,1,2,0:0:0:0:
92,292,54438,1,2,0:0:0:0:
176,304,54672,1,2,0:0:0:0:
256,192,54907,12,4,56782,0:0:0:0:
128,72,57719,5,4,3:0:0:0:
128,72,58188,1,4,3:0:0:0:
128,72,58657,6,0,P|104:124|136:236,2,167.999994873047,4|8|2,1:0|0:0|0:0,0:0:0:0:
312,152,60063,1,8,0:0:0:0:
212,148,60297,1,0,0:0:0:0:
356,252,60532,5,2,0:0:0:0:
409,167,60766,1,0,0:0:0:0:
248,240,61000,5,8,0:0:0:0:
295,328,61234,1,0,0:0:0:0:
312,152,61469,2,0,P|304:96|208:40,1,167.999994873047,2|8,0:0|0:0,0:0:0:0:
28,108,62407,5,2,0:0:0:0:
36,208,62641,1,0,0:0:0:0:
124,156,62875,1,8,0:0:0:0:
132,256,63110,1,0,0:0:0:0:
212,192,63344,2,2,L|220:32,2,125.999996154785
344,236,64282,6,2,L|352:76,2,125.999996154785
476,304,65219,2,0,L|484:120,1,167.999994873047,2|8,0:0|0:0,0:0:0:0:
316,24,66157,6,0,P|256:12|132:68,2,167.999994873047,4|8|2,0:0|0:0|0:0,0:0:0:0:
160,152,67563,1,8,0:0:0:0:
60,140,67797,1,0,0:0:0:0:
140,316,68032,5,2,0:0:0:0:
200,236,68266,1,0,0:0:0:0:
8,220,68500,5,8,0:0:0:0:
47,311,68734,1,0,0:0:0:0:
200,236,68969,2,0,L|372:248,1,167.999994873047,2|8,0:0|0:0,0:0:0:0:
240,16,69907,5,2,0:0:0:0:
148,60,70141,1,0,0:0:0:0:
232,116,70375,1,8,0:0:0:0:
144,164,70610,1,0,0:0:0:0:
228,216,70844,2,2,L|372:220,2,125.999996154785
136,260,71782,6,2,L|-8:264,2,125.999996154785
220,316,72719,2,0,L|408:320,1,167.999994873047,2|8,0:0|0:0,0:0:0:0:
496,148,73657,6,0,P|444:116|316:136,1,167.999994873047,6|8,0:0|0:0,0:0:0:0:
172,232,74594,2,0,P|96:240|64:220,1,83.9999974365235,2|0,0:0|0:0,0:0:0:0:
124,144,75063,5,8,0:0:0:0:
224,152,75297,1,0,0:0:0:0:
80,60,75532,5,2,0:0:0:0:
23,142,75766,1,2,0:0:0:0:
184,64,76000,5,10,0:0:0:0:
172,232,76235,1,4,0:0:0:0:
416,296,76703,6,2,L|424:184,1,83.9999974365235
432,112,77172,1,2,0:0:0:0:
340,152,77407,1,6,0:0:0:0:
256,192,77524,12,4,79282,0:0:0:0:
148,312,88657,6,0,P|180:320|240:308,1,70,6|0,0:0|0:0,0:0:0:0:
292,284,89125,1,8,0:0:0:0:
228,232,89360,1,0,0:0:0:0:
304,196,89594,2,2,P|368:192|424:216,2,105
236,148,90532,6,2,P|200:94|193:34,2,105
228,232,91469,2,0,P|196:268|96:292,1,140,2|8,0:0|0:0,0:0:0:0:
28,276,92172,1,0,0:0:0:0:
84,212,92407,6,0,P|100:172|88:128,1,70,2|0,0:0|0:0,0:0:0:0:
68,68,92875,1,8,0:0:0:0:
152,80,93110,1,0,0:0:0:0:
228,48,93344,2,2,L|340:52,2,105
248,132,94282,6,2,L|360:136,2,105
264,216,95219,2,0,L|404:220,1,140,2|8,0:0|0:0,0:0:0:0:
472,172,95922,1,0,0:0:0:0:
432,312,96157,6,0,L|344:308,1,70,4|0,0:0|0:0,0:0:0:0:
280,304,96625,1,8,0:0:0:0:
208,348,96860,1,0,0:0:0:0:
128,320,97094,2,2,P|124:272|144:188,2,105
52,356,98032,6,2,P|40:304|44:248,2,105
128,320,98969,2,2,P|184:312|248:320,2,105
312,368,99907,6,0,P|328:320|284:232,1,140,2|8,0:0|0:0,0:0:0:0:
236,172,100610,1,0,0:0:0:0:
152,152,100844,2,0,P|144:96|216:96,1,140,2|8,0:0|0:0,0:0:0:0:
236,172,101547,1,0,0:0:0:0:
180,236,101782,6,2,P|128:236|80:204,2,105
263,251,102719,2,0,P|320:291|389:295,1,140,2|8,0:0|0:0,0:0:0:0:
468,148,103657,6,0,P|428:100|268:96,1,210,4|0,0:0|0:0,0:0:0:0:
224,136,104594,1,8,0:0:0:0:
144,104,104828,1,0,0:0:0:0:
124,24,105063,1,2,0:0:0:0:
208,52,105297,1,0,0:0:0:0:
152,192,105532,6,2,L|136:308,2,105
224,136,106469,1,8,0:0:0:0:
224,136,107407,6,0,P|324:112|408:176,1,210,2|0,0:0|0:0,0:0:0:0:
436,248,108344,1,8,0:0:0:0:
352,232,108578,1,0,0:0:0:0:
284,284,108813,1,2,0:0:0:0:
204,260,109047,1,0,0:0:0:0:
136,308,109282,6,2,P|96:316|48:300,1,70
36,144,109750,2,2,P|88:156|96:240,1,140,2|10,0:0|0:0,0:0:0:0:
436,204,111157,6,2,L|440:88,2,105,6|2|2,0:0|0:0|0:0,0:0:0:0:
336,336,112328,2,0,P|280:340|184:284,1,140,2|0,0:0|0:0,0:0:0:0:
148,244,113032,6,2,P|104:216|44:216,2,105
24,132,114203,2,0,P|84:124|160:144,1,140,2|0,0:0|0:0,0:0:0:0:
208,76,114907,6,2,P|164:52|104:40,2,105
308,208,116078,1,2,0:0:0:0:
376,260,116313,1,2,0:0:0:0:
448,216,116547,1,2,0:0:0:0:
256,192,116782,12,4,118657,0:0:0:0:
312,336,119594,5,4,3:0:0:0:
312,336,120063,1,4,3:0:0:0:
312,336,120532,6,0,P|360:352|480:296,2,167.999994873047,4|8|2,1:0|0:0|0:0,0:0:0:0:
210,175,121938,1,8,0:0:0:0:
304,167,122172,1,0,0:0:0:0:
228,338,122407,5,2,0:0:0:0:
174,259,122641,1,0,0:0:0:0:
354,250,122875,5,8,0:0:0:0:
312,336,123109,1,0,0:0:0:0:
210,175,123344,2,0,P|198:115|282:47,1,167.999994873047,2|8,0:0|0:0,0:0:0:0:
468,92,124282,5,2,0:0:0:0:
416,180,124516,1,0,0:0:0:0:
484,252,124750,1,8,0:0:0:0:
412,324,124985,1,0,0:0:0:0:
336,252,125219,2,2,P|284:224|196:232,2,125.999996154785
192,340,126157,6,2,P|247:368|309:368,2,125.999996154785
336,252,127094,2,0,L|340:72,1,167.999994873047,2|8,0:0|0:0,0:0:0:0:
156,164,128032,6,0,P|76:176|-12:124,2,167.999994873047,4|8|2,0:0|0:0|0:0,0:0:0:0:
324,28,129438,1,8,0:0:0:0:
360,124,129672,1,0,0:0:0:0:
240,196,129907,5,2,0:0:0:0:
276,292,130141,1,0,0:0:0:0:
256,100,130375,5,8,0:0:0:0:
160,136,130609,1,0,0:0:0:0:
340,220,130844,2,0,P|392:232|484:164,1,167.999994873047,2|8,0:0|0:0,0:0:0:0:
352,16,131782,5,2,0:0:0:0:
380,112,132016,1,0,0:0:0:0:
284,80,132250,1,8,0:0:0:0:
232,164,132485,1,0,0:0:0:0:
176,80,132719,2,2,L|40:76,2,125.999996154785
56,232,133657,6,2,L|181:228,2,125.999996154785
200,380,134594,2,0,L|16:376,1,167.999994873047,2|8,0:0|0:0,0:0:0:0:
356,356,135532,6,0,P|408:292|376:216,1,167.999994873047,6|8,0:0|0:0,0:0:0:0:
212,108,136469,2,0,P|200:68|224:16,1,83.9999974365235,2|0,0:0|0:0,0:0:0:0:
304,72,136938,1,8,0:0:0:0:
296,172,137172,1,0,0:0:0:0:
476,92,137407,5,2,0:0:0:0:
468,192,137641,1,2,0:0:0:0:
392,36,137875,5,10,0:0:0:0:
372,232,138110,1,6,0:0:0:0:
112,316,138578,6,2,L|108:228,1,83.9999974365235
100,132,139047,1,2,0:0:0:0:
196,168,139282,1,4,0:0:0:0:
256,192,139399,12,4,141157,0:0:0:0:
64,352,150532,6,0,L|284:344,1,210,4|0,0:0|0:0,0:0:0:0:
348,308,151469,2,0,P|360:264|344:216,1,70,8|0,0:0|0:0,0:0:0:0:
280,131,151938,2,0,P|268:163|271:198,1,70,0|0,0:0|0:0,0:0:0:0:
368,84,152407,6,0,P|320:44|184:104,1,210,8|0,0:0|0:0,0:0:0:0:
192,192,153344,2,0,P|240:232|376:172,1,210,8|0,0:0|1:0,0:0:0:0:
448,256,154282,6,0,P|420:292|392:312,1,70,8|0,0:0|0:0,0:0:0:0:
268,344,154750,2,0,P|338:336|400:305,1,140,0|8,0:0|0:0,0:0:0:0:
304,196,155453,1,0,0:0:0:0:
268,344,155688,2,0,P|233:338|202:321,1,70
112,224,156157,6,0,P|84:256|84:376,1,140,8|0,0:0|0:0,0:0:0:0:
232,192,157094,2,0,P|240:148|232:96,1,70,8|0,0:0|0:0,0:0:0:0:
208,44,157563,1,0,0:0:0:0:
332,204,158032,6,0,P|340:160|332:108,1,70,8|0,0:0|0:0,0:0:0:0:
308,32,158501,1,0,0:0:0:0:
444,216,158969,6,0,P|452:172|444:120,1,70,8|0,0:0|0:0,0:0:0:0:
420,8,159438,1,0,0:0:0:0:
344,328,159907,6,0,L|424:336,1,70,8|0,0:0|0:0,0:0:0:0:
280,252,160375,2,0,L|360:244,1,70,8|0,0:0|0:0,0:0:0:0:
240,180,160844,1,8,0:0:0:0:
192,356,161078,1,8,0:0:0:0:
104,236,161313,2,0,L|96:192,3,35,8|0|8|0,0:0|0:0|0:0|0:0,0:0:0:0:
104,236,161782,6,0,P|168:272|248:252,2,140,4|2|2,1:0|0:0|0:0,0:0:0:0:
32,84,163188,1,0,0:0:0:0:
112,60,163422,1,0,0:0:0:0:
196,44,163657,5,2,0:0:0:0:
96,148,163891,1,0,0:0:0:0:
176,124,164125,1,0,0:0:0:0:
156,208,164360,1,0,0:0:0:0:
260,104,164594,2,8,P|308:88|392:120,1,140,4|4,3:0|3:0,0:0:0:0:
424,336,165532,5,6,0:0:0:0:
328,300,165766,1,0,0:0:0:0:
408,236,166000,1,8,0:0:0:0:
312,200,166235,1,0,0:0:0:0:
236,264,166469,2,2,L|104:260,2,125.999996154785
116,140,167407,6,2,L|241:143,2,125.999996154785
268,32,168344,2,0,L|96:28,1,167.999994873047,2|8,0:0|0:0,0:0:0:0:
388,60,169282,6,2,P|412:116|368:228,2,167.999994873047,4|8|2,0:0|0:0|0:0,0:0:0:0:
193,112,170688,1,8,0:0:0:0:
297,129,170923,1,0,0:0:0:0:
219,283,171157,5,2,0:0:0:0:
143,206,171392,1,0,0:0:0:0:
314,235,171626,5,8,0:0:0:0:
312,336,171860,1,0,0:0:0:0:
232,188,172094,2,0,P|316:140|392:180,1,167.999994873047,2|8,0:0|0:0,0:0:0:0:
488,332,173032,5,2,0:0:0:0:
400,384,173266,1,0,0:0:0:0:
312,336,173500,1,8,0:0:0:0:
314,235,173735,1,0,0:0:0:0:
400,284,173969,2,2,L|408:152,2,125.999996154785
216,154,174907,6,2,L|224:280,2,125.999996154785
316,324,175844,2,0,P|256:372|140:340,1,167.999994873047,2|8,0:0|0:0,0:0:0:0:
40,204,176782,6,0,L|48:20,1,167.999994873047,4|8,0:0|0:0,0:0:0:0:
248,24,177719,2,0,P|252:80|240:104,1,83.9999974365235,2|0,0:0|0:0,0:0:0:0:
152,56,178188,1,8,0:0:0:0:
156,156,178422,1,0,0:0:0:0:
336,144,178657,5,2,0:0:0:0:
248,200,178891,1,2,0:0:0:0:
88,224,179125,5,10,0:0:0:0:
240,308,179360,1,4,0:0:0:0:
460,44,179828,6,2,L|452:136,1,83.9999974365235
444,228,180297,1,2,0:0:0:0:
364,168,180532,1,4,0:0:0:0:
256,192,180649,12,4,182407,0:0:0:0:
176,304,184282,6,0,P|160:244|200:140,2,167.999994873047,4|8|2,1:0|0:0|2:0,0:0:0:0:
370,231,185688,1,8,0:0:0:0:
344,130,185922,1,0,0:0:0:0:
291,310,186157,5,2,0:0:0:0:
396,337,186391,1,0,0:0:0:0:
449,156,186625,5,8,0:0:0:0:
476,262,186860,1,0,0:0:0:0:
280,208,187094,2,2,P|216:196|124:268,1,167.999994873047,2|8,0:0|0:0,0:0:0:0:
128,352,187797,1,0,0:0:0:0:
60,192,188032,6,0,P|92:152|122:133,1,83.9999974365235,2|0,0:0|0:0,0:0:0:0:
224,296,188500,2,0,P|280:312|324:304,1,83.9999974365235,8|0,0:0|0:0,0:0:0:0:
392,364,188969,2,0,P|408:308|400:264,1,83.9999974365235,2|0,0:0|0:0,0:0:0:0:
460,200,189438,2,0,P|404:184|360:192,1,83.9999974365235,8|0,0:0|0:0,0:0:0:0:
224,88,189907,6,0,P|212:148|300:212,1,167.999994873047,2|8,0:0|0:0,0:0:0:0:
379,186,190610,1,0,0:0:0:0:
264,312,190844,2,0,P|192:288|128:212,1,167.999994873047,2|8,0:0|0:0,0:0:0:0:
424,88,191782,6,0,P|439:162|405:255,2,167.999994873047,4|8|2,0:0|0:0|0:0,0:0:0:0:
232,8,193188,1,8,0:0:0:0:
156,76,193422,1,0,0:0:0:0:
316,184,193657,5,2,0:0:0:0:
248,108,193891,1,0,0:0:0:0:
88,248,194125,5,8,0:0:0:0:
164,180,194359,1,0,0:0:0:0:
280,284,194594,2,0,P|324:296|416:200,1,167.999994873047,2|8,0:0|0:0,0:0:0:0:
428,128,195297,1,0,0:0:0:0:
440,332,195532,6,0,P|400:360|352:372,1,83.9999974365235,2|0,0:0|0:0,0:0:0:0:
136,316,196000,2,0,L|140:224,1,83.9999974365235,8|0,0:0|0:0,0:0:0:0:
284,144,196469,2,0,L|288:228,1,83.9999974365235,2|0,0:0|0:0,0:0:0:0:
144,128,196938,2,0,L|148:36,1,83.9999974365235,8|0,0:0|0:0,0:0:0:0:
368,104,197407,6,0,L|376:284,1,167.999994873047,2|8,0:0|0:0,0:0:0:0:
432,356,198110,1,0,0:0:0:0:
500,280,198344,2,0,L|504:100,1,167.999994873047,2|8,0:0|0:0,0:0:0:0:
328,40,199282,6,0,P|264:32|144:80,1,167.999994873047,4|8,0:0|0:0,0:0:0:0:
40,220,200219,2,0,L|48:316,1,83.9999974365235,2|0,0:0|0:0,0:0:0:0:
156,168,200688,1,8,0:0:0:0:
176,272,200922,1,0,0:0:0:0:
344,188,201157,5,2,0:0:0:0:
312,284,201391,1,2,0:0:0:0:
260,120,201625,5,10,0:0:0:0:
236,340,201860,1,4,0:0:0:0:
472,156,202328,6,2,L|476:60,1,83.9999974365235
392,12,202797,1,2,0:0:0:0:
372,112,203032,1,4,0:0:0:0:
256,192,203149,12,4,204907,0:0:0:0:
8,108,206782,6,0,P|80:136|144:116,1,140,6|8,0:0|0:0,0:0:0:0:
208,72,207485,1,0,0:0:0:0:
276,120,207719,2,0,P|343:135|406:108,1,140,2|8,0:0|0:0,0:0:0:0:
464,44,208422,1,0,0:0:0:0:
416,216,208657,6,0,P|372:232|264:224,1,140,2|8,0:0|0:0,0:0:0:0:
200,204,209360,1,0,0:0:0:0:
204,288,209594,2,0,P|256:324|324:320,2,105,2|2|2,0:0|0:0|0:0,0:0:0:0:
128,248,210532,6,0,L|120:84,1,140,2|8,0:0|0:0,0:0:0:0:
176,44,211235,1,0,0:0:0:0:
252,80,211469,2,0,P|296:96|408:64,1,140,2|8,0:0|0:0,0:0:0:0:
460,40,212172,1,0,0:0:0:0:
480,160,212407,6,0,P|440:196|348:216,1,140,2|8,0:0|0:0,0:0:0:0:
276,200,213110,1,0,0:0:0:0:
304,280,213344,1,2,0:0:0:0:
188,184,213578,1,8,0:0:0:0:
184,360,213813,1,8,0:0:0:0:
36,176,214282,6,0,L|44:32,1,140,2|8,0:0|0:0,0:0:0:0:
128,24,214985,1,0,0:0:0:0:
196,72,215219,2,0,P|252:92|340:56,1,140,2|8,0:0|0:0,0:0:0:0:
400,28,215922,1,0,0:0:0:0:
452,128,216157,6,0,L|444:284,1,140,2|8,0:0|0:0,0:0:0:0:
416,348,216860,1,0,0:0:0:0:
360,284,217094,1,2,0:0:0:0:
508,332,217328,1,8,0:0:0:0:
324,364,217563,1,8,0:0:0:0:
56,232,218032,6,0,P|40:168|84:88,1,140,2|8,0:0|0:0,0:0:0:0:
148,72,218735,1,0,0:0:0:0:
216,120,218969,2,0,P|231:186|203:249,1,140,2|8,0:0|0:0,0:0:0:0:
128,288,219672,1,0,0:0:0:0:
248,336,219907,6,0,L|392:332,1,140,2|8,0:0|0:0,0:0:0:0:
448,272,220610,1,0,0:0:0:0:
368,244,220844,1,2,0:0:0:0:
464,368,221078,1,8,0:0:0:0:
428,184,221313,1,8,0:0:0:0:
188,48,221782,6,0,P|124:56|60:124,1,140,2|8,0:0|0:0,0:0:0:0:
52,188,222485,1,0,0:0:0:0:
132,168,222719,1,2,0:0:0:0:
256,192,222836,12,0,225532,0:0:0:0:
