osu file format v14

[General]
AudioFilename: audio.mp3
AudioLeadIn: 0
PreviewTime: 59150
Countdown: 0
SampleSet: None
StackLeniency: 0.7
Mode: 1
LetterboxInBreaks: 0
WidescreenStoryboard: 0

[Editor]
DistanceSpacing: 1
BeatDivisor: 6
GridSize: 32
TimelineZoom: 2.7

[Metadata]
Title:CANDY POWDER
TitleUnicode:キャンディパウダー
Artist:SOUND HOLIC
ArtistUnicode:SOUND HOLIC
Creator:Quizmaegi
Version:CANDY POWDER
Source:Touhou
Tags:marisa kiraseme project zun
BeatmapID:1895920
BeatmapSetID:908596

[Difficulty]
HPDrainRate:5
CircleSize:4
OverallDifficulty:5
ApproachRate:9
SliderMultiplier:1.4
SliderTickRate:1

[Events]
//Background and Video events
0,0,"219d7fc9c4c37e3c68ae0e1aa76aaf85.jpg",0,0
//Break Periods
//Storyboard Layer 0 (Background)
//Storyboard Layer 1 (Fail)
//Storyboard Layer 2 (Pass)
//Storyboard Layer 3 (Foreground)
//Storyboard Sound Samples

[TimingPoints]
2680,504.201680672269,4,1,0,80,1,0
26881,-100,4,1,0,60,0,0
59150,-90.9090909090909,4,1,0,70,0,1
75285,-83.3333333333333,4,1,0,70,0,1
91419,-83.3333333333333,4,1,0,70,0,0
91923,-100,4,1,0,80,0,0

[Colours]
Combo1 : 255,108,108
Combo2 : 253,234,170
Combo3 : 255,172,132
Combo4 : 203,152,152

[HitObjects]
192,256,2679,5,4,0:0:0:0:
256,192,3058,1,8,0:0:0:0:
256,192,3310,1,0,0:0:0:0:
256,192,3436,1,8,0:0:0:0:
256,192,3688,1,0,0:0:0:0:
256,192,3940,1,8,0:0:0:0:
256,192,4192,1,8,0:0:0:0:
256,192,4444,1,0,0:0:0:0:
256,192,4696,1,0,0:0:0:0:
256,192,4948,1,8,0:0:0:0:
256,192,5074,1,0,0:0:0:0:
256,192,5327,1,8,0:0:0:0:
256,192,5453,1,0,0:0:0:0:
256,192,5705,1,0,0:0:0:0:
256,192,5957,1,8,0:0:0:0:
256,192,6083,1,8,0:0:0:0:
256,192,6209,1,0,0:0:0:0:
256,192,6335,1,0,0:0:0:0:
256,192,6461,1,8,0:0:0:0:
256,192,6713,1,0,0:0:0:0:
256,192,6965,1,8,0:0:0:0:
256,192,7217,1,0,0:0:0:0:
256,192,7343,1,0,0:0:0:0:
256,192,7469,1,8,0:0:0:0:
256,192,7722,1,0,0:0:0:0:
256,192,7974,1,8,0:0:0:0:
256,192,8100,1,0,0:0:0:0:
256,192,8352,1,0,0:0:0:0:
256,192,8478,1,8,0:0:0:0:
256,192,8730,1,0,0:0:0:0:
256,192,8856,1,0,0:0:0:0:
256,192,8982,1,8,0:0:0:0:
256,192,9234,1,8,0:0:0:0:
256,192,9486,1,0,0:0:0:0:
256,192,9738,1,8,0:0:0:0:
256,192,9822,1,8,0:0:0:0:
256,192,9906,1,8,0:0:0:0:
256,192,9990,1,0,0:0:0:0:
256,192,10243,1,0,0:0:0:0:
256,192,10327,1,8,0:0:0:0:
256,192,10411,1,8,0:0:0:0:
256,192,10495,1,0,0:0:0:0:
192,256,10747,1,4,0:0:0:0:
256,192,11125,1,0,0:0:0:0:
256,192,11251,1,8,0:0:0:0:
256,192,11503,1,0,0:0:0:0:
256,192,11881,1,0,0:0:0:0:
256,192,12007,1,8,0:0:0:0:
256,192,12259,1,0,0:0:0:0:
256,192,12385,1,8,0:0:0:0:
256,192,12511,1,0,0:0:0:0:
256,192,12764,1,12,0:0:0:0:
256,192,13016,1,0,0:0:0:0:
256,192,13142,1,8,0:0:0:0:
256,192,13394,1,0,0:0:0:0:
256,192,13520,1,8,0:0:0:0:
256,192,13772,1,4,0:0:0:0:
256,192,14024,1,8,0:0:0:0:
256,192,14150,1,0,0:0:0:0:
256,192,14276,1,8,0:0:0:0:
256,192,14402,1,0,0:0:0:0:
256,192,14528,1,0,0:0:0:0:
192,256,14780,1,4,0:0:0:0:
256,192,15032,1,8,0:0:0:0:
256,192,15158,1,0,0:0:0:0:
256,192,15411,1,0,0:0:0:0:
256,192,15537,1,8,0:0:0:0:
192,256,15789,1,4,0:0:0:0:
256,192,16041,1,8,0:0:0:0:
256,192,16167,1,8,0:0:0:0:
256,192,16293,1,0,0:0:0:0:
256,192,16419,1,0,0:0:0:0:
256,192,16545,1,8,0:0:0:0:
192,256,16797,1,4,0:0:0:0:
256,192,17049,1,0,0:0:0:0:
192,128,17301,1,0,0:0:0:0:
256,192,17553,1,0,0:0:0:0:
256,192,17806,1,8,0:0:0:0:
256,192,17890,1,8,0:0:0:0:
256,192,17974,1,8,0:0:0:0:
256,192,18058,1,0,0:0:0:0:
256,192,18184,1,0,0:0:0:0:
256,192,18310,1,0,0:0:0:0:
256,192,18394,1,8,0:0:0:0:
320,128,18478,1,8,0:0:0:0:
192,128,18562,1,0,0:0:0:0:
256,192,18646,1,8,0:0:0:0:
256,192,18730,1,8,0:0:0:0:
192,256,18814,1,4,0:0:0:0:
256,192,19066,1,0,0:0:0:0:
320,128,19318,1,8,0:0:0:0:
256,192,19570,1,0,0:0:0:0:
256,192,19654,1,0,0:0:0:0:
256,192,19738,1,0,0:0:0:0:
256,192,19822,1,0,0:0:0:0:
256,192,19948,1,8,0:0:0:0:
256,192,20074,1,0,0:0:0:0:
256,192,20201,1,0,0:0:0:0:
256,192,20327,1,8,0:0:0:0:
256,192,20453,1,8,0:0:0:0:
256,192,20579,1,0,0:0:0:0:
192,128,20831,1,0,0:0:0:0:
256,192,21083,1,8,0:0:0:0:
256,192,21167,1,8,0:0:0:0:
256,192,21251,1,8,0:0:0:0:
256,192,21335,1,0,0:0:0:0:
256,192,21461,1,0,0:0:0:0:
256,192,21587,1,8,0:0:0:0:
256,192,21671,1,8,0:0:0:0:
256,192,21755,1,8,0:0:0:0:
256,192,21839,1,0,0:0:0:0:
256,192,21923,1,0,0:0:0:0:
256,192,22007,1,0,0:0:0:0:
256,192,22091,1,8,0:0:0:0:
256,192,22175,1,8,0:0:0:0:
256,192,22259,1,8,0:0:0:0:
256,192,22343,1,0,0:0:0:0:
256,192,22427,1,0,0:0:0:0:
256,192,22511,1,0,0:0:0:0:
256,192,22595,1,8,0:0:0:0:
256,192,22680,1,8,0:0:0:0:
256,192,22764,1,8,0:0:0:0:
256,192,22848,1,0,0:0:0:0:
256,192,23100,1,0,0:0:0:0:
320,128,23352,1,8,0:0:0:0:
256,192,23604,1,0,0:0:0:0:
256,192,23688,1,0,0:0:0:0:
256,192,23772,1,0,0:0:0:0:
256,192,23856,1,0,0:0:0:0:
256,192,23982,1,8,0:0:0:0:
256,192,24108,1,0,0:0:0:0:
256,192,24234,1,0,0:0:0:0:
256,192,24360,1,8,0:0:0:0:
256,192,24486,1,8,0:0:0:0:
256,192,24612,1,0,0:0:0:0:
320,128,24864,1,8,0:0:0:0:
320,128,24990,1,8,0:0:0:0:
320,128,25116,1,8,0:0:0:0:
320,128,25369,1,8,0:0:0:0:
320,128,25621,1,8,0:0:0:0:
320,128,25747,1,8,0:0:0:0:
192,128,25873,1,0,0:0:0:0:
320,128,25999,1,8,0:0:0:0:
192,128,26125,1,0,0:0:0:0:
320,128,26377,1,8,0:0:0:0:
192,256,26881,1,4,0:0:0:0:
256,192,27259,1,0,0:0:0:0:
256,192,27385,1,8,0:0:0:0:
256,192,27637,1,0,0:0:0:0:
256,192,27764,1,0,0:0:0:0:
256,192,27890,1,0,0:0:0:0:
256,192,28016,1,8,0:0:0:0:
256,192,28142,1,0,0:0:0:0:
256,192,28394,1,8,0:0:0:0:
256,192,28520,1,8,0:0:0:0:
256,192,28646,1,0,0:0:0:0:
192,128,28898,1,0,0:0:0:0:
256,192,29150,1,0,0:0:0:0:
256,192,29276,1,0,0:0:0:0:
256,192,29402,1,8,0:0:0:0:
256,192,29654,1,0,0:0:0:0:
256,192,29780,1,0,0:0:0:0:
256,192,29906,1,0,0:0:0:0:
256,192,30032,1,8,0:0:0:0:
256,192,30158,1,0,0:0:0:0:
256,192,30285,1,0,0:0:0:0:
256,192,30411,1,8,0:0:0:0:
256,192,30537,1,8,0:0:0:0:
256,192,30663,1,0,0:0:0:0:
256,192,30915,1,0,0:0:0:0:
256,192,31167,1,0,0:0:0:0:
256,192,31293,1,0,0:0:0:0:
256,192,31419,1,8,0:0:0:0:
256,192,31545,1,8,0:0:0:0:
256,192,31671,1,0,0:0:0:0:
256,192,31923,1,8,0:0:0:0:
256,192,32049,1,8,0:0:0:0:
256,192,32175,1,0,0:0:0:0:
256,192,32301,1,8,0:0:0:0:
256,192,32427,1,0,0:0:0:0:
256,192,32553,1,0,0:0:0:0:
256,192,32680,1,8,0:0:0:0:
256,192,32932,1,0,0:0:0:0:
256,192,33184,1,0,0:0:0:0:
256,192,33310,1,0,0:0:0:0:
256,192,33436,1,8,0:0:0:0:
256,192,33562,1,8,0:0:0:0:
256,192,33688,1,0,0:0:0:0:
256,192,33940,1,8,0:0:0:0:
256,192,34066,1,8,0:0:0:0:
256,192,34192,1,0,0:0:0:0:
256,192,34318,1,8,0:0:0:0:
256,192,34444,1,0,0:0:0:0:
256,192,34570,1,0,0:0:0:0:
256,192,34696,1,8,0:0:0:0:
192,256,34948,1,4,0:0:0:0:
256,192,35201,1,0,0:0:0:0:
256,192,35327,1,0,0:0:0:0:
256,192,35453,1,8,0:0:0:0:
256,192,35705,1,0,0:0:0:0:
256,192,35831,1,0,0:0:0:0:
256,192,35957,1,0,0:0:0:0:
256,192,36083,1,8,0:0:0:0:
256,192,36209,1,0,0:0:0:0:
256,192,36335,1,0,0:0:0:0:
256,192,36461,1,8,0:0:0:0:
256,192,36587,1,8,0:0:0:0:
256,192,36713,1,0,0:0:0:0:
256,192,36965,1,0,0:0:0:0:
256,192,37217,1,0,0:0:0:0:
256,192,37343,1,0,0:0:0:0:
256,192,37469,1,8,0:0:0:0:
256,192,37722,1,0,0:0:0:0:
256,192,37848,1,8,0:0:0:0:
256,192,37974,1,0,0:0:0:0:
256,192,38100,1,8,0:0:0:0:
256,192,38226,1,0,0:0:0:0:
256,192,38352,1,0,0:0:0:0:
256,192,38478,1,8,0:0:0:0:
256,192,38604,1,0,0:0:0:0:
256,192,38730,1,8,0:0:0:0:
256,192,38982,1,0,0:0:0:0:
256,192,39234,1,0,0:0:0:0:
256,192,39360,1,0,0:0:0:0:
256,192,39486,1,8,0:0:0:0:
256,192,39738,1,0,0:0:0:0:
256,192,39864,1,8,0:0:0:0:
256,192,39990,1,0,0:0:0:0:
256,192,40116,1,8,0:0:0:0:
256,192,40243,1,0,0:0:0:0:
256,192,40495,1,8,0:0:0:0:
256,192,40621,1,8,0:0:0:0:
256,192,40747,1,0,0:0:0:0:
256,192,40999,1,8,0:0:0:0:
256,192,41251,1,0,0:0:0:0:
256,192,41377,1,8,0:0:0:0:
256,192,41503,1,0,0:0:0:0:
256,192,41629,1,0,0:0:0:0:
256,192,41755,1,8,0:0:0:0:
256,192,41881,1,8,0:0:0:0:
256,192,42007,1,0,0:0:0:0:
256,192,42133,1,8,0:0:0:0:
256,192,42259,1,0,0:0:0:0:
256,192,42385,1,0,0:0:0:0:
256,192,42511,1,8,0:0:0:0:
256,192,42637,1,0,0:0:0:0:
256,192,42764,1,8,0:0:0:0:
192,256,43016,1,4,0:0:0:0:
256,192,43268,1,0,0:0:0:0:
256,192,43394,1,0,0:0:0:0:
256,192,43520,1,8,0:0:0:0:
256,192,43772,1,0,0:0:0:0:
256,192,43898,1,0,0:0:0:0:
256,192,44024,1,0,0:0:0:0:
256,192,44150,1,8,0:0:0:0:
256,192,44276,1,0,0:0:0:0:
256,192,44402,1,0,0:0:0:0:
256,192,44528,1,8,0:0:0:0:
256,192,44654,1,8,0:0:0:0:
256,192,44780,1,0,0:0:0:0:
256,192,45032,1,8,0:0:0:0:
256,192,45285,1,0,0:0:0:0:
256,192,45411,1,0,0:0:0:0:
256,192,45537,1,8,0:0:0:0:
320,128,45663,1,8,0:0:0:0:
256,192,45789,1,0,0:0:0:0:
256,192,45915,1,8,0:0:0:0:
256,192,46041,1,0,0:0:0:0:
256,192,46167,1,8,0:0:0:0:
256,192,46293,1,0,0:0:0:0:
256,192,46419,1,0,0:0:0:0:
256,192,46545,1,8,0:0:0:0:
256,192,46671,1,8,0:0:0:0:
256,192,46797,1,0,0:0:0:0:
256,192,47049,1,8,0:0:0:0:
256,192,47301,1,0,0:0:0:0:
256,192,47427,1,0,0:0:0:0:
256,192,47553,1,8,0:0:0:0:
256,192,47806,1,0,0:0:0:0:
256,192,47932,1,0,0:0:0:0:
256,192,48058,1,0,0:0:0:0:
256,192,48184,1,8,0:0:0:0:
256,192,48310,1,0,0:0:0:0:
256,192,48436,1,0,0:0:0:0:
256,192,48562,1,8,0:0:0:0:
256,192,48688,1,0,0:0:0:0:
256,192,48814,1,8,0:0:0:0:
256,192,49066,1,0,0:0:0:0:
256,192,49318,1,0,0:0:0:0:
256,192,49444,1,0,0:0:0:0:
256,192,49570,1,8,0:0:0:0:
256,192,49822,1,0,0:0:0:0:
256,192,49948,1,0,0:0:0:0:
256,192,50074,1,8,0:0:0:0:
256,192,50201,1,8,0:0:0:0:
256,192,50327,1,0,0:0:0:0:
256,192,50453,1,8,0:0:0:0:
256,192,50579,1,0,0:0:0:0:
256,192,50705,1,0,0:0:0:0:
256,192,50831,1,8,0:0:0:0:
256,192,51083,1,4,0:0:0:0:
256,192,51335,1,0,0:0:0:0:
256,192,51461,1,0,0:0:0:0:
256,192,51587,1,8,0:0:0:0:
256,192,51839,1,0,0:0:0:0:
256,192,51965,1,0,0:0:0:0:
256,192,52091,1,0,0:0:0:0:
256,192,52217,1,8,0:0:0:0:
256,192,52343,1,0,0:0:0:0:
256,192,52469,1,0,0:0:0:0:
256,192,52595,1,8,0:0:0:0:
256,192,52722,1,8,0:0:0:0:
256,192,52848,1,0,0:0:0:0:
256,192,53100,1,0,0:0:0:0:
256,192,53352,1,0,0:0:0:0:
256,192,53478,1,0,0:0:0:0:
256,192,53604,1,8,0:0:0:0:
256,192,53856,1,0,0:0:0:0:
256,192,53982,1,0,0:0:0:0:
256,192,54108,1,0,0:0:0:0:
256,192,54234,1,8,0:0:0:0:
256,192,54360,1,0,0:0:0:0:
256,192,54486,1,0,0:0:0:0:
256,192,54612,1,8,0:0:0:0:
256,192,54738,1,8,0:0:0:0:
256,192,54864,1,0,0:0:0:0:
256,192,55116,1,0,0:0:0:0:
256,192,55369,1,0,0:0:0:0:
256,192,55495,1,0,0:0:0:0:
256,192,55621,1,8,0:0:0:0:
256,192,55873,1,0,0:0:0:0:
256,192,55999,1,0,0:0:0:0:
256,192,56125,1,0,0:0:0:0:
256,192,56251,1,8,0:0:0:0:
256,192,56377,1,0,0:0:0:0:
256,192,56503,1,0,0:0:0:0:
256,192,56629,1,8,0:0:0:0:
256,192,56755,1,0,0:0:0:0:
256,192,56881,1,8,0:0:0:0:
320,128,57133,1,8,0:0:0:0:
320,128,57259,1,8,0:0:0:0:
320,128,57385,1,8,0:0:0:0:
320,128,57638,1,8,0:0:0:0:
320,128,57890,1,8,0:0:0:0:
320,128,58016,1,8,0:0:0:0:
192,128,58142,1,0,0:0:0:0:
320,128,58268,1,8,0:0:0:0:
192,128,58394,1,0,0:0:0:0:
256,192,58646,1,0,0:0:0:0:
256,192,58730,1,0,0:0:0:0:
256,192,58814,1,0,0:0:0:0:
256,192,58898,1,0,0:0:0:0:
256,192,58982,1,0,0:0:0:0:
256,192,59066,1,0,0:0:0:0:
192,256,59150,5,4,0:0:0:0:
256,192,59402,1,8,0:0:0:0:
256,192,59570,1,0,0:0:0:0:
256,192,59654,1,0,0:0:0:0:
256,192,59822,1,0,0:0:0:0:
256,192,59906,1,8,0:0:0:0:
256,192,60158,1,0,0:0:0:0:
256,192,60243,1,0,0:0:0:0:
256,192,60327,1,0,0:0:0:0:
256,192,60411,1,8,0:0:0:0:
256,192,60495,1,0,0:0:0:0:
256,192,60579,1,0,0:0:0:0:
256,192,60663,1,0,0:0:0:0:
256,192,60747,1,0,0:0:0:0:
256,192,60831,1,0,0:0:0:0:
256,192,60915,1,8,0:0:0:0:
256,192,60999,1,0,0:0:0:0:
256,192,61083,1,0,0:0:0:0:
256,192,61167,1,0,0:0:0:0:
256,192,61419,1,8,0:0:0:0:
256,192,61503,1,8,0:0:0:0:
256,192,61587,1,8,0:0:0:0:
256,192,61671,1,0,0:0:0:0:
256,192,61755,1,0,0:0:0:0:
256,192,61839,1,0,0:0:0:0:
256,192,61923,1,8,0:0:0:0:
256,192,62175,1,0,0:0:0:0:
256,192,62259,1,0,0:0:0:0:
256,192,62343,1,0,0:0:0:0:
256,192,62427,1,8,0:0:0:0:
256,192,62511,1,0,0:0:0:0:
256,192,62595,1,0,0:0:0:0:
256,192,62680,1,0,0:0:0:0:
256,192,62764,1,0,0:0:0:0:
256,192,62848,1,0,0:0:0:0:
256,192,62932,1,8,0:0:0:0:
256,192,63016,1,0,0:0:0:0:
256,192,63100,1,0,0:0:0:0:
256,192,63184,1,0,0:0:0:0:
256,192,63436,1,8,0:0:0:0:
256,192,63520,1,8,0:0:0:0:
256,192,63604,1,8,0:0:0:0:
256,192,63688,1,0,0:0:0:0:
256,192,63772,1,8,0:0:0:0:
256,192,63856,1,8,0:0:0:0:
256,192,63940,1,0,0:0:0:0:
256,192,64192,1,0,0:0:0:0:
256,192,64276,1,0,0:0:0:0:
256,192,64360,1,0,0:0:0:0:
256,192,64444,1,8,0:0:0:0:
256,192,64528,1,0,0:0:0:0:
256,192,64612,1,0,0:0:0:0:
256,192,64696,1,0,0:0:0:0:
256,192,64780,1,0,0:0:0:0:
256,192,64864,1,0,0:0:0:0:
256,192,64948,1,8,0:0:0:0:
256,192,65200,1,0,0:0:0:0:
256,192,65285,1,8,0:0:0:0:
256,192,65369,1,8,0:0:0:0:
256,192,65453,1,0,0:0:0:0:
256,192,65537,1,8,0:0:0:0:
256,192,65621,1,8,0:0:0:0:
256,192,65705,1,0,0:0:0:0:
256,192,65957,1,8,0:0:0:0:
256,192,66041,1,8,0:0:0:0:
256,192,66125,1,8,0:0:0:0:
256,192,66209,1,0,0:0:0:0:
256,192,66293,1,0,0:0:0:0:
256,192,66377,1,0,0:0:0:0:
256,192,66461,1,8,0:0:0:0:
256,192,66713,1,0,0:0:0:0:
256,192,66797,1,8,0:0:0:0:
256,192,66881,1,8,0:0:0:0:
256,192,66965,1,0,0:0:0:0:
256,192,67049,1,8,0:0:0:0:
256,192,67133,1,8,0:0:0:0:
256,192,67217,1,4,0:0:0:0:
256,192,67469,1,0,0:0:0:0:
256,192,67553,1,0,0:0:0:0:
256,192,67637,1,0,0:0:0:0:
256,192,67722,1,8,0:0:0:0:
256,192,67974,1,0,0:0:0:0:
256,192,68058,1,0,0:0:0:0:
256,192,68142,1,0,0:0:0:0:
256,192,68226,1,0,0:0:0:0:
256,192,68394,1,8,0:0:0:0:
256,192,68478,1,0,0:0:0:0:
256,192,68646,1,0,0:0:0:0:
256,192,68730,1,8,0:0:0:0:
256,192,68898,1,8,0:0:0:0:
256,192,68982,1,0,0:0:0:0:
256,192,69234,1,4,0:0:0:0:
256,192,69486,1,0,0:0:0:0:
256,192,69570,1,0,0:0:0:0:
256,192,69654,1,0,0:0:0:0:
256,192,69738,1,8,0:0:0:0:
256,192,69990,1,0,0:0:0:0:
256,192,70074,1,0,0:0:0:0:
256,192,70158,1,0,0:0:0:0:
256,192,70243,1,0,0:0:0:0:
256,192,70411,1,8,0:0:0:0:
256,192,70495,1,0,0:0:0:0:
256,192,70747,1,8,0:0:0:0:
256,192,70831,1,8,0:0:0:0:
256,192,70915,1,8,0:0:0:0:
256,192,70999,1,0,0:0:0:0:
256,192,71083,1,8,0:0:0:0:
256,192,71167,1,8,0:0:0:0:
256,192,71251,1,0,0:0:0:0:
256,192,71503,1,0,0:0:0:0:
256,192,71587,1,0,0:0:0:0:
256,192,71671,1,0,0:0:0:0:
256,192,71755,1,8,0:0:0:0:
256,192,72007,1,0,0:0:0:0:
256,192,72091,1,0,0:0:0:0:
256,192,72175,1,0,0:0:0:0:
256,192,72259,1,0,0:0:0:0:
256,192,72427,1,8,0:0:0:0:
256,192,72511,1,0,0:0:0:0:
256,192,72764,1,8,0:0:0:0:
256,192,73016,1,0,0:0:0:0:
256,192,73268,1,8,0:0:0:0:
256,192,73352,1,8,0:0:0:0:
256,192,73436,1,8,0:0:0:0:
256,192,73520,1,8,0:0:0:0:
256,192,73772,1,8,0:0:0:0:
256,192,74024,1,8,0:0:0:0:
256,192,74108,1,8,0:0:0:0:
256,192,74192,1,8,0:0:0:0:
256,192,74276,1,8,0:0:0:0:
256,192,74528,1,8,0:0:0:0:
256,192,74780,1,8,0:0:0:0:
256,192,74864,1,8,0:0:0:0:
256,192,74948,1,8,0:0:0:0:
256,192,75032,1,8,0:0:0:0:
256,192,75285,1,4,0:0:0:0:
256,192,75537,1,8,0:0:0:0:
256,192,75621,1,8,0:0:0:0:
256,192,75705,1,8,0:0:0:0:
256,192,75789,1,0,0:0:0:0:
256,192,75873,1,0,0:0:0:0:
256,192,75957,1,0,0:0:0:0:
256,192,76041,1,8,0:0:0:0:
256,192,76125,1,8,0:0:0:0:
256,192,76209,1,8,0:0:0:0:
256,192,76293,1,0,0:0:0:0:
256,192,76377,1,8,0:0:0:0:
256,192,76461,1,8,0:0:0:0:
256,192,76545,1,0,0:0:0:0:
256,192,76629,1,8,0:0:0:0:
256,192,76713,1,8,0:0:0:0:
256,192,76797,1,0,0:0:0:0:
256,192,76881,1,0,0:0:0:0:
256,192,76965,1,0,0:0:0:0:
256,192,77049,1,8,0:0:0:0:
256,192,77133,1,8,0:0:0:0:
256,192,77217,1,8,0:0:0:0:
256,192,77301,1,0,0:0:0:0:
256,192,77385,1,8,0:0:0:0:
256,192,77469,1,8,0:0:0:0:
256,192,77553,1,0,0:0:0:0:
256,192,77637,1,8,0:0:0:0:
256,192,77722,1,8,0:0:0:0:
256,192,77806,1,0,0:0:0:0:
256,192,77890,1,0,0:0:0:0:
256,192,77974,1,0,0:0:0:0:
256,192,78058,1,8,0:0:0:0:
256,192,78142,1,8,0:0:0:0:
256,192,78226,1,8,0:0:0:0:
256,192,78310,1,0,0:0:0:0:
256,192,78394,1,8,0:0:0:0:
256,192,78478,1,8,0:0:0:0:
256,192,78562,1,0,0:0:0:0:
256,192,78646,1,8,0:0:0:0:
256,192,78730,1,8,0:0:0:0:
256,192,78814,1,0,0:0:0:0:
256,192,78898,1,8,0:0:0:0:
256,192,78982,1,8,0:0:0:0:
256,192,79066,1,0,0:0:0:0:
256,192,79150,1,8,0:0:0:0:
256,192,79234,1,8,0:0:0:0:
256,192,79318,1,0,0:0:0:0:
256,192,79402,1,0,0:0:0:0:
256,192,79486,1,0,0:0:0:0:
256,192,79570,1,8,0:0:0:0:
256,192,79654,1,8,0:0:0:0:
256,192,79738,1,8,0:0:0:0:
256,192,79822,1,0,0:0:0:0:
256,192,79906,1,8,0:0:0:0:
256,192,79990,1,8,0:0:0:0:
256,192,80074,1,0,0:0:0:0:
256,192,80158,1,8,0:0:0:0:
256,192,80243,1,8,0:0:0:0:
256,192,80327,1,0,0:0:0:0:
256,192,80411,1,0,0:0:0:0:
256,192,80495,1,8,0:0:0:0:
256,192,80579,1,0,0:0:0:0:
256,192,80663,1,0,0:0:0:0:
256,192,80747,1,8,0:0:0:0:
256,192,80831,1,0,0:0:0:0:
256,192,80915,1,8,0:0:0:0:
256,192,80999,1,0,0:0:0:0:
256,192,81083,1,8,0:0:0:0:
256,192,81167,1,0,0:0:0:0:
256,192,81251,1,8,0:0:0:0:
256,192,81335,1,0,0:0:0:0:
256,192,81419,1,0,0:0:0:0:
256,192,81503,1,0,0:0:0:0:
256,192,81587,1,8,0:0:0:0:
256,192,81671,1,8,0:0:0:0:
256,192,81755,1,8,0:0:0:0:
256,192,81839,1,0,0:0:0:0:
256,192,81923,1,0,0:0:0:0:
256,192,82007,1,0,0:0:0:0:
256,192,82091,1,8,0:0:0:0:
256,192,82175,1,8,0:0:0:0:
256,192,82259,1,8,0:0:0:0:
256,192,82343,1,0,0:0:0:0:
256,192,82427,1,8,0:0:0:0:
256,192,82511,1,8,0:0:0:0:
256,192,82595,1,0,0:0:0:0:
256,192,82680,1,8,0:0:0:0:
256,192,82764,1,8,0:0:0:0:
256,192,82848,1,0,0:0:0:0:
256,192,82932,1,8,0:0:0:0:
256,192,83016,1,8,0:0:0:0:
256,192,83100,1,0,0:0:0:0:
256,192,83184,1,8,0:0:0:0:
256,192,83268,1,8,0:0:0:0:
256,192,83352,1,0,0:0:0:0:
256,192,83436,1,0,0:0:0:0:
256,192,83520,1,0,0:0:0:0:
256,192,83604,1,8,0:0:0:0:
256,192,83688,1,8,0:0:0:0:
256,192,83772,1,8,0:0:0:0:
256,192,83856,1,0,0:0:0:0:
256,192,83940,1,0,0:0:0:0:
256,192,84024,1,0,0:0:0:0:
256,192,84108,1,8,0:0:0:0:
256,192,84192,1,8,0:0:0:0:
256,192,84276,1,8,0:0:0:0:
256,192,84360,1,0,0:0:0:0:
256,192,84444,1,8,0:0:0:0:
256,192,84528,1,0,0:0:0:0:
256,192,84612,1,8,0:0:0:0:
256,192,84696,1,0,0:0:0:0:
256,192,84780,1,8,0:0:0:0:
256,192,84864,1,0,0:0:0:0:
256,192,84948,1,8,0:0:0:0:
256,192,85032,1,0,0:0:0:0:
256,192,85116,1,8,0:0:0:0:
256,192,85201,1,0,0:0:0:0:
256,192,85285,1,8,0:0:0:0:
256,192,85369,1,0,0:0:0:0:
256,192,85453,1,0,0:0:0:0:
256,192,85537,1,0,0:0:0:0:
256,192,85621,1,8,0:0:0:0:
256,192,85705,1,8,0:0:0:0:
256,192,85789,1,8,0:0:0:0:
256,192,85873,1,0,0:0:0:0:
256,192,85957,1,0,0:0:0:0:
256,192,86041,1,0,0:0:0:0:
256,192,86125,1,8,0:0:0:0:
256,192,86209,1,8,0:0:0:0:
256,192,86293,1,8,0:0:0:0:
256,192,86377,1,0,0:0:0:0:
256,192,86461,1,8,0:0:0:0:
256,192,86545,1,0,0:0:0:0:
256,192,86629,1,8,0:0:0:0:
256,192,86713,1,0,0:0:0:0:
256,192,86797,1,8,0:0:0:0:
256,192,86881,1,0,0:0:0:0:
256,192,86965,1,8,0:0:0:0:
256,192,87049,1,0,0:0:0:0:
256,192,87133,1,8,0:0:0:0:
256,192,87217,1,0,0:0:0:0:
256,192,87301,1,8,0:0:0:0:
256,192,87385,1,0,0:0:0:0:
256,192,87469,1,8,0:0:0:0:
256,192,87553,1,8,0:0:0:0:
256,192,87637,1,0,0:0:0:0:
256,192,87722,1,8,0:0:0:0:
256,192,87806,1,8,0:0:0:0:
256,192,87890,1,0,0:0:0:0:
256,192,87974,1,8,0:0:0:0:
256,192,88058,1,8,0:0:0:0:
256,192,88142,1,0,0:0:0:0:
256,192,88226,1,8,0:0:0:0:
256,192,88310,1,8,0:0:0:0:
256,192,88394,1,0,0:0:0:0:
256,192,88478,1,8,0:0:0:0:
256,192,88562,1,8,0:0:0:0:
256,192,88646,1,0,0:0:0:0:
256,192,88730,1,8,0:0:0:0:
256,192,88814,1,8,0:0:0:0:
256,192,88898,1,0,0:0:0:0:
256,192,88982,1,8,0:0:0:0:
256,192,89066,1,8,0:0:0:0:
256,192,89150,1,0,0:0:0:0:
256,192,89234,1,8,0:0:0:0:
256,192,89318,1,8,0:0:0:0:
256,192,89402,1,0,0:0:0:0:
256,192,89486,1,0,0:0:0:0:
256,192,89570,1,0,0:0:0:0:
256,192,89654,1,8,0:0:0:0:
256,192,89738,1,8,0:0:0:0:
256,192,89822,1,8,0:0:0:0:
256,192,89906,1,0,0:0:0:0:
256,192,89990,1,0,0:0:0:0:
256,192,90074,1,0,0:0:0:0:
256,192,90158,1,8,0:0:0:0:
256,192,90243,1,8,0:0:0:0:
256,192,90327,1,8,0:0:0:0:
256,192,90411,1,0,0:0:0:0:
256,192,90495,1,0,0:0:0:0:
256,192,90579,1,8,0:0:0:0:
256,192,90663,1,0,0:0:0:0:
256,192,90747,1,0,0:0:0:0:
256,192,90831,1,8,0:0:0:0:
256,192,90915,1,0,0:0:0:0:
256,192,90999,1,0,0:0:0:0:
256,192,91083,1,8,0:0:0:0:
256,192,91167,1,0,0:0:0:0:
256,192,91251,1,0,0:0:0:0:
256,192,91335,1,8,0:0:0:0:
256,192,91419,1,0,0:0:0:0:
256,192,91923,1,12,0:0:0:0:
256,192,92175,1,0,0:0:0:0:
256,192,92343,1,0,0:0:0:0:
256,192,92427,1,0,0:0:0:0:
256,192,92595,1,8,0:0:0:0:
256,192,92680,1,0,0:0:0:0:
256,192,92848,1,0,0:0:0:0:
256,192,92932,1,8,0:0:0:0:
256,192,93100,1,8,0:0:0:0:
256,192,93184,1,0,0:0:0:0:
256,192,93436,1,0,0:0:0:0:
256,192,93688,1,0,0:0:0:0:
256,192,93856,1,0,0:0:0:0:
256,192,93940,1,8,0:0:0:0:
256,192,94192,1,0,0:0:0:0:
256,192,94360,1,0,0:0:0:0:
256,192,94444,1,0,0:0:0:0:
256,192,94612,1,8,0:0:0:0:
256,192,94696,1,0,0:0:0:0:
256,192,94948,1,0,0:0:0:0:
256,192,95032,1,8,0:0:0:0:
256,192,95116,1,8,0:0:0:0:
256,192,95201,1,0,0:0:0:0:
256,192,95285,1,8,0:0:0:0:
256,192,95369,1,8,0:0:0:0:
256,192,95453,1,0,0:0:0:0:
256,192,95705,1,0,0:0:0:0:
256,192,95873,1,0,0:0:0:0:
256,192,95957,1,8,0:0:0:0:
256,192,96209,1,0,0:0:0:0:
256,192,96377,1,0,0:0:0:0:
256,192,96461,1,0,0:0:0:0:
256,192,96629,1,8,0:0:0:0:
256,192,96713,1,0,0:0:0:0:
256,192,96881,1,0,0:0:0:0:
256,192,96965,1,8,0:0:0:0:
256,192,97133,1,8,0:0:0:0:
256,192,97217,1,0,0:0:0:0:
256,192,97469,1,8,0:0:0:0:
256,192,97553,1,0,0:0:0:0:
256,192,97637,1,0,0:0:0:0:
256,192,97722,1,0,0:0:0:0:
256,192,97974,1,8,0:0:0:0:
256,192,98226,1,8,0:0:0:0:
256,192,98310,1,0,0:0:0:0:
256,192,98394,1,0,0:0:0:0:
256,192,98478,1,0,0:0:0:0:
256,192,98730,1,8,0:0:0:0:
256,192,98982,1,0,0:0:0:0:
256,192,99066,1,0,0:0:0:0:
256,192,99150,1,0,0:0:0:0:
256,192,99234,1,8,0:0:0:0:
256,192,99486,1,8,0:0:0:0:
256,192,99654,1,8,0:0:0:0:
256,192,99738,1,8,0:0:0:0:
256,192,99990,1,8,0:0:0:0:
256,192,100243,1,8,0:0:0:0:
256,192,100411,1,8,0:0:0:0:
256,192,100999,1,12,0:0:0:0:
