osu file format v14

[General]
AudioFilename: audio.mp3
AudioLeadIn: 0
PreviewTime: -1
Countdown: 0
SampleSet: None
StackLeniency: 0.2
Mode: 0
LetterboxInBreaks: 0
EpilepsyWarning: 1
WidescreenStoryboard: 1

[Editor]
Bookmarks: 8292,12042,27042,42042,57042,72042,87042,102042,117042,132042,147042,162042,177042,192042,207042,222042,237042,252042,267042
DistanceSpacing: 1
BeatDivisor: 4
GridSize: 4
TimelineZoom: 1.6

[Metadata]
Title:Broken Amulet
TitleUnicode:壊されたお守り
Artist:SOUND HOLIC
ArtistUnicode:SOUND HOLIC
Creator:K4L1
Version:Lunatic
Source:東方Project
Tags:Touhou Dark Side of Fate Hina Mountain Faith
BeatmapID:1820202
BeatmapSetID:871122

[Difficulty]
HPDrainRate:5
CircleSize:4.2
OverallDifficulty:8
ApproachRate:9
SliderMultiplier:1.4
SliderTickRate:1

[Events]
//Background and Video events
0,0,"51350-hina-kagiyama-with-an-umbrella-in-touhou-project-1920x1080-game-wallpaper.jpg",0,0
//Break Periods
2,117241,131442
//Storyboard Layer 0 (Background)
//Storyboard Layer 1 (Fail)
//Storyboard Layer 2 (Pass)
//Storyboard Layer 3 (Foreground)
//Storyboard Sound Samples

[TimingPoints]
8292,468.75,4,2,0,40,1,0
8292,-133.333333333333,4,2,0,40,0,0
12042,-76.9230769230769,4,2,0,40,0,0
27042,-76.9230769230769,4,2,0,40,0,0
57042,-66.6666666666667,4,2,0,40,0,0
87042,-58.8235294117647,4,2,0,40,0,1
117042,-76.9230769230769,4,2,0,40,0,0
132042,-76.9230769230769,4,2,0,40,0,0
162042,-66.6666666666667,4,2,0,40,0,0
192042,-133.333333333333,4,2,0,40,0,0
207042,-58.8235294117647,4,2,0,40,0,1
237042,-76.9230769230769,4,2,0,40,0,0

[Colours]
Combo1 : 243,52,81
Combo2 : 1,231,185
Combo3 : 184,184,184

[HitObjects]
343,305,8292,6,0,L|404:268,1,52.5000020027161
432,249,8760,1,0,0:0:0:0:
277,241,8995,1,0,0:0:0:0:
259,260,9112,1,0,0:0:0:0:
250,285,9229,2,0,L|250:329,1,26.2500010013581
250,382,9463,1,0,0:0:0:0:
175,296,9698,2,0,L|156:264,1,26.2500010013581
86,364,9932,2,0,L|105:332,1,26.2500010013581
78,246,10167,6,0,L|74:212,2,26.2500010013581
81,268,10518,1,0,0:0:0:0:
154,191,10635,1,0,0:0:0:0:
156,186,10870,2,0,L|168:145,1,26.2500010013581
234,148,11104,2,0,L|246:107,1,26.2500010013581
313,118,11338,2,0,L|325:77,1,26.2500010013581
393,88,11573,1,0,0:0:0:0:
65,276,12042,6,0,L|164:222,1,90.9999958343508
309,155,12510,1,0,0:0:0:0:
264,234,12745,1,0,0:0:0:0:
93,292,12979,2,0,L|192:238,1,90.9999958343508
337,171,13447,1,0,0:0:0:0:
292,250,13682,1,0,0:0:0:0:
178,107,13917,6,0,P|135:90|85:95,1,90.9999958343508
268,55,14385,1,0,0:0:0:0:
123,166,14620,1,0,0:0:0:0:
337,110,14854,2,0,P|353:67|349:17,1,90.9999958343508
251,175,15323,1,0,0:0:0:0:
423,117,15557,5,0,0:0:0:0:
369,190,15674,1,0,0:0:0:0:
317,265,15792,2,0,P|300:307|305:358,1,90.9999958343508
370,183,16260,5,0,0:0:0:0:
225,294,16495,1,0,0:0:0:0:
408,268,16729,2,0,P|410:313|395:356,1,90.9999958343508
374,173,17198,1,0,0:0:0:0:
494,315,17432,1,0,0:0:0:0:
284,186,17667,6,0,B|245:155|245:155|218:117,1,90.9999958343508
227,303,18135,1,0,0:0:0:0:
314,99,18370,1,0,0:0:0:0:
191,208,18604,2,0,B|152:177|152:177|128:143,1,90.9999958343508
134,325,19072,1,0,0:0:0:0:
221,121,19307,5,0,0:0:0:0:
276,193,19424,1,0,0:0:0:0:
331,265,19542,2,0,L|389:185,1,90.9999958343508
225,278,20010,5,0,0:0:0:0:
283,347,20245,1,0,0:0:0:0:
119,265,20479,2,0,L|61:185,1,90.9999958343508
225,278,20947,1,0,0:0:0:0:
167,347,21182,1,0,0:0:0:0:
112,121,21417,6,0,P|68:108|24:118,1,90.9999958343508
182,209,21885,1,0,0:0:0:0:
93,230,22120,1,0,0:0:0:0:
339,118,22354,2,0,P|382:105|426:115,1,90.9999958343508
251,64,22823,1,0,0:0:0:0:
241,62,23057,5,0,0:0:0:0:
251,152,23174,1,0,0:0:0:0:
169,111,23292,2,0,P|156:67|166:23,1,90.9999958343508
174,205,23760,5,0,0:0:0:0:
93,162,23995,1,0,0:0:0:0:
274,164,24229,2,0,P|318:173|361:160,1,90.9999958343508
182,121,24698,1,0,0:0:0:0:
326,6,24932,5,0,0:0:0:0:
329,96,25049,1,0,0:0:0:0:
269,165,25167,2,0,P|248:205|233:248,1,90.9999958343508
227,339,25518,5,0,0:0:0:0:
105,203,25635,2,0,P|84:162|70:118,1,90.9999958343508
62,20,25987,1,0,0:0:0:0:
19,200,26104,2,0,P|9:220|3:242,1,45.4999979171754
183,118,26338,5,0,0:0:0:0:
168,76,26455,1,0,0:0:0:0:
134,46,26572,1,0,0:0:0:0:
203,37,26690,1,0,0:0:0:0:
271,38,26807,1,0,0:0:0:0:
337,52,26924,1,0,0:0:0:0:
400,77,27042,6,0,B|419:117|419:117|427:165,1,90.9999958343508
253,218,27510,2,0,B|278:181|278:181|314:151,1,90.9999958343508
454,268,27979,2,0,B|409:264|409:264|366:248,1,90.9999958343508
241,114,28448,1,0,0:0:0:0:
244,105,28682,1,0,0:0:0:0:
80,186,28917,6,0,L|175:203,1,90.9999958343508
344,251,29385,2,0,L|249:268,1,90.9999958343508
75,302,29854,2,0,L|164:318,1,90.9999958343508
343,351,30323,1,0,0:0:0:0:
352,352,30557,5,0,0:0:0:0:
424,297,30674,1,0,0:0:0:0:
344,251,30792,2,0,L|254:234,1,90.9999958343508
434,384,31260,5,0,0:0:0:0:
421,205,31495,1,0,0:0:0:0:
164,318,31729,2,0,L|253:334,1,90.9999958343508
431,295,32198,1,0,0:0:0:0:
439,293,32432,5,0,0:0:0:0:
356,254,32549,1,0,0:0:0:0:
423,192,32667,2,0,L|451:94,1,90.9999958343508
270,66,33135,6,0,L|333:131,1,90.9999958343508
221,163,33604,2,0,L|133:186,1,90.9999958343508
36,253,34073,5,0,0:0:0:0:
80,264,34190,1,0,0:0:0:0:
123,277,34307,1,0,0:0:0:0:
167,288,34424,1,0,0:0:0:0:
211,301,34542,2,0,L|303:329,1,90.9999958343508
448,226,35010,6,0,L|360:252,1,90.9999958343508
188,193,35479,2,0,L|280:221,1,90.9999958343508
386,364,35948,1,0,0:0:0:0:
339,149,36182,1,0,0:0:0:0:
145,270,36417,6,0,P|110:236|105:178,1,90.9999958343508
242,107,36885,2,0,P|230:154|182:187,1,90.9999958343508
84,40,37354,1,0,0:0:0:0:
265,25,37588,5,0,0:0:0:0:
335,84,37706,1,0,0:0:0:0:
335,174,37823,2,0,P|382:162|415:114,1,90.9999958343508
274,254,38292,5,0,0:0:0:0:
451,213,38526,1,0,0:0:0:0:
273,174,38760,2,0,P|225:185|192:233,1,90.9999958343508
375,260,39229,1,0,0:0:0:0:
286,101,39463,1,0,0:0:0:0:
187,254,39698,2,0,P|156:286|112:296,1,90.9999958343508
24,269,40049,5,0,0:0:0:0:
76,138,40167,2,0,L|116:219,1,90.9999958343508
204,89,40635,6,0,L|244:7,1,90.9999958343508
321,144,41104,2,0,L|352:207,1,45.4999979171754
385,61,41338,2,0,L|405:20,1,45.4999979171754
445,132,41573,5,0,0:0:0:0:
425,173,41690,1,0,0:0:0:0:
408,214,41807,1,0,0:0:0:0:
388,255,41924,1,0,0:0:0:0:
370,297,42042,2,0,L|330:385,1,90.9999958343508
188,269,42510,6,0,P|237:280|281:317,1,90.9999958343508
88,329,42979,2,0,B|70:282|70:282|78:225,1,90.9999958343508
196,378,43448,1,0,0:0:0:0:
144,203,43682,5,0,0:0:0:0:
105,120,43799,1,0,0:0:0:0:
16,145,43917,2,0,B|-2:192|-2:192|6:249,1,90.9999958343508
191,129,44385,6,0,P|241:112|301:107,1,90.9999958343508
404,239,44854,2,0,P|354:222|294:217,1,90.9999958343508
135,195,45323,1,0,0:0:0:0:
125,194,45557,5,0,0:0:0:0:
80,273,45674,1,0,0:0:0:0:
171,266,45792,2,0,P|210:226|206:161,1,90.9999958343508
33,191,46260,5,0,0:0:0:0:
131,344,46495,1,0,0:0:0:0:
214,182,46729,2,0,L|189:88,1,90.9999958343508
290,246,47198,1,0,0:0:0:0:
286,254,47432,5,0,0:0:0:0:
352,191,47549,1,0,0:0:0:0:
429,240,47667,2,0,L|452:327,1,90.9999958343508
427,147,48135,6,0,L|491:82,1,90.9999958343508
342,188,48604,2,0,L|254:164,1,90.9999958343508
502,197,49073,1,0,0:0:0:0:
216,88,49307,5,0,0:0:0:0:
307,86,49424,1,0,0:0:0:0:
254,164,49542,2,0,L|166:187,1,90.9999958343508
33,63,50010,6,0,L|120:86,1,90.9999958343508
37,248,50479,2,0,L|60:160,1,90.9999958343508
170,14,50948,1,0,0:0:0:0:
174,5,51182,1,0,0:0:0:0:
284,156,51417,5,0,0:0:0:0:
352,30,51651,1,0,0:0:0:0:
284,193,51886,1,0,0:0:0:0:
186,33,52120,1,0,0:0:0:0:
172,226,52354,2,0,P|201:268|253:307,1,90.9999958343508
262,313,52706,1,0,0:0:0:0:
295,322,52823,1,0,0:0:0:0:
115,291,53057,1,0,0:0:0:0:
321,184,53292,6,0,B|348:177|348:177|384:187|384:187|418:182,1,90.9999958343508
231,146,53760,1,0,0:0:0:0:
368,266,53995,1,0,0:0:0:0:
144,92,54229,2,0,B|148:118|148:118|138:154|138:154|145:181,1,90.9999958343508
320,94,54698,2,0,L|378:93,1,45.4999979171754
70,112,54932,2,0,L|12:113,1,45.4999979171754
319,184,55167,5,0,0:0:0:0:
77,271,55401,1,0,0:0:0:0:
219,56,55635,1,0,0:0:0:0:
229,313,55870,1,0,0:0:0:0:
70,112,56104,1,0,0:0:0:0:
70,112,57042,5,0,0:0:0:0:
111,208,57276,5,0,0:0:0:0:
146,169,57393,1,0,0:0:0:0:
187,137,57510,1,0,0:0:0:0:
233,111,57627,1,0,0:0:0:0:
282,92,57744,1,0,0:0:0:0:
252,193,57979,6,0,P|244:251|258:318,1,105.000004005432
374,126,58448,1,0,0:0:0:0:
346,227,58682,1,0,0:0:0:0:
404,24,58917,5,0,0:0:0:0:
282,92,59151,5,0,0:0:0:0:
233,111,59268,1,0,0:0:0:0:
187,137,59385,1,0,0:0:0:0:
146,169,59502,1,0,0:0:0:0:
111,208,59619,1,0,0:0:0:0:
79,250,59737,1,0,0:0:0:0:
54,296,59854,1,0,0:0:0:0:
22,141,60206,5,0,0:0:0:0:
12,89,60323,1,0,0:0:0:0:
10,78,60557,5,0,0:0:0:0:
148,285,60792,6,0,L|267:219,1,105.000004005432
425,137,61260,1,0,0:0:0:0:
400,238,61495,1,0,0:0:0:0:
299,54,61729,2,0,L|349:146,1,105.000004005432
450,330,62198,1,0,0:0:0:0:
455,338,62432,5,0,0:0:0:0:
498,242,62549,1,0,0:0:0:0:
392,243,62667,2,0,L|299:295,1,105.000004005432
448,145,63135,5,0,0:0:0:0:
374,342,63370,1,0,0:0:0:0:
262,164,63604,2,0,L|210:72,1,105.000004005432
173,279,64073,1,0,0:0:0:0:
171,289,64307,1,0,0:0:0:0:
168,299,64542,6,0,B|113:295|113:295|50:278,1,105.000004005432
255,250,64893,2,0,B|282:250|282:250|315:255,1,52.5000020027161
129,204,65127,2,0,B|129:177|129:177|134:144,1,52.5000020027161
390,205,65479,2,0,P|405:261|379:321,1,105.000004005432
298,160,65948,1,0,0:0:0:0:
307,342,66182,1,0,0:0:0:0:
372,131,66417,6,0,P|357:75|383:15,2,105.000004005432
453,197,67120,5,0,0:0:0:0:
476,243,67237,1,0,0:0:0:0:
474,295,67354,2,0,B|421:294|421:294|351:284,1,105.000004005432
317,274,67706,1,0,0:0:0:0:
268,253,67823,1,0,0:0:0:0:
441,370,68057,1,0,0:0:0:0:
219,234,68292,6,0,B|167:226|167:226|114:225,1,105.000004005432
314,161,68760,1,0,0:0:0:0:
210,344,68995,1,0,0:0:0:0:
2,217,69229,2,0,B|53:224|53:224|106:225,1,105.000004005432
307,164,69698,1,0,0:0:0:0:
317,161,69932,5,0,0:0:0:0:
261,72,70049,1,0,0:0:0:0:
189,149,70167,2,0,P|137:149|92:123,1,105.000004005432
53,88,70518,5,0,0:0:0:0:
25,43,70635,1,0,0:0:0:0:
188,229,70870,1,0,0:0:0:0:
162,24,71104,2,0,P|156:50|158:77,1,52.5000020027161
352,84,71338,5,0,0:0:0:0:
404,87,71456,1,0,0:0:0:0:
449,60,71573,1,0,0:0:0:0:
459,132,71690,1,0,0:0:0:0:
452,205,71807,1,0,0:0:0:0:
433,276,71924,1,0,0:0:0:0:
391,337,72042,6,0,B|344:312|344:312|283:310,1,105.000004005432
82,305,72510,1,0,0:0:0:0:
281,237,72745,2,0,B|351:200|351:200|283:174,1,105.000004005432
202,359,73213,1,0,0:0:0:0:
245,153,73448,1,0,0:0:0:0:
175,231,73682,5,0,0:0:0:0:
153,128,73799,1,0,0:0:0:0:
233,59,73917,2,0,P|285:66|329:101,1,105.000004005432
117,120,74385,6,0,P|97:72|103:20,1,105.000004005432
263,157,74854,2,0,P|282:204|276:256,1,105.000004005432
175,231,75323,5,0,0:0:0:0:
129,254,75440,1,0,0:0:0:0:
116,303,75557,1,0,0:0:0:0:
144,346,75674,1,0,0:0:0:0:
194,353,75792,2,0,P|245:359|293:339,1,105.000004005432
179,147,76260,5,0,0:0:0:0:
42,307,76495,1,0,0:0:0:0:
355,282,76729,1,0,0:0:0:0:
365,282,76963,5,0,0:0:0:0:
264,247,77081,1,0,0:0:0:0:
357,198,77198,2,0,L|395:90,1,105.000004005432
428,0,77549,5,0,0:0:0:0:
498,79,77667,2,0,L|463:178,1,105.000004005432
320,24,78135,6,0,L|285:123,1,105.000004005432
209,196,78604,2,0,L|174:96,1,105.000004005432
95,27,79073,5,0,0:0:0:0:
70,73,79190,1,0,0:0:0:0:
59,124,79307,1,0,0:0:0:0:
63,176,79424,1,0,0:0:0:0:
81,226,79542,2,0,P|93:278|81:335,1,105.000004005432
174,96,80010,6,0,P|224:84|276:93,2,105.000004005432
162,101,80713,1,0,0:0:0:0:
171,281,80948,1,0,0:0:0:0:
170,291,81182,5,0,0:0:0:0:
192,243,81299,1,0,0:0:0:0:
217,196,81417,1,0,0:0:0:0:
63,338,81651,5,0,0:0:0:0:
270,310,81885,1,0,0:0:0:0:
100,184,82120,1,0,0:0:0:0:
309,173,82354,2,0,B|338:174|338:174|378:201|378:201|429:199,1,105.000004005432
237,73,82823,1,0,0:0:0:0:
227,68,83057,5,0,0:0:0:0:
279,67,83174,1,0,0:0:0:0:
331,61,83292,2,0,L|436:85,1,105.000004005432
236,156,83760,5,0,0:0:0:0:
465,154,83995,1,0,0:0:0:0:
237,189,84229,1,0,0:0:0:0:
466,187,84464,1,0,0:0:0:0:
159,120,84698,1,0,0:0:0:0:
148,117,84932,5,0,0:0:0:0:
143,221,85049,1,0,0:0:0:0:
129,325,85167,2,0,L|23:273,1,105.000004005432
244,272,85635,6,0,L|149:318,1,105.000004005432
359,330,86104,2,0,L|253:278,1,105.000004005432
474,262,86573,1,0,0:0:0:0:
484,260,86807,5,0,0:0:0:0:
460,362,86924,1,0,0:0:0:0:
377,206,87042,1,0,0:0:0:0:
370,195,87276,5,0,0:0:0:0:
325,156,87393,1,0,0:0:0:0:
270,132,87510,1,0,0:0:0:0:
212,124,87627,1,0,0:0:0:0:
153,134,87744,1,0,0:0:0:0:
284,47,87979,6,0,P|341:62|389:98,1,119.000002269745
469,198,88448,1,0,0:0:0:0:
494,81,88682,1,0,0:0:0:0:
328,253,88917,5,0,0:0:0:0:
322,263,89151,5,0,0:0:0:0:
292,211,89268,1,0,0:0:0:0:
267,157,89385,1,0,0:0:0:0:
148,152,89620,5,0,0:0:0:0:
208,152,89737,1,0,0:0:0:0:
267,157,89854,1,0,0:0:0:0:
331,57,90088,5,0,0:0:0:0:
301,108,90205,1,0,0:0:0:0:
267,157,90322,1,0,0:0:0:0:
473,38,90557,1,0,0:0:0:0:
238,47,90792,6,0,P|179:58|98:49,1,119.000002269745
375,119,91260,1,0,0:0:0:0:
472,27,91495,1,0,0:0:0:0:
451,241,91729,2,0,P|442:300|453:380,1,119.000002269745
473,38,92198,1,0,0:0:0:0:
363,133,92432,5,0,0:0:0:0:
318,172,92549,1,0,0:0:0:0:
272,210,92667,2,0,B|250:243|250:243|215:261|215:261|185:293,1,119.000002269745
98,31,93135,5,0,0:0:0:0:
195,119,93370,5,0,0:0:0:0:
234,164,93487,1,0,0:0:0:0:
272,210,93605,2,0,B|305:232|305:232|323:267|323:267|355:297,1,119.000002269745
287,53,94073,5,0,0:0:0:0:
265,348,94307,1,0,0:0:0:0:
289,37,94542,5,0,0:3:0:0:
289,37,94776,5,0,0:0:0:0:
336,71,94893,1,0,0:0:0:0:
374,117,95010,1,0,0:0:0:0:
395,173,95127,1,0,0:0:0:0:
399,231,95244,1,0,0:0:0:0:
220,125,95479,6,0,P|182:53|184:3,1,119.000002269745
296,189,95948,1,0,0:0:0:0:
410,46,96182,1,0,0:0:0:0:
206,208,96417,5,0,0:0:0:0:
196,215,96651,5,0,0:0:0:0:
157,260,96768,1,0,0:0:0:0:
142,317,96885,1,0,0:0:0:0:
266,128,97120,5,0,0:0:0:0:
246,72,97237,1,0,0:0:0:0:
204,30,97354,1,0,0:0:0:0:
305,232,97588,5,0,0:0:0:0:
364,243,97705,1,0,0:0:0:0:
421,228,97822,1,0,0:0:0:0:
432,223,98057,5,0,0:0:0:0:
196,215,98292,6,0,P|155:263|141:321,1,119.000002269745
353,108,98760,1,0,0:0:0:0:
282,222,98995,1,0,0:0:0:0:
441,112,99229,2,0,P|482:64|496:6,1,119.000002269745
250,123,99698,1,0,0:0:0:0:
385,209,99932,5,0,0:0:0:0:
386,214,100049,1,0,0:0:0:0:
387,219,100167,2,0,B|371:276|371:276|328:318,1,119.000002269745
386,214,100635,6,0,B|443:198|443:198|501:215,1,119.000002269745
386,214,101104,2,0,B|344:171|344:171|329:113,1,119.000002269745
325,84,101456,5,0,0:0:0:0:
319,54,101573,1,0,0:0:0:0:
272,90,101690,1,0,0:0:0:0:
225,126,101807,1,0,0:0:0:0:
178,162,101924,1,0,0:0:0:0:
128,195,102042,2,0,B|107:139|107:139|117:80,1,119.000002269745
170,259,102510,6,0,B|190:314|190:314|180:373,2,119.000002269745
51,241,103213,1,0,0:0:0:0:
285,199,103448,1,0,0:0:0:0:
296,198,103682,5,0,0:0:0:0:
321,245,103800,1,0,0:0:0:0:
343,293,103917,1,0,0:0:0:0:
234,81,104151,5,0,0:0:0:0:
242,318,104385,1,0,0:0:0:0:
430,171,104620,1,0,0:0:0:0:
192,172,104854,2,0,B|163:173|163:173|123:200|123:200|95:198,1,105.000004005432
361,173,105323,1,0,0:0:0:0:
309,65,105557,5,0,0:0:0:0:
251,52,105674,1,0,0:0:0:0:
191,52,105792,2,0,P|135:64|73:97,1,119.000002269745
389,94,106260,5,0,0:0:0:0:
324,323,106495,1,0,0:0:0:0:
169,142,106729,1,0,0:0:0:0:
376,260,106964,5,0,0:0:0:0:
447,180,107081,1,0,0:0:0:0:
389,94,107198,1,0,0:0:0:0:
388,67,107432,5,0,0:0:0:0:
464,180,107549,1,0,0:0:0:0:
370,286,107666,1,0,0:0:0:0:
488,78,107901,5,0,0:0:0:0:
476,315,108135,1,0,0:0:0:0:
292,162,108370,1,0,0:0:0:0:
493,331,108604,2,0,P|434:348|375:380,1,119.000002269745
149,326,109073,1,0,0:0:0:0:
137,322,109307,5,0,0:0:0:0:
60,230,109424,1,0,0:0:0:0:
177,252,109542,2,0,P|236:269|295:301,1,119.000002269745
97,151,110010,5,0,0:0:0:0:
126,318,110245,2,0,P|101:313|66:313,1,59.5000011348725
286,295,110479,2,0,P|308:314|334:354,2,59.5000011348725
97,151,110948,1,0,0:0:0:0:
215,161,111182,5,0,0:0:0:0:
166,52,111299,1,0,0:0:0:0:
282,80,111417,2,0,P|316:131|308:200,1,119.000002269745
61,53,111885,6,0,P|13:91|-3:146,1,119.000002269745
294,80,112354,2,0,P|328:131|320:200,1,119.000002269745
53,40,112823,1,0,0:0:0:0:
158,120,113057,5,0,0:0:0:0:
154,179,113174,1,0,0:0:0:0:
149,238,113292,2,0,L|140:367,1,119.000002269745
77,127,113760,5,0,0:0:0:0:
232,307,113995,2,0,B|299:302|299:302|354:283,1,119.000002269745
58,286,114463,1,0,0:0:0:0:
373,273,114698,1,0,0:0:0:0:
384,270,114932,5,0,0:0:0:0:
468,185,115049,1,0,0:0:0:0:
348,185,115167,2,0,B|281:190|281:190|232:206,1,119.000002269745
96,384,115635,6,0,B|125:323|125:323|135:272,1,119.000002269745
43,61,116104,2,0,B|80:116|80:116|119:150,1,119.000002269745
129,157,116573,5,0,0:0:0:0:
146,67,116690,1,0,0:0:0:0:
235,54,116807,1,0,0:0:0:0:
275,136,116924,1,0,0:0:0:0:
210,200,117041,1,0,0:0:0:0:
210,200,132042,5,0,0:0:0:0:
259,276,132276,1,0,0:0:0:0:
188,108,132510,1,0,0:0:0:0:
139,184,132744,1,0,0:0:0:0:
205,14,132979,2,0,P|239:54|276:82,1,90.9999958343508
96,31,133448,1,0,0:0:0:0:
87,27,133682,1,0,0:0:0:0:
303,0,133917,6,0,B|336:37|336:37|358:88,1,90.9999958343508
257,229,134385,2,0,B|272:181|272:181|305:137,1,90.9999958343508
478,163,134854,2,0,B|428:173|428:173|374:166,1,90.9999958343508
220,98,135323,5,0,0:0:0:0:
175,104,135440,1,0,0:0:0:0:
135,126,135557,1,0,0:0:0:0:
107,161,135674,1,0,0:0:0:0:
91,204,135792,2,0,P|48:259|6:294,1,90.9999958343508
57,93,136260,6,0,P|99:37|141:2,1,90.9999958343508
187,190,136729,2,0,P|242:232|277:274,1,90.9999958343508
265,65,137198,1,0,0:0:0:0:
266,56,137432,5,0,0:0:0:0:
187,101,137549,1,0,0:0:0:0:
264,149,137667,2,0,P|319:191|354:233,1,90.9999958343508
154,178,138135,5,0,0:0:0:0:
146,171,138370,2,0,L|109:133,1,45.4999979171754
82,106,138604,1,0,0:0:0:0:
211,234,138721,2,0,L|174:196,1,45.4999979171754
50,72,139073,1,0,0:0:0:0:
43,65,139307,5,0,0:0:0:0:
127,31,139424,1,0,0:0:0:0:
218,25,139542,2,0,P|263:33|320:64,1,90.9999958343508
134,117,140010,6,0,P|179:109|243:118,1,90.9999958343508
400,68,140479,2,0,B|401:99|401:99|393:123|393:123|401:163,1,90.9999958343508
445,333,140948,1,0,0:0:0:0:
448,341,141182,5,0,0:0:0:0:
401,263,141299,1,0,0:0:0:0:
321,218,141417,2,0,P|276:205|219:210,1,90.9999958343508
51,225,141885,6,0,P|96:238|153:233,2,90.9999958343508
13,141,142588,5,0,0:0:0:0:
95,101,142706,1,0,0:0:0:0:
169,153,142823,1,0,0:0:0:0:
6,233,143057,5,0,0:0:0:0:
175,70,143292,6,0,L|268:55,1,90.9999958343508
444,28,143760,1,0,0:0:0:0:
370,82,143995,5,0,0:0:0:0:
361,126,144112,1,0,0:0:0:0:
352,170,144229,2,0,L|330:272,1,90.9999958343508
322,303,144581,1,0,0:0:0:0:
313,347,144698,1,0,0:0:0:0:
254,277,144932,5,0,0:0:0:0:
226,240,145049,1,0,0:0:0:0:
197,204,145167,1,0,0:0:0:0:
398,307,145401,5,0,0:0:0:0:
250,106,145635,1,0,0:0:0:0:
188,346,145870,1,0,0:0:0:0:
408,156,146104,2,0,L|458:147,2,45.4999979171754
318,175,146456,5,0,0:0:0:0:
296,181,146573,1,0,0:0:0:0:
264,178,146690,1,0,0:0:0:0:
225,165,146807,1,0,0:0:0:0:
184,133,146924,1,0,0:0:0:0:
148,73,147042,6,0,P|114:42|70:25,1,90.9999958343508
261,81,147510,2,0,P|304:67|341:37,1,90.9999958343508
188,176,147979,2,0,P|178:220|185:267,1,90.9999958343508
213,21,148448,1,0,0:0:0:0:
214,12,148682,1,0,0:0:0:0:
184,264,148917,6,0,P|178:220|188:176,1,90.9999958343508
339,39,149386,2,0,P|304:67|261:81,1,90.9999958343508
72,25,149854,2,0,P|114:42|148:73,1,90.9999958343508
182,279,150323,1,0,0:0:0:0:
179,287,150557,5,0,0:0:0:0:
256,238,150674,1,0,0:0:0:0:
341,269,150792,2,0,P|397:268|435:238,1,90.9999958343508
263,333,151260,5,0,0:0:0:0:
366,182,151495,1,0,0:0:0:0:
171,195,151729,2,0,P|115:196|77:226,1,90.9999958343508
258,123,152198,1,0,0:0:0:0:
266,119,152432,5,0,0:0:0:0:
280,208,152549,1,0,0:0:0:0:
362,168,152667,2,0,P|401:146|446:148,1,90.9999958343508
450,330,153135,6,0,L|424:234,1,90.9999958343508
338,80,153604,2,0,L|364:176,1,90.9999958343508
454,344,154073,1,0,0:0:0:0:
335,70,154307,1,0,0:0:0:0:
223,333,154542,6,0,B|210:281|210:281|224:237,1,90.9999958343508
57,172,155010,2,0,B|108:183|108:183|152:166,1,90.9999958343508
62,332,155479,2,0,L|127:268,1,90.9999958343508
255,139,155948,1,0,0:0:0:0:
261,132,156182,5,0,0:0:0:0:
195,195,156299,1,0,0:0:0:0:
133,262,156417,1,0,0:0:0:0:
215,55,156651,5,0,0:0:0:0:
253,285,156885,1,0,0:0:0:0:
111,142,157120,1,0,0:0:0:0:
340,165,157354,1,0,0:0:0:0:
349,164,157588,5,0,0:0:0:0:
261,132,157706,1,0,0:0:0:0:
215,55,157823,1,0,0:0:0:0:
255,296,158057,5,0,0:0:0:0:
135,56,158292,6,0,B|106:55|106:55|71:61|71:61|33:49,1,90.9999958343508
227,51,158760,1,0,0:0:0:0:
179,129,158995,1,0,0:0:0:0:
345,56,159229,2,0,L|405:57,2,45.4999979171754
298,133,159581,5,0,0:0:0:0:
274,171,159698,1,0,0:0:0:0:
240,201,159815,1,0,0:0:0:0:
200,223,159932,1,0,0:0:0:0:
163,249,160049,1,0,0:0:0:0:
145,291,160167,1,0,0:0:0:0:
369,257,160401,5,0,0:0:0:0:
405,33,160635,1,0,0:0:0:0:
181,68,160870,1,0,0:0:0:0:
145,291,161104,1,0,0:0:0:0:
145,291,162042,5,0,0:0:0:0:
136,297,162276,5,0,0:0:0:0:
136,245,162393,1,0,0:0:0:0:
187,228,162510,1,0,0:0:0:0:
217,271,162627,1,0,0:0:0:0:
186,314,162745,1,0,0:0:0:0:
124,113,162979,5,0,0:0:0:0:
104,64,163096,1,0,0:0:0:0:
83,15,163213,1,0,0:0:0:0:
178,59,163448,5,0,0:0:0:0:
222,86,163565,1,0,0:0:0:0:
270,106,163682,1,0,0:0:0:0:
322,118,163799,1,0,0:0:0:0:
374,121,163917,6,0,P|331:66|277:31,1,105.000004005432
257,18,164268,5,0,0:0:0:0:
208,1,164385,1,0,0:0:0:0:
158,15,164502,1,0,0:0:0:0:
126,56,164619,1,0,0:0:0:0:
124,108,164736,1,0,0:0:0:0:
153,151,164854,6,0,P|185:211|180:269,1,105.000004005432
54,82,165323,1,0,0:0:0:0:
255,139,165557,1,0,0:0:0:0:
46,165,165792,6,0,P|17:209|12:261,1,105.000004005432
322,89,166260,1,0,0:0:0:0:
120,135,166494,1,0,0:0:0:0:
329,172,166729,2,0,P|357:215|362:267,1,105.000004005432
54,82,167198,1,0,0:0:0:0:
44,77,167432,5,0,0:0:0:0:
134,23,167549,1,0,0:0:0:0:
213,92,167667,2,0,L|181:199,1,105.000004005432
85,378,168135,6,0,L|117:271,1,105.000004005432
85,176,168604,1,0,0:0:0:0:
226,306,168838,1,0,0:0:0:0:
233,313,169073,5,0,0:0:0:0:
283,300,169190,1,0,0:0:0:0:
333,287,169307,1,0,0:0:0:0:
384,274,169424,1,0,0:0:0:0:
435,262,169542,2,0,P|472:195|477:147,1,105.000004005432
474,115,169893,5,0,0:0:0:0:
448,69,170010,1,0,0:0:0:0:
403,40,170127,1,0,0:0:0:0:
350,41,170245,1,0,0:0:0:0:
339,43,170479,2,0,P|302:110|297:158,1,105.000004005432
323,346,170948,1,0,0:0:0:0:
326,356,171182,5,0,0:0:0:0:
265,270,171299,1,0,0:0:0:0:
212,361,171417,2,0,L|110:326,1,105.000004005432
63,308,171768,5,0,0:0:0:0:
13,290,171885,1,0,0:0:0:0:
2,288,172120,5,0,0:0:0:0:
21,182,172237,1,0,0:0:0:0:
107,246,172355,2,0,L|185:172,1,105.000004005432
222,137,172706,1,0,0:0:0:0:
260,99,172823,1,0,0:0:0:0:
183,294,173057,1,0,0:0:0:0:
117,94,173292,6,0,P|79:45|26:11,1,105.000004005432
47,239,173760,1,0,0:0:0:0:
31,134,173995,1,0,0:0:0:0:
183,174,174229,2,0,P|240:160|302:159,1,105.000004005432
495,177,174698,1,0,0:0:0:0:
420,103,174932,5,0,0:0:0:0:
408,154,175049,1,0,0:0:0:0:
386,202,175167,2,0,P|339:263|295:293,1,105.000004005432
336,71,175635,5,0,0:0:0:0:
411,307,175870,1,0,0:0:0:0:
221,186,176104,5,0,0:0:0:0:
179,217,176221,1,0,0:0:0:0:
155,263,176338,1,0,0:0:0:0:
160,315,176456,1,0,0:0:0:0:
195,353,176573,1,0,0:0:0:0:
196,284,176690,1,0,0:0:0:0:
179,217,176807,1,0,0:0:0:0:
150,155,176924,1,0,0:0:0:0:
103,104,177042,2,0,P|58:72|-2:51,1,105.000004005432
281,36,177510,6,0,P|236:68|176:89,1,105.000004005432
2,258,177979,2,0,P|46:226|107:205,1,105.000004005432
302,185,178448,1,0,0:0:0:0:
312,184,178682,5,0,0:0:0:0:
222,237,178799,1,0,0:0:0:0:
323,266,178917,2,0,L|427:227,1,105.000004005432
208,322,179385,6,0,L|306:358,1,105.000004005432
108,281,179854,2,0,L|212:242,1,105.000004005432
20,366,180323,5,0,0:0:0:0:
3,316,180440,1,0,0:0:0:0:
0,264,180557,1,0,0:0:0:0:
10,212,180674,1,0,0:0:0:0:
34,166,180791,1,0,0:0:0:0:
98,287,181026,5,0,0:0:0:0:
127,132,181260,1,0,0:0:0:0:
90,291,181495,1,0,0:0:0:0:
221,98,181729,1,0,0:0:0:0:
226,89,181963,5,0,0:0:0:0:
264,187,182081,1,0,0:0:0:0:
305,283,182198,1,0,0:0:0:0:
310,292,182432,5,0,0:0:0:0:
351,196,182549,1,0,0:0:0:0:
389,98,182667,1,0,0:0:0:0:
454,297,182901,5,0,0:0:0:0:
267,201,183135,1,0,0:0:0:0:
477,188,183370,1,0,0:0:0:0:
289,93,183604,2,0,B|258:86|258:86|213:93|213:93|167:85,1,105.000004005432
396,80,184073,1,0,0:0:0:0:
389,98,184307,5,0,0:0:0:0:
351,196,184425,1,0,0:0:0:0:
309,292,184542,2,0,B|336:296|336:296|381:289|381:289|412:296,1,105.000004005432
202,291,185010,6,0,B|171:298|171:298|126:291|126:291|98:295,2,105.000004005432
212,290,185713,1,0,0:0:0:0:
127,97,185948,1,0,0:0:0:0:
122,87,186182,5,0,0:0:0:0:
63,174,186299,1,0,0:0:0:0:
167,189,186417,1,0,0:0:0:0:
1,59,186651,5,0,0:0:0:0:
236,92,186885,1,0,0:0:0:0:
103,255,187120,5,0,0:0:0:0:
54,161,187237,1,0,0:0:0:0:
173,180,187354,1,0,0:0:0:0:
28,332,187588,5,0,0:0:0:0:
120,120,187823,1,0,0:0:0:0:
123,110,188057,1,0,0:0:0:0:
206,298,188292,6,0,B|256:271|256:271|297:217,1,105.000004005432
246,26,188760,2,0,B|244:82|244:82|270:145,1,105.000004005432
461,196,189229,2,0,B|412:166|412:166|345:157,1,105.000004005432
159,207,189698,1,0,0:0:0:0:
149,210,189932,5,0,0:0:0:0:
248,177,190049,1,0,0:0:0:0:
364,160,190167,2,0,B|412:166|412:166|461:196,1,105.000004005432
263,127,190636,6,0,B|244:82|244:82|246:26,1,105.000004005432
285,232,191104,2,0,B|256:271|256:271|206:298,1,105.000004005432
267,136,191573,5,0,0:0:0:0:
358,160,191690,1,0,0:0:0:0:
288,225,191807,1,0,0:0:0:0:
109,45,192042,5,0,0:0:0:0:
88,60,192159,1,0,0:0:0:0:
77,84,192276,1,0,0:0:0:0:
79,110,192393,1,0,0:0:0:0:
93,132,192510,1,0,0:0:0:0:
167,105,192745,5,0,0:0:0:0:
181,126,192862,1,0,0:0:0:0:
183,152,192979,1,0,0:0:0:0:
172,176,193096,1,0,0:0:0:0:
151,192,193213,1,0,0:0:0:0:
130,207,193331,1,0,0:0:0:0:
119,231,193448,1,0,0:0:0:0:
194,254,193682,5,0,0:0:0:0:
217,242,193799,1,0,0:0:0:0:
238,229,193916,1,0,0:0:0:0:
250,307,194151,5,0,0:0:0:0:
249,333,194268,1,0,0:0:0:0:
250,357,194385,1,0,0:0:0:0:
130,309,194620,5,0,0:0:0:0:
152,320,194737,1,0,0:0:0:0:
174,334,194854,1,0,0:0:0:0:
194,254,195088,5,0,0:0:0:0:
217,242,195205,1,0,0:0:0:0:
238,229,195322,1,0,0:0:0:0:
217,242,195440,1,0,0:0:0:0:
194,254,195557,1,0,0:0:0:0:
217,242,195674,1,0,0:0:0:0:
238,229,195792,5,0,0:0:0:0:
263,230,195909,1,0,0:0:0:0:
287,219,196026,1,0,0:0:0:0:
303,199,196143,1,0,0:0:0:0:
308,173,196260,1,0,0:0:0:0:
232,148,196495,5,0,0:0:0:0:
243,124,196612,1,0,0:0:0:0:
261,105,196729,1,0,0:0:0:0:
284,93,196846,1,0,0:0:0:0:
310,90,196963,1,0,0:0:0:0:
336,96,197080,1,0,0:0:0:0:
358,109,197198,1,0,0:0:0:0:
385,183,197432,5,0,0:0:0:0:
410,189,197549,1,0,0:0:0:0:
434,179,197666,1,0,0:0:0:0:
427,204,197783,1,0,0:0:0:0:
420,231,197900,1,0,0:0:0:0:
413,256,198018,1,0,0:0:0:0:
408,281,198135,1,0,0:0:0:0:
417,305,198252,1,0,0:0:0:0:
438,321,198369,1,0,0:0:0:0:
464,324,198486,1,0,0:0:0:0:
487,312,198603,1,0,0:0:0:0:
502,292,198721,1,0,0:0:0:0:
503,265,198838,1,0,0:0:0:0:
484,283,198955,1,0,0:0:0:0:
459,293,199072,1,0,0:0:0:0:
432,296,199189,1,0,0:0:0:0:
406,290,199306,1,0,0:0:0:0:
381,281,199423,1,0,0:0:0:0:
360,263,199542,5,0,0:0:0:0:
340,280,199659,1,0,0:0:0:0:
316,292,199776,1,0,0:0:0:0:
290,296,199893,1,0,0:0:0:0:
263,293,200010,1,0,0:0:0:0:
205,239,200244,5,0,0:0:0:0:
190,261,200362,1,0,0:0:0:0:
185,286,200479,1,0,0:0:0:0:
160,275,200596,1,0,0:0:0:0:
140,257,200713,1,0,0:0:0:0:
127,233,200830,1,0,0:0:0:0:
125,206,200947,1,0,0:0:0:0:
55,243,201182,5,0,0:0:0:0:
48,268,201299,1,0,0:0:0:0:
39,293,201417,1,0,0:0:0:0:
107,332,201651,5,0,0:0:0:0:
114,357,201768,1,0,0:0:0:0:
123,382,201886,1,0,0:0:0:0:
248,345,202120,5,0,0:0:0:0:
223,352,202237,1,0,0:0:0:0:
198,361,202355,1,0,0:0:0:0:
174,286,202588,5,0,0:0:0:0:
196,272,202705,1,0,0:0:0:0:
221,264,202822,1,0,0:0:0:0:
247,263,202939,1,0,0:0:0:0:
272,269,203056,1,0,0:0:0:0:
296,281,203173,1,0,0:0:0:0:
315,299,203292,5,0,0:0:0:0:
314,272,203409,1,0,0:0:0:0:
308,247,203526,1,0,0:0:0:0:
298,223,203643,1,0,0:0:0:0:
284,201,203760,1,0,0:0:0:0:
219,156,203995,5,0,0:0:0:0:
211,181,204112,1,0,0:0:0:0:
207,206,204229,1,0,0:0:0:0:
209,232,204346,1,0,0:0:0:0:
216,257,204463,1,0,0:0:0:0:
231,278,204581,1,0,0:0:0:0:
251,294,204698,1,0,0:0:0:0:
224,369,204932,5,0,0:0:0:0:
201,357,205049,1,0,0:0:0:0:
188,335,205166,1,0,0:0:0:0:
164,346,205284,1,0,0:0:0:0:
138,348,205401,1,0,0:0:0:0:
113,340,205518,1,0,0:0:0:0:
93,324,205635,1,0,0:0:0:0:
80,301,205752,1,0,0:0:0:0:
77,275,205870,1,0,0:0:0:0:
83,250,205987,1,0,0:0:0:0:
98,229,206104,1,0,0:0:0:0:
106,222,206573,5,0,0:0:0:0:
122,205,207042,5,0,0:0:0:0:
142,189,207276,5,0,0:0:0:0:
187,228,207393,1,0,0:0:0:0:
242,252,207510,1,0,0:0:0:0:
300,260,207627,1,0,0:0:0:0:
359,250,207744,1,0,0:0:0:0:
228,337,207979,6,0,P|171:322|123:286,1,119.000002269745
43,186,208448,1,0,0:0:0:0:
18,303,208682,1,0,0:0:0:0:
184,131,208917,5,0,0:0:0:0:
190,121,209151,5,0,0:0:0:0:
220,173,209268,1,0,0:0:0:0:
245,227,209385,1,0,0:0:0:0:
364,232,209620,5,0,0:0:0:0:
304,232,209737,1,0,0:0:0:0:
245,227,209854,1,0,0:0:0:0:
181,327,210088,5,0,0:0:0:0:
211,276,210205,1,0,0:0:0:0:
245,227,210322,1,0,0:0:0:0:
39,346,210557,5,0,0:0:0:0:
274,337,210792,6,0,P|333:326|414:335,1,119.000002269745
137,265,211260,1,0,0:0:0:0:
40,357,211495,1,0,0:0:0:0:
61,143,211729,2,0,P|70:84|59:4,1,119.000002269745
39,346,212198,1,0,0:0:0:0:
149,251,212432,5,0,0:0:0:0:
194,212,212549,1,0,0:0:0:0:
240,174,212667,2,0,B|262:141|262:141|297:123|297:123|327:91,1,119.000002269745
414,353,213135,5,0,0:0:0:0:
317,265,213370,5,0,0:0:0:0:
278,220,213487,1,0,0:0:0:0:
240,174,213605,2,0,B|207:152|207:152|189:117|189:117|157:87,1,119.000002269745
225,331,214073,5,0,0:0:0:0:
247,36,214307,1,0,0:0:0:0:
223,347,214542,5,0,0:3:0:0:
223,347,214776,5,0,0:0:0:0:
176,313,214893,1,0,0:0:0:0:
138,267,215010,1,0,0:0:0:0:
117,211,215127,1,0,0:0:0:0:
113,153,215244,1,0,0:0:0:0:
292,259,215479,6,0,P|330:331|328:381,1,119.000002269745
216,195,215948,1,0,0:0:0:0:
102,338,216182,1,0,0:0:0:0:
306,176,216417,5,0,0:0:0:0:
316,169,216651,5,0,0:0:0:0:
355,124,216768,1,0,0:0:0:0:
370,67,216885,1,0,0:0:0:0:
246,256,217120,5,0,0:0:0:0:
266,312,217237,1,0,0:0:0:0:
308,354,217354,1,0,0:0:0:0:
207,152,217588,5,0,0:0:0:0:
148,141,217705,1,0,0:0:0:0:
91,156,217822,1,0,0:0:0:0:
80,161,218057,5,0,0:0:0:0:
316,169,218292,6,0,P|357:121|371:63,1,119.000002269745
159,276,218760,1,0,0:0:0:0:
230,162,218995,1,0,0:0:0:0:
71,272,219229,2,0,P|30:320|16:378,1,119.000002269745
262,261,219698,1,0,0:0:0:0:
127,175,219932,5,0,0:0:0:0:
126,170,220049,1,0,0:0:0:0:
125,165,220167,2,0,B|141:108|141:108|184:66,1,119.000002269745
126,170,220635,6,0,B|69:186|69:186|11:169,1,119.000002269745
126,170,221104,2,0,B|168:213|168:213|183:271,1,119.000002269745
187,300,221456,5,0,0:0:0:0:
193,330,221573,1,0,0:0:0:0:
240,294,221690,1,0,0:0:0:0:
287,258,221807,1,0,0:0:0:0:
334,222,221924,1,0,0:0:0:0:
384,189,222042,2,0,B|405:245|405:245|395:304,1,119.000002269745
342,125,222510,6,0,B|322:70|322:70|332:11,2,119.000002269745
461,143,223213,1,0,0:0:0:0:
227,185,223448,1,0,0:0:0:0:
216,186,223682,5,0,0:0:0:0:
191,139,223800,1,0,0:0:0:0:
169,91,223917,1,0,0:0:0:0:
278,303,224151,5,0,0:0:0:0:
270,66,224385,1,0,0:0:0:0:
82,213,224620,1,0,0:0:0:0:
320,212,224854,2,0,B|349:211|349:211|389:184|389:184|417:186,1,105.000004005432
151,211,225323,1,0,0:0:0:0:
203,319,225557,5,0,0:0:0:0:
261,332,225674,1,0,0:0:0:0:
321,332,225792,2,0,P|377:320|439:287,1,119.000002269745
123,290,226260,5,0,0:0:0:0:
188,61,226495,1,0,0:0:0:0:
343,242,226729,1,0,0:0:0:0:
136,124,226964,5,0,0:0:0:0:
65,204,227081,1,0,0:0:0:0:
123,290,227198,1,0,0:0:0:0:
124,317,227432,5,0,0:0:0:0:
48,204,227549,1,0,0:0:0:0:
142,98,227666,1,0,0:0:0:0:
24,306,227901,5,0,0:0:0:0:
36,69,228135,1,0,0:0:0:0:
220,222,228370,1,0,0:0:0:0:
19,53,228604,2,0,P|78:36|137:4,1,119.000002269745
363,58,229073,1,0,0:0:0:0:
375,62,229307,5,0,0:0:0:0:
452,154,229424,1,0,0:0:0:0:
335,132,229542,2,0,P|276:115|217:83,1,119.000002269745
415,233,230010,5,0,0:0:0:0:
389,67,230245,2,0,P|424:75|459:72,1,59.5000011348725
226,89,230479,2,0,P|204:70|178:30,2,59.5000011348725
415,233,230948,1,0,0:0:0:0:
297,223,231182,5,0,0:0:0:0:
346,332,231299,1,0,0:0:0:0:
230,304,231417,2,0,P|196:253|204:184,1,119.000002269745
451,331,231885,6,0,P|499:293|515:238,1,119.000002269745
218,304,232354,2,0,P|184:253|192:184,1,119.000002269745
459,344,232823,1,0,0:0:0:0:
354,264,233057,5,0,0:0:0:0:
358,205,233174,1,0,0:0:0:0:
363,146,233292,2,0,L|372:17,1,119.000002269745
435,257,233760,5,0,0:0:0:0:
280,77,233995,2,0,B|213:82|213:82|158:101,1,119.000002269745
454,98,234463,1,0,0:0:0:0:
139,111,234698,1,0,0:0:0:0:
128,114,234932,5,0,0:0:0:0:
44,199,235049,1,0,0:0:0:0:
164,199,235167,2,0,B|231:194|231:194|280:178,1,119.000002269745
416,0,235635,6,0,B|387:61|387:61|377:112,1,119.000002269745
469,323,236104,2,0,B|432:268|432:268|393:234,1,119.000002269745
383,227,236573,5,0,0:0:0:0:
366,317,236690,1,0,0:0:0:0:
277,330,236807,1,0,0:0:0:0:
237,248,236924,1,0,0:0:0:0:
302,184,237042,2,0,L|379:136,1,90.9999958343508
197,166,237510,5,0,0:0:0:0:
156,247,237745,1,0,0:0:0:0:
324,133,237979,2,0,L|402:86,1,90.9999958343508
217,117,238447,1,0,0:0:0:0:
176,199,238682,1,0,0:0:0:0:
326,275,238917,6,0,P|369:289|419:282,1,90.9999958343508
239,332,239385,1,0,0:0:0:0:
378,213,239620,1,0,0:0:0:0:
168,281,239854,2,0,P|154:324|160:374,1,90.9999958343508
250,211,240323,1,0,0:0:0:0:
81,278,240557,5,0,0:0:0:0:
131,202,240674,1,0,0:0:0:0:
179,125,240792,2,0,P|193:82|186:31,1,90.9999958343508
131,209,241260,5,0,0:0:0:0:
270,91,241495,1,0,0:0:0:0:
88,126,241729,2,0,P|83:81|96:37,1,90.9999958343508
127,220,242198,1,0,0:0:0:0:
0,84,242432,1,0,0:0:0:0:
217,202,242667,6,0,B|257:230|257:230|286:267,1,90.9999958343508
267,82,243135,1,0,0:0:0:0:
191,290,243370,1,0,0:0:0:0:
308,175,243604,2,0,B|348:203|348:203|374:236,1,90.9999958343508
359,55,244072,1,0,0:0:0:0:
283,263,244307,5,0,0:0:0:0:
224,194,244424,1,0,0:0:0:0:
165,125,244542,2,0,L|111:207,1,90.9999958343508
271,107,245010,5,0,0:0:0:0:
209,41,245245,1,0,0:0:0:0:
377,114,245479,2,0,L|439:190,1,90.9999958343508
271,107,245947,1,0,0:0:0:0:
325,35,246182,1,0,0:0:0:0:
392,258,246417,6,0,P|436:268|480:256,1,90.9999958343508
317,174,246885,1,0,0:0:0:0:
405,148,247120,1,0,0:0:0:0:
165,273,247354,2,0,P|122:288|78:280,1,90.9999958343508
256,322,247823,1,0,0:0:0:0:
266,323,248057,5,0,0:0:0:0:
251,234,248174,1,0,0:0:0:0:
335,271,248292,2,0,P|350:314|342:358,1,90.9999958343508
325,177,248760,5,0,0:0:0:0:
409,216,248995,1,0,0:0:0:0:
228,223,249229,2,0,P|183:216|141:231,1,90.9999958343508
329,267,249698,1,0,0:0:0:0:
184,384,249932,5,0,0:0:0:0:
176,294,250049,1,0,0:0:0:0:
233,222,250167,2,0,P|251:180|264:137,1,90.9999958343508
265,46,250518,5,0,0:0:0:0:
394,175,250635,2,0,P|417:214|433:258,1,90.9999958343508
446,357,250987,1,0,0:0:0:0:
491,182,251104,2,0,P|496:159|505:139,1,45.4999979171754
321,264,251338,5,0,0:0:0:0:
338,306,251455,1,0,0:0:0:0:
374,334,251572,1,0,0:0:0:0:
305,346,251690,1,0,0:0:0:0:
237,349,251807,1,0,0:0:0:0:
171,338,251924,1,0,0:0:0:0:
106,317,252042,5,0,0:0:0:0:
