osu file format v14

[General]
AudioFilename: audio.mp3
AudioLeadIn: 0
PreviewTime: 293140
Countdown: 0
SampleSet: Normal
StackLeniency: 0.7
Mode: 1
LetterboxInBreaks: 0
WidescreenStoryboard: 0

[Editor]
Bookmarks: 14569,29997,43712,45426,59140,72855,86569,100283,113997,127712,141426,155140,168855,182569,196283,209997,223712,237426,252855,264855,278569,293140,293997,307712,321426,335140,348855,362569
DistanceSpacing: 1.1
BeatDivisor: 4
GridSize: 32
TimelineZoom: 2

[Metadata]
Title:Fly with me (feat. Hatsune Miku)
TitleUnicode:Fly with me (feat. 初音ミク)
Artist:SOSOSO (Tsukui Kazuhito)
ArtistUnicode:そそそ (津久井箇人)
Creator:Aloda
Version:Inner Oni
Source:
Tags:SOSOSO-P そそそP REBOOT Vocaloid Techno Pop Japanese
BeatmapID:1044309
BeatmapSetID:489895

[Difficulty]
HPDrainRate:4
CircleSize:2
OverallDifficulty:6
ApproachRate:7
SliderMultiplier:1.4
SliderTickRate:1

[Events]
//Background and Video events
0,0,"flywithme.png",0,-50
//Break Periods
//Storyboard Layer 0 (Background)
//Storyboard Layer 1 (Fail)
//Storyboard Layer 2 (Pass)
//Storyboard Layer 3 (Foreground)
//Storyboard Sound Samples

[TimingPoints]
855,428.571428571429,4,1,0,45,1,0
29997,-95.2380952380952,4,1,0,85,0,0
44997,-94.3396226415094,4,1,0,85,0,0
45105,-93.4579439252336,4,1,0,85,0,0
45212,-92.5925925925926,4,1,0,85,0,0
45319,-91.743119266055,4,1,0,85,0,0
45426,-90.9090909090909,4,1,0,85,0,0
72426,-91.743119266055,4,1,0,85,0,0
72533,-92.5925925925926,4,1,0,85,0,0
72640,-93.4579439252336,4,1,0,85,0,0
72747,-94.3396226415094,4,1,0,85,0,0
72855,-95.2380952380952,4,1,0,85,0,0
144854,-100,4,1,0,85,0,0
154712,-97.0873786407767,4,1,0,90,0,0
154819,-94.3396226415094,4,1,0,90,0,0
154926,-91.743119266055,4,1,0,90,0,0
155033,-89.2857142857143,4,1,0,90,0,0
155140,-86.9565217391304,4,1,0,90,0,1
182140,-87.719298245614,4,1,0,90,0,1
182247,-88.4955752212389,4,1,0,90,0,1
182355,-89.2857142857143,4,1,0,90,0,1
182462,-90.0900900900901,4,1,0,90,0,1
182569,-90.9090909090909,4,1,0,85,0,0
199283,-100,4,1,0,5,0,0
200140,-100,4,1,0,85,0,0
209783,-95.2380952380952,4,1,0,85,0,0
223926,-94.3396226415094,4,1,0,85,0,0
225426,-93.4579439252336,4,1,0,85,0,0
227355,-92.5925925925926,4,1,0,85,0,0
228855,-91.743119266055,4,1,0,85,0,0
230569,-90.9090909090909,4,1,0,85,0,0
251167,-133.333333333333,4,1,0,10,0,0
254569,-129.87012987013,4,1,0,17,0,0
255426,-126.582278481013,4,1,0,24,0,0
256283,-123.456790123457,4,1,0,31,0,0
257140,-120.481927710843,4,1,0,38,0,0
257997,-117.647058823529,4,1,0,45,0,0
258855,-114.942528735632,4,1,0,52,0,0
259712,-112.359550561798,4,1,0,59,0,0
260569,-109.89010989011,4,1,0,66,0,0
261426,-107.52688172043,4,1,0,73,0,0
262283,-105.263157894737,4,1,0,80,0,0
263140,-103.092783505155,4,1,0,87,0,0
263997,-101.010101010101,4,1,0,94,0,0
264853,-100,4,1,0,85,0,0
293140,-90.9090909090909,4,1,0,85,0,0
293569,-86.9565217391304,4,1,0,85,0,0
293997,-86.9565217391304,4,1,0,90,0,1
320997,-86.2068965517241,4,1,0,90,0,1
321105,-85.4700854700855,4,1,0,90,0,1
321212,-84.7457627118644,4,1,0,90,0,1
321319,-84.0336134453781,4,1,0,90,0,1
321426,-83.3333333333333,4,1,0,90,0,1
348426,-84.0336134453781,4,1,0,90,0,1
348533,-84.7457627118644,4,1,0,90,0,1
348640,-85.4700854700855,4,1,0,90,0,1
348747,-86.2068965517241,4,1,0,90,0,1
348855,-86.9565217391304,4,1,0,85,0,0
350569,-87.719298245614,4,1,0,85,0,0
352283,-88.4955752212389,4,1,0,85,0,0
353997,-89.2857142857143,4,1,0,85,0,0
355712,-90.0900900900901,4,1,0,85,0,0
357426,-90.9090909090909,4,1,0,85,0,0
362140,-91.743119266055,4,1,0,85,0,0
362247,-92.5925925925926,4,1,0,85,0,0
362355,-93.4579439252336,4,1,0,85,0,0
362462,-94.3396226415094,4,1,0,85,0,0
362569,-95.2380952380952,4,1,0,60,0,0

[HitObjects]
256,192,855,5,0,0:0:0:0:
256,192,962,1,0,0:0:0:0:
256,192,1176,1,0,0:0:0:0:
256,192,1283,1,0,0:0:0:0:
256,192,1497,1,8,0:0:0:0:
256,192,1712,1,0,0:0:0:0:
256,192,1819,1,0,0:0:0:0:
256,192,2033,1,0,0:0:0:0:
256,192,2140,1,8,0:0:0:0:
256,192,2355,1,8,0:0:0:0:
256,192,2569,1,0,0:0:0:0:
256,192,2676,1,8,0:0:0:0:
256,192,2890,1,8,0:0:0:0:
256,192,2997,1,0,0:0:0:0:
256,192,3212,1,0,0:0:0:0:
256,192,3426,1,0,0:0:0:0:
256,192,3533,1,8,0:0:0:0:
256,192,3747,1,8,0:0:0:0:
256,192,3855,1,0,0:0:0:0:
256,192,4069,1,0,0:0:0:0:
256,192,4283,1,0,0:0:0:0:
256,192,4390,1,0,0:0:0:0:
256,192,4604,1,0,0:0:0:0:
256,192,4711,1,0,0:0:0:0:
256,192,4925,1,8,0:0:0:0:
256,192,5140,1,0,0:0:0:0:
256,192,5247,1,0,0:0:0:0:
256,192,5461,1,0,0:0:0:0:
256,192,5568,1,8,0:0:0:0:
256,192,5783,1,8,0:0:0:0:
256,192,5997,1,0,0:0:0:0:
256,192,6104,1,8,0:0:0:0:
256,192,6318,1,8,0:0:0:0:
256,192,6425,1,0,0:0:0:0:
256,192,6640,1,8,0:0:0:0:
256,192,6854,1,0,0:0:0:0:
256,192,6961,1,8,0:0:0:0:
256,192,7175,1,8,0:0:0:0:
256,192,7283,1,0,0:0:0:0:
256,192,7497,1,8,0:0:0:0:
256,192,7712,1,0,0:0:0:0:
256,192,7819,1,8,0:0:0:0:
256,192,8033,1,0,0:0:0:0:
256,192,8140,1,8,0:0:0:0:
256,192,8355,1,8,0:0:0:0:
256,192,8569,1,0,0:0:0:0:
256,192,8676,1,8,0:0:0:0:
256,192,8890,1,0,0:0:0:0:
256,192,8997,1,8,0:0:0:0:
256,192,9212,1,8,0:0:0:0:
256,192,9426,1,8,0:0:0:0:
256,192,9533,1,0,0:0:0:0:
256,192,9747,1,0,0:0:0:0:
256,192,9855,1,8,0:0:0:0:
256,192,10069,1,0,0:0:0:0:
256,192,10283,1,0,0:0:0:0:
256,192,10390,1,8,0:0:0:0:
256,192,10605,1,0,0:0:0:0:
256,192,10712,1,8,0:0:0:0:
256,192,10926,1,8,0:0:0:0:
256,192,11140,1,8,0:0:0:0:
256,192,11247,1,0,0:0:0:0:
256,192,11462,1,0,0:0:0:0:
256,192,11569,1,8,0:0:0:0:
256,192,11783,1,8,0:0:0:0:
256,192,11997,1,0,0:0:0:0:
256,192,12105,1,8,0:0:0:0:
256,192,12319,1,0,0:0:0:0:
256,192,12426,1,8,0:0:0:0:
256,192,12640,1,8,0:0:0:0:
256,192,12855,1,8,0:0:0:0:
256,192,12962,1,8,0:0:0:0:
256,192,13176,1,8,0:0:0:0:
256,192,13283,1,0,0:0:0:0:
256,192,13497,1,8,0:0:0:0:
256,192,13712,1,0,0:0:0:0:
256,192,13819,1,8,0:0:0:0:
256,192,14033,1,8,0:0:0:0:
256,192,14140,1,0,0:0:0:0:
256,192,14355,1,8,0:0:0:0:
256,192,14569,5,0,0:0:0:0:
256,192,14676,1,0,0:0:0:0:
256,192,14890,1,0,0:0:0:0:
256,192,14997,1,0,0:0:0:0:
256,192,15211,1,8,0:0:0:0:
256,192,15426,1,0,0:0:0:0:
256,192,15533,1,0,0:0:0:0:
256,192,15747,1,0,0:0:0:0:
256,192,15854,1,8,0:0:0:0:
256,192,16069,1,8,0:0:0:0:
256,192,16283,1,0,0:0:0:0:
256,192,16390,1,8,0:0:0:0:
256,192,16604,1,8,0:0:0:0:
256,192,16711,1,0,0:0:0:0:
256,192,16926,1,0,0:0:0:0:
256,192,17140,1,0,0:0:0:0:
256,192,17247,1,8,0:0:0:0:
256,192,17461,1,8,0:0:0:0:
256,192,17569,1,0,0:0:0:0:
256,192,17783,1,0,0:0:0:0:
256,192,17997,1,0,0:0:0:0:
256,192,18104,1,0,0:0:0:0:
256,192,18318,1,0,0:0:0:0:
256,192,18425,1,0,0:0:0:0:
256,192,18639,1,8,0:0:0:0:
256,192,18854,1,0,0:0:0:0:
256,192,18961,1,0,0:0:0:0:
256,192,19175,1,0,0:0:0:0:
256,192,19282,1,8,0:0:0:0:
256,192,19497,1,8,0:0:0:0:
256,192,19711,1,0,0:0:0:0:
256,192,19818,1,8,0:0:0:0:
256,192,20032,1,8,0:0:0:0:
256,192,20139,1,0,0:0:0:0:
256,192,20354,1,8,0:0:0:0:
256,192,20568,1,0,0:0:0:0:
256,192,20675,1,8,0:0:0:0:
256,192,20889,1,8,0:0:0:0:
256,192,20997,1,0,0:0:0:0:
256,192,21211,1,8,0:0:0:0:
256,192,21426,1,0,0:0:0:0:
256,192,21533,1,8,0:0:0:0:
256,192,21747,1,0,0:0:0:0:
256,192,21854,1,8,0:0:0:0:
256,192,22069,1,8,0:0:0:0:
256,192,22283,1,0,0:0:0:0:
256,192,22390,1,8,0:0:0:0:
256,192,22604,1,0,0:0:0:0:
256,192,22711,1,8,0:0:0:0:
256,192,22926,1,8,0:0:0:0:
256,192,23140,1,8,0:0:0:0:
256,192,23247,1,0,0:0:0:0:
256,192,23461,1,0,0:0:0:0:
256,192,23569,1,8,0:0:0:0:
256,192,23783,1,0,0:0:0:0:
256,192,23997,1,0,0:0:0:0:
256,192,24104,1,8,0:0:0:0:
256,192,24319,1,0,0:0:0:0:
256,192,24426,1,8,0:0:0:0:
256,192,24640,1,8,0:0:0:0:
256,192,24854,1,0,0:0:0:0:
256,192,24961,1,8,0:0:0:0:
256,192,25176,1,0,0:0:0:0:
256,192,25283,1,8,0:0:0:0:
256,192,25497,1,8,0:0:0:0:
256,192,25711,1,8,0:0:0:0:
256,192,25819,1,0,0:0:0:0:
256,192,26033,1,0,0:0:0:0:
256,192,26140,1,8,0:0:0:0:
256,192,26354,1,8,0:0:0:0:
256,192,26569,1,8,0:0:0:0:
256,192,26676,1,8,0:0:0:0:
256,192,26890,1,8,0:0:0:0:
256,192,26997,1,0,0:0:0:0:
256,192,27211,1,8,0:0:0:0:
256,192,27426,1,0,0:0:0:0:
256,192,27533,1,8,0:0:0:0:
256,192,27747,1,8,0:0:0:0:
256,192,27854,1,0,0:0:0:0:
256,192,28069,1,8,0:0:0:0:
256,192,29140,12,8,29569,0:0:0:0:
256,192,29997,5,4,0:0:0:0:
256,192,30212,1,8,0:0:0:0:
256,192,30426,1,8,0:0:0:0:
256,192,30533,1,0,0:0:0:0:
256,192,30640,1,0,0:0:0:0:
256,192,30747,1,0,0:0:0:0:
256,192,30962,1,0,0:0:0:0:
256,192,31069,1,8,0:0:0:0:
256,192,31176,1,8,0:0:0:0:
256,192,31283,1,8,0:0:0:0:
256,192,31497,1,8,0:0:0:0:
256,192,31712,1,4,0:0:0:0:
256,192,31926,1,8,0:0:0:0:
256,192,32140,1,8,0:0:0:0:
256,192,32247,1,8,0:0:0:0:
256,192,32355,1,0,0:0:0:0:
256,192,32462,1,0,0:0:0:0:
256,192,32676,1,8,0:0:0:0:
256,192,32783,1,0,0:0:0:0:
256,192,32890,1,0,0:0:0:0:
256,192,32997,1,8,0:0:0:0:
256,192,33212,1,0,0:0:0:0:
256,192,33426,1,4,0:0:0:0:
256,192,33640,1,8,0:0:0:0:
256,192,33855,1,8,0:0:0:0:
256,192,33962,1,0,0:0:0:0:
256,192,34069,1,0,0:0:0:0:
256,192,34176,1,0,0:0:0:0:
256,192,34390,1,8,0:0:0:0:
256,192,34497,1,8,0:0:0:0:
256,192,34605,1,0,0:0:0:0:
256,192,34712,1,8,0:0:0:0:
256,192,34926,1,8,0:0:0:0:
256,192,35140,1,4,0:0:0:0:
256,192,35355,1,8,0:0:0:0:
256,192,35569,1,0,0:0:0:0:
256,192,35676,1,0,0:0:0:0:
256,192,35783,1,0,0:0:0:0:
256,192,35890,1,8,0:0:0:0:
256,192,36105,1,8,0:0:0:0:
256,192,36212,1,8,0:0:0:0:
256,192,36319,1,0,0:0:0:0:
256,192,36426,1,8,0:0:0:0:
256,192,36640,1,8,0:0:0:0:
256,192,36855,1,4,0:0:0:0:
256,192,37069,1,8,0:0:0:0:
256,192,37176,1,8,0:0:0:0:
256,192,37283,1,0,0:0:0:0:
256,192,37390,1,0,0:0:0:0:
256,192,37497,1,8,0:0:0:0:
256,192,37712,1,4,0:0:0:0:
256,192,37926,1,8,0:0:0:0:
256,192,38033,1,8,0:0:0:0:
256,192,38140,1,0,0:0:0:0:
256,192,38247,1,0,0:0:0:0:
256,192,38355,1,8,0:0:0:0:
256,192,38569,1,4,0:0:0:0:
256,192,38783,1,8,0:0:0:0:
256,192,38890,1,8,0:0:0:0:
256,192,38997,1,0,0:0:0:0:
256,192,39105,1,0,0:0:0:0:
256,192,39212,1,8,0:0:0:0:
248,192,39426,1,4,0:0:0:0:
240,192,39640,1,8,0:0:0:0:
240,192,39747,1,8,0:0:0:0:
240,192,39855,1,0,0:0:0:0:
240,192,39962,1,0,0:0:0:0:
240,192,40069,1,8,0:0:0:0:
264,192,40283,1,4,0:0:0:0:
264,192,40497,1,8,0:0:0:0:
264,192,40712,1,4,0:0:0:0:
264,192,40926,1,8,0:0:0:0:
264,192,41140,1,4,0:0:0:0:
264,192,41355,1,8,0:0:0:0:
264,192,41569,1,4,0:0:0:0:
264,192,41783,1,8,0:0:0:0:
264,192,41997,1,0,0:0:0:0:
256,192,42105,1,8,0:0:0:0:
264,192,42212,1,8,0:0:0:0:
264,192,42319,1,8,0:0:0:0:
264,192,42426,1,0,0:0:0:0:
264,192,42533,1,8,0:0:0:0:
264,192,42640,1,8,0:0:0:0:
264,192,42747,1,8,0:0:0:0:
264,192,42855,1,0,0:0:0:0:
264,192,42926,1,0,0:0:0:0:
264,192,42997,1,8,0:0:0:0:
264,192,43069,1,0,0:0:0:0:
264,192,43140,1,0,0:0:0:0:
264,192,43212,1,0,0:0:0:0:
264,192,43283,1,8,0:0:0:0:
264,192,43355,1,0,0:0:0:0:
264,192,43426,1,8,0:0:0:0:
264,192,43497,1,0,0:0:0:0:
264,192,43569,1,0,0:0:0:0:
264,192,43640,1,8,0:0:0:0:
256,192,44997,5,8,0:0:0:0:
256,184,45105,1,8,0:0:0:0:
256,184,45212,1,8,0:0:0:0:
256,184,45319,1,8,0:0:0:0:
256,176,45426,5,4,0:0:0:0:
256,176,45640,1,0,0:0:0:0:
256,176,45747,1,0,0:0:0:0:
256,176,45855,1,8,0:0:0:0:
256,184,46069,1,8,0:0:0:0:
256,176,46176,1,0,0:0:0:0:
256,176,46390,1,0,0:0:0:0:
256,176,46497,1,8,0:0:0:0:
256,176,46712,5,8,0:0:0:0:
256,176,46926,1,8,0:0:0:0:
256,176,47033,1,8,0:0:0:0:
256,176,47247,1,8,0:0:0:0:
256,176,47355,1,0,0:0:0:0:
256,176,47569,1,8,0:0:0:0:
256,176,47783,1,0,0:0:0:0:
256,176,47890,1,8,0:0:0:0:
256,176,48105,1,8,0:0:0:0:
256,176,48212,1,0,0:0:0:0:
256,176,48319,1,0,0:0:0:0:
256,176,48426,1,0,0:0:0:0:
256,176,48640,1,8,0:0:0:0:
256,192,48855,1,0,0:0:0:0:
264,192,49069,1,0,0:0:0:0:
264,192,49176,1,0,0:0:0:0:
264,184,49283,1,8,0:0:0:0:
264,184,49497,1,0,0:0:0:0:
264,184,49605,1,8,0:0:0:0:
264,192,49819,1,0,0:0:0:0:
264,192,49926,1,8,0:0:0:0:
264,192,50140,1,8,0:0:0:0:
264,184,50355,1,0,0:0:0:0:
264,184,50462,1,8,0:0:0:0:
264,192,50676,1,8,0:0:0:0:
264,192,50783,1,8,0:0:0:0:
264,192,50997,1,0,0:0:0:0:
264,184,51212,1,0,0:0:0:0:
264,184,51319,1,8,0:0:0:0:
264,184,51533,1,0,0:0:0:0:
264,192,51640,1,0,0:0:0:0:
264,192,51747,1,0,0:0:0:0:
264,192,51855,1,8,0:0:0:0:
264,184,52069,1,0,0:0:0:0:
264,192,52283,1,8,0:0:0:0:
256,192,52390,1,0,0:0:0:0:
264,192,52497,1,0,0:0:0:0:
264,192,52605,1,0,0:0:0:0:
264,192,52712,1,8,0:0:0:0:
264,192,52926,1,0,0:0:0:0:
264,192,53033,1,8,0:0:0:0:
264,192,53247,1,8,0:0:0:0:
264,192,53355,1,8,0:0:0:0:
264,192,53569,1,0,0:0:0:0:
264,192,53783,1,0,0:0:0:0:
264,192,53890,1,0,0:0:0:0:
256,192,54105,1,8,0:0:0:0:
264,192,54212,1,0,0:0:0:0:
264,192,54426,1,8,0:0:0:0:
264,192,54640,1,0,0:0:0:0:
264,192,54747,1,8,0:0:0:0:
264,192,54962,1,8,0:0:0:0:
264,192,55069,1,0,0:0:0:0:
264,192,55176,1,0,0:0:0:0:
264,192,55283,1,8,0:0:0:0:
264,192,55497,1,0,0:0:0:0:
264,192,55712,1,8,0:0:0:0:
264,192,55819,1,8,0:0:0:0:
256,184,55926,1,0,0:0:0:0:
256,176,56033,1,0,0:0:0:0:
256,184,56140,1,8,0:0:0:0:
256,184,56355,1,0,0:0:0:0:
256,184,56462,1,8,0:0:0:0:
256,184,56676,1,0,0:0:0:0:
256,184,56783,1,0,0:0:0:0:
256,184,56890,1,0,0:0:0:0:
256,176,56997,1,8,0:0:0:0:
256,184,57212,1,0,0:0:0:0:
256,184,57319,1,0,0:0:0:0:
256,184,57533,1,8,0:0:0:0:
256,192,57640,1,8,0:0:0:0:
256,184,57747,1,0,0:0:0:0:
256,192,57855,1,8,0:0:0:0:
256,192,58069,1,0,0:0:0:0:
256,192,58176,1,8,0:0:0:0:
256,192,58283,1,0,0:0:0:0:
256,184,58355,1,0,0:0:0:0:
256,184,58426,1,8,0:0:0:0:
256,184,58497,1,0,0:0:0:0:
256,184,58569,1,0,0:0:0:0:
256,184,58640,1,0,0:0:0:0:
256,184,58712,1,8,0:0:0:0:
0,192,58819,1,0,0:0:0:0:
256,184,58926,1,8,0:0:0:0:
256,176,59140,5,4,0:0:0:0:
256,176,59354,1,0,0:0:0:0:
256,176,59461,1,0,0:0:0:0:
256,176,59569,1,0,0:0:0:0:
256,184,59783,1,8,0:0:0:0:
256,176,59890,1,8,0:0:0:0:
256,176,60105,1,0,0:0:0:0:
256,176,60211,1,8,0:0:0:0:
256,176,60426,1,0,0:0:0:0:
256,176,60640,1,0,0:0:0:0:
256,176,60747,1,8,0:0:0:0:
256,176,60962,1,8,0:0:0:0:
256,176,61069,1,8,0:0:0:0:
256,176,61283,1,8,0:0:0:0:
256,176,61497,1,0,0:0:0:0:
256,176,61605,1,8,0:0:0:0:
256,176,61819,1,8,0:0:0:0:
256,176,61926,1,0,0:0:0:0:
256,176,62033,1,0,0:0:0:0:
256,176,62140,1,0,0:0:0:0:
256,176,62354,1,8,0:0:0:0:
256,192,62569,1,0,0:0:0:0:
264,192,62783,1,0,0:0:0:0:
264,192,62890,1,0,0:0:0:0:
264,184,62997,1,8,0:0:0:0:
264,184,63211,1,0,0:0:0:0:
264,184,63319,1,8,0:0:0:0:
264,192,63533,1,0,0:0:0:0:
264,192,63640,1,0,0:0:0:0:
264,192,63854,1,8,0:0:0:0:
264,184,64069,1,0,0:0:0:0:
264,184,64176,1,8,0:0:0:0:
264,192,64390,1,8,0:0:0:0:
264,192,64497,1,8,0:0:0:0:
264,192,64711,1,0,0:0:0:0:
264,184,64926,1,0,0:0:0:0:
264,184,65033,1,8,0:0:0:0:
264,184,65247,1,0,0:0:0:0:
264,192,65354,1,0,0:0:0:0:
264,192,65461,1,0,0:0:0:0:
264,192,65569,1,8,0:0:0:0:
256,192,65783,1,0,0:0:0:0:
264,192,65997,1,8,0:0:0:0:
256,192,66105,1,0,0:0:0:0:
264,192,66211,1,8,0:0:0:0:
264,192,66319,1,8,0:0:0:0:
264,192,66426,1,0,0:0:0:0:
264,192,66640,1,0,0:0:0:0:
264,192,66747,1,8,0:0:0:0:
264,192,66962,1,8,0:0:0:0:
264,192,67069,1,8,0:0:0:0:
264,192,67283,1,0,0:0:0:0:
264,192,67497,1,0,0:0:0:0:
264,192,67605,1,8,0:0:0:0:
264,192,67819,1,0,0:0:0:0:
264,192,67926,1,0,0:0:0:0:
264,192,68140,1,8,0:0:0:0:
264,192,68354,1,0,0:0:0:0:
264,192,68462,1,8,0:0:0:0:
264,192,68676,1,8,0:0:0:0:
264,192,68783,1,0,0:0:0:0:
264,192,68890,1,0,0:0:0:0:
264,192,68997,1,8,0:0:0:0:
264,192,69211,1,8,0:0:0:0:
264,192,69426,1,0,0:0:0:0:
264,192,69533,1,0,0:0:0:0:
256,184,69640,1,8,0:0:0:0:
256,176,69747,1,0,0:0:0:0:
256,184,69854,1,8,0:0:0:0:
256,184,70069,1,0,0:0:0:0:
256,184,70176,1,8,0:0:0:0:
256,184,70390,1,8,0:0:0:0:
256,184,70497,1,0,0:0:0:0:
256,184,70604,1,8,0:0:0:0:
256,176,70711,1,8,0:0:0:0:
256,184,70926,1,0,0:0:0:0:
256,184,71033,1,0,0:0:0:0:
256,184,71247,1,8,0:0:0:0:
256,192,71355,1,8,0:0:0:0:
256,184,71462,1,0,0:0:0:0:
256,184,71569,1,8,0:0:0:0:
256,192,71783,1,8,0:0:0:0:
256,192,71890,1,0,0:0:0:0:
256,192,71997,1,8,0:0:0:0:
256,184,72069,1,8,0:0:0:0:
256,184,72140,1,0,0:0:0:0:
256,184,72211,1,8,0:0:0:0:
256,184,72283,1,8,0:0:0:0:
256,184,72354,1,8,0:0:0:0:
256,184,72426,1,0,0:0:0:0:
0,192,72533,1,8,0:0:0:0:
0,192,72640,1,8,0:0:0:0:
0,192,72747,1,8,0:0:0:0:
248,184,72855,5,4,0:0:0:0:
256,184,73283,1,8,0:0:0:0:
248,184,73712,1,0,0:0:0:0:
16,214,73926,1,0,0:0:0:0:
256,184,74140,1,8,0:0:0:0:
248,184,74569,1,0,0:0:0:0:
240,184,74997,1,8,0:0:0:0:
248,184,75426,1,0,0:0:0:0:
240,184,75640,1,0,0:0:0:0:
240,184,75855,1,8,0:0:0:0:
0,192,76069,1,8,0:0:0:0:
240,176,76283,1,0,0:0:0:0:
240,184,76712,1,8,0:0:0:0:
240,176,77140,1,0,0:0:0:0:
0,192,77355,1,0,0:0:0:0:
240,184,77569,1,8,0:0:0:0:
240,176,77997,1,0,0:0:0:0:
240,176,78426,1,8,0:0:0:0:
240,176,78855,1,0,0:0:0:0:
240,176,79069,1,0,0:0:0:0:
240,176,79283,1,8,0:0:0:0:
0,192,79497,1,8,0:0:0:0:
240,176,79712,1,0,0:0:0:0:
240,176,80140,1,8,0:0:0:0:
240,176,80569,1,0,0:0:0:0:
240,176,80783,1,0,0:0:0:0:
240,176,80997,1,8,0:0:0:0:
240,176,81426,1,0,0:0:0:0:
240,176,81855,1,8,0:0:0:0:
240,176,82069,1,0,0:0:0:0:
256,192,82283,1,0,0:0:0:0:
248,192,82497,1,0,0:0:0:0:
256,192,82712,1,8,0:0:0:0:
0,192,82926,1,8,0:0:0:0:
256,192,83140,1,0,0:0:0:0:
256,192,83247,1,0,0:0:0:0:
256,192,83355,1,8,0:0:0:0:
256,192,83569,1,0,0:0:0:0:
256,192,83676,1,8,0:0:0:0:
256,192,83783,1,0,0:0:0:0:
256,192,83997,1,8,0:0:0:0:
256,192,84105,1,0,0:0:0:0:
256,192,84212,1,0,0:0:0:0:
256,192,84426,1,8,0:0:0:0:
256,192,84533,1,0,0:0:0:0:
256,192,84640,1,8,0:0:0:0:
256,192,84855,1,8,0:0:0:0:
256,192,84962,1,0,0:0:0:0:
256,192,85069,1,0,0:0:0:0:
256,192,85176,1,0,0:0:0:0:
256,192,85283,1,8,0:0:0:0:
256,192,85390,1,0,0:0:0:0:
256,192,85497,1,0,0:0:0:0:
256,192,85605,1,0,0:0:0:0:
256,192,85712,1,8,0:0:0:0:
256,192,85783,1,0,0:0:0:0:
256,192,85855,1,0,0:0:0:0:
256,192,85926,1,8,0:0:0:0:
256,192,85997,1,0,0:0:0:0:
256,192,86069,1,0,0:0:0:0:
256,192,86140,1,8,0:0:0:0:
256,192,86247,1,0,0:0:0:0:
256,192,86355,1,0,0:0:0:0:
264,192,86462,1,8,0:0:0:0:
256,192,86569,5,4,0:0:0:0:
256,192,86783,1,0,0:0:0:0:
256,192,86997,1,8,0:0:0:0:
256,192,87212,1,8,0:0:0:0:
256,192,87319,1,8,0:0:0:0:
256,184,87426,1,0,0:0:0:0:
256,184,87640,1,0,0:0:0:0:
256,184,87855,1,8,0:0:0:0:
256,192,88069,1,8,0:0:0:0:
264,176,88176,1,0,0:0:0:0:
264,176,88283,1,0,0:0:0:0:
264,176,88497,1,8,0:0:0:0:
264,176,88712,1,8,0:0:0:0:
264,176,88926,1,0,0:0:0:0:
256,192,89033,1,0,0:0:0:0:
264,176,89140,1,8,0:0:0:0:
264,176,89355,1,8,0:0:0:0:
264,176,89569,1,0,0:0:0:0:
264,176,89997,1,0,0:0:0:0:
264,176,90212,1,0,0:0:0:0:
264,176,90319,1,0,0:0:0:0:
264,176,90426,1,8,0:0:0:0:
264,176,90640,1,0,0:0:0:0:
264,176,90855,1,8,0:0:0:0:
264,176,91069,1,0,0:0:0:0:
264,176,91176,1,8,0:0:0:0:
264,176,91283,1,8,0:0:0:0:
264,184,91497,1,8,0:0:0:0:
264,176,91712,1,0,0:0:0:0:
264,176,91926,1,8,0:0:0:0:
256,192,92033,1,8,0:0:0:0:
264,176,92140,1,0,0:0:0:0:
264,176,92355,1,0,0:0:0:0:
264,176,92569,1,8,0:0:0:0:
264,176,92783,1,0,0:0:0:0:
264,176,92890,1,0,0:0:0:0:
264,176,92997,1,8,0:0:0:0:
256,192,93426,1,0,0:0:0:0:
256,192,93640,1,0,0:0:0:0:
256,192,93747,1,8,0:0:0:0:
256,192,93854,1,8,0:0:0:0:
256,192,94069,1,0,0:0:0:0:
256,184,94283,1,8,0:0:0:0:
256,184,94497,1,0,0:0:0:0:
264,176,94605,1,0,0:0:0:0:
256,184,94712,1,8,0:0:0:0:
264,184,94926,1,0,0:0:0:0:
264,176,95140,1,8,0:0:0:0:
264,176,95354,1,0,0:0:0:0:
256,192,95462,1,0,0:0:0:0:
264,176,95569,1,8,0:0:0:0:
264,176,95783,1,0,0:0:0:0:
264,176,95997,5,8,0:0:0:0:
264,176,96212,1,8,0:0:0:0:
256,192,96319,1,8,0:0:0:0:
264,176,96426,1,0,0:0:0:0:
264,176,96854,1,0,0:0:0:0:
264,176,97069,1,0,0:0:0:0:
264,176,97176,1,8,0:0:0:0:
264,176,97283,1,8,0:0:0:0:
264,176,97497,1,0,0:0:0:0:
264,176,97712,1,8,0:0:0:0:
264,176,97926,1,0,0:0:0:0:
264,176,98033,1,0,0:0:0:0:
264,176,98140,1,8,0:0:0:0:
264,184,98355,1,0,0:0:0:0:
264,176,98569,1,0,0:0:0:0:
264,176,98783,1,8,0:0:0:0:
264,176,98890,1,8,0:0:0:0:
264,176,98997,1,8,0:0:0:0:
264,176,99212,1,0,0:0:0:0:
264,176,99426,1,0,0:0:0:0:
256,192,99533,1,0,0:0:0:0:
256,192,99640,1,8,0:0:0:0:
264,176,99747,1,8,0:0:0:0:
264,176,99854,1,8,0:0:0:0:
256,192,100069,1,8,0:0:0:0:
256,192,100283,5,4,0:0:0:0:
256,192,100497,1,0,0:0:0:0:
256,192,100605,1,0,0:0:0:0:
256,192,100712,1,8,0:0:0:0:
256,192,100926,1,0,0:0:0:0:
256,192,101033,1,8,0:0:0:0:
256,192,101247,1,8,0:0:0:0:
256,192,101355,1,0,0:0:0:0:
256,192,101569,1,8,0:0:0:0:
256,184,101783,1,8,0:0:0:0:
256,192,101890,1,8,0:0:0:0:
256,184,101997,1,8,0:0:0:0:
256,176,102212,1,0,0:0:0:0:
256,192,102319,1,0,0:0:0:0:
256,176,102426,1,8,0:0:0:0:
248,176,102640,1,0,0:0:0:0:
248,176,102747,1,8,0:0:0:0:
256,176,102962,1,8,0:0:0:0:
256,176,103069,1,0,0:0:0:0:
256,176,103283,1,0,0:0:0:0:
256,176,103497,1,0,0:0:0:0:
288,176,103712,1,0,0:0:0:0:
280,176,103926,1,8,0:0:0:0:
280,176,104033,1,8,0:0:0:0:
288,176,104140,1,0,0:0:0:0:
288,176,104355,1,0,0:0:0:0:
288,176,104462,1,8,0:0:0:0:
256,192,104676,1,8,0:0:0:0:
288,176,104783,1,0,0:0:0:0:
288,176,104997,1,8,0:0:0:0:
288,176,105212,1,8,0:0:0:0:
288,176,105319,1,8,0:0:0:0:
288,176,105426,1,0,0:0:0:0:
288,168,105640,1,0,0:0:0:0:
288,168,105855,1,8,0:0:0:0:
288,176,105962,1,8,0:0:0:0:
288,152,106069,1,8,0:0:0:0:
288,152,106176,1,0,0:0:0:0:
288,152,106390,1,0,0:0:0:0:
288,152,106497,1,8,0:0:0:0:
256,184,106712,1,8,0:0:0:0:
256,184,106926,1,8,0:0:0:0:
256,192,107140,1,0,0:0:0:0:
256,192,107247,1,0,0:0:0:0:
256,192,107354,1,8,0:0:0:0:
256,192,107462,1,0,0:0:0:0:
256,192,107569,1,8,0:0:0:0:
256,192,107783,1,0,0:0:0:0:
256,192,107890,1,8,0:0:0:0:
256,192,108105,1,8,0:0:0:0:
256,192,108212,1,0,0:0:0:0:
256,192,108319,1,0,0:0:0:0:
256,192,108426,1,8,0:0:0:0:
256,184,108640,1,8,0:0:0:0:
256,184,108747,1,8,0:0:0:0:
256,184,108854,1,0,0:0:0:0:
256,176,109069,1,0,0:0:0:0:
256,192,109176,1,0,0:0:0:0:
256,176,109283,1,8,0:0:0:0:
248,176,109497,1,8,0:0:0:0:
256,168,109605,1,0,0:0:0:0:
248,176,109819,1,0,0:0:0:0:
256,176,109926,1,8,0:0:0:0:
256,192,110033,1,8,0:0:0:0:
256,176,110140,1,8,0:0:0:0:
256,176,110354,1,0,0:0:0:0:
32,192,110462,1,0,0:0:0:0:
256,192,110569,1,8,0:0:0:0:
256,192,110783,1,0,0:0:0:0:
256,192,110890,1,0,0:0:0:0:
256,192,110997,1,8,0:0:0:0:
256,192,111212,1,0,0:0:0:0:
256,192,111319,1,0,0:0:0:0:
256,192,111426,1,8,0:0:0:0:
256,192,111533,1,8,0:0:0:0:
256,184,111640,1,0,0:0:0:0:
256,192,111747,1,8,0:0:0:0:
256,192,111855,1,8,0:0:0:0:
256,192,112069,1,0,0:0:0:0:
256,192,112176,1,0,0:0:0:0:
256,192,112283,1,8,0:0:0:0:
256,192,112390,1,0,0:0:0:0:
256,192,112497,1,0,0:0:0:0:
256,192,112605,1,0,0:0:0:0:
256,192,112712,1,8,0:0:0:0:
256,192,112819,1,0,0:0:0:0:
256,192,112926,1,0,0:0:0:0:
256,192,113034,1,0,0:0:0:0:
256,192,113141,1,8,0:0:0:0:
256,192,113212,1,0,0:0:0:0:
256,192,113284,1,0,0:0:0:0:
256,192,113355,1,8,0:0:0:0:
256,192,113426,1,0,0:0:0:0:
256,192,113498,1,0,0:0:0:0:
256,192,113569,1,8,0:0:0:0:
256,192,113676,1,0,0:0:0:0:
248,192,113783,1,0,0:0:0:0:
256,192,113890,1,0,0:0:0:0:
256,192,113997,5,12,0:0:0:0:
256,192,114212,1,0,0:0:0:0:
256,192,114426,1,8,0:0:0:0:
256,192,114641,1,8,0:0:0:0:
256,192,114748,1,8,0:0:0:0:
256,184,114855,1,0,0:0:0:0:
256,184,115069,1,0,0:0:0:0:
256,184,115284,1,8,0:0:0:0:
256,192,115498,1,8,0:0:0:0:
264,176,115605,1,0,0:0:0:0:
264,176,115712,1,0,0:0:0:0:
264,176,115926,1,8,0:0:0:0:
264,176,116141,1,8,0:0:0:0:
264,176,116355,1,0,0:0:0:0:
256,192,116462,1,0,0:0:0:0:
264,176,116569,1,8,0:0:0:0:
264,176,116784,1,8,0:0:0:0:
264,176,116998,1,0,0:0:0:0:
264,176,117426,1,0,0:0:0:0:
264,176,117641,1,0,0:0:0:0:
264,176,117748,1,0,0:0:0:0:
264,176,117855,1,8,0:0:0:0:
264,176,118069,1,0,0:0:0:0:
264,176,118284,1,8,0:0:0:0:
264,176,118498,1,0,0:0:0:0:
264,176,118605,1,8,0:0:0:0:
264,176,118712,1,8,0:0:0:0:
264,184,118926,1,8,0:0:0:0:
264,176,119141,1,0,0:0:0:0:
264,176,119355,1,8,0:0:0:0:
256,192,119462,1,8,0:0:0:0:
264,176,119569,1,0,0:0:0:0:
264,176,119784,1,0,0:0:0:0:
264,176,119998,1,8,0:0:0:0:
264,176,120212,1,0,0:0:0:0:
264,176,120319,1,0,0:0:0:0:
264,176,120426,1,8,0:0:0:0:
256,192,120855,1,0,0:0:0:0:
256,192,121069,1,0,0:0:0:0:
256,192,121176,1,8,0:0:0:0:
256,192,121283,1,8,0:0:0:0:
256,192,121498,1,0,0:0:0:0:
256,184,121712,1,8,0:0:0:0:
256,184,121926,1,0,0:0:0:0:
264,176,122034,1,0,0:0:0:0:
256,184,122141,1,8,0:0:0:0:
264,184,122355,1,0,0:0:0:0:
264,176,122569,1,8,0:0:0:0:
264,176,122783,1,0,0:0:0:0:
256,192,122891,1,0,0:0:0:0:
264,176,122998,1,8,0:0:0:0:
264,176,123212,5,0,0:0:0:0:
264,176,123426,1,8,0:0:0:0:
0,192,123533,1,0,0:0:0:0:
264,176,123641,1,8,0:0:0:0:
256,192,123748,1,8,0:0:0:0:
264,176,123855,1,0,0:0:0:0:
256,192,124069,5,0,0:0:0:0:
256,192,124176,1,8,0:0:0:0:
256,192,124283,1,0,0:0:0:0:
256,192,124497,5,8,0:0:0:0:
248,192,124605,1,8,0:0:0:0:
256,192,124711,1,0,0:0:0:0:
256,200,124926,1,0,0:0:0:0:
256,192,125033,1,0,0:0:0:0:
256,192,125140,1,8,0:0:0:0:
256,192,125247,1,0,0:0:0:0:
256,192,125355,1,8,0:0:0:0:
256,192,125462,1,8,0:0:0:0:
256,184,125569,1,0,0:0:0:0:
256,192,125783,1,0,0:0:0:0:
256,192,125890,1,0,0:0:0:0:
256,192,125997,1,8,0:0:0:0:
256,192,126104,1,0,0:0:0:0:
256,192,126211,1,0,0:0:0:0:
256,192,126319,1,0,0:0:0:0:
256,192,126426,1,8,0:0:0:0:
256,192,126533,1,0,0:0:0:0:
256,192,126640,1,0,0:0:0:0:
256,192,126748,1,0,0:0:0:0:
256,192,126855,1,8,0:0:0:0:
256,192,126926,1,0,0:0:0:0:
256,192,126998,1,0,0:0:0:0:
256,192,127069,1,8,0:0:0:0:
256,192,127140,1,0,0:0:0:0:
256,192,127212,1,0,0:0:0:0:
256,192,127283,1,8,0:0:0:0:
256,192,127390,1,0,0:0:0:0:
248,192,127497,1,0,0:0:0:0:
256,192,127605,1,8,0:0:0:0:
264,192,127711,5,4,0:0:0:0:
256,192,127926,1,8,0:0:0:0:
0,192,128033,1,8,0:0:0:0:
256,192,128140,1,0,0:0:0:0:
256,192,128355,1,8,0:0:0:0:
264,192,128462,1,0,0:0:0:0:
0,192,128676,1,0,0:0:0:0:
256,192,128783,1,8,0:0:0:0:
256,192,128997,1,0,0:0:0:0:
256,192,129212,1,8,0:0:0:0:
256,192,129319,1,8,0:0:0:0:
264,192,129426,1,0,0:0:0:0:
256,192,129640,1,8,0:0:0:0:
0,192,129747,1,0,0:0:0:0:
256,192,129855,1,0,0:0:0:0:
256,192,130069,1,0,0:0:0:0:
256,192,130176,1,8,0:0:0:0:
256,192,130390,1,8,0:0:0:0:
0,192,130497,1,0,0:0:0:0:
256,192,130712,1,0,0:0:0:0:
0,192,130926,1,8,0:0:0:0:
0,192,131033,1,0,0:0:0:0:
256,192,131140,1,0,0:0:0:0:
256,192,131355,1,8,0:0:0:0:
0,192,131462,1,8,0:0:0:0:
256,192,131569,1,0,0:0:0:0:
256,192,131783,1,8,0:0:0:0:
256,192,131890,1,0,0:0:0:0:
256,192,132105,1,0,0:0:0:0:
256,192,132212,1,8,0:0:0:0:
256,192,132426,1,0,0:0:0:0:
256,192,132640,1,8,0:0:0:0:
256,192,132747,1,8,0:0:0:0:
256,192,132855,1,0,0:0:0:0:
264,200,133069,1,8,0:0:0:0:
248,192,133176,1,0,0:0:0:0:
256,192,133283,1,0,0:0:0:0:
256,192,133497,1,8,0:0:0:0:
256,192,133605,1,8,0:0:0:0:
248,192,133819,1,0,0:0:0:0:
248,192,133926,1,8,0:0:0:0:
248,192,134140,1,0,0:0:0:0:
248,192,134355,1,8,0:0:0:0:
248,192,134462,1,8,0:0:0:0:
248,192,134569,1,0,0:0:0:0:
0,192,134676,1,0,0:0:0:0:
248,192,134783,1,8,0:0:0:0:
248,192,134890,1,0,0:0:0:0:
248,192,134997,1,8,0:0:0:0:
248,192,135212,1,8,0:0:0:0:
248,192,135319,1,0,0:0:0:0:
256,192,135533,1,0,0:0:0:0:
248,192,135640,1,8,0:0:0:0:
256,192,135747,1,0,0:0:0:0:
248,192,135855,1,0,0:0:0:0:
248,192,136069,1,8,0:0:0:0:
248,192,136176,1,8,0:0:0:0:
248,192,136283,1,0,0:0:0:0:
0,192,136390,1,0,0:0:0:0:
248,176,136497,1,8,0:0:0:0:
256,192,136605,1,0,0:0:0:0:
248,176,136712,1,0,0:0:0:0:
248,176,136926,1,8,0:0:0:0:
248,176,137033,1,0,0:0:0:0:
248,176,137247,1,8,0:0:0:0:
256,160,137355,1,8,0:0:0:0:
256,160,137462,1,0,0:0:0:0:
256,160,137569,1,8,0:0:0:0:
248,176,137783,1,8,0:0:0:0:
248,176,137890,1,8,0:0:0:0:
248,176,137997,1,0,0:0:0:0:
0,192,138105,1,0,0:0:0:0:
248,176,138212,1,8,0:0:0:0:
256,192,138319,1,0,0:0:0:0:
256,192,138426,1,8,0:0:0:0:
248,176,138640,1,8,0:0:0:0:
248,176,138747,1,0,0:0:0:0:
248,176,138855,1,0,0:0:0:0:
248,176,138962,1,8,0:0:0:0:
248,176,139069,1,8,0:0:0:0:
256,192,139176,1,0,0:0:0:0:
248,176,139283,1,8,0:0:0:0:
248,176,139497,1,8,0:0:0:0:
256,192,139605,1,0,0:0:0:0:
248,176,139712,1,8,0:0:0:0:
248,176,139819,1,0,0:0:0:0:
248,176,139926,1,8,0:0:0:0:
248,176,140033,1,8,0:0:0:0:
248,176,140140,1,0,0:0:0:0:
248,176,140247,1,0,0:0:0:0:
248,176,140355,1,8,0:0:0:0:
248,176,140462,1,8,0:0:0:0:
248,176,140569,1,0,0:0:0:0:
248,176,140640,1,8,0:0:0:0:
248,176,140712,1,8,0:0:0:0:
248,176,140783,1,0,0:0:0:0:
248,176,140855,1,8,0:0:0:0:
248,176,140926,1,8,0:0:0:0:
248,176,140997,1,0,0:0:0:0:
248,176,141105,1,8,0:0:0:0:
248,176,141212,1,8,0:0:0:0:
248,176,141319,1,8,0:0:0:0:
256,192,141426,5,4,0:0:0:0:
256,184,144855,1,8,0:0:0:0:
256,192,148283,1,0,0:0:0:0:
256,192,149783,1,0,0:0:0:0:
256,192,149997,1,0,0:0:0:0:
256,192,151497,1,0,0:0:0:0:
256,192,151712,1,0,0:0:0:0:
256,192,151926,1,8,0:0:0:0:
256,192,152033,1,8,0:0:0:0:
256,192,152140,1,8,0:0:0:0:
256,192,152355,1,0,0:0:0:0:
256,192,152569,1,0,0:0:0:0:
256,192,152783,1,8,0:0:0:0:
256,192,152890,1,8,0:0:0:0:
256,192,152997,1,8,0:0:0:0:
256,192,153212,1,0,0:0:0:0:
256,192,153426,1,4,0:0:0:0:
256,192,153640,1,8,0:0:0:0:
256,192,153855,1,4,0:0:0:0:
256,192,154069,1,8,0:0:0:0:
256,192,154176,1,8,0:0:0:0:
256,192,154283,1,0,0:0:0:0:
256,192,154497,1,0,0:0:0:0:
256,192,154712,1,8,0:0:0:0:
256,192,154819,1,8,0:0:0:0:
256,192,154926,1,8,0:0:0:0:
256,192,155033,1,8,0:0:0:0:
256,192,155140,5,4,0:0:0:0:
248,208,155355,1,0,0:0:0:0:
248,208,155462,1,0,0:0:0:0:
248,208,155569,1,8,0:0:0:0:
240,208,155783,1,8,0:0:0:0:
248,216,155890,1,8,0:0:0:0:
248,216,155997,1,0,0:0:0:0:
248,208,156105,1,8,0:0:0:0:
248,208,156212,1,0,0:0:0:0:
248,208,156319,1,0,0:0:0:0:
248,208,156426,1,8,0:0:0:0:
248,208,156640,1,8,0:0:0:0:
256,208,156747,1,8,0:0:0:0:
256,208,156854,1,0,0:0:0:0:
256,200,157069,1,0,0:0:0:0:
256,200,157283,1,8,0:0:0:0:
256,200,157390,1,0,0:0:0:0:
256,200,157497,1,8,0:0:0:0:
256,200,157605,1,8,0:0:0:0:
256,208,157712,1,0,0:0:0:0:
256,208,157819,1,8,0:0:0:0:
256,200,157926,1,0,0:0:0:0:
256,200,158033,1,0,0:0:0:0:
256,200,158140,1,8,0:0:0:0:
256,192,158355,1,8,0:0:0:0:
256,192,158569,5,0,0:0:0:0:
248,208,158784,1,8,0:0:0:0:
248,208,158891,1,0,0:0:0:0:
248,208,158997,1,8,0:0:0:0:
240,208,159212,1,0,0:0:0:0:
248,216,159319,1,8,0:0:0:0:
248,216,159426,1,8,0:0:0:0:
248,208,159534,1,0,0:0:0:0:
248,208,159641,1,8,0:0:0:0:
248,208,159748,1,0,0:0:0:0:
248,208,159855,1,8,0:0:0:0:
248,208,160069,1,8,0:0:0:0:
256,208,160176,1,8,0:0:0:0:
256,208,160283,1,8,0:0:0:0:
256,200,160498,1,0,0:0:0:0:
256,200,160712,1,8,0:0:0:0:
256,200,160819,1,0,0:0:0:0:
256,200,160926,1,0,0:0:0:0:
256,200,161034,1,8,0:0:0:0:
256,208,161140,1,8,0:0:0:0:
256,208,161248,1,8,0:0:0:0:
256,200,161355,1,0,0:0:0:0:
256,200,161462,1,0,0:0:0:0:
256,200,161569,1,8,0:0:0:0:
256,192,161783,1,8,0:0:0:0:
256,192,161997,5,0,0:0:0:0:
248,208,162212,1,0,0:0:0:0:
248,208,162319,1,0,0:0:0:0:
248,208,162426,1,8,0:0:0:0:
240,208,162640,1,8,0:0:0:0:
248,216,162747,1,8,0:0:0:0:
248,216,162854,1,0,0:0:0:0:
248,208,162962,1,0,0:0:0:0:
248,208,163069,1,8,0:0:0:0:
248,208,163176,1,8,0:0:0:0:
248,208,163283,1,8,0:0:0:0:
248,208,163497,1,8,0:0:0:0:
256,208,163604,1,8,0:0:0:0:
256,208,163711,1,0,0:0:0:0:
256,200,163926,1,0,0:0:0:0:
256,200,164140,1,8,0:0:0:0:
256,200,164247,1,0,0:0:0:0:
256,200,164354,1,0,0:0:0:0:
256,200,164462,1,0,0:0:0:0:
256,208,164569,1,8,0:0:0:0:
256,208,164676,1,8,0:0:0:0:
256,200,164783,1,0,0:0:0:0:
256,200,164890,1,0,0:0:0:0:
256,200,164997,1,8,0:0:0:0:
256,200,165212,1,8,0:0:0:0:
0,192,165319,1,8,0:0:0:0:
264,200,165426,1,0,0:0:0:0:
0,192,165533,1,8,0:0:0:0:
256,192,165640,1,0,0:0:0:0:
256,200,165747,1,0,0:0:0:0:
256,200,165855,1,8,0:0:0:0:
264,200,166069,1,0,0:0:0:0:
264,200,166176,1,8,0:0:0:0:
264,200,166283,1,8,0:0:0:0:
256,192,166390,1,0,0:0:0:0:
256,192,166497,1,8,0:0:0:0:
256,192,166605,1,0,0:0:0:0:
256,192,166712,1,8,0:0:0:0:
256,184,166926,1,0,0:0:0:0:
256,192,167033,1,0,0:0:0:0:
256,184,167140,1,8,0:0:0:0:
256,184,167247,1,8,0:0:0:0:
256,184,167355,1,0,0:0:0:0:
256,184,167462,1,8,0:0:0:0:
256,184,167569,1,0,0:0:0:0:
256,184,167676,1,0,0:0:0:0:
256,184,167783,1,8,0:0:0:0:
256,184,167890,1,0,0:0:0:0:
256,184,167997,1,8,0:0:0:0:
256,184,168069,1,8,0:0:0:0:
256,184,168140,1,0,0:0:0:0:
256,184,168212,1,8,0:0:0:0:
256,184,168283,1,0,0:0:0:0:
256,184,168355,1,0,0:0:0:0:
256,184,168426,1,8,0:0:0:0:
256,184,168533,1,8,0:0:0:0:
256,184,168640,1,0,0:0:0:0:
256,184,168747,1,8,0:0:0:0:
256,192,168855,5,4,0:0:0:0:
248,208,169070,1,0,0:0:0:0:
248,208,169177,1,0,0:0:0:0:
248,208,169284,1,8,0:0:0:0:
240,208,169498,1,8,0:0:0:0:
248,216,169605,1,8,0:0:0:0:
248,216,169712,1,0,0:0:0:0:
248,208,169819,1,0,0:0:0:0:
248,208,169927,1,8,0:0:0:0:
248,208,170034,1,0,0:0:0:0:
248,208,170141,1,8,0:0:0:0:
248,208,170355,1,0,0:0:0:0:
256,208,170462,1,8,0:0:0:0:
256,208,170569,1,0,0:0:0:0:
256,200,170784,1,0,0:0:0:0:
256,200,170998,1,8,0:0:0:0:
256,200,171105,1,0,0:0:0:0:
256,200,171212,1,8,0:0:0:0:
256,200,171320,1,8,0:0:0:0:
256,208,171427,1,0,0:0:0:0:
256,208,171533,1,0,0:0:0:0:
256,200,171641,1,8,0:0:0:0:
256,200,171748,1,8,0:0:0:0:
256,200,171855,1,0,0:0:0:0:
256,200,172069,1,8,0:0:0:0:
0,192,172176,1,0,0:0:0:0:
256,192,172284,1,0,0:0:0:0:
248,208,172497,1,8,0:0:0:0:
248,208,172606,1,0,0:0:0:0:
248,208,172712,1,8,0:0:0:0:
240,208,172927,1,0,0:0:0:0:
248,216,173034,1,8,0:0:0:0:
248,216,173141,1,8,0:0:0:0:
248,208,173247,1,0,0:0:0:0:
248,208,173356,1,8,0:0:0:0:
248,208,173463,1,0,0:0:0:0:
248,208,173570,1,8,0:0:0:0:
248,208,173784,1,8,0:0:0:0:
256,208,173891,1,8,0:0:0:0:
256,208,173998,1,8,0:0:0:0:
256,200,174213,1,0,0:0:0:0:
256,200,174427,1,8,0:0:0:0:
256,200,174534,1,0,0:0:0:0:
256,200,174641,1,0,0:0:0:0:
256,200,174747,1,8,0:0:0:0:
256,208,174855,1,8,0:0:0:0:
256,208,174963,1,8,0:0:0:0:
256,200,175070,1,0,0:0:0:0:
256,200,175177,1,0,0:0:0:0:
256,200,175284,1,8,0:0:0:0:
256,200,175497,1,0,0:0:0:0:
0,192,175605,1,0,0:0:0:0:
0,192,175712,1,8,0:0:0:0:
248,208,175927,1,0,0:0:0:0:
248,208,176033,1,0,0:0:0:0:
248,208,176141,1,8,0:0:0:0:
240,208,176355,1,8,0:0:0:0:
248,216,176462,1,8,0:0:0:0:
248,216,176569,1,0,0:0:0:0:
248,208,176677,1,0,0:0:0:0:
248,208,176784,1,8,0:0:0:0:
248,208,176891,1,8,0:0:0:0:
248,208,176998,1,8,0:0:0:0:
248,208,177212,1,8,0:0:0:0:
256,208,177319,1,0,0:0:0:0:
256,208,177426,1,8,0:0:0:0:
256,200,177641,1,0,0:0:0:0:
256,200,177855,1,8,0:0:0:0:
256,200,177962,1,8,0:0:0:0:
256,200,178069,1,0,0:0:0:0:
256,200,178177,1,0,0:0:0:0:
256,208,178284,1,8,0:0:0:0:
256,208,178391,1,0,0:0:0:0:
256,200,178498,1,0,0:0:0:0:
256,200,178605,1,0,0:0:0:0:
256,200,178712,1,8,0:0:0:0:
256,200,178926,1,8,0:0:0:0:
0,192,179033,1,8,0:0:0:0:
264,200,179141,1,0,0:0:0:0:
0,192,179247,1,8,0:0:0:0:
256,192,179355,1,0,0:0:0:0:
256,200,179462,1,0,0:0:0:0:
256,200,179570,1,8,0:0:0:0:
264,200,179784,1,0,0:0:0:0:
264,200,179891,1,0,0:0:0:0:
264,200,179998,1,8,0:0:0:0:
256,200,180105,1,8,0:0:0:0:
256,192,180212,1,8,0:0:0:0:
256,192,180320,1,0,0:0:0:0:
256,192,180427,1,8,0:0:0:0:
256,184,180641,1,0,0:0:0:0:
256,192,180747,1,8,0:0:0:0:
256,184,180855,1,8,0:0:0:0:
256,184,180962,1,0,0:0:0:0:
256,184,181070,1,0,0:0:0:0:
256,184,181177,1,8,0:0:0:0:
256,184,181284,1,8,0:0:0:0:
256,184,181391,1,0,0:0:0:0:
256,184,181498,1,8,0:0:0:0:
256,184,181605,1,0,0:0:0:0:
256,184,181712,5,8,0:0:0:0:
256,184,181784,1,0,0:0:0:0:
256,184,181855,1,0,0:0:0:0:
256,184,181927,1,8,0:0:0:0:
256,184,181998,1,0,0:0:0:0:
256,184,182069,1,8,0:0:0:0:
256,184,182140,1,8,0:0:0:0:
256,184,182247,1,0,0:0:0:0:
256,184,182355,1,0,0:0:0:0:
256,192,182462,1,8,0:0:0:0:
256,192,182569,1,4,0:0:0:0:
256,184,182783,1,8,0:0:0:0:
256,184,182890,1,8,0:0:0:0:
256,184,182997,1,0,0:0:0:0:
256,184,183212,1,8,0:0:0:0:
256,184,183319,1,0,0:0:0:0:
256,184,183533,1,0,0:0:0:0:
256,184,183640,1,8,0:0:0:0:
256,184,183855,1,8,0:0:0:0:
256,184,184069,1,0,0:0:0:0:
256,192,184283,1,0,0:0:0:0:
256,184,184497,1,8,0:0:0:0:
256,184,184604,1,8,0:0:0:0:
256,184,184711,1,0,0:0:0:0:
256,184,184926,1,8,0:0:0:0:
256,184,185033,1,0,0:0:0:0:
256,184,185247,1,0,0:0:0:0:
256,184,185354,1,8,0:0:0:0:
256,184,185569,1,8,0:0:0:0:
256,184,185783,1,0,0:0:0:0:
256,184,185997,1,0,0:0:0:0:
256,184,186212,1,8,0:0:0:0:
256,184,186319,1,8,0:0:0:0:
256,184,186426,1,8,0:0:0:0:
256,184,186640,1,0,0:0:0:0:
256,184,186747,1,8,0:0:0:0:
256,184,186962,1,8,0:0:0:0:
256,184,187069,1,0,0:0:0:0:
256,184,187283,1,8,0:0:0:0:
256,184,187497,1,0,0:0:0:0:
256,184,187712,1,0,0:0:0:0:
256,184,187927,1,8,0:0:0:0:
256,184,188034,1,8,0:0:0:0:
256,184,188141,1,8,0:0:0:0:
256,184,188355,1,0,0:0:0:0:
256,184,188462,1,8,0:0:0:0:
256,184,188677,1,8,0:0:0:0:
256,184,188784,1,0,0:0:0:0:
256,184,188998,1,8,0:0:0:0:
256,184,189212,1,0,0:0:0:0:
256,184,189426,1,8,0:0:0:0:
256,184,189533,1,8,0:0:0:0:
256,184,189641,1,0,0:0:0:0:
256,184,189748,1,0,0:0:0:0:
256,184,189855,1,8,0:0:0:0:
256,184,190069,1,0,0:0:0:0:
256,184,190176,1,0,0:0:0:0:
256,184,190391,1,8,0:0:0:0:
256,184,190498,1,0,0:0:0:0:
256,184,190605,1,8,0:0:0:0:
256,184,190712,1,8,0:0:0:0:
256,184,190926,1,0,0:0:0:0:
256,184,191140,1,8,0:0:0:0:
256,184,191247,1,8,0:0:0:0:
256,184,191355,1,0,0:0:0:0:
256,184,191462,1,0,0:0:0:0:
256,184,191569,1,8,0:0:0:0:
256,184,191783,1,0,0:0:0:0:
256,184,191890,1,0,0:0:0:0:
256,184,192105,1,8,0:0:0:0:
256,184,192212,1,0,0:0:0:0:
256,192,192319,1,8,0:0:0:0:
256,184,192426,1,8,0:0:0:0:
256,184,192640,1,0,0:0:0:0:
32,192,192747,1,8,0:0:0:0:
256,184,192855,1,0,0:0:0:0:
256,184,192962,1,0,0:0:0:0:
256,184,193069,1,8,0:0:0:0:
256,184,193176,1,8,0:0:0:0:
256,184,193284,1,0,0:0:0:0:
256,184,193391,1,0,0:0:0:0:
256,184,193498,1,8,0:0:0:0:
256,184,193605,1,0,0:0:0:0:
248,176,193712,1,0,0:0:0:0:
248,176,193819,1,8,0:0:0:0:
248,176,193926,1,8,0:0:0:0:
256,176,194034,1,0,0:0:0:0:
256,176,194141,1,8,0:0:0:0:
256,184,194247,1,8,0:0:0:0:
256,184,194355,1,0,0:0:0:0:
256,184,194462,1,0,0:0:0:0:
256,176,194569,1,8,0:0:0:0:
256,176,194676,1,0,0:0:0:0:
256,176,194783,1,0,0:0:0:0:
256,176,194890,1,0,0:0:0:0:
256,176,194997,1,8,0:0:0:0:
256,176,195105,1,0,0:0:0:0:
256,176,195212,1,0,0:0:0:0:
256,176,195319,1,0,0:0:0:0:
256,176,195426,1,8,0:0:0:0:
256,176,195497,1,0,0:0:0:0:
256,176,195569,1,0,0:0:0:0:
256,176,195640,1,8,0:0:0:0:
256,176,195712,1,0,0:0:0:0:
256,176,195783,1,0,0:0:0:0:
256,176,195855,1,8,0:0:0:0:
248,192,195962,1,0,0:0:0:0:
248,184,196069,1,0,0:0:0:0:
256,192,196176,1,8,0:0:0:0:
256,192,196283,5,4,0:0:0:0:
256,192,199712,5,0,0:0:0:0:
256,192,203140,5,4,0:0:0:0:
256,192,203569,1,8,0:0:0:0:
256,192,204426,1,8,0:0:0:0:
256,192,204640,1,0,0:0:0:0:
256,192,204855,1,4,0:0:0:0:
256,192,205283,1,8,0:0:0:0:
256,192,206140,1,8,0:0:0:0:
256,192,206355,1,0,0:0:0:0:
256,192,206569,1,4,0:0:0:0:
256,192,206997,1,8,0:0:0:0:
256,192,207212,1,0,0:0:0:0:
256,192,207426,1,4,0:0:0:0:
256,192,207855,1,8,0:0:0:0:
256,192,208069,1,0,0:0:0:0:
256,192,208283,1,4,0:0:0:0:
248,184,209783,1,0,0:0:0:0:
248,192,209855,1,0,0:0:0:0:
248,184,209926,1,0,0:0:0:0:
256,192,209997,5,8,0:0:0:0:
256,192,210212,1,0,0:0:0:0:
256,192,210319,1,8,0:0:0:0:
256,192,210426,1,0,0:0:0:0:
256,192,210640,1,8,0:0:0:0:
256,184,210747,1,8,0:0:0:0:
256,184,210962,1,8,0:0:0:0:
256,184,211069,1,8,0:0:0:0:
256,184,211283,1,8,0:0:0:0:
256,184,211497,1,0,0:0:0:0:
0,192,211605,1,0,0:0:0:0:
256,192,211712,1,8,0:0:0:0:
256,192,211927,1,0,0:0:0:0:
256,192,212034,1,8,0:0:0:0:
256,184,212140,1,0,0:0:0:0:
256,192,212355,1,8,0:0:0:0:
256,184,212462,1,8,0:0:0:0:
256,184,212677,1,8,0:0:0:0:
256,184,212784,1,8,0:0:0:0:
256,184,212998,1,8,0:0:0:0:
256,184,213212,1,0,0:0:0:0:
32,192,213319,1,8,0:0:0:0:
256,192,213426,1,8,0:0:0:0:
256,192,213641,1,0,0:0:0:0:
256,184,213747,1,0,0:0:0:0:
256,192,213855,1,0,0:0:0:0:
256,184,214069,1,0,0:0:0:0:
256,192,214176,1,8,0:0:0:0:
256,184,214390,1,8,0:0:0:0:
256,184,214497,1,0,0:0:0:0:
256,184,214712,1,8,0:0:0:0:
256,184,214926,1,0,0:0:0:0:
64,192,215033,1,0,0:0:0:0:
256,192,215141,1,8,0:0:0:0:
256,192,215356,1,0,0:0:0:0:
256,192,215463,1,8,0:0:0:0:
256,192,215569,1,0,0:0:0:0:
256,192,215784,1,8,0:0:0:0:
256,184,215891,1,0,0:0:0:0:
256,184,216106,1,0,0:0:0:0:
256,184,216213,1,8,0:0:0:0:
256,184,216427,1,8,0:0:0:0:
256,184,216641,1,0,0:0:0:0:
0,192,216747,1,0,0:0:0:0:
256,192,216855,1,8,0:0:0:0:
0,192,216962,1,0,0:0:0:0:
256,192,217070,1,0,0:0:0:0:
256,192,217177,1,8,0:0:0:0:
256,184,217283,1,8,0:0:0:0:
256,192,217498,1,0,0:0:0:0:
256,184,217605,1,8,0:0:0:0:
256,184,217820,1,8,0:0:0:0:
256,184,217927,1,0,0:0:0:0:
0,192,218033,1,0,0:0:0:0:
256,184,218141,1,8,0:0:0:0:
256,184,218355,1,0,0:0:0:0:
0,192,218462,1,0,0:0:0:0:
0,192,218569,1,8,0:0:0:0:
0,192,218676,1,0,0:0:0:0:
0,192,218783,1,8,0:0:0:0:
0,192,218890,1,8,0:0:0:0:
256,184,218997,1,0,0:0:0:0:
256,192,219212,1,0,0:0:0:0:
256,184,219320,1,8,0:0:0:0:
256,184,219533,1,8,0:0:0:0:
256,184,219640,1,0,0:0:0:0:
0,192,219747,1,8,0:0:0:0:
256,184,219856,1,8,0:0:0:0:
256,184,220070,1,0,0:0:0:0:
0,192,220176,1,0,0:0:0:0:
256,184,220283,1,8,0:0:0:0:
256,192,220390,1,8,0:0:0:0:
256,184,220497,1,0,0:0:0:0:
256,184,220605,1,8,0:0:0:0:
256,184,220712,1,0,0:0:0:0:
256,184,220926,1,0,0:0:0:0:
256,184,221033,1,8,0:0:0:0:
256,184,221140,1,8,0:0:0:0:
256,192,221247,1,0,0:0:0:0:
256,184,221355,1,0,0:0:0:0:
256,184,221462,1,8,0:0:0:0:
256,184,221569,1,0,0:0:0:0:
256,184,221783,1,0,0:0:0:0:
256,192,221890,1,0,0:0:0:0:
256,192,221997,1,8,0:0:0:0:
248,192,222105,1,0,0:0:0:0:
256,184,222212,1,8,0:0:0:0:
256,184,222319,1,8,0:0:0:0:
256,184,222426,1,0,0:0:0:0:
240,184,222533,1,0,0:0:0:0:
240,184,222640,1,8,0:0:0:0:
240,184,222747,1,8,0:0:0:0:
248,184,222855,1,0,0:0:0:0:
248,184,222926,1,8,0:0:0:0:
248,184,222997,1,8,0:0:0:0:
248,184,223069,1,0,0:0:0:0:
256,184,223140,1,8,0:0:0:0:
256,184,223212,1,8,0:0:0:0:
256,184,223283,1,0,0:0:0:0:
256,184,223390,1,8,0:0:0:0:
256,184,223497,1,8,0:0:0:0:
256,184,223605,1,8,0:0:0:0:
256,176,223712,5,4,0:0:0:0:
256,176,223926,1,0,0:0:0:0:
256,176,224033,1,0,0:0:0:0:
256,176,224141,1,8,0:0:0:0:
256,184,224355,1,8,0:0:0:0:
256,176,224462,1,0,0:0:0:0:
256,176,224676,1,0,0:0:0:0:
256,176,224783,1,0,0:0:0:0:
256,176,224998,1,8,0:0:0:0:
256,176,225212,1,0,0:0:0:0:
256,176,225319,1,8,0:0:0:0:
256,176,225533,1,8,0:0:0:0:
256,176,225641,1,8,0:0:0:0:
256,176,225855,1,8,0:0:0:0:
256,176,226069,1,0,0:0:0:0:
256,176,226176,1,8,0:0:0:0:
256,176,226391,1,8,0:0:0:0:
256,176,226498,1,0,0:0:0:0:
256,176,226605,1,0,0:0:0:0:
256,176,226712,1,8,0:0:0:0:
256,176,226926,1,0,0:0:0:0:
256,192,227141,1,0,0:0:0:0:
264,192,227355,1,0,0:0:0:0:
264,192,227462,1,0,0:0:0:0:
264,184,227569,1,8,0:0:0:0:
264,184,227783,1,0,0:0:0:0:
264,184,227890,1,8,0:0:0:0:
264,192,228105,1,0,0:0:0:0:
264,192,228212,1,0,0:0:0:0:
264,192,228426,1,8,0:0:0:0:
264,184,228641,1,0,0:0:0:0:
264,184,228747,1,8,0:0:0:0:
264,192,228962,1,8,0:0:0:0:
264,192,229069,1,8,0:0:0:0:
264,192,229283,1,0,0:0:0:0:
264,184,229498,1,0,0:0:0:0:
264,184,229605,1,8,0:0:0:0:
264,184,229819,1,0,0:0:0:0:
264,192,229926,1,0,0:0:0:0:
264,192,230033,1,0,0:0:0:0:
264,192,230141,1,8,0:0:0:0:
256,192,230355,1,0,0:0:0:0:
264,192,230569,1,8,0:0:0:0:
256,192,230676,1,0,0:0:0:0:
264,192,230783,1,8,0:0:0:0:
264,192,230891,1,8,0:0:0:0:
264,192,230998,1,0,0:0:0:0:
264,192,231212,1,0,0:0:0:0:
264,192,231319,1,8,0:0:0:0:
264,192,231533,1,8,0:0:0:0:
264,192,231641,1,8,0:0:0:0:
264,192,231855,1,0,0:0:0:0:
264,192,232069,1,0,0:0:0:0:
264,192,232176,1,8,0:0:0:0:
264,192,232390,1,0,0:0:0:0:
264,192,232498,1,0,0:0:0:0:
264,192,232712,1,8,0:0:0:0:
264,192,232926,1,0,0:0:0:0:
264,192,233033,1,8,0:0:0:0:
264,192,233248,1,8,0:0:0:0:
264,192,233355,1,0,0:0:0:0:
264,192,233462,1,0,0:0:0:0:
264,192,233569,1,8,0:0:0:0:
264,192,233783,1,0,0:0:0:0:
264,192,233997,1,8,0:0:0:0:
264,192,234105,1,8,0:0:0:0:
256,184,234212,1,0,0:0:0:0:
256,176,234319,1,0,0:0:0:0:
256,184,234426,1,8,0:0:0:0:
256,184,234641,1,0,0:0:0:0:
256,184,234747,1,8,0:0:0:0:
256,184,234962,1,0,0:0:0:0:
256,184,235069,1,0,0:0:0:0:
256,184,235176,1,0,0:0:0:0:
256,176,235283,1,8,0:0:0:0:
256,184,235498,1,0,0:0:0:0:
256,184,235605,1,0,0:0:0:0:
256,184,235819,1,8,0:0:0:0:
256,192,235926,1,0,0:0:0:0:
256,184,236033,1,0,0:0:0:0:
256,184,236141,1,8,0:0:0:0:
256,192,236355,1,8,0:0:0:0:
256,192,236462,1,8,0:0:0:0:
256,192,236569,1,0,0:0:0:0:
256,184,236641,1,0,0:0:0:0:
256,184,236712,1,8,0:0:0:0:
256,184,236783,1,0,0:0:0:0:
256,184,236855,1,0,0:0:0:0:
256,184,236926,1,0,0:0:0:0:
256,184,236998,1,8,0:0:0:0:
0,192,237105,1,0,0:0:0:0:
0,192,237212,1,8,0:0:0:0:
256,176,237426,5,4,0:0:0:0:
256,176,237640,1,0,0:0:0:0:
256,176,237747,1,0,0:0:0:0:
256,176,237855,1,0,0:0:0:0:
256,184,238069,1,8,0:0:0:0:
256,176,238176,1,8,0:0:0:0:
256,176,238390,1,0,0:0:0:0:
256,176,238497,1,8,0:0:0:0:
256,176,238712,1,0,0:0:0:0:
256,176,238926,1,0,0:0:0:0:
256,176,239033,1,8,0:0:0:0:
256,176,239247,1,8,0:0:0:0:
256,176,239355,1,8,0:0:0:0:
256,176,239569,1,8,0:0:0:0:
256,176,239783,1,0,0:0:0:0:
256,176,239890,1,8,0:0:0:0:
256,176,240105,1,8,0:0:0:0:
256,176,240212,1,0,0:0:0:0:
256,176,240319,1,0,0:0:0:0:
256,176,240426,1,8,0:0:0:0:
256,176,240640,1,0,0:0:0:0:
256,192,240855,1,0,0:0:0:0:
264,192,241069,1,0,0:0:0:0:
264,192,241176,1,0,0:0:0:0:
264,184,241283,1,8,0:0:0:0:
264,184,241497,1,0,0:0:0:0:
264,184,241605,1,8,0:0:0:0:
264,192,241819,1,0,0:0:0:0:
264,192,241926,1,0,0:0:0:0:
264,192,242140,1,8,0:0:0:0:
264,184,242355,1,0,0:0:0:0:
264,184,242462,1,8,0:0:0:0:
264,192,242676,1,8,0:0:0:0:
264,192,242783,1,8,0:0:0:0:
264,192,242997,1,0,0:0:0:0:
264,184,243212,1,0,0:0:0:0:
264,184,243319,1,8,0:0:0:0:
264,184,243533,1,0,0:0:0:0:
264,192,243640,1,0,0:0:0:0:
264,192,243747,1,0,0:0:0:0:
264,192,243855,1,8,0:0:0:0:
256,192,244069,1,0,0:0:0:0:
264,192,244283,1,8,0:0:0:0:
256,192,244390,1,8,0:0:0:0:
264,192,244497,1,8,0:0:0:0:
264,192,244605,1,8,0:0:0:0:
264,192,244712,1,0,0:0:0:0:
264,192,244926,1,0,0:0:0:0:
264,192,245033,1,8,0:0:0:0:
264,192,245247,1,8,0:0:0:0:
264,192,245355,1,8,0:0:0:0:
264,192,245569,1,0,0:0:0:0:
264,192,245783,1,0,0:0:0:0:
264,192,245890,1,8,0:0:0:0:
264,192,246105,1,0,0:0:0:0:
264,192,246212,1,0,0:0:0:0:
264,192,246426,1,8,0:0:0:0:
264,192,246640,1,0,0:0:0:0:
264,192,246747,1,8,0:0:0:0:
264,192,246962,1,8,0:0:0:0:
264,192,247069,1,0,0:0:0:0:
264,192,247176,1,0,0:0:0:0:
264,192,247283,1,8,0:0:0:0:
264,192,247497,1,0,0:0:0:0:
264,192,247712,1,8,0:0:0:0:
264,192,247819,1,8,0:0:0:0:
256,184,247926,1,0,0:0:0:0:
256,176,248033,1,0,0:0:0:0:
256,184,248140,1,8,0:0:0:0:
256,184,248355,1,0,0:0:0:0:
256,184,248462,1,8,0:0:0:0:
256,184,248676,1,0,0:0:0:0:
256,184,248783,1,0,0:0:0:0:
256,184,248890,1,0,0:0:0:0:
256,176,248997,1,8,0:0:0:0:
256,184,249212,1,0,0:0:0:0:
256,184,249319,1,0,0:0:0:0:
256,184,249533,1,8,0:0:0:0:
256,184,249640,1,8,0:0:0:0:
256,184,249747,1,8,0:0:0:0:
256,184,249855,1,0,0:0:0:0:
256,184,250069,1,8,0:0:0:0:
256,192,250176,1,0,0:0:0:0:
256,192,250283,1,8,0:0:0:0:
256,184,250355,1,8,0:0:0:0:
256,184,250426,1,0,0:0:0:0:
256,184,250497,1,8,0:0:0:0:
256,184,250569,1,8,0:0:0:0:
256,184,250640,1,8,0:0:0:0:
256,184,250712,1,0,0:0:0:0:
0,192,250819,1,8,0:0:0:0:
0,192,250926,1,8,0:0:0:0:
0,192,251033,1,0,0:0:0:0:
256,192,253712,5,0,0:0:0:0:
256,192,254033,1,0,0:0:0:0:
256,192,254569,1,0,0:0:0:0:
256,192,254890,1,0,0:0:0:0:
256,192,255426,1,0,0:0:0:0:
256,192,255747,1,0,0:0:0:0:
256,192,256283,1,0,0:0:0:0:
256,192,256604,1,0,0:0:0:0:
256,192,257140,1,0,0:0:0:0:
256,192,257461,1,0,0:0:0:0:
256,192,257997,1,0,0:0:0:0:
256,192,258318,1,0,0:0:0:0:
256,192,258855,1,0,0:0:0:0:
256,192,259176,1,0,0:0:0:0:
256,192,259712,1,0,0:0:0:0:
256,192,260033,1,0,0:0:0:0:
256,192,260569,1,0,0:0:0:0:
256,192,260890,1,0,0:0:0:0:
256,192,261426,1,0,0:0:0:0:
256,192,261747,1,0,0:0:0:0:
256,192,262283,1,0,0:0:0:0:
256,192,262604,1,0,0:0:0:0:
256,192,263140,1,0,0:0:0:0:
256,192,263461,1,0,0:0:0:0:
256,192,263997,1,0,0:0:0:0:
256,192,264318,1,0,0:0:0:0:
256,192,264855,5,4,0:0:0:0:
256,192,265069,1,0,0:0:0:0:
256,192,265176,1,8,0:0:0:0:
256,192,265497,1,0,0:0:0:0:
256,192,265712,1,0,0:0:0:0:
256,192,265926,1,0,0:0:0:0:
256,192,266033,1,8,0:0:0:0:
256,192,266355,1,0,0:0:0:0:
256,192,266570,1,0,0:0:0:0:
256,192,266784,1,0,0:0:0:0:
256,192,266891,1,8,0:0:0:0:
256,192,267212,1,0,0:0:0:0:
256,192,267319,1,8,0:0:0:0:
256,192,267533,1,8,0:0:0:0:
256,192,267640,1,8,0:0:0:0:
256,192,267855,1,8,0:0:0:0:
256,192,268069,1,0,0:0:0:0:
256,192,268283,1,8,0:0:0:0:
256,192,268497,1,8,0:0:0:0:
256,192,268604,1,8,0:0:0:0:
256,192,268925,1,0,0:0:0:0:
256,192,269033,1,8,0:0:0:0:
256,192,269247,1,8,0:0:0:0:
256,192,269354,1,8,0:0:0:0:
264,192,269569,1,8,0:0:0:0:
256,192,269783,1,0,0:0:0:0:
256,192,269998,1,8,0:0:0:0:
256,192,270212,1,8,0:0:0:0:
256,192,270319,1,8,0:0:0:0:
256,192,270640,1,0,0:0:0:0:
256,192,270747,1,8,0:0:0:0:
256,192,270961,1,0,0:0:0:0:
256,192,271068,1,8,0:0:0:0:
264,192,271283,1,8,0:0:0:0:
264,192,271497,1,0,0:0:0:0:
256,192,271712,1,8,0:0:0:0:
256,192,271926,1,0,0:0:0:0:
256,192,272033,1,8,0:0:0:0:
256,192,272354,1,8,0:0:0:0:
256,192,272462,1,8,0:0:0:0:
256,192,272676,1,8,0:0:0:0:
256,192,272783,1,0,0:0:0:0:
256,192,272997,1,8,0:0:0:0:
256,192,273212,1,0,0:0:0:0:
256,192,273427,1,8,0:0:0:0:
256,192,273641,1,0,0:0:0:0:
256,192,273748,1,8,0:0:0:0:
256,192,274069,1,0,0:0:0:0:
256,192,274176,1,8,0:0:0:0:
256,192,274390,1,8,0:0:0:0:
256,192,274497,1,8,0:0:0:0:
256,192,274712,1,8,0:0:0:0:
256,200,274926,1,0,0:0:0:0:
256,192,275140,1,8,0:0:0:0:
256,192,275355,1,0,0:0:0:0:
256,192,275462,1,8,0:0:0:0:
256,192,275783,1,8,0:0:0:0:
256,184,275890,1,8,0:0:0:0:
256,184,276105,1,8,0:0:0:0:
256,184,276212,1,8,0:0:0:0:
256,184,276426,1,8,0:0:0:0:
256,184,276640,1,0,0:0:0:0:
256,192,276855,1,8,0:0:0:0:
256,192,277070,1,0,0:0:0:0:
256,192,277177,1,8,0:0:0:0:
256,192,277498,1,8,0:0:0:0:
256,184,277605,1,8,0:0:0:0:
256,184,277820,1,8,0:0:0:0:
256,184,277927,1,8,0:0:0:0:
256,184,278141,1,8,0:0:0:0:
256,184,278355,1,0,0:0:0:0:
256,192,278569,5,4,0:0:0:0:
256,192,278783,1,8,0:0:0:0:
256,192,279212,1,8,0:0:0:0:
256,192,279640,1,8,0:0:0:0:
256,192,280069,1,8,0:0:0:0:
256,192,280497,1,8,0:0:0:0:
256,192,280926,1,8,0:0:0:0:
256,192,281355,1,8,0:0:0:0:
256,192,281783,1,0,0:0:0:0:
256,192,281997,1,4,0:0:0:0:
256,192,282212,1,8,0:0:0:0:
256,192,282426,1,4,0:0:0:0:
256,192,282640,1,8,0:0:0:0:
256,192,283069,1,8,0:0:0:0:
256,192,283497,1,8,0:0:0:0:
256,192,283926,1,8,0:0:0:0:
256,192,284355,1,8,0:0:0:0:
264,192,284783,1,8,0:0:0:0:
256,192,285212,1,8,0:0:0:0:
256,192,285426,1,4,0:0:0:0:
40,192,285640,1,0,0:0:0:0:
32,192,285747,1,0,0:0:0:0:
256,192,285855,1,8,0:0:0:0:
64,200,286497,1,0,0:0:0:0:
256,192,286712,1,8,0:0:0:0:
256,192,286926,1,0,0:0:0:0:
256,192,287140,1,4,0:0:0:0:
64,200,287355,1,0,0:0:0:0:
32,192,287462,1,0,0:0:0:0:
256,192,287569,1,8,0:0:0:0:
64,200,288212,1,0,0:0:0:0:
256,192,288426,1,8,0:0:0:0:
264,192,288640,1,0,0:0:0:0:
256,192,288855,1,4,0:0:0:0:
64,200,289069,1,0,0:0:0:0:
264,184,289176,1,0,0:0:0:0:
264,184,289283,1,8,0:0:0:0:
264,184,289497,1,0,0:0:0:0:
264,184,289712,1,4,0:0:0:0:
64,200,289926,1,0,0:0:0:0:
264,184,290033,1,0,0:0:0:0:
264,184,290140,1,8,0:0:0:0:
264,184,290355,1,0,0:0:0:0:
264,184,290569,1,4,0:0:0:0:
248,184,290783,1,8,0:0:0:0:
256,176,290997,1,4,0:0:0:0:
256,176,291212,1,8,0:0:0:0:
256,192,291319,1,8,0:0:0:0:
256,176,291426,1,0,0:0:0:0:
256,176,291497,1,0,0:0:0:0:
256,176,291569,1,8,0:0:0:0:
256,176,291640,1,0,0:0:0:0:
256,176,291712,1,0,0:0:0:0:
256,192,291783,1,0,0:0:0:0:
256,192,291855,1,8,0:0:0:0:
256,192,291962,1,0,0:0:0:0:
256,192,292069,1,0,0:0:0:0:
256,192,292176,1,0,0:0:0:0:
256,184,293569,5,8,0:0:0:0:
256,184,293676,1,8,0:0:0:0:
256,184,293783,1,8,0:0:0:0:
256,184,293890,1,8,0:0:0:0:
256,192,293997,5,4,0:0:0:0:
248,208,294212,1,0,0:0:0:0:
248,208,294319,1,0,0:0:0:0:
248,208,294426,1,8,0:0:0:0:
240,208,294640,1,8,0:0:0:0:
248,216,294747,1,8,0:0:0:0:
248,216,294854,1,0,0:0:0:0:
248,208,294962,1,8,0:0:0:0:
248,208,295069,1,0,0:0:0:0:
248,208,295176,1,0,0:0:0:0:
248,208,295283,1,8,0:0:0:0:
248,208,295497,1,8,0:0:0:0:
256,208,295604,1,8,0:0:0:0:
256,208,295711,1,0,0:0:0:0:
256,200,295926,1,0,0:0:0:0:
256,200,296140,1,8,0:0:0:0:
256,200,296247,1,0,0:0:0:0:
256,200,296354,1,8,0:0:0:0:
256,200,296462,1,8,0:0:0:0:
256,208,296569,1,0,0:0:0:0:
256,208,296676,1,8,0:0:0:0:
256,200,296783,1,0,0:0:0:0:
256,200,296890,1,0,0:0:0:0:
256,200,296997,1,8,0:0:0:0:
256,192,297212,1,8,0:0:0:0:
256,192,297426,1,0,0:0:0:0:
248,208,297641,1,8,0:0:0:0:
248,208,297748,1,0,0:0:0:0:
248,208,297855,1,8,0:0:0:0:
240,208,298069,1,0,0:0:0:0:
248,216,298176,1,0,0:0:0:0:
248,216,298283,1,8,0:0:0:0:
248,208,298391,1,0,0:0:0:0:
248,208,298498,1,8,0:0:0:0:
248,208,298605,1,0,0:0:0:0:
248,208,298712,1,8,0:0:0:0:
248,208,298926,1,8,0:0:0:0:
256,208,299033,1,8,0:0:0:0:
256,208,299140,1,8,0:0:0:0:
256,200,299355,1,0,0:0:0:0:
256,200,299569,1,8,0:0:0:0:
256,200,299676,1,0,0:0:0:0:
256,200,299783,1,0,0:0:0:0:
256,200,299891,1,8,0:0:0:0:
256,208,299997,1,8,0:0:0:0:
256,208,300105,1,8,0:0:0:0:
256,200,300212,1,0,0:0:0:0:
256,200,300319,1,0,0:0:0:0:
256,200,300426,1,8,0:0:0:0:
256,192,300640,1,8,0:0:0:0:
256,192,300854,1,0,0:0:0:0:
248,208,301069,1,0,0:0:0:0:
248,208,301176,1,0,0:0:0:0:
248,208,301283,1,8,0:0:0:0:
240,208,301497,1,8,0:0:0:0:
248,216,301604,1,8,0:0:0:0:
248,216,301711,1,0,0:0:0:0:
248,208,301819,1,0,0:0:0:0:
248,208,301926,1,8,0:0:0:0:
248,208,302033,1,8,0:0:0:0:
248,208,302140,1,8,0:0:0:0:
248,208,302354,1,8,0:0:0:0:
256,208,302461,1,8,0:0:0:0:
256,208,302568,1,0,0:0:0:0:
256,200,302783,1,0,0:0:0:0:
256,200,302997,1,8,0:0:0:0:
256,200,303104,1,8,0:0:0:0:
256,200,303211,1,0,0:0:0:0:
256,200,303319,1,0,0:0:0:0:
256,208,303426,1,8,0:0:0:0:
256,208,303533,1,0,0:0:0:0:
256,200,303640,1,0,0:0:0:0:
256,200,303747,1,0,0:0:0:0:
256,200,303854,1,8,0:0:0:0:
256,192,304069,1,8,0:0:0:0:
0,192,304176,1,8,0:0:0:0:
264,200,304283,1,0,0:0:0:0:
0,192,304390,1,8,0:0:0:0:
256,192,304497,1,0,0:0:0:0:
256,200,304604,1,0,0:0:0:0:
256,200,304712,1,8,0:0:0:0:
264,200,304926,1,0,0:0:0:0:
264,200,305033,1,8,0:0:0:0:
264,200,305140,1,8,0:0:0:0:
256,192,305247,1,0,0:0:0:0:
256,192,305354,1,8,0:0:0:0:
256,192,305462,1,0,0:0:0:0:
256,192,305569,1,8,0:0:0:0:
256,184,305783,1,0,0:0:0:0:
256,192,305890,1,0,0:0:0:0:
256,184,305997,1,8,0:0:0:0:
256,184,306104,1,8,0:0:0:0:
256,184,306212,1,0,0:0:0:0:
256,184,306319,1,8,0:0:0:0:
256,184,306426,1,0,0:0:0:0:
256,184,306533,1,0,0:0:0:0:
256,184,306640,1,0,0:0:0:0:
256,184,306747,1,8,0:0:0:0:
256,184,306855,1,0,0:0:0:0:
256,184,306926,1,0,0:0:0:0:
256,184,306997,1,8,0:0:0:0:
256,184,307069,1,0,0:0:0:0:
256,184,307140,1,8,0:0:0:0:
256,184,307212,1,8,0:0:0:0:
256,184,307283,1,0,0:0:0:0:
256,184,307390,1,0,0:0:0:0:
256,184,307497,1,0,0:0:0:0:
256,184,307605,1,8,0:0:0:0:
256,192,307712,5,4,0:0:0:0:
248,208,307927,1,0,0:0:0:0:
248,208,308034,1,0,0:0:0:0:
248,208,308141,1,8,0:0:0:0:
240,208,308355,1,8,0:0:0:0:
248,216,308462,1,8,0:0:0:0:
248,216,308569,1,0,0:0:0:0:
248,208,308677,1,8,0:0:0:0:
248,208,308784,1,0,0:0:0:0:
248,208,308891,1,0,0:0:0:0:
248,208,308998,1,8,0:0:0:0:
248,208,309212,1,8,0:0:0:0:
256,208,309319,1,8,0:0:0:0:
256,208,309426,1,0,0:0:0:0:
256,200,309641,1,0,0:0:0:0:
256,200,309855,1,8,0:0:0:0:
256,200,309962,1,0,0:0:0:0:
256,200,310069,1,8,0:0:0:0:
256,200,310177,1,8,0:0:0:0:
256,208,310284,1,0,0:0:0:0:
256,208,310391,1,8,0:0:0:0:
256,200,310498,1,0,0:0:0:0:
256,200,310605,1,0,0:0:0:0:
256,200,310712,1,8,0:0:0:0:
256,192,310926,1,8,0:0:0:0:
256,192,311033,1,0,0:0:0:0:
256,192,311141,1,0,0:0:0:0:
248,208,311356,1,8,0:0:0:0:
248,208,311463,1,0,0:0:0:0:
248,208,311569,1,8,0:0:0:0:
240,208,311784,1,0,0:0:0:0:
248,216,311891,1,8,0:0:0:0:
248,216,311998,1,8,0:0:0:0:
248,208,312106,1,0,0:0:0:0:
248,208,312213,1,8,0:0:0:0:
248,208,312320,1,0,0:0:0:0:
248,208,312427,1,8,0:0:0:0:
248,208,312641,1,8,0:0:0:0:
256,208,312748,1,8,0:0:0:0:
256,208,312855,1,8,0:0:0:0:
256,200,313070,1,0,0:0:0:0:
256,200,313284,1,8,0:0:0:0:
256,200,313391,1,0,0:0:0:0:
256,200,313498,1,0,0:0:0:0:
256,200,313606,1,8,0:0:0:0:
256,208,313712,1,8,0:0:0:0:
256,208,313820,1,8,0:0:0:0:
256,200,313927,1,0,0:0:0:0:
256,200,314034,1,0,0:0:0:0:
256,200,314141,1,8,0:0:0:0:
256,192,314355,1,0,0:0:0:0:
256,192,314462,1,0,0:0:0:0:
256,192,314569,1,8,0:0:0:0:
248,208,314784,1,0,0:0:0:0:
248,208,314891,1,0,0:0:0:0:
248,208,314998,1,8,0:0:0:0:
240,208,315212,1,8,0:0:0:0:
248,216,315319,1,8,0:0:0:0:
248,216,315426,1,0,0:0:0:0:
248,208,315534,1,0,0:0:0:0:
248,208,315641,1,8,0:0:0:0:
248,208,315748,1,8,0:0:0:0:
248,208,315855,1,8,0:0:0:0:
248,208,316069,1,8,0:0:0:0:
256,208,316176,1,8,0:0:0:0:
256,208,316283,1,0,0:0:0:0:
256,200,316498,1,0,0:0:0:0:
256,200,316712,1,8,0:0:0:0:
256,200,316819,1,8,0:0:0:0:
256,200,316926,1,0,0:0:0:0:
256,200,317033,1,8,0:0:0:0:
256,208,317141,1,0,0:0:0:0:
256,208,317248,1,8,0:0:0:0:
256,200,317355,1,0,0:0:0:0:
256,200,317462,1,0,0:0:0:0:
256,200,317569,1,8,0:0:0:0:
256,192,317783,1,8,0:0:0:0:
256,192,317890,1,8,0:0:0:0:
264,200,317998,1,0,0:0:0:0:
0,192,318105,1,8,0:0:0:0:
256,192,318212,1,0,0:0:0:0:
256,200,318319,1,0,0:0:0:0:
256,200,318427,1,8,0:0:0:0:
264,200,318641,1,0,0:0:0:0:
264,200,318748,1,0,0:0:0:0:
264,200,318855,1,8,0:0:0:0:
256,192,318962,1,8,0:0:0:0:
256,192,319069,1,0,0:0:0:0:
256,192,319177,1,0,0:0:0:0:
256,192,319284,1,8,0:0:0:0:
256,184,319498,1,0,0:0:0:0:
256,192,319605,1,8,0:0:0:0:
256,184,319712,1,8,0:0:0:0:
256,184,319819,1,0,0:0:0:0:
256,184,319927,1,0,0:0:0:0:
256,184,320034,1,8,0:0:0:0:
256,184,320141,1,8,0:0:0:0:
256,184,320248,1,0,0:0:0:0:
256,184,320355,1,8,0:0:0:0:
256,184,320462,1,8,0:0:0:0:
256,184,320569,1,0,0:0:0:0:
256,184,320640,1,8,0:0:0:0:
256,184,320712,1,8,0:0:0:0:
256,184,320783,1,0,0:0:0:0:
256,184,320855,1,8,0:0:0:0:
256,184,320926,1,0,0:0:0:0:
256,184,320998,1,0,0:0:0:0:
256,184,321104,1,8,0:0:0:0:
256,184,321212,1,0,0:0:0:0:
256,192,321319,1,8,0:0:0:0:
256,192,321426,5,4,0:0:0:0:
248,208,321640,1,0,0:0:0:0:
248,208,321747,1,0,0:0:0:0:
248,208,321854,1,8,0:0:0:0:
240,208,322068,1,8,0:0:0:0:
248,216,322175,1,8,0:0:0:0:
248,216,322282,1,0,0:0:0:0:
248,208,322390,1,8,0:0:0:0:
248,208,322497,1,0,0:0:0:0:
248,208,322604,1,0,0:0:0:0:
248,208,322711,1,8,0:0:0:0:
248,208,322925,1,8,0:0:0:0:
256,208,323032,1,8,0:0:0:0:
256,208,323139,1,0,0:0:0:0:
256,200,323354,1,0,0:0:0:0:
256,192,323462,1,0,0:0:0:0:
256,200,323568,1,8,0:0:0:0:
256,200,323675,1,0,0:0:0:0:
256,200,323782,1,8,0:0:0:0:
256,200,323890,1,8,0:0:0:0:
256,208,323997,1,0,0:0:0:0:
256,208,324104,1,8,0:0:0:0:
256,200,324211,1,0,0:0:0:0:
256,200,324318,1,0,0:0:0:0:
256,200,324425,1,8,0:0:0:0:
248,200,324533,1,0,0:0:0:0:
248,200,324640,1,8,0:0:0:0:
256,200,324747,1,0,0:0:0:0:
256,192,324854,1,0,0:0:0:0:
248,208,325069,1,8,0:0:0:0:
248,208,325176,1,0,0:0:0:0:
248,208,325282,1,8,0:0:0:0:
240,208,325497,1,0,0:0:0:0:
248,216,325604,1,8,0:0:0:0:
248,216,325711,1,8,0:0:0:0:
248,208,325819,1,0,0:0:0:0:
248,208,325926,1,8,0:0:0:0:
248,208,326033,1,0,0:0:0:0:
248,208,326140,1,8,0:0:0:0:
248,208,326354,1,8,0:0:0:0:
256,208,326461,1,8,0:0:0:0:
256,208,326568,1,8,0:0:0:0:
256,200,326783,1,0,0:0:0:0:
248,208,326890,1,0,0:0:0:0:
256,200,326997,1,8,0:0:0:0:
256,200,327104,1,0,0:0:0:0:
256,200,327211,1,0,0:0:0:0:
256,200,327319,1,8,0:0:0:0:
256,208,327425,1,8,0:0:0:0:
256,208,327533,1,0,0:0:0:0:
256,200,327640,1,8,0:0:0:0:
256,200,327747,1,0,0:0:0:0:
256,200,327854,1,8,0:0:0:0:
248,192,327962,1,8,0:0:0:0:
248,192,328069,1,0,0:0:0:0:
256,208,328176,1,0,0:0:0:0:
256,192,328283,1,0,0:0:0:0:
248,208,328497,1,0,0:0:0:0:
248,208,328604,1,0,0:0:0:0:
248,208,328711,1,8,0:0:0:0:
240,208,328925,1,8,0:0:0:0:
248,216,329032,1,8,0:0:0:0:
248,216,329139,1,0,0:0:0:0:
248,208,329247,1,0,0:0:0:0:
248,208,329354,1,8,0:0:0:0:
248,208,329461,1,8,0:0:0:0:
248,208,329568,1,8,0:0:0:0:
248,208,329782,1,8,0:0:0:0:
256,208,329889,1,8,0:0:0:0:
256,208,329996,1,0,0:0:0:0:
256,200,330211,1,0,0:0:0:0:
248,208,330319,1,0,0:0:0:0:
256,200,330425,1,8,0:0:0:0:
256,200,330532,1,8,0:0:0:0:
256,200,330639,1,0,0:0:0:0:
256,200,330747,1,0,0:0:0:0:
256,208,330854,1,8,0:0:0:0:
256,208,330961,1,0,0:0:0:0:
256,200,331068,1,0,0:0:0:0:
256,200,331175,1,0,0:0:0:0:
256,200,331282,1,8,0:0:0:0:
256,200,331390,1,0,0:0:0:0:
256,200,331497,1,8,0:0:0:0:
256,208,331605,1,0,0:0:0:0:
264,200,331711,1,0,0:0:0:0:
0,192,331819,1,8,0:0:0:0:
256,192,331925,1,0,0:0:0:0:
256,200,332032,1,0,0:0:0:0:
256,200,332140,1,8,0:0:0:0:
264,200,332354,1,0,0:0:0:0:
264,200,332461,1,8,0:0:0:0:
264,200,332568,1,8,0:0:0:0:
0,192,332676,1,0,0:0:0:0:
256,192,332782,1,8,0:0:0:0:
256,192,332890,1,0,0:0:0:0:
256,192,332997,1,8,0:0:0:0:
256,184,333211,1,0,0:0:0:0:
256,208,333319,1,0,0:0:0:0:
256,184,333425,1,8,0:0:0:0:
256,184,333532,1,8,0:0:0:0:
256,184,333640,1,0,0:0:0:0:
256,184,333747,1,8,0:0:0:0:
256,184,333854,1,0,0:0:0:0:
256,184,333961,1,0,0:0:0:0:
256,184,334068,1,8,0:0:0:0:
256,184,334175,1,0,0:0:0:0:
256,184,334283,1,8,0:0:0:0:
256,184,334355,1,8,0:0:0:0:
256,184,334425,1,0,0:0:0:0:
256,184,334497,1,8,0:0:0:0:
256,184,334568,1,0,0:0:0:0:
256,184,334640,1,0,0:0:0:0:
256,184,334711,1,8,0:0:0:0:
256,184,334818,1,0,0:0:0:0:
256,184,334925,1,0,0:0:0:0:
264,192,335033,1,8,0:0:0:0:
256,192,335140,5,4,0:0:0:0:
248,208,335355,1,0,0:0:0:0:
248,208,335462,1,0,0:0:0:0:
248,208,335569,1,8,0:0:0:0:
240,208,335783,1,8,0:0:0:0:
248,216,335890,1,8,0:0:0:0:
248,216,335997,1,0,0:0:0:0:
248,208,336105,1,8,0:0:0:0:
248,208,336212,1,0,0:0:0:0:
248,208,336319,1,0,0:0:0:0:
248,208,336426,1,8,0:0:0:0:
248,208,336640,1,8,0:0:0:0:
256,208,336747,1,8,0:0:0:0:
256,208,336854,1,0,0:0:0:0:
256,200,337069,1,0,0:0:0:0:
248,208,337176,1,0,0:0:0:0:
256,200,337283,1,8,0:0:0:0:
256,200,337390,1,0,0:0:0:0:
256,200,337497,1,8,0:0:0:0:
256,200,337605,1,8,0:0:0:0:
256,208,337712,1,0,0:0:0:0:
256,208,337819,1,8,0:0:0:0:
256,200,337926,1,0,0:0:0:0:
256,200,338033,1,0,0:0:0:0:
256,200,338140,1,8,0:0:0:0:
248,192,338247,1,0,0:0:0:0:
248,200,338355,1,8,0:0:0:0:
248,208,338462,1,0,0:0:0:0:
256,192,338569,1,0,0:0:0:0:
248,208,338784,1,8,0:0:0:0:
248,208,338891,1,0,0:0:0:0:
248,208,338997,1,8,0:0:0:0:
240,208,339212,1,0,0:0:0:0:
248,216,339319,1,8,0:0:0:0:
248,216,339426,1,8,0:0:0:0:
248,208,339534,1,0,0:0:0:0:
248,208,339641,1,8,0:0:0:0:
248,208,339748,1,0,0:0:0:0:
248,208,339855,1,8,0:0:0:0:
248,208,340069,1,8,0:0:0:0:
256,208,340176,1,8,0:0:0:0:
256,208,340283,1,8,0:0:0:0:
256,200,340498,1,0,0:0:0:0:
248,208,340605,1,0,0:0:0:0:
256,200,340712,1,8,0:0:0:0:
256,200,340819,1,0,0:0:0:0:
256,200,340926,1,0,0:0:0:0:
256,200,341034,1,0,0:0:0:0:
256,208,341140,1,8,0:0:0:0:
256,208,341248,1,8,0:0:0:0:
256,200,341355,1,0,0:0:0:0:
256,200,341462,1,0,0:0:0:0:
256,200,341569,1,8,0:0:0:0:
248,200,341676,1,8,0:0:0:0:
248,200,341783,1,0,0:0:0:0:
256,200,341890,1,0,0:0:0:0:
256,192,341997,1,0,0:0:0:0:
248,208,342212,1,0,0:0:0:0:
248,208,342319,1,0,0:0:0:0:
248,208,342426,1,8,0:0:0:0:
240,208,342640,1,8,0:0:0:0:
248,216,342747,1,8,0:0:0:0:
248,216,342854,1,0,0:0:0:0:
248,208,342962,1,0,0:0:0:0:
248,208,343069,1,8,0:0:0:0:
248,208,343176,1,8,0:0:0:0:
248,208,343283,1,8,0:0:0:0:
248,208,343497,1,8,0:0:0:0:
256,208,343604,1,8,0:0:0:0:
256,208,343711,1,0,0:0:0:0:
256,200,343926,1,8,0:0:0:0:
248,208,344033,1,8,0:0:0:0:
256,200,344140,1,0,0:0:0:0:
256,200,344247,1,8,0:0:0:0:
256,200,344354,1,8,0:0:0:0:
256,200,344462,1,0,0:0:0:0:
256,208,344569,1,0,0:0:0:0:
256,208,344676,1,8,0:0:0:0:
256,200,344783,1,0,0:0:0:0:
256,200,344890,1,0,0:0:0:0:
256,200,344997,1,8,0:0:0:0:
248,200,345105,1,0,0:0:0:0:
248,200,345212,1,0,0:0:0:0:
256,200,345319,1,0,0:0:0:0:
264,200,345426,1,0,0:0:0:0:
0,192,345533,1,8,0:0:0:0:
256,192,345640,1,0,0:0:0:0:
256,200,345747,1,0,0:0:0:0:
256,200,345855,1,8,0:0:0:0:
264,200,346069,1,0,0:0:0:0:
264,200,346176,1,8,0:0:0:0:
264,200,346283,1,8,0:0:0:0:
0,192,346390,1,0,0:0:0:0:
256,192,346497,1,8,0:0:0:0:
256,192,346605,1,0,0:0:0:0:
256,192,346712,1,8,0:0:0:0:
256,184,346926,1,0,0:0:0:0:
248,208,347033,1,0,0:0:0:0:
256,184,347140,1,8,0:0:0:0:
256,184,347247,1,0,0:0:0:0:
256,184,347355,1,0,0:0:0:0:
256,184,347462,1,8,0:0:0:0:
256,184,347569,1,8,0:0:0:0:
256,184,347676,1,0,0:0:0:0:
256,184,347783,1,8,0:0:0:0:
256,184,347890,1,0,0:0:0:0:
256,184,347997,1,8,0:0:0:0:
256,184,348068,1,0,0:0:0:0:
256,184,348140,1,0,0:0:0:0:
256,184,348211,1,8,0:0:0:0:
256,184,348283,1,0,0:0:0:0:
256,184,348355,1,8,0:0:0:0:
256,184,348425,1,8,0:0:0:0:
256,192,348533,1,0,0:0:0:0:
256,184,348640,1,0,0:0:0:0:
256,192,348747,1,8,0:0:0:0:
256,192,348855,5,4,0:0:0:0:
256,184,349069,1,8,0:0:0:0:
256,184,349176,1,8,0:0:0:0:
256,184,349283,1,0,0:0:0:0:
256,184,349498,1,8,0:0:0:0:
256,184,349605,1,0,0:0:0:0:
256,184,349819,1,0,0:0:0:0:
256,184,349926,1,8,0:0:0:0:
256,184,350141,1,8,0:0:0:0:
256,184,350355,1,0,0:0:0:0:
256,192,350569,1,0,0:0:0:0:
256,184,350783,1,8,0:0:0:0:
256,184,350890,1,8,0:0:0:0:
256,184,350997,1,0,0:0:0:0:
256,184,351212,1,8,0:0:0:0:
256,184,351319,1,0,0:0:0:0:
256,184,351533,1,0,0:0:0:0:
256,184,351640,1,8,0:0:0:0:
256,184,351855,1,8,0:0:0:0:
256,184,352069,1,0,0:0:0:0:
256,184,352283,1,0,0:0:0:0:
256,184,352498,1,8,0:0:0:0:
256,184,352605,1,8,0:0:0:0:
256,184,352712,1,8,0:0:0:0:
256,184,352926,1,0,0:0:0:0:
256,184,353033,1,8,0:0:0:0:
256,184,353248,1,8,0:0:0:0:
256,184,353355,1,0,0:0:0:0:
256,184,353569,1,0,0:0:0:0:
256,184,353783,1,0,0:0:0:0:
256,184,353998,1,0,0:0:0:0:
256,184,354213,1,8,0:0:0:0:
256,184,354320,1,8,0:0:0:0:
256,184,354427,1,8,0:0:0:0:
256,184,354641,1,0,0:0:0:0:
256,184,354748,1,8,0:0:0:0:
256,184,354963,1,8,0:0:0:0:
256,184,355070,1,0,0:0:0:0:
256,184,355284,1,0,0:0:0:0:
256,184,355498,1,0,0:0:0:0:
256,184,355712,1,8,0:0:0:0:
256,184,355927,1,0,0:0:0:0:
256,184,356034,1,0,0:0:0:0:
256,184,356141,1,8,0:0:0:0:
256,184,356355,1,0,0:0:0:0:
256,184,356462,1,0,0:0:0:0:
256,184,356677,1,8,0:0:0:0:
256,184,356784,1,0,0:0:0:0:
256,184,356998,1,8,0:0:0:0:
256,184,357212,1,0,0:0:0:0:
256,184,357426,1,8,0:0:0:0:
256,184,357641,1,0,0:0:0:0:
256,184,357748,1,0,0:0:0:0:
256,184,357855,1,8,0:0:0:0:
256,184,358069,1,0,0:0:0:0:
256,184,358176,1,0,0:0:0:0:
256,184,358391,1,8,0:0:0:0:
256,184,358498,1,0,0:0:0:0:
256,184,358712,1,8,0:0:0:0:
256,184,358926,1,0,0:0:0:0:
256,184,359141,1,0,0:0:0:0:
256,184,359248,1,0,0:0:0:0:
256,184,359355,1,8,0:0:0:0:
256,184,359462,1,8,0:0:0:0:
256,184,359570,1,0,0:0:0:0:
256,184,359677,1,0,0:0:0:0:
256,184,359784,1,8,0:0:0:0:
256,184,359890,1,0,0:0:0:0:
248,176,359998,1,0,0:0:0:0:
248,176,360105,1,8,0:0:0:0:
248,176,360212,1,8,0:0:0:0:
256,176,360320,1,0,0:0:0:0:
256,176,360427,1,8,0:0:0:0:
256,176,360534,1,0,0:0:0:0:
256,176,360641,1,8,0:0:0:0:
256,192,360747,1,8,0:0:0:0:
256,176,360855,1,0,0:0:0:0:
256,176,360962,1,0,0:0:0:0:
256,176,361069,1,8,0:0:0:0:
256,176,361176,1,8,0:0:0:0:
256,176,361283,1,0,0:0:0:0:
256,176,361391,1,8,0:0:0:0:
256,176,361498,1,8,0:0:0:0:
256,176,361605,1,0,0:0:0:0:
256,176,361712,5,8,0:0:0:0:
256,176,361783,1,0,0:0:0:0:
256,176,361855,1,0,0:0:0:0:
256,176,361926,1,8,0:0:0:0:
256,176,361998,1,0,0:0:0:0:
256,176,362069,1,0,0:0:0:0:
256,176,362141,1,8,0:0:0:0:
248,192,362248,1,0,0:0:0:0:
248,184,362355,1,0,0:0:0:0:
256,192,362462,1,8,0:0:0:0:
256,192,362569,5,4,0:0:0:0:
256,192,362783,1,8,0:0:0:0:
256,192,363212,1,0,0:0:0:0:
256,192,363640,1,0,0:0:0:0:
248,192,364069,1,8,0:0:0:0:
256,192,364497,1,8,0:0:0:0:
248,192,364926,1,0,0:0:0:0:
256,192,365355,1,0,0:0:0:0:
240,184,365783,1,0,0:0:0:0:
