osu file format v14

[General]
AudioFilename: audio.mp3
AudioLeadIn: 0
PreviewTime: 151124
Countdown: 0
SampleSet: Soft
StackLeniency: 0
Mode: 0
LetterboxInBreaks: 0
WidescreenStoryboard: 0

[Editor]
Bookmarks: 60534,90770,257069,287306
DistanceSpacing: 1.5
BeatDivisor: 8
GridSize: 4
TimelineZoom: 2.799999

[Metadata]
Title:NOTHING MORE TO SAY (DUB)
TitleUnicode:NOTHING MORE TO SAY (DUB)
Artist:SOPHIE
ArtistUnicode:SOPHIE
Creator:schoolboy
Version:NOTHING ELSE TO SLAY (DAB) ft. tatemae & emilia
Source:
Tags:komore xeon emilia estellia- sherrycherry tatemae Loreley Anishina Kodoku hyperpop pop experimental electronic deconstructed club english future house bubblegum dance
BeatmapID:3659392
BeatmapSetID:1786386

[Difficulty]
HPDrainRate:5
CircleSize:4
OverallDifficulty:8
ApproachRate:9
SliderMultiplier:1.4
SliderTickRate:1

[Events]
//Background and Video events
0,0,"sexy.jpg",0,0
//Break Periods
//Storyboard Layer 0 (Background)
//Storyboard Layer 1 (Fail)
//Storyboard Layer 2 (Pass)
//Storyboard Layer 3 (Foreground)
//Storyboard Layer 4 (Overlay)
//Storyboard Sound Samples

[TimingPoints]
41,472.44094488189,4,2,2,18,1,0
15159,-200,4,2,2,18,0,0
15395,-200,4,2,2,18,0,0
15631,-200,4,2,2,18,0,0
19174,-200,4,2,2,18,0,0
19411,-200,4,2,2,18,0,0
22481,-200,4,2,2,18,0,0
22718,-200,4,2,2,18,0,0
22954,-200,4,2,2,18,0,0
23190,-200,4,2,2,18,0,0
25316,-200,4,2,2,18,0,0
25552,-200,4,2,2,18,0,0
25670,-200,4,2,2,18,0,0
26497,-200,4,2,2,18,0,0
26733,-200,4,2,2,18,0,0
26970,-200,4,2,2,18,0,0
27206,-200,4,2,2,18,0,0
27442,-200,4,2,2,27,0,0
27560,-200,4,2,2,27,0,0
27914,-200,4,2,2,12,0,0
28033,-200,4,2,2,27,0,0
28387,-200,4,2,2,27,0,0
28859,-25,4,2,2,27,0,0
29214,-25,4,2,2,27,0,0
29332,-200,4,2,2,27,0,0
29922,-200,4,2,2,27,0,0
30277,-50,4,2,1,27,0,0
45159,-40,4,2,1,27,0,0
45395,-40,4,2,1,36,0,0
45631,-40,4,2,1,36,0,0
45867,-50,4,2,1,36,0,0
46576,-50,4,2,1,36,0,0
46694,-50,4,2,1,36,0,0
47166,-50,4,2,1,36,0,0
47285,-50,4,2,1,36,0,0
47521,-50,4,2,1,36,0,0
47757,-50,4,2,1,36,0,0
48466,-50,4,2,1,36,0,0
48584,-50,4,2,1,36,0,0
49056,-50,4,2,1,36,0,0
49174,-50,4,2,1,36,0,0
49410,-50,4,2,1,36,0,0
49647,-50,4,2,1,36,0,0
50355,-50,4,2,1,36,0,0
50474,-50,4,2,1,36,0,0
50946,-50,4,2,1,36,0,0
51064,-50,4,2,1,36,0,0
51300,-50,4,2,1,36,0,0
51537,-50,4,2,1,36,0,0
52245,-50,4,2,1,36,0,0
52363,-50,4,2,1,36,0,0
52836,-50,4,2,1,36,0,0
52954,-50,4,2,1,36,0,0
53190,-50,4,2,1,36,0,0
53426,-50,4,2,1,36,0,0
54135,-50,4,2,1,36,0,0
54253,-50,4,2,1,36,0,0
54725,-50,4,2,1,36,0,0
54844,-50,4,2,1,36,0,0
55080,-50,4,2,1,36,0,0
55316,-50,4,2,1,36,0,0
56025,-50,4,2,1,36,0,0
56143,-50,4,2,1,36,0,0
56615,-50,4,2,1,36,0,0
56733,-50,4,2,1,36,0,0
56969,-50,4,2,1,36,0,0
57206,-50,4,2,1,36,0,0
57915,-50,4,2,1,36,0,0
58033,-50,4,2,1,36,0,0
58505,-50,4,2,1,36,0,0
58623,-50,4,2,1,36,0,0
58859,-50,4,2,1,36,0,0
59096,-50,4,2,1,36,0,0
59804,-50,4,2,1,36,0,0
59922,-50,4,2,1,36,0,0
60395,-50,4,2,1,36,0,0
60513,-200,4,2,1,51,0,0
60867,-200,4,2,1,51,0,0
60986,-39.0625,4,2,1,51,0,0
61104,-39.0625,4,2,1,51,0,0
61222,-39.0625,4,2,1,51,0,0
61340,-39.0625,4,2,1,51,0,0
61458,-39.0625,4,2,1,51,0,0
61694,-39.0625,4,2,1,51,0,0
61812,-39.0625,4,2,1,51,0,0
62285,-39.0625,4,2,1,51,0,0
62403,-200,4,2,1,51,0,0
62757,-200,4,2,1,51,0,0
62875,-39.0625,4,2,1,51,0,0
62994,-39.0625,4,2,1,51,0,0
63112,-39.0625,4,2,1,51,0,0
63230,-39.0625,4,2,1,51,0,0
63348,-39.0625,4,2,1,51,0,0
63584,-39.0625,4,2,1,51,0,0
63702,-39.0625,4,2,1,51,0,0
64175,-39.0625,4,2,1,51,0,0
64293,-200,4,2,1,51,0,0
64647,-200,4,2,1,51,0,0
64765,-39.0625,4,2,1,51,0,0
64884,-39.0625,4,2,1,51,0,0
65002,-39.0625,4,2,1,51,0,0
65120,-39.0625,4,2,1,51,0,0
65238,-39.0625,4,2,1,51,0,0
65474,-39.0625,4,2,1,51,0,0
65592,-39.0625,4,2,1,51,0,0
66065,-39.0625,4,2,1,51,0,0
66183,-200,4,2,1,51,0,0
66537,-200,4,2,1,51,0,0
66655,-39.0625,4,2,1,51,0,0
66774,-39.0625,4,2,1,51,0,0
66892,-39.0625,4,2,1,51,0,0
67010,-39.0625,4,2,1,51,0,0
67128,-39.0625,4,2,1,51,0,0
67364,-39.0625,4,2,1,51,0,0
67482,-39.0625,4,2,1,51,0,0
67955,-39.0625,4,2,1,51,0,0
68072,-200,4,2,1,51,0,0
68426,-200,4,2,1,51,0,0
68545,-39.0625,4,2,1,51,0,0
68663,-39.0625,4,2,1,51,0,0
68781,-39.0625,4,2,1,51,0,0
68899,-39.0625,4,2,1,51,0,0
69017,-39.0625,4,2,1,51,0,0
69253,-39.0625,4,2,1,51,0,0
69372,-39.0625,4,2,1,51,0,0
69844,-39.0625,4,2,1,51,0,0
69962,-200,4,2,1,51,0,0
70316,-200,4,2,1,51,0,0
70435,-39.0625,4,2,1,51,0,0
70553,-39.0625,4,2,1,51,0,0
70671,-39.0625,4,2,1,51,0,0
70789,-39.0625,4,2,1,51,0,0
70907,-39.0625,4,2,1,51,0,0
71143,-39.0625,4,2,1,51,0,0
71262,-39.0625,4,2,1,51,0,0
71734,-39.0625,4,2,1,51,0,0
71852,-200,4,2,1,51,0,0
72206,-200,4,2,1,51,0,0
72324,-39.0625,4,2,1,51,0,0
72443,-39.0625,4,2,1,51,0,0
72561,-39.0625,4,2,1,51,0,0
72679,-39.0625,4,2,1,51,0,0
72797,-39.0625,4,2,1,51,0,0
73033,-39.0625,4,2,1,51,0,0
73152,-39.0625,4,2,1,51,0,0
73624,-39.0625,4,2,1,51,0,0
73742,-200,4,2,1,51,0,0
74096,-200,4,2,1,51,0,0
74214,-39.0625,4,2,1,51,0,0
74333,-39.0625,4,2,1,51,0,0
74451,-39.0625,4,2,1,51,0,0
74569,-39.0625,4,2,1,51,0,0
74687,-39.0625,4,2,1,51,0,0
74923,-39.0625,4,2,1,51,0,0
75042,-39.0625,4,2,1,51,0,0
75514,-39.0625,4,2,1,51,0,0
75631,-36.231884057971,4,2,1,51,0,0
75867,-36.231884057971,4,2,1,51,0,0
76104,-36.231884057971,4,2,1,51,0,0
76222,-36.231884057971,4,2,1,51,0,0
76340,-36.231884057971,4,2,1,51,0,0
76458,-36.231884057971,4,2,1,51,0,0
76576,-36.231884057971,4,2,1,51,0,0
76812,-36.231884057971,4,2,1,51,0,0
76931,-36.231884057971,4,2,1,51,0,0
77403,-36.231884057971,4,2,1,51,0,0
77521,-36.231884057971,4,2,1,51,0,0
77757,-36.231884057971,4,2,1,51,0,0
77994,-36.231884057971,4,2,1,51,0,0
78112,-36.231884057971,4,2,1,51,0,0
78230,-36.231884057971,4,2,1,51,0,0
78348,-36.231884057971,4,2,1,51,0,0
78466,-36.231884057971,4,2,1,51,0,0
78702,-36.231884057971,4,2,1,51,0,0
78821,-36.231884057971,4,2,1,51,0,0
79293,-36.231884057971,4,2,1,51,0,0
79411,-36.231884057971,4,2,1,51,0,0
79647,-36.231884057971,4,2,1,51,0,0
79883,-36.231884057971,4,2,1,51,0,0
80001,-36.231884057971,4,2,1,51,0,0
80120,-36.231884057971,4,2,1,51,0,0
80238,-36.231884057971,4,2,1,51,0,0
80356,-36.231884057971,4,2,1,51,0,0
80592,-36.231884057971,4,2,1,51,0,0
80710,-36.231884057971,4,2,1,51,0,0
81182,-36.231884057971,4,2,1,51,0,0
81301,-36.231884057971,4,2,1,51,0,0
81537,-36.231884057971,4,2,1,51,0,0
81773,-36.231884057971,4,2,1,51,0,0
81891,-36.231884057971,4,2,1,51,0,0
82010,-36.231884057971,4,2,1,51,0,0
82128,-36.231884057971,4,2,1,51,0,0
82246,-36.231884057971,4,2,1,51,0,0
82482,-36.231884057971,4,2,1,51,0,0
82600,-36.231884057971,4,2,1,51,0,0
83072,-36.231884057971,4,2,1,51,0,0
83190,-36.231884057971,4,2,1,51,0,0
83426,-36.231884057971,4,2,1,51,0,0
83663,-36.231884057971,4,2,1,51,0,0
83781,-36.231884057971,4,2,1,51,0,0
83899,-36.231884057971,4,2,1,51,0,0
84017,-36.231884057971,4,2,1,51,0,0
84135,-36.231884057971,4,2,1,51,0,0
84371,-36.231884057971,4,2,1,51,0,0
84490,-36.231884057971,4,2,1,51,0,0
85316,-36.231884057971,4,2,1,51,0,0
85553,-36.231884057971,4,2,1,51,0,0
85671,-36.231884057971,4,2,1,51,0,0
85789,-36.231884057971,4,2,1,51,0,0
85907,-36.231884057971,4,2,1,51,0,0
86025,-36.231884057971,4,2,1,51,0,0
86261,-36.231884057971,4,2,1,51,0,0
86380,-36.231884057971,4,2,1,51,0,0
87206,-36.231884057971,4,2,1,51,0,0
87443,-36.231884057971,4,2,1,51,0,0
87561,-36.231884057971,4,2,1,51,0,0
87679,-36.231884057971,4,2,1,51,0,0
87797,-36.231884057971,4,2,1,51,0,0
87915,-36.231884057971,4,2,1,51,0,0
88151,-36.231884057971,4,2,1,51,0,0
88270,-36.231884057971,4,2,1,51,0,0
89096,-36.231884057971,4,2,1,51,0,0
89333,-36.231884057971,4,2,1,51,0,0
89451,-36.231884057971,4,2,1,51,0,0
89569,-36.231884057971,4,2,1,51,0,0
89687,-36.231884057971,4,2,1,51,0,0
89805,-36.231884057971,4,2,1,51,0,0
90041,-36.231884057971,4,2,1,51,0,0
90160,-36.231884057971,4,2,1,51,0,0
90749,-36.231884057971,4,2,2,56,0,0
91222,-83.3333333333333,4,2,2,56,0,0
91458,-83.3333333333333,4,2,2,56,0,0
91694,-83.3333333333333,4,2,2,56,0,0
92048,-83.3333333333333,4,2,2,56,0,0
92166,-83.3333333333333,4,2,2,56,0,0
92402,-83.3333333333333,4,2,2,56,0,0
92639,-83.3333333333333,4,2,2,56,0,0
93348,-83.3333333333333,4,2,2,56,0,0
93584,-83.3333333333333,4,2,2,56,0,0
95237,-83.3333333333333,4,2,2,56,0,0
95474,-83.3333333333333,4,2,2,56,0,0
95710,-83.3333333333333,4,2,2,56,0,0
95946,-83.3333333333333,4,2,2,56,0,0
96182,-83.3333333333333,4,2,2,56,0,0
96418,-83.3333333333333,4,2,2,56,0,0
97127,-83.3333333333333,4,2,2,56,0,0
97363,-83.3333333333333,4,2,2,56,0,0
99017,-83.3333333333333,4,2,2,56,0,0
99253,-83.3333333333333,4,2,2,56,0,0
99962,-83.3333333333333,4,2,2,56,0,0
100198,-83.3333333333333,4,2,2,56,0,0
100907,-83.3333333333333,4,2,2,56,0,0
101143,-83.3333333333333,4,2,2,56,0,0
102796,-83.3333333333333,4,2,2,56,0,0
103033,-83.3333333333333,4,2,2,56,0,0
103151,-83.3333333333333,4,2,2,56,0,0
103505,-83.3333333333333,4,2,2,56,0,0
103741,-83.3333333333333,4,2,2,56,0,0
103978,-83.3333333333333,4,2,2,56,0,0
104686,-83.3333333333333,4,2,2,56,0,0
104922,-83.3333333333333,4,2,2,56,0,0
106340,-83.3333333333333,4,2,2,21,0,0
109647,-83.3333333333333,4,2,2,32,0,0
113427,-83.3333333333333,4,2,2,43,0,0
117206,-83.3333333333333,4,2,2,53,0,0
119096,-83.3333333333333,4,2,2,60,0,0
120985,-76.9230769230769,4,2,1,67,0,0
121458,-58.8235294117647,4,2,1,67,0,0
121576,-58.8235294117647,4,2,1,67,0,0
121694,-58.8235294117647,4,2,1,67,0,0
121812,-58.8235294117647,4,2,1,67,0,0
121930,-58.8235294117647,4,2,1,67,0,0
122166,-58.8235294117647,4,2,1,67,0,0
122285,-50,4,2,1,67,0,0
122521,-58.8235294117647,4,2,1,67,0,0
122757,-58.8235294117647,4,2,1,67,0,0
122875,-76.9230769230769,4,2,1,67,0,0
123348,-58.8235294117647,4,2,1,67,0,0
123466,-58.8235294117647,4,2,1,67,0,0
123584,-58.8235294117647,4,2,1,67,0,0
123702,-58.8235294117647,4,2,1,67,0,0
123820,-58.8235294117647,4,2,1,67,0,0
124056,-58.8235294117647,4,2,1,67,0,0
124174,-58.8235294117647,4,2,1,67,0,0
124411,-50,4,2,1,67,0,0
124647,-50,4,2,1,67,0,0
124765,-399.999999999997,4,2,1,67,0,0
125119,-399.999999999997,4,2,1,67,0,0
125237,-58.8235294117647,4,2,1,67,0,0
125355,-58.8235294117647,4,2,1,67,0,0
125474,-58.8235294117647,4,2,1,67,0,0
125592,-58.8235294117647,4,2,1,67,0,0
125710,-58.8235294117647,4,2,1,67,0,0
125946,-58.8235294117647,4,2,1,67,0,0
126064,-50,4,2,1,67,0,0
126300,-58.8235294117647,4,2,1,67,0,0
126536,-58.8235294117647,4,2,1,67,0,0
126655,-76.9230769230769,4,2,1,67,0,0
127127,-58.8235294117647,4,2,1,67,0,0
127245,-58.8235294117647,4,2,1,67,0,0
127363,-58.8235294117647,4,2,1,67,0,0
127481,-58.8235294117647,4,2,1,67,0,0
127600,-58.8235294117647,4,2,1,67,0,0
127836,-58.8235294117647,4,2,1,67,0,0
127954,-58.8235294117647,4,2,1,67,0,0
128426,-58.8235294117647,4,2,1,67,0,0
128544,-400,4,2,1,67,0,0
128898,-400,4,2,1,67,0,0
129016,-58.8235294117647,4,2,1,67,0,0
129135,-58.8235294117647,4,2,1,67,0,0
129253,-50,4,2,1,67,0,0
129371,-50,4,2,1,67,0,0
129489,-58.8235294117647,4,2,1,67,0,0
129725,-58.8235294117647,4,2,1,67,0,0
129844,-50,4,2,1,67,0,0
130198,-58.8235294117647,4,2,1,67,0,0
130316,-58.8235294117647,4,2,1,67,0,0
130434,-58.8235294117647,4,2,1,67,0,0
131025,-58.8235294117647,4,2,1,67,0,0
131143,-58.8235294117647,4,2,1,67,0,0
131261,-58.8235294117647,4,2,1,67,0,0
131379,-58.8235294117647,4,2,1,67,0,0
131615,-58.8235294117647,4,2,1,67,0,0
131733,-50,4,2,1,67,0,0
132206,-58.8235294117647,4,2,1,67,0,0
132324,-400,4,2,1,67,0,0
132678,-400,4,2,1,67,0,0
132796,-58.8235294117647,4,2,1,67,0,0
132914,-58.8235294117647,4,2,1,67,0,0
133033,-58.8235294117647,4,2,1,67,0,0
133151,-58.8235294117647,4,2,1,67,0,0
133269,-58.8235294117647,4,2,1,67,0,0
133505,-58.8235294117647,4,2,1,67,0,0
133623,-50,4,2,1,67,0,0
133978,-58.8235294117647,4,2,1,67,0,0
134096,-58.8235294117647,4,2,1,67,0,0
134214,-58.8235294117647,4,2,1,67,0,0
134804,-58.8235294117647,4,2,1,67,0,0
134922,-58.8235294117647,4,2,1,67,0,0
135040,-58.8235294117647,4,2,1,67,0,0
135159,-58.8235294117647,4,2,1,67,0,0
135395,-58.8235294117647,4,2,1,67,0,0
135513,-58.8235294117647,4,2,1,67,0,0
135985,-58.8235294117647,4,2,1,67,0,0
136103,-100,4,2,1,67,0,0
136516,-100,4,2,1,5,0,0
136576,-41.6666666666667,4,2,1,67,0,0
136753,-41.6666666666667,4,2,1,5,0,0
136812,-41.6666666666667,4,2,1,67,0,0
136989,-41.6666666666667,4,2,1,5,0,0
137048,-41.6666666666667,4,2,1,67,0,0
137343,-41.6666666666667,4,2,1,5,0,0
137403,-41.6666666666667,4,2,1,67,0,0
137521,-27.7777777777778,4,2,1,67,0,0
137698,-41.6666666666667,4,2,1,5,0,0
137757,-41.6666666666667,4,2,1,67,0,0
137816,-41.6666666666667,4,2,1,5,0,0
137993,-166.666666666667,4,2,1,67,0,0
138406,-166.666666666667,4,2,1,5,0,0
138466,-41.6666666666667,4,2,1,67,0,0
138643,-41.6666666666667,4,2,1,5,0,0
138702,-41.6666666666667,4,2,1,67,0,0
138879,-41.6666666666667,4,2,1,5,0,0
138938,-41.6666666666667,4,2,1,67,0,0
139233,-41.6666666666667,4,2,1,5,0,0
139292,-41.6666666666667,4,2,1,67,0,0
139411,-27.7777777777778,4,2,1,67,0,0
139588,-41.6666666666667,4,2,1,5,0,0
139647,-41.6666666666667,4,2,1,67,0,0
139706,-41.6666666666667,4,2,1,5,0,0
139883,-100,4,2,1,67,0,0
140296,-100,4,2,1,5,0,0
140355,-41.6666666666667,4,2,1,67,0,0
140532,-41.6666666666667,4,2,1,5,0,0
140592,-41.6666666666667,4,2,1,67,0,0
140769,-41.6666666666667,4,2,1,5,0,0
140828,-41.6666666666667,4,2,1,67,0,0
141123,-41.6666666666667,4,2,1,5,0,0
141182,-41.6666666666667,4,2,1,67,0,0
141300,-27.7777777777778,4,2,1,67,0,0
141477,-41.6666666666667,4,2,1,5,0,0
141537,-41.6666666666667,4,2,1,67,0,0
141596,-41.6666666666667,4,2,1,5,0,0
141772,-166.666666666667,4,2,1,67,0,0
142186,-166.666666666667,4,2,1,5,0,0
142245,-41.6666666666667,4,2,1,67,0,0
142422,-41.6666666666667,4,2,1,5,0,0
142481,-41.6666666666667,4,2,1,67,0,0
142658,-41.6666666666667,4,2,1,5,0,0
142718,-41.6666666666667,4,2,1,67,0,0
143013,-41.6666666666667,4,2,1,5,0,0
143072,-27.7777777777778,4,2,1,67,0,0
143367,-41.6666666666667,4,2,1,5,0,0
143426,-125,4,2,1,67,0,0
143603,-125,4,2,1,5,0,0
143663,-31.055900621118,4,2,1,67,0,0
143899,-31.055900621118,4,2,1,67,0,0
144135,-31.055900621118,4,2,1,67,0,0
144726,-37.3134328358209,4,2,1,67,0,0
144844,-37.3134328358209,4,2,1,67,0,0
144962,-37.3134328358209,4,2,1,67,0,0
145434,-37.3134328358209,4,2,1,67,0,0
145552,-37.3134328358209,4,2,1,67,0,0
145788,-37.3134328358209,4,2,1,67,0,0
146024,-37.3134328358209,4,2,1,67,0,0
146733,-37.3134328358209,4,2,1,67,0,0
146852,-37.3134328358209,4,2,1,67,0,0
147324,-37.3134328358209,4,2,1,67,0,0
147442,-31.055900621118,4,2,1,37,0,0
147678,-31.055900621118,4,2,1,37,0,0
147914,-31.055900621118,4,2,1,37,0,0
151222,-666.666666666658,4,2,5,100,0,0
151340,-666.666666666658,4,2,3,80,0,0
151576,-666.666666666658,4,2,3,80,0,0
151694,-50,4,2,3,80,0,0
151812,-50,4,2,3,80,0,0
151930,-50,4,2,3,80,0,0
152048,-50,4,2,3,80,0,0
152166,-50,4,2,3,80,0,0
152402,-50,4,2,3,80,0,0
152520,-50,4,2,3,80,0,0
152993,-50,4,2,3,80,0,0
153111,-50,4,2,3,80,0,0
153701,-50,4,2,3,80,0,0
153820,-50,4,2,3,80,0,0
153938,-50,4,2,3,80,0,0
154056,-50,4,2,3,80,0,0
154292,-50,4,2,3,80,0,0
154410,-50,4,2,3,80,0,0
154882,-50,4,2,3,80,0,0
155001,-666.666666666658,4,2,3,80,0,0
155414,-666.666666666658,4,2,3,5,0,0
155473,-50,4,2,3,80,0,0
155591,-50,4,2,3,80,0,0
155709,-50,4,2,3,80,0,0
155827,-50,4,2,3,80,0,0
155946,-50,4,2,3,80,0,0
156182,-50,4,2,3,80,0,0
156300,-50,4,2,3,80,0,0
156772,-50,4,2,3,80,0,0
156890,-50,4,2,3,80,0,0
157481,-50,4,2,3,80,0,0
157599,-50,4,2,3,80,0,0
157717,-50,4,2,3,80,0,0
157835,-50,4,2,3,80,0,0
158071,-50,4,2,3,80,0,0
158190,-50,4,2,3,80,0,0
158662,-50,4,2,3,80,0,0
158780,-666.666666666658,4,2,3,80,0,0
159193,-666.666666666658,4,2,3,5,0,0
159252,-50,4,2,3,80,0,0
159371,-50,4,2,3,80,0,0
159489,-50,4,2,3,80,0,0
159607,-50,4,2,3,80,0,0
159725,-50,4,2,3,80,0,0
159961,-50,4,2,3,80,0,0
160079,-50,4,2,3,80,0,0
160552,-50,4,2,3,80,0,0
160670,-43.4782608695652,4,2,3,80,0,0
161260,-43.4782608695652,4,2,3,80,0,0
161379,-43.4782608695652,4,2,3,80,0,0
161497,-43.4782608695652,4,2,3,80,0,0
161615,-43.4782608695652,4,2,3,80,0,0
161851,-43.4782608695652,4,2,3,80,0,0
161970,-43.4782608695652,4,2,3,80,0,0
162442,-43.4782608695652,4,2,3,80,0,0
162560,-666.666666666658,4,2,3,80,0,0
163032,-50,4,2,3,80,0,0
163151,-50,4,2,3,80,0,0
163269,-50,4,2,3,80,0,0
163387,-50,4,2,3,80,0,0
163505,-50,4,2,3,80,0,0
163741,-50,4,2,3,80,0,0
163859,-50,4,2,3,80,0,0
164332,-50,4,2,3,80,0,0
164450,-50,4,2,3,80,0,0
165040,-50,4,2,3,80,0,0
165159,-50,4,2,3,80,0,0
165277,-50,4,2,3,80,0,0
165395,-50,4,2,3,80,0,0
165631,-50,4,2,3,80,0,0
165749,-50,4,2,3,80,0,0
166221,-50,4,2,3,80,0,0
166340,-50,4,2,1,65,0,0
166694,-50,4,2,1,65,0,0
166812,-36.231884057971,4,2,1,65,0,0
166931,-36.231884057971,4,2,1,65,0,0
167049,-36.231884057971,4,2,1,65,0,0
167167,-36.231884057971,4,2,1,65,0,0
167285,-36.231884057971,4,2,1,65,0,0
167521,-36.231884057971,4,2,1,65,0,0
167639,-36.231884057971,4,2,1,65,0,0
168112,-36.231884057971,4,2,1,65,0,0
168229,-47.39336492891,4,2,1,65,0,0
168584,-47.39336492891,4,2,1,65,0,0
168702,-36.231884057971,4,2,1,65,0,0
168820,-36.231884057971,4,2,1,65,0,0
168938,-36.231884057971,4,2,1,65,0,0
169056,-36.231884057971,4,2,1,65,0,0
169175,-36.231884057971,4,2,1,65,0,0
169411,-36.231884057971,4,2,1,65,0,0
169529,-36.231884057971,4,2,1,65,0,0
170002,-36.231884057971,4,2,1,65,0,0
170119,-45.045045045045,4,2,1,65,0,0
170474,-45.045045045045,4,2,1,65,0,0
170592,-36.231884057971,4,2,1,65,0,0
170710,-36.231884057971,4,2,1,65,0,0
170828,-36.231884057971,4,2,1,65,0,0
170946,-36.231884057971,4,2,1,65,0,0
171065,-36.231884057971,4,2,1,65,0,0
171301,-36.231884057971,4,2,1,65,0,0
171419,-36.231884057971,4,2,1,65,0,0
171891,-36.231884057971,4,2,1,65,0,0
172009,-42.9184549356223,4,2,1,65,0,0
172364,-42.9184549356223,4,2,1,65,0,0
172481,-36.231884057971,4,2,1,65,0,0
172600,-36.231884057971,4,2,1,65,0,0
172718,-36.231884057971,4,2,1,65,0,0
172836,-36.231884057971,4,2,1,65,0,0
172954,-36.231884057971,4,2,1,65,0,0
173191,-36.231884057971,4,2,1,65,0,0
173309,-36.231884057971,4,2,1,65,0,0
173781,-36.231884057971,4,2,1,65,0,0
173899,-40.983606557377,4,2,1,65,0,0
174253,-40.983606557377,4,2,1,65,0,0
174371,-36.231884057971,4,2,1,65,0,0
174490,-36.231884057971,4,2,1,65,0,0
174608,-36.231884057971,4,2,1,65,0,0
174726,-36.231884057971,4,2,1,65,0,0
174844,-36.231884057971,4,2,1,65,0,0
175080,-36.231884057971,4,2,1,65,0,0
175198,-36.231884057971,4,2,1,65,0,0
175670,-36.231884057971,4,2,1,65,0,0
175789,-42.9184549356223,4,2,1,65,0,0
176143,-42.9184549356223,4,2,1,65,0,0
176261,-36.231884057971,4,2,1,65,0,0
176379,-36.231884057971,4,2,1,65,0,0
176497,-36.231884057971,4,2,1,65,0,0
176615,-36.231884057971,4,2,1,65,0,0
176733,-36.231884057971,4,2,1,65,0,0
176970,-36.231884057971,4,2,1,65,0,0
177088,-36.231884057971,4,2,1,65,0,0
177560,-36.231884057971,4,2,1,65,0,0
177678,-45.045045045045,4,2,1,65,0,0
178032,-45.045045045045,4,2,1,65,0,0
178150,-36.231884057971,4,2,1,65,0,0
178269,-36.231884057971,4,2,1,65,0,0
178387,-36.231884057971,4,2,1,65,0,0
178505,-36.231884057971,4,2,1,65,0,0
178623,-36.231884057971,4,2,1,65,0,0
178859,-36.231884057971,4,2,1,65,0,0
178978,-36.231884057971,4,2,1,65,0,0
179450,-36.231884057971,4,2,1,65,0,0
179568,-47.39336492891,4,2,1,65,0,0
179922,-47.39336492891,4,2,1,65,0,0
180040,-36.231884057971,4,2,1,65,0,0
180159,-36.231884057971,4,2,1,65,0,0
180277,-36.231884057971,4,2,1,65,0,0
180395,-36.231884057971,4,2,1,65,0,0
180513,-36.231884057971,4,2,1,65,0,0
180749,-36.231884057971,4,2,1,65,0,0
180867,-36.231884057971,4,2,1,65,0,0
181340,-36.231884057971,4,2,1,65,0,0
181458,-66.6666666666667,4,2,2,66,0,0
182166,-33.3333333333333,4,2,2,66,0,0
183348,-66.6666666666667,4,2,2,66,0,0
184292,-33.3333333333333,4,2,2,66,0,0
186655,-30.03003003003,4,2,2,66,0,0
188072,-27.7777777777778,4,2,2,66,0,0
189017,-66.6666666666667,4,2,2,66,0,0
189726,-33.3333333333333,4,2,2,66,0,0
190907,-60.2409638554217,4,2,2,66,0,0
191852,-30.1204819277108,4,2,2,66,0,0
192796,-26.525198938992,4,2,2,66,0,0
196576,-66.6666666666667,4,2,2,66,0,0
197521,-33.3333333333333,4,2,2,66,0,0
198466,-66.6666666666667,4,2,2,66,0,0
205080,-33.3333333333333,4,2,2,66,0,0
206025,-66.6666666666667,4,2,2,66,0,0
210631,-38.4615384615385,4,2,2,66,0,0
210985,-50,4,2,2,66,0,0
211694,-50,4,2,1,80,0,0
223033,-50,4,2,1,61,0,0
226812,-16.6666666666667,4,2,6,100,0,0
226930,-16.6666666666667,4,2,3,80,0,0
227225,-16.6666666666667,4,2,3,5,0,0
227285,-16.6666666666667,4,2,3,80,0,0
231005,-16.6666666666667,4,2,3,5,0,0
231064,-16.6666666666667,4,2,3,80,0,0
234725,-16.6666666666667,4,2,3,80,0,0
234844,-16.6666666666667,4,2,3,80,0,0
236202,-16.6666666666667,4,2,3,55,0,0
236261,-16.6666666666667,4,2,3,80,0,0
238092,-16.6666666666667,4,2,3,55,0,0
238151,-16.6666666666667,4,2,3,80,0,0
239981,-16.6666666666667,4,2,3,55,0,0
240041,-16.6666666666667,4,2,3,80,0,0
241871,-16.6666666666667,4,2,3,55,0,0
241930,-181.818181818181,4,2,3,80,0,0
242343,-181.818181818181,4,2,3,5,0,0
242403,-33.3333333333333,4,2,3,80,0,0
242580,-33.3333333333333,4,2,3,5,0,0
242639,-33.3333333333333,4,2,3,80,0,0
242816,-33.3333333333333,4,2,3,5,0,0
242875,-33.3333333333333,4,2,3,80,0,0
243170,-33.3333333333333,4,2,3,5,0,0
243229,-33.3333333333333,4,2,3,80,0,0
243406,-33.3333333333333,4,2,3,5,0,0
243466,-33.3333333333333,4,2,3,80,0,0
243761,-33.3333333333333,4,2,3,5,0,0
243820,-181.818181818181,4,2,3,80,0,0
244233,-181.818181818181,4,2,3,5,0,0
244292,-33.3333333333333,4,2,3,80,0,0
244469,-33.3333333333333,4,2,3,5,0,0
244529,-33.3333333333333,4,2,3,80,0,0
244706,-33.3333333333333,4,2,3,5,0,0
244765,-33.3333333333333,4,2,3,80,0,0
245060,-33.3333333333333,4,2,3,5,0,0
245119,-33.3333333333333,4,2,3,80,0,0
245296,-33.3333333333333,4,2,3,5,0,0
245355,-33.3333333333333,4,2,3,80,0,0
245651,-33.3333333333333,4,2,3,5,0,0
245710,-181.818181818181,4,2,3,80,0,0
246123,-181.818181818181,4,2,3,5,0,0
246182,-33.3333333333333,4,2,3,80,0,0
246359,-33.3333333333333,4,2,3,5,0,0
246418,-33.3333333333333,4,2,3,80,0,0
246595,-33.3333333333333,4,2,3,5,0,0
246655,-33.3333333333333,4,2,3,80,0,0
246950,-33.3333333333333,4,2,3,5,0,0
247009,-33.3333333333333,4,2,3,80,0,0
247186,-33.3333333333333,4,2,3,5,0,0
247245,-33.3333333333333,4,2,3,80,0,0
247540,-33.3333333333333,4,2,3,5,0,0
247600,-181.818181818181,4,2,3,80,0,0
247954,-181.818181818181,4,2,3,80,0,0
248072,-33.3333333333333,4,2,3,80,0,0
248249,-33.3333333333333,4,2,3,5,0,0
248308,-33.3333333333333,4,2,3,80,0,0
248485,-33.3333333333333,4,2,3,5,0,0
248544,-33.3333333333333,4,2,3,80,0,0
248663,-25,4,2,3,80,0,0
248840,-25,4,2,3,5,0,0
248899,-25,4,2,3,80,0,0
249076,-25,4,2,3,5,0,0
249134,-33.3333333333333,4,2,3,80,0,0
249253,-100,4,2,3,80,0,0
249430,-100,4,2,3,5,0,0
249489,-100,4,2,3,100,0,0
249902,-100,4,2,3,5,0,0
249962,-33.3333333333333,4,2,3,100,0,0
250139,-33.3333333333333,4,2,3,5,0,0
250198,-30.03003003003,4,2,3,100,0,0
250375,-30.03003003003,4,2,3,5,0,0
250434,-25,4,2,3,100,0,0
250493,-25,4,2,3,5,0,0
250552,-41.6666666666667,4,2,3,100,0,0
250729,-23.8095238095238,4,2,3,5,0,0
250789,-23.8095238095238,4,2,3,100,0,0
250966,-23.8095238095238,4,2,3,5,0,0
251025,-23.8095238095238,4,2,3,100,0,0
251084,-23.8095238095238,4,2,3,5,0,0
251143,-33.3333333333333,4,2,3,100,0,0
251320,-33.3333333333333,4,2,3,5,0,0
251379,-100,4,2,3,100,0,0
251792,-100,4,2,3,5,0,0
251852,-33.3333333333333,4,2,3,100,0,0
252029,-33.3333333333333,4,2,3,5,0,0
252088,-30.03003003003,4,2,3,100,0,0
252265,-30.03003003003,4,2,3,5,0,0
252324,-25,4,2,3,100,0,0
252383,-25,4,2,3,5,0,0
252442,-41.6666666666667,4,2,3,100,0,0
252619,-23.8095238095238,4,2,3,5,0,0
252678,-23.8095238095238,4,2,3,100,0,0
252855,-23.8095238095238,4,2,3,5,0,0
252915,-23.8095238095238,4,2,3,100,0,0
252974,-23.8095238095238,4,2,3,5,0,0
253033,-37.037037037037,4,2,3,100,0,0
253210,-37.037037037037,4,2,3,5,0,0
253269,-100,4,2,3,100,0,0
253682,-100,4,2,3,5,0,0
253741,-33.3333333333333,4,2,3,100,0,0
253918,-33.3333333333333,4,2,3,5,0,0
253977,-30.03003003003,4,2,3,100,0,0
254155,-30.03003003003,4,2,3,5,0,0
254213,-25,4,2,3,100,0,0
254273,-25,4,2,3,5,0,0
254331,-41.6666666666667,4,2,3,100,0,0
254508,-23.8095238095238,4,2,3,5,0,0
254568,-23.8095238095238,4,2,3,100,0,0
254745,-23.8095238095238,4,2,3,5,0,0
254804,-23.8095238095238,4,2,3,100,0,0
254863,-23.8095238095238,4,2,3,5,0,0
254922,-37.037037037037,4,2,3,100,0,0
255099,-37.037037037037,4,2,3,5,0,0
255159,-100,4,2,3,100,0,0
255572,-100,4,2,3,5,0,0
255631,-33.3333333333333,4,2,3,100,0,0
255808,-33.3333333333333,4,2,3,5,0,0
255867,-30.03003003003,4,2,3,100,0,0
256044,-30.03003003003,4,2,3,5,0,0
256103,-25,4,2,3,100,0,0
256162,-25,4,2,3,5,0,0
256221,-41.6666666666667,4,2,3,100,0,0
256398,-23.8095238095238,4,2,3,5,0,0
256458,-23.8095238095238,4,2,3,100,0,0
256635,-23.8095238095238,4,2,3,5,0,0
256694,-23.8095238095238,4,2,3,100,0,0
256753,-23.8095238095238,4,2,3,5,0,0
256812,-37.037037037037,4,2,3,100,0,0
256989,-37.037037037037,4,2,3,5,0,0
257048,-166.666666666667,4,2,3,100,0,0
257402,-166.666666666667,4,2,3,100,0,0
257461,-166.666666666667,4,2,3,5,0,0
257521,-20,4,2,3,100,0,0
257639,-20,4,2,3,100,0,0
257698,-20,4,2,3,5,0,0
257757,-20,4,2,3,100,0,0
257875,-20,4,2,3,100,0,0
257934,-20,4,2,3,5,0,0
257993,-20,4,2,3,100,0,0
258052,-20,4,2,3,5,0,0
258111,-20,4,2,3,100,0,0
258229,-20,4,2,3,100,0,0
258288,-20,4,2,3,5,0,0
258348,-20,4,2,3,100,0,0
258643,-20,4,2,3,5,0,0
258702,-16.6666666666667,4,2,3,100,0,0
258820,-16.6666666666667,4,2,3,100,0,0
258879,-16.6666666666667,4,2,3,5,0,0
258938,-166.666666666667,4,2,3,100,0,0
259292,-166.666666666667,4,2,3,100,0,0
259351,-166.666666666667,4,2,3,5,0,0
259411,-20,4,2,3,100,0,0
259529,-20,4,2,3,100,0,0
259588,-20,4,2,3,5,0,0
259647,-20,4,2,3,100,0,0
259765,-20,4,2,3,100,0,0
259824,-20,4,2,3,5,0,0
259883,-20,4,2,3,100,0,0
259942,-20,4,2,3,5,0,0
260001,-20,4,2,3,100,0,0
260119,-20,4,2,3,100,0,0
260178,-20,4,2,3,5,0,0
260237,-16.6666666666667,4,2,3,100,0,0
260474,-14.2857142857143,4,2,3,100,0,0
260533,-14.2857142857143,4,2,3,5,0,0
260592,-14.2857142857143,4,2,3,100,0,0
260710,-14.2857142857143,4,2,3,100,0,0
260769,-14.2857142857143,4,2,3,5,0,0
260828,-25,4,2,3,100,0,0
261182,-25,4,2,3,100,0,0
261300,-20,4,2,3,100,0,0
261418,-20,4,2,3,100,0,0
261478,-20,4,2,3,5,0,0
261537,-20,4,2,3,100,0,0
261655,-20,4,2,3,100,0,0
261714,-20,4,2,3,5,0,0
261773,-20,4,2,3,100,0,0
261832,-20,4,2,3,5,0,0
261891,-20,4,2,3,100,0,0
262009,-20,4,2,3,100,0,0
262068,-20,4,2,3,5,0,0
262127,-20,4,2,3,100,0,0
262422,-20,4,2,3,5,0,0
262481,-16.6666666666667,4,2,3,100,0,0
262599,-16.6666666666667,4,2,3,100,0,0
262659,-16.6666666666667,4,2,3,5,0,0
262718,-166.666666666667,4,2,3,100,0,0
263072,-166.666666666667,4,2,3,100,0,0
263131,-166.666666666667,4,2,3,5,0,0
263190,-20,4,2,3,100,0,0
263308,-20,4,2,3,100,0,0
263368,-20,4,2,3,5,0,0
263426,-20,4,2,3,100,0,0
263544,-20,4,2,3,100,0,0
263604,-20,4,2,3,5,0,0
263663,-20,4,2,3,100,0,0
263722,-20,4,2,3,5,0,0
263781,-20,4,2,3,100,0,0
263899,-20,4,2,3,100,0,0
263958,-20,4,2,3,5,0,0
264017,-16.6666666666667,4,2,3,100,0,0
264253,-14.2857142857143,4,2,3,100,0,0
264312,-14.2857142857143,4,2,3,5,0,0
264371,-14.2857142857143,4,2,3,100,0,0
264489,-14.2857142857143,4,2,3,100,0,0
264549,-14.2857142857143,4,2,3,5,0,0
264607,-33.3333333333333,4,2,3,100,0,0
264961,-33.3333333333333,4,2,3,100,0,0
265020,-33.3333333333333,4,2,3,5,0,0
265080,-33.3333333333333,4,2,3,100,0,0
265198,-33.3333333333333,4,2,3,100,0,0
265316,-28.5714285714286,4,2,3,100,0,0
265434,-28.5714285714286,4,2,3,100,0,0
265552,-25,4,2,3,100,0,0
265611,-25,4,2,3,5,0,0
265670,-25,4,2,3,100,0,0
265788,-25,4,2,3,100,0,0
265907,-25,4,2,3,100,0,0
266143,-22.2222222222222,4,2,3,100,0,0
266202,-22.2222222222222,4,2,3,5,0,0
266261,-22.2222222222222,4,2,3,100,0,0
266379,-22.2222222222222,4,2,3,100,0,0
266497,-25,4,2,3,100,0,0
266851,-25,4,2,3,100,0,0
266910,-25,4,2,3,5,0,0
266970,-25,4,2,3,100,0,0
267088,-25,4,2,3,100,0,0
267206,-22.2222222222222,4,2,3,100,0,0
267324,-22.2222222222222,4,2,3,100,0,0
267442,-20,4,2,3,100,0,0
267501,-20,4,2,3,5,0,0
267560,-20,4,2,3,100,0,0
267678,-20,4,2,3,100,0,0
267796,-20,4,2,3,100,0,0
268033,-18.1818181818182,4,2,3,100,0,0
268092,-18.1818181818182,4,2,3,5,0,0
268151,-18.1818181818182,4,2,3,100,0,0
268269,-18.1818181818182,4,2,3,100,0,0
268387,-33.3333333333333,4,2,3,100,0,0
268741,-33.3333333333333,4,2,3,100,0,0
268800,-33.3333333333333,4,2,3,5,0,0
268860,-33.3333333333333,4,2,3,100,0,0
268978,-33.3333333333333,4,2,3,100,0,0
269096,-28.5714285714286,4,2,3,100,0,0
269214,-28.5714285714286,4,2,3,100,0,0
269332,-25,4,2,3,100,0,0
269391,-25,4,2,3,5,0,0
269450,-25,4,2,3,100,0,0
269568,-25,4,2,3,100,0,0
269687,-25,4,2,3,100,0,0
269923,-22.2222222222222,4,2,3,100,0,0
269982,-22.2222222222222,4,2,3,5,0,0
270041,-22.2222222222222,4,2,3,100,0,0
270159,-22.2222222222222,4,2,3,100,0,0
270277,-25,4,2,3,100,0,0
270631,-25,4,2,3,100,0,0
270690,-25,4,2,3,5,0,0
270750,-25,4,2,3,100,0,0
270868,-25,4,2,3,100,0,0
270986,-22.2222222222222,4,2,3,100,0,0
271104,-22.2222222222222,4,2,3,100,0,0
271222,-20,4,2,3,100,0,0
271281,-20,4,2,3,5,0,0
271340,-20,4,2,3,100,0,0
271458,-20,4,2,3,100,0,0
271576,-20,4,2,3,100,0,0
271813,-18.1818181818182,4,2,3,100,0,0
271872,-18.1818181818182,4,2,3,5,0,0
271930,-18.1818181818182,4,2,3,100,0,0
272048,-18.1818181818182,4,2,3,100,0,0
272166,-50,4,2,1,67,0,0
272579,-50,4,2,1,5,0,0
272639,-50,4,2,1,67,0,0
272816,-50,4,2,1,5,0,0
272875,-50,4,2,1,67,0,0
273052,-50,4,2,1,5,0,0
273111,-50,4,2,1,67,0,0
273170,-50,4,2,1,5,0,0
273229,-50,4,2,1,67,0,0
273406,-50,4,2,1,5,0,0
273466,-50,4,2,1,67,0,0
273643,-50,4,2,1,5,0,0
273702,-50,4,2,1,67,0,0
273761,-50,4,2,1,5,0,0
273820,-50,4,2,1,67,0,0
273997,-50,4,2,1,5,0,0
274056,-50,4,2,1,67,0,0
274292,-50,4,2,1,67,0,0
274529,-50,4,2,1,67,0,0
274647,-50,4,2,1,67,0,0
274765,-50,4,2,1,67,0,0
274883,-50,4,2,1,67,0,0
275001,-50,4,2,1,67,0,0
275060,-50,4,2,1,5,0,0
275119,-50,4,2,1,67,0,0
275237,-50,4,2,1,67,0,0
275355,-50,4,2,1,67,0,0
275651,-50,4,2,1,5,0,0
275710,-50,4,2,1,67,0,0
275828,-50,4,2,1,67,0,0
275946,-50,4,2,1,67,0,0
276005,-50,4,2,1,5,0,0
276418,-50,4,2,1,67,0,0
276477,-50,4,2,1,5,0,0
276655,-50,4,2,1,67,0,0
276714,-50,4,2,1,5,0,0
276891,-50,4,2,1,67,0,0
276950,-50,4,2,1,5,0,0
277009,-50,4,2,1,67,0,0
277068,-50,4,2,1,5,0,0
277245,-50,4,2,1,67,0,0
277304,-50,4,2,1,5,0,0
277481,-50,4,2,1,67,0,0
277540,-50,4,2,1,5,0,0
277600,-50,4,2,1,67,0,0
277659,-50,4,2,1,5,0,0
277836,-50,4,2,1,67,0,0
277895,-50,4,2,1,5,0,0
278308,-50,4,2,1,67,0,0
278367,-50,4,2,1,5,0,0
278545,-50,4,2,1,67,0,0
278604,-50,4,2,1,5,0,0
278781,-50,4,2,1,67,0,0
278840,-50,4,2,1,5,0,0
278899,-50,4,2,1,67,0,0
278958,-50,4,2,1,5,0,0
279135,-50,4,2,1,67,0,0
279194,-50,4,2,1,5,0,0
279371,-50,4,2,1,67,0,0
279430,-50,4,2,1,5,0,0
279490,-50,4,2,1,67,0,0
279549,-50,4,2,1,5,0,0
279726,-100,4,2,1,67,0,0
279785,-100,4,2,1,5,0,0
280198,-100,4,2,1,67,0,0
280257,-100,4,2,1,5,0,0
280434,-100,4,2,1,67,0,0
280493,-100,4,2,1,5,0,0
280670,-100,4,2,1,67,0,0
280729,-100,4,2,1,5,0,0
280789,-100,4,2,1,67,0,0
280848,-100,4,2,1,5,0,0
281025,-100,4,2,1,67,0,0
281084,-100,4,2,1,5,0,0
281261,-100,4,2,1,67,0,0
281320,-100,4,2,1,5,0,0
281379,-100,4,2,1,67,0,0
281438,-100,4,2,1,5,0,0
281615,-100,4,2,1,67,0,0
281674,-100,4,2,1,5,0,0
282087,-100,4,2,1,67,0,0
282146,-100,4,2,1,5,0,0
282323,-100,4,2,1,67,0,0
282382,-100,4,2,1,5,0,0
282559,-100,4,2,1,67,0,0
282618,-100,4,2,1,5,0,0
282678,-100,4,2,1,67,0,0
282737,-100,4,2,1,5,0,0
282914,-100,4,2,1,67,0,0
282973,-100,4,2,1,5,0,0
283150,-100,4,2,1,67,0,0
283209,-100,4,2,1,5,0,0
283269,-100,4,2,1,67,0,0
283328,-100,4,2,1,5,0,0
283505,-100,4,2,1,67,0,0
283564,-100,4,2,1,5,0,0
283977,-100,4,2,1,67,0,0
284036,-100,4,2,1,5,0,0
284213,-100,4,2,1,67,0,0
284272,-100,4,2,1,5,0,0
284449,-100,4,2,1,67,0,0
284508,-100,4,2,1,5,0,0
284568,-100,4,2,1,67,0,0
284627,-100,4,2,1,5,0,0
284804,-100,4,2,1,67,0,0
284863,-100,4,2,1,5,0,0
285040,-100,4,2,1,67,0,0
285099,-100,4,2,1,5,0,0
285158,-100,4,2,1,67,0,0
285217,-100,4,2,1,5,0,0
285394,-100,4,2,1,67,0,0
285453,-100,4,2,1,5,0,0
285866,-100,4,2,1,67,0,0
285925,-100,4,2,1,5,0,0
286102,-100,4,2,1,67,0,0
286161,-100,4,2,1,5,0,0
286338,-100,4,2,1,67,0,0
286397,-100,4,2,1,5,0,0
286457,-100,4,2,1,67,0,0
286516,-100,4,2,1,5,0,0
286693,-100,4,2,1,67,0,0
286752,-100,4,2,1,5,0,0
286929,-100,4,2,1,67,0,0
286988,-100,4,2,1,5,0,0
287048,-100,4,2,1,67,0,0
287107,-100,4,2,1,5,0,0
287285,-66.6666666666667,4,2,1,58,0,0
287875,-66.6666666666667,4,2,1,58,0,0
287994,-66.6666666666667,4,2,1,58,0,0
288112,-66.6666666666667,4,2,1,58,0,0
288230,-66.6666666666667,4,2,1,58,0,0
288466,-66.6666666666667,4,2,1,58,0,0
288584,-66.6666666666667,4,2,1,58,0,0
289056,-66.6666666666667,4,2,1,58,0,0
289175,-66.6666666666667,4,2,1,58,0,0
289765,-66.6666666666667,4,2,1,58,0,0
289883,-66.6666666666667,4,2,1,58,0,0
290001,-66.6666666666667,4,2,1,58,0,0
290120,-66.6666666666667,4,2,1,58,0,0
290356,-66.6666666666667,4,2,1,58,0,0
290474,-66.6666666666667,4,2,1,58,0,0
290946,-66.6666666666667,4,2,1,58,0,0
291064,-66.6666666666667,4,2,1,58,0,0
291655,-66.6666666666667,4,2,1,58,0,0
291773,-66.6666666666667,4,2,1,58,0,0
291891,-66.6666666666667,4,2,1,58,0,0
292009,-66.6666666666667,4,2,1,58,0,0
292245,-66.6666666666667,4,2,1,58,0,0
292364,-66.6666666666667,4,2,1,58,0,0
292836,-66.6666666666667,4,2,1,58,0,0
292954,-66.6666666666667,4,2,1,58,0,0
293545,-66.6666666666667,4,2,1,58,0,0
293663,-66.6666666666667,4,2,1,58,0,0
293781,-66.6666666666667,4,2,1,58,0,0
293899,-66.6666666666667,4,2,1,58,0,0
294135,-66.6666666666667,4,2,1,58,0,0
294253,-66.6666666666667,4,2,1,58,0,0
294726,-66.6666666666667,4,2,1,58,0,0
294844,-66.6666666666667,4,2,1,58,0,0
295434,-66.6666666666667,4,2,1,58,0,0
295552,-66.6666666666667,4,2,1,58,0,0
295670,-66.6666666666667,4,2,1,58,0,0
295789,-66.6666666666667,4,2,1,58,0,0
296025,-66.6666666666667,4,2,1,58,0,0
296143,-66.6666666666667,4,2,1,58,0,0
296615,-66.6666666666667,4,2,1,58,0,0
296733,-66.6666666666667,4,2,1,58,0,0
297323,-66.6666666666667,4,2,1,58,0,0
297441,-66.6666666666667,4,2,1,58,0,0
297559,-66.6666666666667,4,2,1,58,0,0
297678,-66.6666666666667,4,2,1,58,0,0
297914,-66.6666666666667,4,2,1,58,0,0
298032,-66.6666666666667,4,2,1,58,0,0
298504,-66.6666666666667,4,2,1,58,0,0
298623,-66.6666666666667,4,2,1,58,0,0
299214,-66.6666666666667,4,2,1,58,0,0
299333,-66.6666666666667,4,2,1,58,0,0
299451,-66.6666666666667,4,2,1,58,0,0
299568,-66.6666666666667,4,2,1,58,0,0
299804,-66.6666666666667,4,2,1,58,0,0
299922,-66.6666666666667,4,2,1,58,0,0
300395,-66.6666666666667,4,2,1,58,0,0
300513,-66.6666666666667,4,2,1,58,0,0
301104,-66.6666666666667,4,2,1,58,0,0
301223,-66.6666666666667,4,2,1,58,0,0
301341,-66.6666666666667,4,2,1,58,0,0
301458,-66.6666666666667,4,2,1,58,0,0
301694,-66.6666666666667,4,2,1,58,0,0
301812,-66.6666666666667,4,2,1,58,0,0
302285,-66.6666666666667,4,2,1,58,0,0
302403,-66.6666666666667,4,2,1,46,0,0
314332,-66.6666666666667,4,2,1,46,0,0
314450,-66.6666666666667,4,2,1,46,0,0
314568,-66.6666666666667,4,2,1,46,0,0
314686,-66.6666666666667,4,2,1,46,0,0
314922,-66.6666666666667,4,2,1,46,0,0
315040,-66.6666666666667,4,2,1,46,0,0
315513,-66.6666666666667,4,2,1,46,0,0
315631,-31.25,4,2,1,46,0,0
315749,-31.25,4,2,1,46,0,0
315946,-45.045045045045,4,2,1,46,0,0
316103,-45.045045045045,4,2,1,46,0,0
316221,-45.045045045045,4,2,1,46,0,0
316340,-45.045045045045,4,2,1,46,0,0
316458,-45.045045045045,4,2,1,46,0,0
316576,-45.045045045045,4,2,1,46,0,0
316812,-45.045045045045,4,2,1,46,0,0
316931,-45.045045045045,4,2,1,46,0,0
317403,-45.045045045045,4,2,1,46,0,0
317521,-25,4,2,2,29,0,0
318466,-100,4,2,2,29,0,0

[Colours]
Combo1 : 224,84,112
Combo2 : 174,100,236
Combo3 : 241,150,237
Combo4 : 139,119,219

[HitObjects]
113,91,41,5,0,1:0:0:0:
113,91,513,1,0,1:0:0:0:
113,91,985,1,0,1:0:0:0:
113,91,1457,1,0,1:0:0:0:
113,91,1930,5,0,1:0:0:0:
186,66,2403,1,0,1:0:0:0:
49,37,2875,5,0,1:0:0:0:
259,90,3348,1,0,1:0:0:0:
117,93,3820,5,0,1:0:0:0:
186,66,4292,1,0,1:0:0:0:
186,66,4765,5,0,1:0:0:0:
117,93,5237,1,0,1:0:0:0:
117,93,5710,5,0,1:0:0:0:
117,93,6182,1,0,1:0:0:0:
117,93,6655,1,0,1:0:0:0:
117,93,7127,1,0,1:0:0:0:
117,93,7600,5,0,1:0:0:0:
117,93,8072,1,0,1:0:0:0:
117,93,8544,1,0,1:0:0:0:
117,93,9017,1,0,1:0:0:0:
512,384,9489,5,0,1:0:0:0:
310,357,9962,1,0,1:0:0:0:
463,313,10434,5,0,1:0:0:0:
386,329,10907,1,0,1:0:0:0:
386,329,11379,5,0,1:0:0:0:
463,313,11852,1,0,1:0:0:0:
512,384,12324,5,0,1:0:0:0:
310,357,12797,1,0,1:0:0:0:
385,329,13269,5,0,1:0:0:0:
462,313,13741,1,0,1:0:0:0:
385,329,13978,1,8,0:0:0:0:
512,384,14214,5,0,1:0:0:0:
310,357,14332,1,8,0:0:0:0:
117,93,14568,5,8,0:0:0:0:
117,93,15159,1,0,1:0:0:0:
191,113,15395,2,0,L|184:137,1,17.5
510,7,15631,5,0,1:0:0:0:
510,7,16103,5,0,1:0:0:0:
488,80,16576,5,0,1:0:0:0:
433,147,17048,5,0,1:0:0:0:
342,188,17521,5,0,1:0:0:0:
171,179,17993,5,0,1:0:0:0:
17,31,18466,5,0,1:0:0:0:
17,31,18938,1,0,1:0:0:0:
288,91,19174,2,0,L|265:98,1,17.5
17,31,19411,1,0,1:0:0:0:
17,31,19883,5,0,1:0:0:0:
271,96,20355,1,0,1:0:0:0:
64,92,20828,5,0,1:0:0:0:
198,131,21300,1,0,1:0:0:0:
119,149,21773,5,0,1:0:0:0:
426,201,22245,1,0,1:0:0:0:
475,140,22481,2,0,L|480:108,1,17.5
142,224,22718,5,0,1:0:0:0:
101,290,22954,2,0,L|109:318,1,17.5
256,376,23190,5,0,1:0:0:0:
256,72,23663,1,0,1:0:0:0:
330,101,24135,1,0,1:0:0:0:
256,72,24607,1,0,1:0:0:0:
256,376,25080,5,0,1:0:0:0:
256,72,25316,1,0,0:0:0:0:
182,101,25552,1,2,1:2:0:0:
330,101,25670,1,2,0:2:0:0:
256,72,25907,1,2,0:2:0:0:
330,101,26143,1,2,0:2:0:0:
182,101,26261,1,2,0:2:0:0:
330,101,26497,6,0,L|338:60,1,35,0|0,1:2|0:2,0:0:0:0:
390,150,26852,1,0,0:2:0:0:
402,29,26970,2,0,P|418:25|431:13,1,35,2|2,1:2|0:2,0:0:0:0:
16,17,27442,6,0,L|19:42,1,17.5,2|2,1:2|0:2,0:0:0:0:
93,52,27796,2,0,L|90:27,1,17.5,2|0,0:2|1:2,0:0:0:0:
160,0,28033,2,0,L|163:25,1,17.5,2|2,0:2|0:2,0:0:0:0:
9,362,28387,6,0,P|37:353|58:320,1,70,2|2,1:2|0:2,0:0:0:0:
0,100,29096,2,0,P|13:167|69:207,1,140,8|0,0:0|0:0,0:0:0:0:
193,66,29332,1,0,0:0:0:0:
114,45,29450,6,0,L|65:32,1,35,8|8,0:0|0:0,0:0:0:0:
3,13,29922,1,2,0:2:0:0:
193,66,30041,1,2,0:2:0:0:
218,335,30277,6,0,B|208:252|191:287|180:201,1,140,2|0,1:0|0:0,0:0:0:0:
250,168,30631,1,0,0:0:0:0:
218,335,30749,2,0,B|241:272|280:284|301:223,2,140,10|2|2,1:0|3:1|1:0,0:0:0:0:
148,302,31340,2,0,B|73:314|115:339|19:352,2,140,2|2|2,3:1|3:1|3:1,0:0:0:0:
213,260,31930,2,0,B|136:246|168:208|88:197,2,140,2|2|0,3:1|1:0|0:0,0:0:0:0:
218,335,32521,1,0,0:0:0:0:
167,192,32639,2,0,B|182:102|194:161|216:59,2,140,10|2|2,1:0|3:1|1:0,0:0:0:0:
295,171,33229,2,0,B|230:134|278:98|209:59,1,140,2|2,3:1|3:1,0:0:0:0:
142,39,33702,1,2,3:1:0:0:
351,42,33820,2,0,B|280:34|291:70|213:61,2,140,2|2|0,3:1|1:0|0:0,0:0:0:0:
421,78,34411,1,0,0:0:0:0:
214,61,34529,2,0,B|149:62|174:0|96:0,1,140,10|2,1:0|3:1,0:0:0:0:
34,47,35001,1,2,1:0:0:0:
158,125,35119,2,0,B|84:142|109:177|36:189,2,140,2|2|2,3:1|3:1|3:1,0:0:0:0:
215,198,35710,2,0,B|194:122|234:137|212:59,2,140,2|2|0,3:1|1:0|0:0,0:0:0:0:
158,125,36300,1,0,0:0:0:0:
213,60,36418,2,0,B|284:44|272:90|351:72,2,140,10|2|2,1:0|3:1|1:0,0:0:0:0:
276,125,37009,2,0,B|212:133|235:195|166:201,2,140,2|2|2,3:1|3:1|3:1,0:0:0:0:
276,125,37600,2,0,B|302:136|320:178|284:179|300:227|338:237,2,140,2|2|0,3:1|1:0|0:0,0:0:0:0:
276,125,38190,1,0,0:0:0:0:
276,125,38308,2,0,B|270:51|342:91|334:9,2,140,10|2|2,1:0|3:1|1:0,0:0:0:0:
408,22,38899,1,2,3:1:0:0:
260,203,39135,2,0,B|276:140|196:144|209:81,1,140,2|2,3:1|3:1,0:0:0:0:
251,20,39489,1,2,3:1:0:0:
198,252,39726,2,0,B|128:244|149:285|62:274,1,140,2|0,1:0|0:0,0:0:0:0:
256,298,40080,1,0,0:0:0:0:
123,222,40198,2,0,B|49:209|96:148|23:138,2,140,10|2|2,1:0|3:1|1:0,0:0:0:0:
212,83,40789,2,0,B|146:96|178:136|97:157,2,140,2|2|2,3:1|3:1|3:1,0:0:0:0:
309,175,41379,2,0,B|233:138|288:111|211:82,1,140,2|2,3:1|1:0,0:0:0:0:
309,175,41852,1,0,0:0:0:0:
309,175,41970,1,0,0:0:0:0:
201,218,42088,2,0,B|183:131|231:173|207:65,2,140,10|2|2,1:0|3:1|1:0,0:0:0:0:
210,81,42678,2,0,B|277:26|262:78|333:19,2,140,2|2|2,3:1|3:1|3:1,0:0:0:0:
288,89,43269,1,2,3:1:0:0:
78,197,43505,2,0,B|16:166|70:118|-1:89,2,140,2|0|10,1:0|0:0|1:0,0:0:0:0:
78,197,44214,2,0,B|46:107|89:154|50:40,1,140,2|2,3:1|1:0,0:0:0:0:
121,271,44568,2,0,B|38:261|82:219|-3:211,1,140,2|2,3:1|3:1,0:0:0:0:
190,224,44922,1,8,0:1:0:0:
47,333,45041,1,2,3:1:0:0:
111,384,45159,2,0,B|167:385|196:344|165:340|198:287|252:299,1,175,2|2,3:1|1:0,0:0:0:0:
248,298,45631,5,0,0:0:0:0:
248,298,45749,1,0,0:0:0:0:
299,370,45867,2,0,P|295:258|301:192,1,140,10|2,1:0|3:1,0:0:0:0:
450,23,46340,1,2,1:0:0:0:
504,74,46458,2,0,P|507:107|506:165,1,70,2|0,3:1|0:0,0:0:0:0:
507,143,46694,2,0,P|504:110|505:52,1,70,2|8,3:1|0:1,0:0:0:0:
406,167,46930,1,2,3:1:0:0:
471,211,47048,2,0,P|471:245|474:280,1,70,2|0,3:1|0:0,0:0:0:0:
349,380,47285,6,0,P|249:378|178:383,1,140,2|0,1:0|0:0,0:0:0:0:
209,369,47639,1,0,0:0:0:0:
209,369,47757,2,0,P|278:366|348:368,1,140,10|2,1:0|3:1,0:0:0:0:
189,176,48229,1,2,1:0:0:0:
122,216,48348,2,0,P|71:218|26:210,1,70,2|0,3:1|0:0,0:0:0:0:
50,140,48584,2,0,P|101:138|146:146,1,70,2|8,3:1|0:1,0:0:0:0:
173,75,48820,1,2,3:1:0:0:
258,175,48938,2,0,P|207:173|162:181,1,70,2|0,3:1|0:0,0:0:0:0:
447,187,49174,6,0,P|448:78|444:15,1,140,2|0,1:0|0:0,0:0:0:0:
375,207,49529,1,0,0:0:0:0:
375,24,49647,2,0,P|308:25|235:30,1,140,10|2,1:0|3:1,0:0:0:0:
80,137,50119,1,2,1:0:0:0:
21,82,50237,2,0,P|18:51|22:-15,1,70,2|0,3:1|0:0,0:0:0:0:
29,201,50474,2,0,P|32:232|28:298,1,70,2|8,3:1|0:1,0:0:0:0:
168,269,50710,1,2,3:1:0:0:
98,302,50828,2,0,P|101:333|97:399,1,70,2|0,3:1|0:0,0:0:0:0:
97,59,51064,6,0,P|212:55|272:61,1,140,2|0,1:0|0:0,0:0:0:0:
367,251,51418,1,0,0:0:0:0:
423,197,51537,2,0,P|422:103|412:31,1,140,10|2,1:0|3:1,0:0:0:0:
416,57,52009,1,2,1:0:0:0:
367,251,52127,2,0,P|366:292|371:337,1,70,2|0,3:1|0:0,0:0:0:0:
301,206,52363,2,0,P|302:165|297:120,1,70,2|8,3:1|0:1,0:0:0:0:
440,286,52600,1,2,3:1:0:0:
300,360,52718,2,0,P|246:360|210:366,1,70,2|0,3:1|0:0,0:0:0:0:
17,116,52954,5,2,1:0:0:0:
26,124,53190,1,0,0:0:0:0:
26,124,53308,1,0,0:0:0:0:
26,124,53426,2,0,P|140:125|190:119,1,140,10|2,1:0|3:1,0:0:0:0:
491,198,53899,1,2,1:0:0:0:
439,136,54017,2,0,P|375:135|351:138,1,70,2|0,3:1|0:0,0:0:0:0:
204,198,54253,2,0,P|268:197|292:200,1,70,2|8,3:1|0:1,0:0:0:0:
334,257,54489,1,2,3:1:0:0:
151,261,54607,2,0,P|87:260|63:263,1,70,2|0,3:1|0:0,0:0:0:0:
18,202,54844,6,0,P|15:126|19:37,1,140,2|0,1:0|0:0,0:0:0:0:
83,14,55198,1,0,0:0:0:0:
204,198,55316,2,0,P|207:274|203:363,1,140,10|2,1:0|3:1,0:0:0:0:
204,337,55789,1,2,1:0:0:0:
279,369,55907,2,0,P|331:369|355:366,1,70,2|0,3:1|0:0,0:0:0:0:
460,275,56143,2,0,P|460:239|454:162,1,70,2|8,3:1|0:1,0:0:0:0:
309,198,56379,1,2,3:1:0:0:
386,167,56497,2,0,P|384:132|384:97,1,70,2|0,3:1|0:0,0:0:0:0:
451,49,56733,6,0,P|364:54|291:47,1,140,2|0,1:0|0:0,0:0:0:0:
211,321,57088,1,0,0:0:0:0:
190,240,57206,2,0,P|103:235|30:242,1,140,10|2,1:0|3:1,0:0:0:0:
50,239,57678,2,0,P|48:192|55:138,1,70,2|2,1:0|3:1,0:0:0:0:
205,68,57915,1,0,0:0:0:0:
273,114,58033,2,0,P|275:161|268:215,1,70,2|8,3:1|0:1,0:0:0:0:
383,360,58269,1,2,3:1:0:0:
317,319,58387,2,0,P|314:271|321:217,1,70,2|0,3:1|0:0,0:0:0:0:
476,31,58623,6,0,P|485:101|481:177,1,140,2|0,1:0|0:0,0:0:0:0:
399,13,58978,1,0,0:0:0:0:
480,170,59096,2,0,P|411:164|341:167,1,140,10|2,1:0|3:1,0:0:0:0:
340,167,59568,1,2,1:0:0:0:
330,89,59686,2,0,P|364:85|399:89,1,70,2|0,3:1|0:0,0:0:0:0:
397,246,59922,2,0,P|343:248|302:238,1,70,2|8,3:1|0:1,0:0:0:0:
463,296,60159,1,2,3:1:0:0:
305,323,60277,2,0,P|270:319|235:322,1,70,2|0,3:1|0:0,0:0:0:0:
65,221,60513,6,0,P|68:244|91:236,1,52.5,2|0,1:0|0:0,0:0:0:0:
90,186,60986,6,0,P|119:212|90:238,1,89.6,10|0,1:0|0:0,0:0:0:0:
19,248,61222,2,0,P|26:209|64:221,1,89.6,2|0,3:1|0:0,0:0:0:0:
116,344,61458,5,2,1:0:0:0:
116,343,61576,2,0,P|78:355|70:316,1,89.6,2|0,3:1|0:0,0:0:0:0:
90,186,61812,6,0,P|119:212|90:238,1,89.6,2|8,3:1|0:1,0:0:0:0:
19,248,62049,5,2,3:1:0:0:
18,248,62167,2,0,P|55:260|63:221,1,89.6,2|0,3:1|0:0,0:0:0:0:
204,81,62403,6,0,P|225:72|230:95,1,52.5,2|0,1:0|0:0,0:0:0:0:
186,120,62876,6,0,P|223:132|231:93,1,89.6,10|0,1:0|0:0,0:0:0:0:
204,27,63112,2,0,P|174:53|203:79,1,89.6,2|0,3:1|0:0,0:0:0:0:
336,63,63348,5,2,1:0:0:0:
335,64,63466,2,0,P|327:25|289:37,1,89.6,2|0,3:1|0:0,0:0:0:0:
186,120,63702,6,0,P|223:132|231:93,1,89.6,2|8,3:1|0:1,0:0:0:0:
204,27,63939,5,2,3:1:0:0:
204,27,64057,2,0,P|233:53|203:79,1,89.6,2|0,3:1|0:0,0:0:0:0:
225,241,64293,6,0,P|228:264|251:256,1,52.5,2|0,1:0|0:0,0:0:0:0:
250,206,64766,6,0,P|279:232|250:258,1,89.6,10|0,1:0|0:0,0:0:0:0:
179,268,65002,2,0,P|186:229|224:241,1,89.6,2|0,3:1|0:0,0:0:0:0:
276,364,65238,5,2,1:0:0:0:
276,363,65356,2,0,P|238:375|230:336,1,89.6,2|0,3:1|0:0,0:0:0:0:
250,206,65592,6,0,P|279:232|250:258,1,89.6,2|8,3:1|0:1,0:0:0:0:
179,268,65829,5,2,3:1:0:0:
178,268,65947,2,0,P|215:280|223:241,1,89.6,2|0,3:1|0:0,0:0:0:0:
354,115,66183,6,0,P|375:106|380:129,1,52.5,2|0,1:0|0:0,0:0:0:0:
336,154,66656,6,0,P|373:166|381:127,1,89.6,10|0,1:0|0:0,0:0:0:0:
354,61,66892,2,0,P|324:87|353:113,1,89.6,2|0,3:1|0:0,0:0:0:0:
486,97,67128,5,2,1:0:0:0:
485,98,67246,2,0,P|477:59|439:71,1,89.6,2|0,3:1|0:0,0:0:0:0:
336,154,67482,6,0,P|373:166|381:127,1,89.6,2|8,3:1|0:1,0:0:0:0:
354,61,67719,5,2,3:1:0:0:
353,60,67837,2,0,P|382:86|352:112,1,89.6,2|0,3:1|0:0,0:0:0:0:
196,118,68072,6,0,L|138:109,1,52.5,2|0,1:0|0:0,0:0:0:0:
196,118,68545,6,0,L|97:139,1,89.6,10|0,1:0|0:0,0:0:0:0:
145,31,68781,2,0,L|46:52,1,89.6,2|0,3:1|0:0,0:0:0:0:
99,213,69017,5,2,1:0:0:0:
99,213,69135,2,0,L|0:234,1,89.6,2|0,3:1|0:0,0:0:0:0:
145,31,69372,2,0,L|46:52,1,89.6,2|8,3:1|0:1,0:0:0:0:
232,12,69608,5,2,3:1:0:0:
232,12,69726,2,0,L|133:33,1,89.6,2|0,3:1|0:0,0:0:0:0:
269,204,69962,6,0,L|327:195,1,52.5,2|0,1:0|0:0,0:0:0:0:
269,204,70435,6,0,L|368:225,1,89.6,10|0,1:0|0:0,0:0:0:0:
320,117,70671,2,0,L|419:138,1,89.6,2|0,3:1|0:0,0:0:0:0:
366,299,70907,5,2,1:0:0:0:
366,299,71025,2,0,L|465:320,1,89.6,2|0,3:1|0:0,0:0:0:0:
320,117,71262,2,0,L|419:138,1,89.6,2|8,3:1|0:1,0:0:0:0:
233,98,71498,5,2,3:1:0:0:
233,98,71616,2,0,L|332:119,1,89.6,2|0,3:1|0:0,0:0:0:0:
114,323,71852,6,0,L|123:265,1,52.5,2|0,1:0|0:0,0:0:0:0:
114,323,72325,6,0,L|93:224,1,89.6,10|0,1:0|0:0,0:0:0:0:
201,272,72561,2,0,L|179:173,1,89.6,2|0,3:1|0:0,0:0:0:0:
19,226,72797,5,2,1:0:0:0:
19,226,72915,2,0,L|-2:127,1,89.6,2|0,3:1|0:0,0:0:0:0:
201,272,73152,2,0,L|179:173,1,89.6,2|8,3:1|0:1,0:0:0:0:
220,359,73388,5,2,3:1:0:0:
220,359,73506,2,0,L|198:260,1,89.6,2|0,3:1|0:0,0:0:0:0:
363,212,73742,6,0,L|354:154,1,52.5,2|0,1:0|0:0,0:0:0:0:
363,212,74215,6,0,L|384:113,1,89.6,10|0,1:0|0:0,0:0:0:0:
276,161,74451,2,0,L|297:62,1,89.6,2|0,3:1|0:0,0:0:0:0:
458,115,74687,5,2,1:0:0:0:
458,115,74805,2,0,L|479:16,1,89.6,2|0,3:1|0:0,0:0:0:0:
276,161,75042,2,0,L|297:62,1,89.6,2|8,3:1|0:1,0:0:0:0:
257,248,75278,5,2,3:1:0:0:
257,248,75396,2,0,L|278:149,1,89.6,2|0,3:1|0:0,0:0:0:0:
0,58,75631,6,0,P|92:81|154:153,1,193.2000002948,2|0,1:0|0:0,0:0:0:0:
196,66,75986,1,0,0:0:0:0:
145,4,76104,2,0,P|99:3|82:45,1,96.6000001473999,10|0,1:0|0:0,0:0:0:0:
41,152,76340,2,0,P|75:185|96:228,1,96.6000001473999,2|0,3:1|0:0,0:0:0:0:
196,66,76576,5,2,1:0:0:0:
145,4,76694,2,0,P|99:3|82:45,1,96.6000001473999,2|0,3:1|0:0,0:0:0:0:
41,152,76931,2,0,P|75:185|96:228,1,96.6000001473999,2|8,3:1|0:1,0:0:0:0:
157,283,77167,1,2,3:1:0:0:
257,142,77285,2,0,P|222:175|201:218,1,96.6000001473999,2|0,3:1|0:0,0:0:0:0:
241,304,77521,6,0,P|333:280|395:208,1,193.2000002948,2|0,1:0|0:0,0:0:0:0:
437,296,77876,1,0,0:0:0:0:
386,357,77994,2,0,P|340:357|323:315,1,96.6000001473999,10|0,1:0|0:0,0:0:0:0:
282,209,78230,2,0,P|316:175|337:132,1,96.6000001473999,2|0,3:1|0:0,0:0:0:0:
437,296,78466,5,2,1:0:0:0:
386,357,78584,2,0,P|340:357|323:315,1,96.6000001473999,2|0,3:1|0:0,0:0:0:0:
282,209,78821,2,0,P|316:175|337:132,1,96.6000001473999,2|8,3:1|0:1,0:0:0:0:
394,73,79057,1,2,3:1:0:0:
512,207,79175,2,0,P|477:173|456:130,1,96.6000001473999,2|0,3:1|0:0,0:0:0:0:
151,153,79411,6,0,P|197:72|289:55,1,193.2000002948,2|0,1:0|0:0,0:0:0:0:
63,78,79765,1,0,0:0:0:0:
90,4,79883,2,0,P|128:32|143:78,1,96.6000001473999,10|0,1:0|0:0,0:0:0:0:
197,230,80120,2,0,P|235:201|230:151,1,96.6000001473999,2|0,3:1|0:0,0:0:0:0:
63,78,80356,5,2,1:0:0:0:
90,4,80474,2,0,P|128:32|143:78,1,96.6000001473999,2|0,3:1|0:0,0:0:0:0:
74,177,80710,2,0,P|53:236|58:301,1,96.6000001473999,2|8,3:1|0:1,0:0:0:0:
197,230,80946,1,2,3:1:0:0:
197,230,81064,2,0,P|235:201|230:151,1,96.6000001473999,2|0,3:1|0:0,0:0:0:0:
411,161,81301,6,0,P|364:79|272:62,1,193.2000002948,2|0,1:0|0:0,0:0:0:0:
499,85,81655,1,0,0:0:0:0:
471,11,81773,2,0,P|432:39|418:84,1,96.6000001473999,10|0,1:0|0:0,0:0:0:0:
365,237,82010,2,0,P|326:208|332:158,1,96.6000001473999,2|0,3:1|0:0,0:0:0:0:
499,85,82246,5,2,1:0:0:0:
471,11,82364,2,0,P|432:39|418:84,1,96.6000001473999,2|0,3:1|0:0,0:0:0:0:
488,184,82600,2,0,P|509:243|504:308,1,96.6000001473999,2|8,3:1|0:1,0:0:0:0:
365,237,82836,1,2,3:1:0:0:
365,237,82954,2,0,P|326:208|332:158,1,96.6000001473999,2|0,3:1|0:0,0:0:0:0:
129,384,83190,6,0,P|226:362|349:338,1,193.2000002948,2|0,1:0|0:0,0:0:0:0:
192,252,83545,1,0,0:0:0:0:
209,348,83663,2,0,P|160:336|99:324,1,96.6000001473999,10|0,1:0|0:0,0:0:0:0:
195,332,83899,2,0,P|243:320|305:308,1,96.6000001473999,2|0,3:1|0:0,0:0:0:0:
196,236,84135,1,2,1:0:0:0:
204,314,84253,2,0,P|155:302|94:290,1,96.6000001473999,2|0,3:1|0:0,0:0:0:0:
287,274,84490,2,0,P|239:283|192:294,1,96.6000001473999,2|8,3:1|0:1,0:0:0:0:
101,255,84726,2,0,P|148:264|195:275,1,96.6000001473999,2|2,3:1|3:1,0:0:0:0:
283,214,85080,6,0,P|186:192|63:168,1,193.2000002948,2|0,1:0|0:0,0:0:0:0:
220,82,85435,1,0,0:0:0:0:
203,178,85553,2,0,P|251:166|313:154,1,96.6000001473999,10|0,1:0|0:0,0:0:0:0:
217,162,85789,2,0,P|168:150|107:138,1,96.6000001473999,2|0,3:1|0:0,0:0:0:0:
216,66,86025,1,2,1:0:0:0:
208,144,86143,2,0,P|256:132|318:120,1,96.6000001473999,2|0,3:1|0:0,0:0:0:0:
125,104,86380,2,0,P|172:113|219:124,1,96.6000001473999,2|8,3:1|0:1,0:0:0:0:
311,85,86616,2,0,P|263:94|216:105,1,96.6000001473999,2|2,3:1|3:1,0:0:0:0:
129,0,86970,6,0,P|226:22|349:46,1,193.2000002948,2|0,1:0|0:0,0:0:0:0:
192,132,87325,1,0,0:0:0:0:
209,36,87443,2,0,P|160:47|99:59,1,96.6000001473999,10|0,1:0|0:0,0:0:0:0:
195,52,87679,2,0,P|243:63|305:75,1,96.6000001473999,2|0,3:1|0:0,0:0:0:0:
196,148,87915,1,2,1:0:0:0:
204,70,88033,2,0,P|155:81|94:93,1,96.6000001473999,2|0,3:1|0:0,0:0:0:0:
287,110,88270,2,0,P|239:100|192:89,1,96.6000001473999,2|8,3:1|0:1,0:0:0:0:
101,129,88506,2,0,P|148:119|195:108,1,96.6000001473999,2|2,3:1|3:1,0:0:0:0:
283,170,88860,6,0,P|186:192|63:216,1,193.2000002948,2|0,1:0|0:0,0:0:0:0:
220,302,89215,1,0,0:0:0:0:
203,206,89333,2,0,P|251:217|313:229,1,96.6000001473999,10|0,1:0|0:0,0:0:0:0:
217,222,89569,2,0,P|168:233|107:245,1,96.6000001473999,2|0,3:1|0:0,0:0:0:0:
216,318,89805,1,2,1:0:0:0:
208,240,89923,2,0,P|256:251|318:263,1,96.6000001473999,2|0,3:1|0:0,0:0:0:0:
125,280,90160,2,0,P|172:270|219:259,1,96.6000001473999,2|8,3:1|0:1,0:0:0:0:
311,299,90396,2,0,P|263:289|216:278,1,96.6000001473999,2|2,3:1|3:1,0:0:0:0:
0,384,90749,5,0,1:0:0:0:
438,11,91222,2,0,P|410:37|356:16,1,83.9999974365235,0|0,1:0|0:0,0:0:0:0:
206,65,91694,2,0,P|268:52|312:97,1,125.999996154785,0|0,1:0|0:0,0:0:0:0:
418,147,92166,2,0,P|379:153|337:183,1,83.9999974365235,0|0,1:0|0:0,0:0:0:0:
288,257,92639,6,0,B|303:102|303:102|312:91,1,167.999994873047,0|0,1:0|1:0,0:0:0:0:
383,59,93348,1,0,0:0:0:0:
350,313,93584,2,0,B|320:335|318:386|318:386|289:337|253:336,1,167.999994873047,0|0,1:0|1:0,0:0:0:0:
12,24,94529,5,0,1:0:0:0:
12,24,95001,2,0,P|17:67|26:119,1,83.9999974365235,0|0,1:0|0:0,0:0:0:0:
96,14,95474,2,0,P|102:55|107:97,1,83.9999974365235,0|0,1:0|0:0,0:0:0:0:
74,199,95946,2,0,P|46:228|7:219,1,83.9999974365235,0|0,1:0|0:0,0:0:0:0:
79,191,96418,6,0,B|251:221|78:191|253:222,1,167.999994873047,0|0,1:0|1:0,0:0:0:0:
425,63,97127,1,0,0:0:0:0:
482,116,97363,2,0,B|504:135|504:135|449:134|399:166|399:166|413:124,1,167.999994873047,0|0,1:0|1:0,0:0:0:0:
425,63,98308,6,0,P|349:33|263:20,1,167.999994873047,0|0,1:0|1:0,0:0:0:0:
202,73,99017,1,0,0:0:0:0:
74,19,99253,1,0,1:0:0:0:
63,23,99726,1,0,1:0:0:0:
120,86,99962,1,0,0:0:0:0:
47,160,100198,2,0,P|123:130|209:117,1,167.999994873047,0|0,1:0|1:0,0:0:0:0:
277,161,100907,5,0,0:0:0:0:
496,24,101143,1,0,1:0:0:0:
25,54,101615,6,0,B|15:69|15:69|9:142|1:218,2,167.999994873047,0|0|0,1:0|1:0|1:0,0:0:0:0:
49,286,102796,1,0,0:0:0:0:
97,155,103033,1,0,1:0:0:0:
97,155,103151,2,0,P|108:208|119:267,1,83.9999974365235
160,104,103505,2,0,P|171:51|182:-8,1,83.9999974365235,0|0,1:0|0:0,0:0:0:0:
222,159,103978,6,0,B|308:169|290:101|379:113,1,167.999994873047,0|0,1:0|1:0,0:0:0:0:
452,146,104686,1,0,0:0:0:0:
416,14,104922,1,0,1:0:0:0:
156,92,105395,1,0,1:0:0:0:
180,360,105867,5,0,1:0:0:0:
180,360,106340,1,2,0:1:0:0:
180,360,106576,1,2,0:1:0:0:
180,360,106812,1,2,0:1:0:0:
180,360,106930,1,2,0:1:0:0:
180,360,107166,1,2,0:1:0:0:
180,360,107403,1,2,0:1:0:0:
180,360,107521,1,2,0:1:0:0:
258,339,107757,5,2,0:1:0:0:
258,339,108230,1,2,0:1:0:0:
258,339,108466,1,2,0:1:0:0:
258,339,108702,1,2,0:1:0:0:
258,339,108820,1,2,0:1:0:0:
258,339,109056,1,2,0:1:0:0:
258,339,109293,1,2,0:1:0:0:
258,339,109411,1,2,0:1:0:0:
336,319,109647,5,2,0:1:0:0:
336,319,110120,1,2,0:1:0:0:
336,319,110356,1,2,0:1:0:0:
336,319,110592,1,2,0:1:0:0:
336,319,110710,1,2,0:1:0:0:
336,319,110946,1,2,0:1:0:0:
336,319,111183,1,2,0:1:0:0:
336,319,111301,1,2,0:1:0:0:
414,299,111537,5,2,0:1:0:0:
414,299,112010,1,2,0:1:0:0:
414,299,112246,1,2,0:1:0:0:
414,299,112482,1,2,0:1:0:0:
414,299,112600,1,2,0:1:0:0:
414,299,112836,1,2,0:1:0:0:
414,299,113073,1,2,0:1:0:0:
414,299,113191,1,2,0:1:0:0:
493,279,113427,5,2,0:1:0:0:
493,279,113899,1,2,0:1:0:0:
414,299,114136,1,2,0:1:0:0:
336,319,114372,1,2,0:1:0:0:
336,319,114490,1,2,0:1:0:0:
258,339,114726,1,2,0:1:0:0:
180,360,114962,1,2,0:1:0:0:
180,360,115080,1,2,0:1:0:0:
101,380,115316,5,2,0:1:0:0:
101,380,115789,1,2,0:1:0:0:
180,360,116026,1,2,0:1:0:0:
258,339,116262,1,2,0:1:0:0:
258,339,116380,1,2,0:1:0:0:
336,319,116616,1,2,0:1:0:0:
414,299,116852,1,2,0:1:0:0:
414,299,116970,1,2,0:1:0:0:
493,279,117206,5,2,0:1:0:0:
493,279,117678,1,2,0:1:0:0:
414,299,117915,1,2,0:1:0:0:
336,319,118151,1,2,0:1:0:0:
336,319,118269,1,2,0:1:0:0:
258,339,118505,1,2,0:1:0:0:
180,360,118741,1,2,0:1:0:0:
180,360,118859,1,2,0:1:0:0:
101,380,119096,5,2,0:1:0:0:
101,380,119569,1,2,0:1:0:0:
180,360,119804,1,2,0:1:0:0:
258,339,120041,1,2,0:1:0:0:
258,339,120159,1,2,0:1:0:0:
336,319,120395,1,2,0:1:0:0:
414,299,120631,1,2,0:1:0:0:
414,299,120749,1,2,0:1:0:0:
75,187,120985,5,2,1:0:0:0:
75,186,121458,2,0,P|99:171|106:143,1,59.5000011348725,10|0,1:0|0:0,0:0:0:0:
175,115,121694,2,0,P|165:87|141:69,1,59.5000011348725,2|0,3:1|0:0,0:0:0:0:
188,317,121930,5,2,1:0:0:0:
254,356,122048,2,0,L|325:347,1,59.5000011348725,2|0,3:1|0:0,0:0:0:0:
357,285,122285,2,0,L|448:300,1,70,2|8,3:1|0:1,0:0:0:0:
310,223,122521,5,2,3:1:0:0:
510,358,122639,2,0,L|451:370,1,59.5000011348725,2|0,3:1|0:0,0:0:0:0:
426,296,122875,5,2,1:0:0:0:
426,295,123348,2,0,P|444:271|442:241,1,59.5000011348725,10|0,1:0|0:0,0:0:0:0:
500,196,123584,2,0,P|486:170|455:161,1,59.5000011348725,2|0,3:1|0:0,0:0:0:0:
224,232,123820,5,2,1:0:0:0:
164,181,123938,2,0,L|143:95,1,59.5000011348725,2|0,3:1|0:0,0:0:0:0:
285,95,124174,2,0,L|306:9,1,59.5000011348725,2|8,3:1|0:1,0:0:0:0:
227,246,124411,5,2,3:1:0:0:
78,103,124529,2,0,L|89:3,1,70,2|0,3:1|0:0,0:0:0:0:
161,332,124765,6,0,P|156:341|139:336,1,26.25,4|0,1:2|0:0,0:0:0:0:
322,190,125237,6,0,L|402:213,1,59.5000011348725,10|0,1:0|0:0,0:0:0:0:
398,283,125474,2,0,L|465:271,1,59.5000011348725,2|0,3:1|0:0,0:0:0:0:
246,119,125710,5,2,1:0:0:0:
183,162,125828,2,0,P|159:143|154:114,1,59.5000011348725,2|0,3:1|0:0,0:0:0:0:
88,78,126064,2,0,P|96:49|138:31,1,70,2|8,3:1|0:1,0:0:0:0:
208,14,126300,5,2,3:1:0:0:
26,125,126418,2,0,P|4:99|10:45,1,59.5000011348725,2|0,3:1|0:0,0:0:0:0:
88,78,126655,5,2,1:0:0:0:
88,78,127127,2,0,L|150:87,1,59.5000011348725,10|0,1:0|0:0,0:0:0:0:
188,155,127363,2,0,L|250:146,1,59.5000011348725,2|0,3:1|0:0,0:0:0:0:
435,257,127600,5,2,1:0:0:0:
501,208,127718,2,0,L|513:141,1,59.5000011348725,2|0,3:1|0:0,0:0:0:0:
364,98,127954,2,0,L|352:31,1,59.5000011348725,2|8,3:1|0:1,0:0:0:0:
431,272,128190,5,2,3:1:0:0:
451,93,128308,2,0,L|460:-4,1,59.5000011348725,2|0,3:1|0:0,0:0:0:0:
462,343,128544,6,0,P|456:351|439:346,1,26.25,4|0,1:2|0:0,0:0:0:0:
431,272,129017,6,0,P|390:247|358:255,1,59.5000011348725,10|0,1:0|0:0,0:0:0:0:
288,352,129253,2,0,P|255:373|212:360,1,70,2|0,3:1|0:0,0:0:0:0:
156,324,129489,5,2,1:0:0:0:
275,270,129607,2,0,L|291:173,1,59.5000011348725,2|0,3:1|0:0,0:0:0:0:
53,151,129844,2,0,L|41:42,1,70,2|8,3:1|0:1,0:0:0:0:
184,181,130080,5,2,3:1:0:0:
246,128,130198,2,0,L|254:40,1,59.5000011348725,2|0,3:1|0:0,0:0:0:0:
184,21,130434,5,2,1:0:0:0:
184,21,130907,2,0,L|79:33,1,59.5000011348725,10|0,1:0|0:0,0:0:0:0:
93,101,131143,2,0,L|14:85,1,59.5000011348725,2|0,3:1|0:0,0:0:0:0:
169,384,131379,5,2,1:0:0:0:
100,343,131497,2,0,L|89:246,1,59.5000011348725,2|0,3:1|0:0,0:0:0:0:
240,287,131733,2,0,L|262:200,1,70,2|8,3:1|0:1,0:0:0:0:
369,384,131970,5,2,3:1:0:0:
434,339,132088,2,0,L|500:290,1,70,2|0,3:1|0:0,0:0:0:0:
500,13,132324,6,0,P|492:1|475:2,1,26.25,4|0,1:2|0:0,0:0:0:0:
403,17,132796,6,0,L|309:35,1,59.5000011348725,10|0,1:0|0:0,0:0:0:0:
320,143,133033,2,0,L|226:125,1,59.5000011348725,2|0,3:1|0:0,0:0:0:0:
40,9,133269,5,2,1:0:0:0:
115,26,133387,2,0,P|132:49|133:79,1,59.5000011348725,2|0,3:1|0:0,0:0:0:0:
272,213,133623,2,0,P|271:249|246:277,1,70,2|8,3:1|0:1,0:0:0:0:
172,296,133859,5,2,3:1:0:0:
320,143,133978,2,0,L|388:158,1,59.5000011348725,2|0,3:1|0:0,0:0:0:0:
115,26,134214,5,2,1:0:0:0:
115,26,134686,2,0,L|128:101,1,59.5000011348725,10|0,1:0|0:0,0:0:0:0:
202,110,134922,2,0,L|212:168,1,59.5000011348725,2|0,3:1|0:0,0:0:0:0:
54,373,135159,5,2,1:0:0:0:
0,235,135277,2,0,P|10:192|42:170,1,59.5000011348725,2|0,3:1|0:0,0:0:0:0:
185,274,135513,2,0,P|218:283|245:339,1,59.5000011348725,2|8,3:1|0:1,0:0:0:0:
202,110,135749,5,2,3:1:0:0:
85,231,135867,2,0,P|108:213|138:210,1,59.5000011348725,2|0,3:1|0:0,0:0:0:0:
416,355,136103,6,0,B|451:345|451:345|362:358,1,122.5,4|0,1:2|2:0,0:0:0:0:
366,358,136576,6,0,L|403:220,1,125.999996154785,10|0,1:0|2:0,0:0:0:0:
398,236,136812,2,0,L|367:92,1,125.999996154785,2|0,3:1|2:0,0:0:0:0:
416,51,137048,5,2,1:0:0:0:
371,113,137166,2,0,L|243:86,1,125.999996154785,2|0,3:1|2:0,0:0:0:0:
194,142,137403,5,2,3:1:0:0:
248,87,137521,2,0,L|119:114,1,125.999996154785,8|2,0:1|2:1,0:0:0:0:
62,64,137757,2,0,L|74:7,1,41.9999987182618,2|0,3:1|2:0,0:0:0:0:
70,22,137993,6,0,L|147:34,1,73.4999977569581,2|0,1:0|2:0,0:0:0:0:
142,33,138466,6,0,L|176:166,1,125.999996154785,10|0,1:0|2:0,0:0:0:0:
173,155,138702,2,0,L|150:289,1,125.999996154785,2|0,3:1|2:0,0:0:0:0:
137,355,138938,5,2,1:0:0:0:
151,279,139056,2,0,P|87:261|77:313,1,125.999996154785,2|0,3:1|2:0,0:0:0:0:
137,355,139292,5,2,3:1:0:0:
151,279,139411,2,0,P|217:287|206:338,1,125.999996154785,8|2,0:1|2:1,0:0:0:0:
137,355,139647,2,0,P|118:361|106:384,1,41.9999987182618,2|0,3:1|2:0,0:0:0:0:
485,172,139883,6,0,B|470:93|470:93|473:142,1,122.5,4|0,1:2|2:0,0:0:0:0:
485,172,140355,6,0,L|341:142,1,125.999996154785,10|0,1:0|2:0,0:0:0:0:
332,78,140592,2,0,L|182:96,1,125.999996154785,2|0,3:1|2:0,0:0:0:0:
155,152,140828,5,2,1:0:0:0:
106,91,140946,2,0,P|115:27|177:41,1,125.999996154785,2|0,3:1|2:0,0:0:0:0:
206,94,141182,5,2,3:1:0:0:
155,152,141300,2,0,P|98:125|36:128,1,125.999996154785,8|2,0:1|2:1,0:0:0:0:
5,57,141537,2,0,P|7:37|42:23,1,41.9999987182618,2|0,3:1|2:0,0:0:0:0:
155,152,141773,6,0,L|165:225,1,73.4999977569581,2|0,1:0|2:0,0:0:0:0:
164,224,142245,6,0,L|22:258,1,125.999996154785,10|0,1:0|2:0,0:0:0:0:
42,253,142481,2,0,L|164:281,1,125.999996154785,2|0,3:1|2:0,0:0:0:0:
240,298,142718,5,2,1:0:0:0:
164,281,142836,2,0,L|21:314,1,125.999996154785,2|0,3:1|2:0,0:0:0:0:
1,376,143072,5,2,3:1:0:0:
41,309,143190,2,0,L|66:162,1,125.999996154785,8|2,0:1|2:1,0:0:0:0:
78,107,143426,2,0,L|61:49,1,41.9999987182618,2|0,3:1|2:0,0:0:0:0:
72,110,143663,6,0,B|206:95|136:199|279:185,2,225.400000343933,4|0|10,1:2|0:0|1:0,0:0:0:0:
1,133,144371,1,2,3:1:0:0:
339,237,144607,1,2,1:0:0:0:
477,161,144726,2,0,P|477:107|453:61,1,93.7999955630495,2|0,3:1|0:0,0:0:0:0:
381,86,144962,2,0,P|379:132|397:175,1,93.7999955630495,2|8,3:1|0:1,0:0:0:0:
448,239,145198,1,2,3:1:0:0:
477,161,145316,2,0,P|477:107|453:61,1,93.7999955630495,2|0,3:1|0:0,0:0:0:0:
318,34,145552,6,0,B|224:21|252:106|150:94,2,187.599991126099,2|0|10,1:0|0:0|1:0,0:0:0:0:
381,86,146261,1,2,3:1:0:0:
67,231,146497,1,2,1:0:0:0:
14,168,146615,2,0,P|4:117|3:52,1,93.7999955630495,2|0,3:1|0:0,0:0:0:0:
84,63,146852,2,0,P|94:114|95:179,1,93.7999955630495,2|8,3:1|0:1,0:0:0:0:
67,231,147088,1,2,3:1:0:0:
14,168,147206,2,0,P|4:117|3:52,1,93.7999955630495,2|0,3:1|0:0,0:0:0:0:
146,262,147442,6,0,B|107:308|117:365|117:365|77:308|7:309,2,225.400000343933,6|2|10,1:2|0:0|0:0,0:0:0:0:
220,291,148151,1,2,3:1:0:0:
447,136,148387,5,2,0:0:0:0:
428,210,148505,1,2,3:1:0:0:
329,43,148741,1,2,3:1:0:0:
512,92,148978,1,2,3:1:0:0:
447,136,149096,1,2,3:1:0:0:
231,9,149332,1,2,0:1:0:0:
16,313,149804,1,10,0:0:0:0:
223,249,150041,1,2,0:1:0:0:
66,137,150277,1,2,0:0:0:0:
34,209,150395,1,2,0:1:0:0:
337,168,150631,1,2,0:1:0:0:
252,104,150867,1,2,0:1:0:0:
181,132,150985,1,2,0:1:0:0:
495,368,151222,6,0,L|513:373,1,15.7499995193482,6|0,0:0|0:0,0:0:0:0:
271,241,151694,6,0,L|258:318,1,70,10|0,1:0|0:0,0:0:0:0:
182,303,151930,2,0,L|197:383,1,70,2|0,3:1|0:0,0:0:0:0:
103,318,152166,5,2,1:0:0:0:
131,101,152284,2,0,L|147:10,1,70,2|0,3:1|0:0,0:0:0:0:
94,306,152520,6,0,L|78:397,1,70,2|8,3:1|0:1,0:0:0:0:
68,21,152757,5,2,3:1:0:0:
21,300,152875,2,0,L|5:209,1,70,2|0,3:1|0:0,0:0:0:0:
502,95,153111,5,2,1:0:0:0:
494,104,153583,6,0,L|401:84,1,70,10|0,1:0|0:0,0:0:0:0:
403,17,153820,2,0,L|309:33,1,70,2|0,3:1|0:0,0:0:0:0:
418,166,154056,5,2,1:0:0:0:
163,127,154174,2,0,L|75:110,1,70,2|0,3:1|0:0,0:0:0:0:
66,39,154410,2,0,L|-13:55,1,70,2|8,3:1|0:1,0:0:0:0:
344,144,154646,5,2,3:1:0:0:
68,188,154764,2,0,L|-29:205,1,70,2|0,3:1|0:0,0:0:0:0:
479,360,155001,6,0,L|498:366,1,18.3749994392395,4|0,1:2|2:0,0:0:0:0:
144,303,155473,6,0,L|135:222,1,70,10|0,1:0|0:0,0:0:0:0:
211,240,155709,2,0,L|225:154,1,70,2|0,3:1|0:0,0:0:0:0:
292,358,155946,5,2,1:0:0:0:
261,103,156064,2,0,L|252:19,1,70,2|0,3:1|0:0,0:0:0:0:
285,348,156300,6,0,L|278:278,1,70,2|8,3:1|0:1,0:0:0:0:
244,25,156536,5,2,3:1:0:0:
355,275,156654,2,0,L|369:177,1,70,2|0,3:1|0:0,0:0:0:0:
9,10,156890,5,2,1:0:0:0:
17,19,157363,2,0,L|92:-5,1,70,10|0,1:0|0:0,0:0:0:0:
115,69,157599,2,0,L|212:81,1,70,2|0,3:1|0:0,0:0:0:0:
19,162,157835,5,2,1:0:0:0:
300,26,157953,2,0,L|384:45,1,70,2|0,3:1|0:0,0:0:0:0:
396,116,158190,6,0,L|470:105,1,70,2|8,3:1|0:1,0:0:0:0:
166,3,158426,5,2,3:1:0:0:
373,193,158544,2,0,L|457:212,1,70,2|0,3:1|0:0,0:0:0:0:
33,362,158780,6,0,L|15:365,1,18.3749994392395,4|0,1:2|2:0,0:0:0:0:
299,308,159253,6,0,L|314:222,1,70,10|0,1:0|0:0,0:0:0:0:
243,203,159489,2,0,L|230:117,1,70,2|0,3:1|0:0,0:0:0:0:
249,374,159725,5,2,1:0:0:0:
285,78,159843,2,0,L|295:-9,1,70,2|0,3:1|0:0,0:0:0:0:
181,254,160079,6,0,L|190:323,1,70,2|8,3:1|0:1,0:0:0:0:
146,49,160316,5,2,3:1:0:0:
114,315,160434,2,0,L|106:384,1,70,2|0,3:1|0:0,0:0:0:0:
512,69,160670,5,2,1:0:0:0:
502,80,161142,6,0,L|420:62,1,80.5000015354157,10|0,1:0|0:0,0:0:0:0:
407,139,161379,2,0,L|327:151,1,80.5000015354157,2|0,3:1|0:0,0:0:0:0:
467,189,161615,5,2,1:0:0:0:
247,154,161733,2,0,L|152:139,1,80.5000015354157,2|0,3:1|0:0,0:0:0:0:
101,93,161970,6,0,L|10:105,1,80.5000015354157,2|8,3:1|0:1,0:0:0:0:
321,4,162206,5,2,3:1:0:0:
110,86,162324,2,0,L|-11:66,1,80.5000015354157,2|0,3:1|0:0,0:0:0:0:
460,355,162560,5,2,1:0:0:0:
452,340,163033,2,0,L|467:247,1,70,10|0,1:0|0:0,0:0:0:0:
398,231,163269,6,0,L|381:140,1,70,2|0,3:1|0:0,0:0:0:0:
301,363,163505,5,2,1:0:0:0:
337,101,163623,2,0,L|349:-8,1,70,2|0,3:1|0:0,0:0:0:0:
310,278,163859,6,0,L|292:149,1,70,2|8,3:1|0:1,0:0:0:0:
273,0,164096,5,2,3:1:0:0:
231,288,164214,2,0,L|216:387,1,70,2|0,3:1|0:0,0:0:0:0:
9,14,164450,5,2,1:0:0:0:
21,23,164922,2,0,L|108:8,1,70,10|0,1:0|0:0,0:0:0:0:
130,78,165159,2,0,L|217:93,1,70,2|0,3:1|0:0,0:0:0:0:
20,216,165395,5,2,1:0:0:0:
248,26,165513,2,0,L|317:15,1,70,2|0,3:1|0:0,0:0:0:0:
375,70,165749,6,0,L|444:80,1,70,2|8,3:1|0:1,0:0:0:0:
53,104,165985,5,2,3:1:0:0:
321,160,166103,2,0,L|409:147,1,70,2|0,3:1|0:0,0:0:0:0:
468,150,166340,6,0,L|253:228,1,210,2|0,1:0|0:0,0:0:0:0:
270,221,166813,2,0,L|287:124,1,96.6000001473999,10|0,1:0|0:0,0:0:0:0:
210,136,167049,2,0,L|193:33,1,96.6000001473999,2|0,3:1|0:0,0:0:0:0:
272,50,167285,5,2,1:0:0:0:
194,40,167403,2,0,L|78:115,1,96.6000001473999,2|0,3:1|0:0,0:0:0:0:
128,169,167639,2,0,L|-4:129,1,96.6000001473999,2|8,3:1|0:1,0:0:0:0:
42,63,167876,5,2,3:1:0:0:
36,140,167994,2,0,L|62:270,1,96.6000001473999,2|0,3:1|0:0,0:0:0:0:
54,234,168230,6,0,L|94:-7,1,221.550004563789,2|0,1:0|0:0,0:0:0:0:
90,15,168702,2,0,L|214:-5,1,96.6000001473999,10|0,1:0|0:0,0:0:0:0:
186,74,168938,2,0,L|292:92,1,96.6000001473999,2|0,3:1|0:0,0:0:0:0:
345,44,169175,5,2,1:0:0:0:
281,90,169293,2,0,L|261:209,1,96.6000001473999,2|0,3:1|0:0,0:0:0:0:
198,228,169529,2,0,L|93:204,1,96.6000001473999,2|8,3:1|0:1,0:0:0:0:
35,247,169765,5,2,3:1:0:0:
294,300,169884,2,0,L|198:315,1,96.6000001473999,2|0,3:1|0:0,0:0:0:0:
152,380,170120,6,0,L|188:149,1,233.100005690918,2|0,1:0|0:0,0:0:0:0:
188,149,170592,2,0,L|164:37,1,96.6000001473999,10|0,1:0|0:0,0:0:0:0:
97,88,170828,2,0,L|3:63,1,96.6000001473999,2|0,3:1|0:0,0:0:0:0:
295,126,171065,5,2,1:0:0:0:
108,167,171183,2,0,L|14:191,1,96.6000001473999,2|0,3:1|0:0,0:0:0:0:
48,263,171419,2,0,L|-8:395,1,96.6000001473999,2|8,3:1|0:1,0:0:0:0:
97,88,171655,5,2,3:1:0:0:
123,247,171773,2,0,L|133:351,1,96.6000001473999,2|0,3:1|0:0,0:0:0:0:
132,343,172010,6,0,L|183:40,1,244.65000979929,2|0,1:0|0:0,0:0:0:0:
172,101,172482,2,0,L|287:72,1,96.6000001473999,10|0,1:0|0:0,0:0:0:0:
292,194,172718,2,0,L|403:213,1,96.6000001473999,2|0,3:1|0:0,0:0:0:0:
467,224,172954,5,2,1:0:0:0:
294,325,173073,2,0,L|178:340,1,96.6000001473999,2|0,3:1|0:0,0:0:0:0:
174,261,173309,2,0,L|59:232,1,96.6000001473999,2|8,3:1|0:1,0:0:0:0:
120,350,173545,5,2,3:1:0:0:
85,158,173663,2,0,L|48:26,1,96.6000001473999,2|0,3:1|0:0,0:0:0:0:
43,320,173899,6,0,L|58:65,1,256.199989444886,2|0,1:0|0:0,0:0:0:0:
58,64,174372,2,0,L|193:91,1,96.6000001473999,10|0,1:0|0:0,0:0:0:0:
201,228,174608,2,0,L|315:209,1,96.6000001473999,2|0,3:1|0:0,0:0:0:0:
353,264,174844,5,2,1:0:0:0:
417,221,174962,2,0,L|438:87,1,96.6000001473999,2|0,3:1|0:0,0:0:0:0:
268,114,175198,2,0,L|247:-20,1,96.6000001473999,2|8,3:1|0:1,0:0:0:0:
319,338,175434,5,2,3:1:0:0:
346,113,175552,2,0,L|362:-16,1,96.6000001473999,2|0,3:1|0:0,0:0:0:0:
440,327,175789,6,0,L|152:371,1,244.65000979929,2|0,1:0|0:0,0:0:0:0:
198,363,176261,2,0,L|224:214,1,96.6000001473999,10|0,1:0|0:0,0:0:0:0:
138,283,176497,2,0,L|118:139,1,96.6000001473999,2|0,3:1|0:0,0:0:0:0:
78,339,176733,5,2,1:0:0:0:
199,192,176852,2,0,L|215:70,1,96.6000001473999,2|0,3:1|0:0,0:0:0:0:
150,52,177088,2,0,L|77:129,1,96.6000001473999,2|8,3:1|0:1,0:0:0:0:
222,16,177324,5,2,3:1:0:0:
150,52,177442,2,0,L|26:25,1,96.6000001473999,2|0,3:1|0:0,0:0:0:0:
83,122,177678,6,0,L|371:80,1,233.100005690918,2|0,1:0|0:0,0:0:0:0:
313,88,178151,2,0,L|291:-29,1,96.6000001473999,10|0,1:0|0:0,0:0:0:0:
353,229,178387,2,0,L|380:113,1,96.6000001473999,2|0,3:1|0:0,0:0:0:0:
282,247,178623,5,2,1:0:0:0:
451,121,178741,2,0,L|431:26,1,96.6000001473999,2|0,3:1|0:0,0:0:0:0:
462,199,178978,2,0,L|442:293,1,96.6000001473999,2|8,3:1|0:1,0:0:0:0:
451,121,179214,5,2,3:1:0:0:
384,345,179332,2,0,L|246:370,1,96.6000001473999,2|0,3:1|0:0,0:0:0:0:
384,345,179568,6,0,L|106:323,1,221.550004563789,2|0,1:0|0:0,0:0:0:0:
99,286,180041,2,0,L|72:163,1,96.6000001473999,10|0,1:0|0:0,0:0:0:0:
237,181,180277,2,0,L|254:37,1,96.6000001473999,2|0,3:1|0:0,0:0:0:0:
163,207,180513,5,2,1:0:0:0:
143,132,180631,2,0,L|121:10,1,96.6000001473999,2|0,3:1|0:0,0:0:0:0:
426,220,180867,2,0,L|323:193,1,96.6000001473999,2|8,3:1|0:1,0:0:0:0:
322,116,181103,5,2,3:1:0:0:
135,309,181222,2,0,L|36:321,1,96.6000001473999,2|0,3:1|0:0,0:0:0:0:
40,321,181458,6,0,B|59:122|59:122|78:108,1,210.000008010865,2|8,1:2|0:0,0:0:0:0:
472,63,182166,2,0,B|453:262|453:262|434:276,1,210.000008010865,2|0,0:2|1:0,0:0:0:0:
369,297,182521,1,8,0:0:0:0:
444,267,182757,5,8,0:0:0:0:
369,297,182875,2,0,B|388:98|388:98|407:84,1,210.000008010865,8|0,1:2|0:0,0:0:0:0:
499,360,183348,6,0,B|480:161|480:161|461:147,1,210.000008010865,2|2,1:2|1:2,0:0:0:0:
329,227,183938,1,2,0:3:0:0:
256,192,184056,1,2,0:3:0:0:
183,227,184174,1,2,0:3:0:0:
19,124,184292,2,0,B|38:323|38:323|57:337,1,210.000008010865,2|2,1:3|0:0,0:0:0:0:
123,316,184765,2,0,B|104:117|104:117|85:103,1,210.000008010865,8|0,1:0|0:0,0:0:0:0:
48,48,185237,6,0,B|48:32|48:32|439:32|439:32|439:50,1,420.000016021729,2|8,1:2|0:0,0:0:0:0:
440,334,185946,2,0,B|440:350|440:350|49:350|49:350|49:332,1,420.000016021729,2|0,0:2|0:0,0:0:0:0:
167,256,186655,2,0,B|175:248|175:248|175:104|175:104|335:104|335:104|335:248|335:248|351:264|351:264,2,466.200011381836,8|2|2,1:2|1:2|1:2,0:0:0:0:
256,368,187718,1,2,0:3:0:0:
256,288,187836,1,2,0:3:0:0:
256,208,187954,1,2,0:3:0:0:
144,125,188072,2,0,B|144:112|144:112|368:112|368:112|368:126,2,251.999992309571,2|2|10,1:3|0:0|1:0,0:0:0:0:
480,329,189017,6,0,B|499:231|499:231|445:327,1,210.000008010865,2|8,1:2|0:0,0:0:0:0:
27,181,189726,2,0,B|8:83|8:83|62:179,1,210.000008010865,2|0,0:2|1:0,0:0:0:0:
100,248,190080,1,8,0:0:0:0:
100,248,190316,5,8,0:0:0:0:
62,179,190434,2,0,B|8:83|8:83|27:181,1,210.000008010865,8|0,1:2|0:0,0:0:0:0:
75,323,190907,6,0,B|70:338|70:338|156:386|156:386|186:296|186:296|165:285,1,232.400003368835,2|2,1:2|1:2,0:0:0:0:
191,114,191497,1,2,0:3:0:0:
256,64,191615,1,2,0:3:0:0:
321,114,191733,1,2,0:3:0:0:
346,285,191852,2,0,B|326:296|326:296|356:386|356:386|442:338|442:338|437:323,1,232.400003368835,2|2,1:3|0:0,0:0:0:0:
416,246,192324,2,0,B|395:235|395:235|425:145|425:145|511:193|511:193|506:208,1,232.400003368835,10|0,1:0|0:0,0:0:0:0:
512,353,192796,6,0,B|492:331|492:331|412:347|412:347|332:331|332:331|300:267|300:267|268:331|268:331|188:347|188:347|108:331|108:331|76:363,1,527.799981074067,2|8,1:2|0:0,0:0:0:0:
87,32,193505,2,0,B|108:53|108:53|188:37|188:37|268:53|268:53|300:117|300:117|332:53|332:53|412:37|412:37|492:53|492:53|512:31,1,527.799981074067,2|0,0:2|0:0,0:0:0:0:
207,257,194214,2,0,B|198:247|198:247|22:263|22:263|-10:199|-10:199|22:135|22:135|198:151|198:151|214:135,2,527.799981074067,8|2|2,1:2|1:2|1:2,0:0:0:0:
496,192,195277,1,2,0:3:0:0:
416,192,195395,1,2,0:3:0:0:
336,192,195513,1,2,0:3:0:0:
296,66,195631,2,0,B|285:72|285:72|285:312|285:312|298:318,2,263.899990537033,2|2|10,1:3|0:0|1:0,0:0:0:0:
509,20,196576,6,0,P|449:57|406:38,1,105.000004005432,2|2,1:2|0:2,0:0:0:0:
420,48,197048,2,0,P|360:11|317:30,1,105.000004005432,10|2,0:0|0:0,0:0:0:0:
331,19,197521,1,2,1:2:0:0:
331,19,197639,2,0,P|344:83|251:32,1,210.000008010865,8|8,0:0|0:0,0:0:0:0:
243,61,197993,1,2,1:2:0:0:
8,20,198466,6,0,P|46:41|47:119,1,105.000004005432,2|2,1:2|0:2,0:0:0:0:
57,97,198938,2,0,P|79:133|143:140,1,105.000004005432,10|2,0:0|0:0,0:0:0:0:
138,141,199292,1,2,0:0:0:0:
138,141,199647,1,0,0:0:0:0:
138,141,199883,2,0,P|172:56|232:120,1,210.000008010865,8|2,1:1|1:2,0:0:0:0:
138,141,200592,5,2,0:2:0:0:
232,115,200828,2,0,P|309:129|329:187,1,105.000004005432,10|2,0:0|0:0,0:0:0:0:
321,146,201300,2,0,P|334:67|412:126,1,210.000008010865,2|2,1:2|1:2,0:0:0:0:
489,368,202245,6,0,P|443:310|389:310,1,105.000004005432,2|2,1:2|0:2,0:0:0:0:
416,304,202718,2,0,P|373:341|309:317,1,105.000004005432,10|2,0:0|0:0,0:0:0:0:
123,248,203072,1,2,0:0:0:0:
187,207,203426,1,0,0:0:0:0:
329,335,203663,2,0,P|208:322|196:397,1,210.000008010865,8|2,1:1|1:2,0:0:0:0:
329,335,204371,5,2,0:2:0:0:
192,384,204607,2,0,P|177:320|116:312,1,105.000004005432,10|2,0:0|0:0,0:0:0:0:
145,306,205080,1,2,1:2:0:0:
145,306,205198,2,0,P|93:265|199:260,1,210.000008010865,8|8,0:0|0:0,0:0:0:0:
182,213,205552,1,2,1:2:0:0:
14,19,206025,6,0,P|24:59|95:77,1,105.000004005432,2|2,1:2|0:2,0:0:0:0:
79,82,206497,2,0,P|114:37|181:47,1,105.000004005432,10|2,0:0|0:0,0:0:0:0:
158,34,206852,2,0,B|169:113|240:82|271:78|346:32|361:128,1,262.500010013581,2|8,0:0|1:1,0:0:0:0:
56,368,207915,6,0,P|37:322|76:254,1,105.000004005432,2|2,1:2|0:2,0:0:0:0:
56,368,208387,2,0,P|76:287|127:290,1,105.000004005432,10|2,0:0|0:0,0:0:0:0:
161,229,208859,2,0,P|79:196|85:284,1,210.000008010865,2|2,1:2|1:2,0:0:0:0:
278,333,209804,6,0,P|335:340|364:409,1,105.000004005432,2|2,1:2|0:2,0:0:0:0:
362,375,210277,2,0,P|421:351|432:297,1,105.000004005432,10|2,0:0|0:0,0:0:0:0:
114,161,210631,1,2,0:0:0:0:
114,161,210985,1,0,0:0:0:0:
114,161,211222,2,0,P|36:178|39:264,1,140,10|0,1:2|0:0,0:0:0:0:
78,365,211694,5,2,1:0:0:0:
470,289,212166,1,10,1:0:0:0:
156,349,212403,1,2,3:1:0:0:
392,304,212639,1,2,1:0:0:0:
235,334,212757,1,2,3:1:0:0:
313,320,212993,1,2,3:1:0:0:
235,334,213229,1,2,3:1:0:0:
313,320,213348,1,2,3:1:0:0:
235,334,213584,1,2,1:0:0:0:
313,320,214056,1,10,1:0:0:0:
235,334,214292,1,2,3:1:0:0:
392,304,214529,1,2,1:0:0:0:
156,349,214647,1,2,3:1:0:0:
470,289,214883,1,2,3:1:0:0:
78,365,215119,1,2,3:1:0:0:
392,304,215237,1,2,3:1:0:0:
470,289,215474,1,2,1:0:0:0:
235,334,215946,1,10,1:0:0:0:
78,365,216182,1,2,3:1:0:0:
156,349,216418,1,2,1:0:0:0:
235,334,216537,1,2,3:1:0:0:
313,320,216773,1,2,3:1:0:0:
392,304,217009,1,2,3:1:0:0:
470,289,217127,1,2,3:1:0:0:
78,365,217363,1,2,1:0:0:0:
156,349,217836,1,10,1:0:0:0:
392,304,218072,1,2,3:1:0:0:
156,349,218308,1,2,1:0:0:0:
392,304,218426,1,2,3:1:0:0:
156,349,218663,1,2,3:1:0:0:
392,304,218899,1,2,3:1:0:0:
156,349,219017,1,2,3:1:0:0:
235,334,219253,1,2,1:0:0:0:
313,320,219726,1,10,1:0:0:0:
156,349,219962,1,2,3:1:0:0:
78,365,220198,1,2,1:0:0:0:
470,289,220316,1,2,3:1:0:0:
78,365,220552,1,2,3:1:0:0:
470,289,220789,1,2,3:1:0:0:
78,365,220907,1,2,3:1:0:0:
313,320,221143,1,2,1:0:0:0:
235,334,221615,1,10,1:0:0:0:
156,349,221852,1,2,3:1:0:0:
392,304,222088,1,2,1:0:0:0:
156,349,222206,1,2,3:1:0:0:
156,349,222442,1,2,3:1:0:0:
156,349,222678,1,2,3:1:0:0:
470,289,222796,1,2,3:1:0:0:
392,304,223033,1,2,1:0:0:0:
470,289,223505,1,10,1:0:0:0:
313,320,223741,1,2,3:1:0:0:
392,304,223978,1,2,1:0:0:0:
313,320,224096,1,2,3:1:0:0:
392,304,224332,1,2,3:1:0:0:
156,349,224568,1,2,3:1:0:0:
236,332,224686,1,2,3:1:0:0:
78,365,224922,1,2,1:0:0:0:
78,365,225395,1,10,0:0:0:0:
78,365,225631,1,2,3:1:0:0:
78,365,225867,1,2,0:0:0:0:
78,365,225985,1,2,3:1:0:0:
78,365,226222,1,2,3:1:0:0:
78,365,226458,1,2,3:1:0:0:
78,365,226576,1,2,3:1:0:0:
78,365,226812,6,0,B|107:65|327:166|457:102|506:-32|278:23|301:-7|195:254|256:272,1,735.000028038026,6|0,0:0|2:0,0:0:0:0:
240,240,227285,5,10,1:0:0:0:
448,240,227521,1,2,3:1:0:0:
368,240,227757,5,2,1:0:0:0:
96,240,227875,1,2,3:1:0:0:
32,192,228111,5,2,3:1:0:0:
304,192,228348,1,2,3:1:0:0:
160,192,228466,5,2,3:1:0:0:
512,192,228702,5,2,1:0:0:0:
448,144,229174,5,10,1:0:0:0:
224,144,229411,1,2,3:1:0:0:
304,144,229647,5,2,1:0:0:0:
32,144,229765,1,2,3:1:0:0:
112,144,230001,5,2,3:1:0:0:
448,144,230237,1,2,3:1:0:0:
224,144,230355,5,2,3:1:0:0:
304,144,230592,6,0,B|307:191|390:226|357:19|279:-82|-15:32|-218:19|-5:396|59:407|326:378|134:178|70:240,1,735.000028038026,4|0,1:2|2:0,0:0:0:0:
144,256,231064,5,10,1:0:0:0:
368,256,231300,1,2,3:1:0:0:
432,304,231537,5,2,1:0:0:0:
208,304,231655,1,2,3:1:0:0:
288,304,231891,5,2,3:1:0:0:
16,304,232127,1,2,3:1:0:0:
96,304,232245,5,2,3:1:0:0:
512,304,232481,5,2,1:0:0:0:
208,304,232954,5,10,1:0:0:0:
400,304,233190,1,2,3:1:0:0:
448,368,233426,5,2,1:0:0:0:
256,368,233544,1,2,3:1:0:0:
336,368,233781,5,2,3:1:0:0:
32,368,234017,1,2,3:1:0:0:
256,368,234135,5,2,3:1:0:0:
112,368,234371,6,0,B|240:224|64:160|-80:48|128:16|-64:0|336:16|-32:208|32:304|128:288|182:219,1,630.000024032594,4|0,1:2|0:0,0:0:0:0:
160,240,234844,5,10,1:0:0:0:
480,240,235080,1,2,3:1:0:0:
384,240,235316,5,2,1:0:0:0:
240,240,235434,1,2,3:1:0:0:
336,176,235670,5,2,3:1:0:0:
32,176,235907,1,2,3:1:0:0:
112,176,236025,5,2,3:1:0:0:
432,176,236202,1,2,0:0:0:0:
432,176,236261,5,2,1:0:0:0:
480,112,236733,5,10,1:0:0:0:
288,112,236970,1,2,3:1:0:0:
384,112,237206,5,2,1:0:0:0:
64,112,237324,1,2,3:1:0:0:
144,112,237560,5,2,3:1:0:0:
464,112,237796,1,2,3:1:0:0:
64,112,237915,5,2,3:1:0:0:
384,112,238092,1,2,0:0:0:0:
384,112,238151,5,2,1:0:0:0:
336,48,238623,5,10,1:0:0:0:
16,48,238859,1,2,3:1:0:0:
96,48,239096,5,2,1:0:0:0:
256,48,239214,1,2,3:1:0:0:
496,48,239450,5,2,3:1:0:0:
336,48,239686,1,2,3:1:0:0:
176,48,239804,5,2,3:1:0:0:
416,48,239981,1,2,0:0:0:0:
416,48,240041,5,2,1:0:0:0:
464,112,240513,5,10,1:0:0:0:
128,112,240749,1,2,3:1:0:0:
224,112,240985,5,2,1:0:0:0:
48,112,241103,1,2,3:1:0:0:
336,112,241340,5,2,3:1:0:0:
128,112,241576,1,2,3:1:0:0:
432,112,241694,5,2,3:1:0:0:
28,187,241871,5,2,0:0:0:0:
28,187,241930,6,0,L|102:200,1,67.3750020561219,2|0,1:0|2:0,0:0:0:0:
68,43,242403,6,0,L|94:198,1,157.500006008148,10|0,1:0|2:0,0:0:0:0:
166,190,242639,2,0,L|141:35,1,157.500006008148,2|0,3:1|2:0,0:0:0:0:
94,198,242875,5,2,1:0:0:0:
94,198,242993,2,0,L|253:232,1,157.500006008148,2|0,3:1|2:0,0:0:0:0:
248,230,243229,2,0,L|407:264,1,157.500006008148,2|0,3:1|2:0,0:0:0:0:
480,276,243466,5,2,3:1:0:0:
421,190,243584,2,0,B|441:133|515:146|515:146|495:161|489:209,1,157.500006008148,2|0,3:1|2:0,0:0:0:0:
402,262,243820,6,0,L|331:282,1,67.3750020561219,2|0,1:0|2:0,0:0:0:0:
337,280,244292,6,0,L|159:255,1,157.500006008148,10|0,1:0|2:0,0:0:0:0:
198,336,244529,2,0,L|19:310,1,157.500006008148,2|0,3:1|2:0,0:0:0:0:
97,367,244765,5,2,1:0:0:0:
42,313,244883,2,0,L|23:142,1,157.500006008148,2|0,3:1|2:0,0:0:0:0:
42,313,245119,2,0,L|64:123,1,157.500006008148,2|0,3:1|2:0,0:0:0:0:
42,84,245355,5,2,3:1:0:0:
163,18,245474,2,0,B|199:55|199:55|138:22|60:34,1,157.500006008148,2|0,3:1|2:0,0:0:0:0:
60,156,245710,6,0,L|131:148,1,67.3750020561219,2|0,1:0|2:0,0:0:0:0:
194,182,246182,6,0,L|220:26,1,157.500006008148,10|0,1:0|2:0,0:0:0:0:
293,43,246418,2,0,L|266:198,1,157.500006008148,2|0,3:1|2:0,0:0:0:0:
329,240,246655,5,2,1:0:0:0:
329,240,246773,2,0,P|414:237|448:166,1,157.500006008148,2|0,3:1|2:0,0:0:0:0:
512,219,247009,2,0,P|509:134|438:100,1,157.500006008148,2|0,3:1|2:0,0:0:0:0:
388,137,247245,5,2,3:1:0:0:
302,308,247363,2,0,B|291:315|291:315|347:343|347:343|396:300|396:300|360:289,1,157.500006008148,2|0,3:1|2:0,0:0:0:0:
329,240,247600,6,0,L|315:178,1,57.7500017623902,2|0,1:0|0:0,0:0:0:0:
288,113,248072,6,0,L|132:153,1,157.500006008148,10|0,1:0|2:0,0:0:0:0:
66,178,248308,2,0,L|222:218,1,157.500006008148,2|0,3:1|2:0,0:0:0:0:
329,240,248544,5,2,1:0:0:0:
459,86,248663,2,0,B|459:57|459:57|393:14|393:14|367:83|367:83|391:122,1,210,2|0,3:1|2:0,0:0:0:0:
511,188,248899,2,0,B|511:217|511:217|445:260|445:260|419:191|419:191|443:152,1,210,2|0,3:1|2:0,0:0:0:0:
472,378,249135,5,2,3:1:0:0:
394,364,249253,2,0,L|335:352,1,52.5,2|0,3:1|2:0,0:0:0:0:
265,339,249489,6,0,P|201:325|132:310,1,122.5,2|0,1:0|2:0,0:0:0:0:
145,312,249962,2,0,L|320:276,1,157.500006008148,10|0,1:0|2:0,0:0:0:0:
299,280,250198,2,0,P|213:254|107:223,1,174.825004268189,2|0,3:1|2:0,0:0:0:0:
131,230,250434,2,0,L|260:199,1,70,2|0,1:0|2:0,0:0:0:0:
199,213,250552,2,0,L|349:179,1,125.999996154785,2|0,3:1|2:0,0:0:0:0:
321,185,250789,2,0,P|217:147|91:101,1,220.499993270874,2|0,3:1|2:0,0:0:0:0:
114,109,251025,2,0,L|234:62,1,73.4999977569581,2|0,3:1|2:0,0:0:0:0:
182,82,251143,2,0,L|347:17,1,157.500006008148,2|0,3:1|2:0,0:0:0:0:
328,24,251379,6,0,L|287:147,1,122.5,2|0,1:0|2:0,0:0:0:0:
289,140,251852,2,0,L|162:39,1,157.500006008148,10|0,1:0|2:0,0:0:0:0:
166,42,252088,2,0,P|183:126|202:226,1,174.825004268189,2|0,3:1|2:0,0:0:0:0:
199,213,252324,2,0,L|119:182,1,70,2|0,1:0|2:0,0:0:0:0:
134,188,252442,2,0,L|-4:136,1,125.999996154785,2|0,3:1|2:0,0:0:0:0:
16,143,252678,2,0,P|30:240|49:385,1,220.499993270874,2|0,3:1|2:0,0:0:0:0:
46,361,252915,2,0,L|123:290,1,73.4999977569581,2|0,3:1|2:0,0:0:0:0:
100,311,253033,2,0,L|213:199,1,141.750000540733,2|0,3:1|2:0,0:0:0:0:
200,211,253269,6,0,L|244:329,1,122.5,2|0,1:0|2:0,0:0:0:0:
242,325,253741,2,0,L|272:158,1,157.500006008148,10|0,1:0|2:0,0:0:0:0:
270,170,253978,2,0,L|348:354,1,174.825004268189,2|0,3:1|2:0,0:0:0:0:
338,330,254214,2,0,L|350:219,1,70,2|0,1:0|2:0,0:0:0:0:
346,261,254332,2,0,L|364:115,1,125.999996154785,2|0,3:1|2:0,0:0:0:0:
361,135,254568,2,0,L|481:356,1,220.499993270874,2|0,3:1|2:0,0:0:0:0:
466,328,254804,2,0,L|489:197,1,73.4999977569581,2|0,3:1|2:0,0:0:0:0:
478,255,254922,2,0,L|507:92,1,141.750000540733,2|0,3:1|2:0,0:0:0:0:
502,115,255159,6,0,L|416:217,1,122.5,2|0,1:0|2:0,0:0:0:0:
423,208,255631,2,0,L|351:24,1,157.500006008148,10|0,1:0|2:0,0:0:0:0:
365,62,255867,2,0,L|295:245,1,174.825004268189,2|0,3:1|2:0,0:0:0:0:
302,225,256103,2,0,L|251:144,1,70,2|0,1:0|2:0,0:0:0:0:
265,166,256222,2,0,L|178:31,1,125.999996154785,2|0,3:1|2:0,0:0:0:0:
196,60,256458,2,0,L|124:275,1,220.499993270874,2|0,3:1|2:0,0:0:0:0:
126,268,256694,2,0,L|72:184,1,73.4999977569581,2|0,3:1|2:0,0:0:0:0:
86,206,256812,2,0,L|-11:56,1,141.750000540733,2|0,3:1|2:0,0:0:0:0:
69,37,257048,6,0,P|81:16|67:36,1,73.4999977569581,2|0,1:0|2:0,0:0:0:0:
62,115,257521,6,0,P|40:195|64:116,1,262.5,10|0,1:0|2:0,0:0:0:0:
124,130,257757,6,0,P|102:50|126:129,1,262.5,2|0,3:1|2:0,0:0:0:0:
148,30,257993,6,0,P|164:54|147:31,1,87.5,2|0,1:0|2:0,0:0:0:0:
204,153,258111,6,0,P|234:81|205:154,1,262.5,2|0,3:1|2:0,0:0:0:0:
281,79,258348,6,0,P|325:114|282:78,1,175,2|8,3:1|0:1,0:0:0:0:
365,148,258584,6,0,P|355:124|364:149,1,87.5,2|0,3:1|2:0,0:0:0:0:
493,12,258702,6,0,P|451:104|491:11,1,315.000012016297,2|0,3:1|2:0,0:0:0:0:
448,159,258938,6,0,P|436:180|450:160,1,73.4999977569581,2|0,1:0|2:0,0:0:0:0:
455,81,259411,6,0,P|477:1|453:80,1,262.5,10|0,1:0|2:0,0:0:0:0:
393,66,259647,6,0,P|415:146|391:67,1,262.5,2|0,3:1|2:0,0:0:0:0:
285,80,259883,6,0,P|269:56|286:79,1,87.5,2|0,1:0|2:0,0:0:0:0:
340,163,260001,6,0,P|368:243|337:164,1,262.5,2|0,3:1|2:0,0:0:0:0:
167,97,260238,6,0,P|113:57|166:98,1,210.000008010865,2|8,3:1|0:1,0:0:0:0:
264,265,260474,6,0,P|279:299|265:264,1,122.500001168251,2|0,3:1|2:0,0:0:0:0:
105,330,260592,6,0,P|-2:280|103:333,1,367.500003504753,2|0,3:1|2:0,0:0:0:0:
0,384,260828,6,0,P|208:244|392:244,1,420,2|0,1:0|0:0,0:0:0:0:
450,115,261301,6,0,P|472:195|448:116,1,262.5,10|0,1:0|2:0,0:0:0:0:
388,130,261537,6,0,P|410:50|386:129,1,262.5,2|0,3:1|2:0,0:0:0:0:
364,30,261773,6,0,P|348:54|365:31,1,87.5,2|0,1:0|2:0,0:0:0:0:
308,153,261891,6,0,P|278:81|307:154,1,262.5,2|0,3:1|2:0,0:0:0:0:
231,79,262128,6,0,P|187:114|230:78,1,175,2|8,3:1|0:1,0:0:0:0:
147,148,262364,6,0,P|157:124|148:149,1,87.5,2|0,3:1|2:0,0:0:0:0:
19,12,262482,6,0,P|61:104|21:11,1,315.000012016297,2|0,3:1|2:0,0:0:0:0:
64,159,262718,6,0,P|76:180|62:160,1,73.4999977569581,2|0,1:0|2:0,0:0:0:0:
57,81,263191,6,0,P|35:1|59:80,1,262.5,10|0,1:0|2:0,0:0:0:0:
119,66,263427,6,0,P|97:146|121:67,1,262.5,2|0,3:1|2:0,0:0:0:0:
227,80,263663,6,0,P|243:56|226:79,1,87.5,2|0,1:0|2:0,0:0:0:0:
172,163,263781,6,0,P|144:243|175:164,1,262.5,2|0,3:1|2:0,0:0:0:0:
345,97,264018,6,0,P|399:57|346:98,1,210.000008010865,2|8,3:1|0:1,0:0:0:0:
248,265,264254,6,0,P|233:299|247:264,1,122.500001168251,2|0,3:1|2:0,0:0:0:0:
407,330,264372,6,0,P|514:280|409:333,1,367.500003504753,2|0,3:1|2:0,0:0:0:0:
512,384,264607,6,0,L|451:7,1,367.500014019013,2|0,1:0|2:0,0:0:0:0:
395,136,265080,6,0,L|408:261,1,105.000004005432,10|0,1:0|0:0,0:0:0:0:
326,320,265316,6,0,L|327:191,1,122.500001168251,2|0,3:1|0:0,0:0:0:0:
276,87,265552,6,0,L|260:178,1,70,2|0,1:0|2:0,0:0:0:0:
209,364,265670,6,0,L|255:210,1,140,2|0,3:1|0:0,0:0:0:0:
198,101,265907,6,0,L|141:232,1,140,2|8,3:1|0:1,0:0:0:0:
27,264,266143,6,0,L|86:177,1,78.7500030040742,2|0,3:1|2:0,0:0:0:0:
186,0,266261,6,0,L|53:134,1,157.500006008148,2|0,3:1|0:0,0:0:0:0:
0,77,266497,6,0,L|484:1,1,490,2|0,1:0|2:0,0:0:0:0:
512,101,266970,6,0,L|341:90,1,140,10|0,1:0|0:0,0:0:0:0:
248,135,267206,6,0,L|407:175,1,157.500006008148,2|0,3:1|0:0,0:0:0:0:
490,281,267442,6,0,L|394:243,1,87.5,2|0,1:0|2:0,0:0:0:0:
156,160,267560,6,0,L|336:290,1,175,2|0,3:1|0:0,0:0:0:0:
262,383,267796,6,0,L|142:233,1,175,2|8,3:1|0:1,0:0:0:0:
52,20,268033,6,0,L|111:135,1,96.2500009179115,2|0,3:1|2:0,0:0:0:0:
110,384,268151,6,0,L|47:121,1,192.500001835823,2|0,3:1|0:0,0:0:0:0:
0,0,268387,6,0,L|61:377,1,367.500014019013,2|0,1:0|2:0,0:0:0:0:
117,248,268860,6,0,L|104:123,1,105.000004005432,10|0,1:0|0:0,0:0:0:0:
186,64,269096,6,0,L|185:193,1,122.500001168251,2|0,3:1|0:0,0:0:0:0:
236,297,269332,6,0,L|252:206,1,70,2|0,1:0|2:0,0:0:0:0:
303,20,269450,6,0,L|257:174,1,140,2|0,3:1|0:0,0:0:0:0:
314,283,269687,6,0,L|371:152,1,140,2|8,3:1|0:1,0:0:0:0:
485,120,269923,6,0,L|426:207,1,78.7500030040742,2|0,3:1|2:0,0:0:0:0:
326,384,270041,6,0,L|459:250,1,157.500006008148,2|0,3:1|0:0,0:0:0:0:
512,307,270277,6,0,L|28:383,1,490,2|0,1:0|2:0,0:0:0:0:
0,284,270750,6,0,L|171:295,1,140,10|0,1:0|0:0,0:0:0:0:
282,255,270986,6,0,L|123:215,1,157.500006008148,2|0,3:1|0:0,0:0:0:0:
11,118,271222,6,0,L|107:156,1,87.5,2|0,1:0|2:0,0:0:0:0:
402,253,271340,6,0,L|222:123,1,175,2|0,3:1|0:0,0:0:0:0:
325,47,271576,6,0,L|445:197,1,175,2|8,3:1|0:1,0:0:0:0:
509,384,271813,6,0,L|450:269,1,96.2500009179115,2|0,3:1|2:0,0:0:0:0:
467,0,271930,6,0,L|530:263,1,192.500001835823,2|0,3:1|0:0,0:0:0:0:
500,290,272166,6,0,P|375:315|266:383,1,245,2|0,1:0|2:0,0:0:0:0:
276,375,272639,2,0,P|319:316|373:288,1,105,10|0,1:0|2:0,0:0:0:0:
346,299,272875,2,0,P|288:316|233:361,1,105,2|0,3:1|2:0,0:0:0:0:
252,341,273111,2,0,P|272:309|292:289,1,35,2|0,1:0|2:0,0:0:0:0:
271,311,273229,2,0,P|237:334|193:402,1,105,2|0,3:1|2:0,0:0:0:0:
200,384,273466,2,0,P|208:340|245:288,1,105,2|0,3:1|2:0,0:0:0:0:
242,290,273702,2,0,P|217:303|197:325,1,35,2|0,3:1|2:0,0:0:0:0:
212,306,273820,2,0,P|244:258|312:217,1,105,2|0,3:1|2:0,0:0:0:0:
282,229,274056,2,0,P|195:265|151:314,1,140,2|0,1:0|0:0,0:0:0:0:
164,296,274529,2,0,P|189:228|210:209,1,70,10|0,1:0|0:0,0:0:0:0:
187,231,274765,2,0,P|153:264|139:308,1,70,2|0,3:1|0:0,0:0:0:0:
144,283,275001,2,0,P|153:247|167:227,1,35,2|0,1:0|2:0,0:0:0:0:
152,249,275119,2,0,P|128:286|131:340,1,70,2|0,3:1|0:0,0:0:0:0:
125,310,275355,2,0,P|125:257|152:220,1,70,2|8,3:1|0:1,0:0:0:0:
132,242,275592,2,0,P|106:276|98:298,1,35,2|0,3:1|2:0,0:0:0:0:
111,269,275710,2,0,P|129:222|159:199,1,70,2|0,3:1|0:0,0:0:0:0:
20,278,275946,6,0,P|27:313|35:332,1,35,2|0,1:0|2:0,0:0:0:0:
42,313,276418,6,0,P|61:343|75:358,1,35,10|0,1:0|2:0,0:0:0:0:
98,342,276655,6,0,P|126:364|145:373,1,35,2|0,3:1|2:0,0:0:0:0:
174,350,276891,6,0,P|208:361|229:364,1,35,2|0,1:0|2:0,0:0:0:0:
266,323,277009,6,0,P|302:322|322:317,1,35,2|0,3:1|2:0,0:0:0:0:
356,261,277245,6,0,P|390:248|407:236,1,35,2|0,3:1|2:0,0:0:0:0:
430,167,277481,6,0,P|457:143|470:127,1,35,2|0,3:1|2:0,0:0:0:0:
443,30,277600,6,0,P|461:-1|467:-21,1,35,2|0,3:1|2:0,0:0:0:0:
492,278,277836,6,0,P|485:313|477:332,1,35,2|0,1:0|2:0,0:0:0:0:
470,313,278308,6,0,P|452:343|438:358,1,35,10|0,1:0|2:0,0:0:0:0:
414,342,278545,6,0,P|387:364|368:373,1,35,2|0,3:1|2:0,0:0:0:0:
338,350,278781,6,0,P|305:361|284:364,1,35,2|0,1:0|2:0,0:0:0:0:
246,323,278899,6,0,P|211:322|191:317,1,35,2|0,3:1|2:0,0:0:0:0:
156,261,279135,6,0,P|123:248|106:236,1,35,2|0,3:1|2:0,0:0:0:0:
82,167,279371,6,0,P|56:143|43:127,1,35,2|0,3:1|2:0,0:0:0:0:
69,30,279490,6,0,P|52:-1|46:-21,1,35,2|0,3:1|2:0,0:0:0:0:
255,174,279726,6,0,L|256:192,1,17.5,2|0,1:0|2:0,0:0:0:0:
262,208,280198,2,0,L|255:191,1,17.5,10|0,1:0|2:0,0:0:0:0:
239,188,280434,2,0,L|256:192,1,17.5,2|0,3:1|2:0,0:0:0:0:
271,198,280670,2,0,L|256:192,1,17.5,2|0,1:0|2:0,0:0:0:0:
265,177,280789,2,0,L|256:192,1,17.5,2|0,3:1|2:0,0:0:0:0:
252,208,281025,2,0,L|256:191,1,17.5,2|0,3:1|2:0,0:0:0:0:
239,195,281261,2,0,L|255:191,1,17.5,2|0,3:1|2:0,0:0:0:0:
269,181,281379,2,0,L|255:192,1,17.5,2|0,3:1|2:0,0:0:0:0:
239,197,281615,2,0,L|255:192,1,17.5,2|0,1:0|2:0,0:0:0:0:
258,208,282088,2,0,L|256:192,1,17.5,10|0,1:0|2:0,0:0:0:0:
239,187,282323,2,0,L|255:191,1,17.5,2|0,3:1|2:0,0:0:0:0:
248,207,282559,2,0,L|256:192,1,17.5,2|0,1:0|2:0,0:0:0:0:
265,205,282678,2,0,L|255:192,1,17.5,2|0,3:1|2:0,0:0:0:0:
273,190,282914,2,0,L|255:192,1,17.5,2|0,3:1|2:0,0:0:0:0:
247,177,283151,2,0,L|256:192,1,17.5,2|0,3:1|2:0,0:0:0:0:
267,178,283269,2,0,L|256:192,1,17.5,2|0,3:1|2:0,0:0:0:0:
272,198,283505,2,0,L|256:192,1,17.5,2|0,1:0|2:0,0:0:0:0:
257,174,283977,2,0,L|256:191,1,17.5,10|0,1:0|2:0,0:0:0:0:
260,208,284213,2,0,L|255:191,1,17.5,2|0,3:1|2:0,0:0:0:0:
240,184,284449,2,0,L|256:192,1,17.5,2|0,1:0|2:0,0:0:0:0:
244,204,284568,2,0,L|255:191,1,17.5,2|0,3:1|2:0,0:0:0:0:
268,180,284804,2,0,L|256:192,1,17.5,2|0,3:1|2:0,0:0:0:0:
238,191,285040,2,0,L|256:191,1,17.5,2|0,3:1|2:0,0:0:0:0:
258,174,285158,2,0,L|256:191,1,17.5,2|0,3:1|2:0,0:0:0:0:
266,205,285394,2,0,L|256:192,1,17.5,2|0,1:0|2:0,0:0:0:0:
266,178,285866,2,0,L|256:191,1,17.5,10|0,1:0|2:0,0:0:0:0:
241,182,286102,2,0,L|256:192,1,17.5,2|0,3:1|2:0,0:0:0:0:
243,179,286340,2,0,L|256:192,1,17.5,2|0,1:0|2:0,0:0:0:0:
239,196,286457,2,0,L|255:191,1,17.5,2|0,3:1|2:0,0:0:0:0:
273,189,286693,2,0,L|256:192,1,17.5,2|0,3:1|2:0,0:0:0:0:
251,208,286929,2,0,L|256:191,1,17.5,2|0,3:1|2:0,0:0:0:0:
239,186,287048,2,0,L|255:191,1,17.5,2|0,3:1|2:0,0:0:0:0:
225,30,287285,5,2,1:0:0:0:
460,311,287757,2,0,P|462:293|457:310,1,52.5000020027161,10|0,1:0|0:0,0:0:0:0:
444,328,287994,2,0,P|439:344|441:329,1,52.5000020027161,2|0,3:1|0:0,0:0:0:0:
415,304,288230,1,2,1:0:0:0:
415,304,288348,2,0,P|415:296|435:311,1,52.5000020027161,2|0,3:1|0:0,0:0:0:0:
426,330,288584,2,0,P|418:336|415:298,1,52.5000020027161,2|8,3:1|0:1,0:0:0:0:
415,304,288820,1,2,3:1:0:0:
414,359,288938,2,0,P|414:345|464:353,1,52.5000020027161,2|0,3:1|0:0,0:0:0:0:
270,21,289175,5,2,1:0:0:0:
247,360,289647,2,0,P|243:358|264:314,1,52.5000020027161,10|0,1:0|0:0,0:0:0:0:
257,322,289883,2,0,B|271:303|253:296|243:284|258:330,1,52.5000020027161,2|0,3:1|0:0,0:0:0:0:
275,350,290120,1,2,1:0:0:0:
227,315,290238,2,0,P|221:309|239:312,1,52.5000020027161,2|0,3:1|0:0,0:0:0:0:
275,350,290474,2,0,P|291:348|270:344,1,52.5000020027161,2|8,3:1|0:1,0:0:0:0:
275,328,290710,1,2,3:1:0:0:
234,358,290828,2,0,P|213:354|230:344,1,52.5000020027161,2|0,3:1|0:0,0:0:0:0:
342,42,291064,5,2,1:0:0:0:
85,311,291537,2,0,P|71:306|74:266,1,52.5000020027161,10|0,1:0|0:0,0:0:0:0:
106,332,291773,2,0,P|94:352|54:359,1,52.5000020027161,2|0,3:1|0:0,0:0:0:0:
141,299,292009,1,2,1:0:0:0:
126,317,292127,2,0,P|125:325|109:305,1,52.5000020027161,2|0,3:1|0:0,0:0:0:0:
81,296,292364,2,0,P|87:281|114:297,1,52.5000020027161,2|8,3:1|0:1,0:0:0:0:
127,363,292600,1,2,3:1:0:0:
101,337,292718,2,0,P|97:323|140:322,1,52.5000020027161,2|0,3:1|0:0,0:0:0:0:
407,27,292954,5,2,1:0:0:0:
239,349,293427,2,0,P|230:328|246:297,1,52.5000020027161,10|0,1:0|0:0,0:0:0:0:
254,256,293663,2,0,P|276:278|268:321,1,52.5000020027161,2|0,3:1|0:0,0:0:0:0:
293,320,293899,2,0,P|292:303|289:312,1,52.5000020027161,2|2,1:0|3:1,0:0:0:0:
247,252,294135,1,0,0:0:0:0:
223,326,294253,2,0,P|212:321|227:324,1,52.5000020027161,2|8,3:1|0:1,0:0:0:0:
256,336,294490,1,2,3:1:0:0:
226,270,294608,2,0,P|252:278|275:251,1,52.5000020027161,2|0,3:1|0:0,0:0:0:0:
483,17,294844,5,2,1:0:0:0:
483,17,295316,2,0,L|429:29,1,52.5000020027161,10|0,1:0|0:0,0:0:0:0:
484,44,295552,2,0,L|438:2,1,52.5000020027161,2|0,3:1|0:0,0:0:0:0:
445,60,295789,1,2,1:0:0:0:
460,0,295907,2,0,L|451:51,1,52.5000020027161,2|0,3:1|0:0,0:0:0:0:
474,62,296143,2,0,L|436:26,1,52.5000020027161,2|8,3:1|0:1,0:0:0:0:
431,45,296379,1,2,3:1:0:0:
425,11,296497,2,0,L|501:-3,1,52.5000020027161,2|0,3:1|0:0,0:0:0:0:
29,17,296733,5,2,1:0:0:0:
29,17,297205,2,0,L|83:29,1,52.5000020027161,10|0,1:0|0:0,0:0:0:0:
28,44,297441,2,0,L|74:2,1,52.5000020027161,2|0,3:1|0:0,0:0:0:0:
67,60,297678,1,2,1:0:0:0:
51,0,297796,2,0,L|61:51,1,52.5000020027161,2|0,3:1|0:0,0:0:0:0:
38,62,298032,2,0,L|76:26,1,52.5000020027161,2|8,3:1|0:1,0:0:0:0:
81,45,298268,1,2,3:1:0:0:
87,11,298386,2,0,L|11:-3,1,52.5000020027161,2|0,3:1|0:0,0:0:0:0:
62,364,298623,5,2,1:0:0:0:
22,301,299096,2,0,L|47:348,1,52.5000020027161,10|0,1:0|0:0,0:0:0:0:
98,332,299333,2,0,L|31:346,1,52.5000020027161,2|0,3:1|0:0,0:0:0:0:
31,367,299568,1,2,1:0:0:0:
70,297,299686,2,0,L|49:352,1,52.5000020027161,2|0,3:1|0:0,0:0:0:0:
72,374,299922,2,0,L|55:319,1,52.5000020027161,2|8,3:1|0:1,0:0:0:0:
21,330,300159,1,2,3:1:0:0:
72,291,300277,2,0,L|56:351,1,52.5000020027161,2|0,3:1|0:0,0:0:0:0:
444,369,300513,5,2,1:0:0:0:
488,296,300986,2,0,L|464:345,1,52.5000020027161,10|0,1:0|0:0,0:0:0:0:
414,332,301223,2,0,L|481:346,1,52.5000020027161,2|0,3:1|0:0,0:0:0:0:
481,367,301458,1,2,1:0:0:0:
442,297,301576,2,0,L|463:352,1,52.5000020027161,2|0,3:1|0:0,0:0:0:0:
440,374,301812,2,0,L|457:319,1,52.5000020027161,2|8,3:1|0:1,0:0:0:0:
491,330,302049,1,2,3:1:0:0:
422,313,302167,2,0,L|480:296,1,52.5000020027161,2|0,3:1|0:0,0:0:0:0:
76,363,302403,5,2,1:0:0:0:
45,301,302875,1,10,1:0:0:0:
49,364,303111,1,2,3:1:0:0:
72,299,303348,1,2,1:0:0:0:
30,347,303466,1,2,3:1:0:0:
91,317,303702,1,2,3:1:0:0:
28,321,303938,1,2,3:1:0:0:
93,343,304056,1,2,3:1:0:0:
227,59,304292,5,2,1:0:0:0:
289,28,304764,1,10,1:0:0:0:
226,32,305000,1,2,3:1:0:0:
291,55,305237,1,2,1:0:0:0:
243,13,305355,1,2,3:1:0:0:
273,74,305591,1,2,3:1:0:0:
269,11,305827,1,2,3:1:0:0:
247,76,305945,1,2,3:1:0:0:
436,363,306182,5,2,1:0:0:0:
467,301,306654,1,10,1:0:0:0:
463,364,306890,1,2,3:1:0:0:
440,299,307127,1,2,1:0:0:0:
482,347,307245,1,2,3:1:0:0:
421,317,307481,1,2,3:1:0:0:
484,321,307717,1,2,3:1:0:0:
419,343,307835,1,2,3:1:0:0:
270,206,308072,5,2,1:0:0:0:
240,176,308544,1,10,1:0:0:0:
255,212,308781,1,2,3:1:0:0:
255,170,309017,1,2,1:0:0:0:
240,206,309135,1,2,3:1:0:0:
270,176,309371,1,2,3:1:0:0:
234,191,309607,1,2,3:1:0:0:
276,191,309726,1,2,3:1:0:0:
256,192,309962,5,2,1:0:0:0:
256,192,310434,1,10,1:0:0:0:
256,192,310670,1,2,3:1:0:0:
256,192,310907,1,2,1:0:0:0:
256,192,311025,1,2,3:1:0:0:
256,192,311261,1,2,3:1:0:0:
256,192,311497,1,2,3:1:0:0:
256,192,311615,1,2,3:1:0:0:
256,0,311852,5,2,1:0:0:0:
256,0,312324,1,10,1:0:0:0:
256,0,312560,1,2,3:1:0:0:
256,0,312797,1,2,1:0:0:0:
256,0,312915,1,2,3:1:0:0:
256,0,313151,1,2,3:1:0:0:
256,0,313387,1,2,3:1:0:0:
256,0,313505,1,2,3:1:0:0:
472,94,313741,5,2,1:0:0:0:
472,94,314214,2,0,L|420:116,1,52.5000020027161,10|0,1:0|0:0,0:0:0:0:
423,114,314450,2,0,L|475:140,1,52.5000020027161,2|0,3:1|0:0,0:0:0:0:
470,137,314686,1,2,1:0:0:0:
470,137,314804,2,0,L|418:159,1,52.5000020027161,2|0,3:1|0:0,0:0:0:0:
421,157,315040,2,0,L|472:182,1,52.5000020027161,2|8,3:1|0:1,0:0:0:0:
468,180,315277,1,2,3:1:0:0:
468,180,315395,2,0,L|416:202,1,52.5000020027161,2|0,3:1|0:0,0:0:0:0:
66,284,315631,6,0,P|124:307|186:335,2,112,2|0|0,1:0|0:0|0:0,0:0:0:0:
30,68,316103,2,0,P|47:31|100:41,1,77.7000018969727,10|0,1:0|0:0,0:0:0:0:
80,26,316340,2,0,P|97:63|150:53,1,77.7000018969727,2|0,3:1|0:0,0:0:0:0:
130,67,316576,1,2,1:0:0:0:
130,67,316694,2,0,P|147:30|200:40,1,77.7000018969727,2|0,3:1|0:0,0:0:0:0:
180,25,316931,2,0,P|197:62|250:52,1,77.7000018969727,2|8,3:1|0:1,0:0:0:0:
230,66,317166,1,2,3:1:0:0:
230,66,317285,2,0,P|247:29|300:39,1,77.7000018969727,2|0,3:1|0:0,0:0:0:0:
499,219,317521,6,0,B|481:221|469:231|469:231|447:209|416:201|416:201|392:217|379:242|379:242|358:228|312:233,2,186.666666666667,2|2|2,1:1|1:1|1:1,0:0:0:0:
432,301,317993,1,2,1:0:0:0:
191,105,318466,1,0,1:0:0:0:
55,84,318584,2,0,P|61:53|81:25,1,35
137,52,318820,2,0,P|131:21|111:-7,1,35,0|0,0:0|1:0,0:0:0:0:
482,79,319411,5,0,1:0:0:0:
410,64,319647,2,0,L|355:54,1,35
302,46,319883,1,0,1:0:0:0:
230,288,320355,5,0,1:0:0:0:
160,327,320474,2,0,L|148:376,1,35
82,332,320710,2,0,L|44:346,1,35,0|0,0:0|1:0,0:0:0:0:
35,20,321300,5,0,1:0:0:0:
107,54,321537,1,0,0:0:0:0:
29,77,321655,1,0,0:0:0:0:
82,111,321773,1,0,1:0:0:0:
499,17,322245,1,0,1:0:0:0:
424,68,322363,5,0,0:0:0:0:
366,54,322481,1,0,0:0:0:0:
474,122,322600,5,0,0:0:0:0:
403,140,322718,1,0,1:0:0:0:
19,22,323190,5,0,1:0:0:0:
91,40,323426,2,0,P|98:22|89:6,1,35
19,22,323663,2,0,P|43:105|61:187,1,140,0|0,1:0|1:0,0:0:0:0:
78,239,324253,5,0,0:0:0:0:
66,318,324371,1,0,0:0:0:0:
94,350,324489,1,0,0:0:0:0:
80,369,324607,1,0,1:0:0:0:
