osu file format v14

[General]
AudioFilename: audio.mp3
AudioLeadIn: 0
PreviewTime: -1
Countdown: 1
SampleSet: Soft
StackLeniency: 0.7
Mode: 0
LetterboxInBreaks: 0
WidescreenStoryboard: 0

[Editor]
DistanceSpacing: 1.1
BeatDivisor: 4
GridSize: 32
TimelineZoom: 1

[Metadata]
Title:iiillluuuvvvUUU
TitleUnicode:iiillluuuvvvUUU
Artist:SOOOO
ArtistUnicode:SOOOO
Creator:Exow
Version:I Love You
Source:
Tags:SOOOO iiillluuuvvvUUU Osu! Eternal Love
BeatmapID:1961043
BeatmapSetID:938779

[Difficulty]
HPDrainRate:6
CircleSize:4.5
OverallDifficulty:9
ApproachRate:9.6
SliderMultiplier:1.4
SliderTickRate:1

[Events]
//Background and Video events
0,0,"maxresdefault (3).jpg",0,0
//Break Periods
//Storyboard Layer 0 (Background)
//Storyboard Layer 1 (Fail)
//Storyboard Layer 2 (Pass)
//Storyboard Layer 3 (Foreground)
//Storyboard Sound Samples

[TimingPoints]
596,300,4,2,0,100,1,0
9221,-100,4,2,0,5,0,0
9896,-181.818181818181,4,2,0,100,0,0
9971,-181.818181818181,4,2,0,5,0,0
10871,-181.818181818181,4,2,0,100,0,0
12296,-181.818181818181,4,2,0,5,0,0
13196,-181.818181818181,4,2,0,100,0,0
13496,-222.222222222222,4,2,0,100,0,0
13571,-222.222222222222,4,2,0,5,0,0
13871,-222.222222222222,4,2,0,100,0,0
14096,-222.222222222222,4,2,0,5,0,0
14396,-222.222222222222,4,2,0,100,0,0
14846,-181.818181818182,4,2,0,100,0,0
14921,-181.818181818182,4,2,0,5,0,0
15596,-181.818181818182,4,2,0,100,0,0
17096,-769.230769230769,4,2,0,100,0,0
17171,-769.230769230769,4,2,0,5,0,0
19346,-100,4,2,0,5,0,0
19796,-50,4,2,0,100,0,0
23396,-100,4,2,0,100,0,0
24296,-50,4,2,0,100,0,0
27671,-50,4,2,0,100,0,0
27896,-100,4,2,0,100,0,0
28571,-50,4,2,0,100,0,0
28796,-100,4,2,0,100,0,0
36596,-100,4,2,0,100,0,0
37346,-100,4,2,0,100,0,0
37496,-50,4,2,0,100,0,0
38546,-25,4,2,0,100,0,0
39071,-100,4,2,0,100,0,0
39146,-100,4,2,0,5,0,0
39596,-100,4,2,0,100,0,0
40121,-100,4,2,0,5,0,0
40346,-100,4,2,0,100,0,0
41921,-100,4,2,0,5,0,0
42071,-100,4,2,0,100,0,0
42446,-100,4,2,0,5,0,0
42821,-100,4,2,0,100,0,0
48596,-50,4,2,0,100,0,0
57671,-33.3333333333333,4,2,0,100,0,0
58196,-100,4,2,0,100,0,1
67496,-50,4,2,0,100,0,1
76142,-100,4,2,0,100,0,1
77321,-500,4,2,0,5,0,0
77396,-500,4,2,0,5,0,0
85496,-1000,4,2,0,5,0,0
85571,-500,4,2,0,5,0,0
86096,-100,4,2,0,100,0,1
94796,-50,4,2,0,100,0,1
98396,-100,4,2,0,100,0,1
103196,-50,4,2,0,100,0,0
112196,-100,4,2,0,100,0,0
112346,-50,4,2,0,100,0,0
121796,-50,4,2,0,100,0,0
130271,-133.333333333333,4,2,0,100,0,0
131471,-1000,4,2,0,100,0,0
133421,-100,4,2,0,100,0,0
133496,-100,4,2,0,5,0,0
133796,-100,4,2,0,100,0,1
138596,-50,4,2,0,100,0,0
143096,-50,4,2,0,100,0,1
148046,-50,4,2,0,100,0,0
148871,-66.6666666666667,4,2,0,100,0,0
150671,-50,4,2,0,100,0,0
152771,-50,4,2,0,99,0,0
153371,-50,4,2,0,89,0,0
153671,-50,4,2,0,78,0,0
153971,-50,4,2,0,67,0,0
154271,-50,4,2,0,56,0,0
154571,-50,4,2,0,45,0,0
154871,-50,4,2,0,34,0,0
155171,-50,4,2,0,23,0,0
155396,-50,4,2,0,12,0,0

[HitObjects]
184,256,9896,6,0,B|126:240|126:240|75:172|189:144|189:144|156:102,1,250.250007637024,2|0,0:0|0:0,0:0:0:0:
320,64,11021,1,0,0:0:0:0:
320,64,11171,2,0,L|336:104,1,38.5000011749268
448,128,11471,1,0,0:0:0:0:
384,192,11621,1,0,0:0:0:0:
227,179,11771,1,0,0:0:0:0:
227,179,11921,2,0,L|262:217,1,38.5000011749268
247,56,12221,2,0,B|292:56|316:113|316:113|368:115|368:115|355:159|355:159|372:220,1,250.250007637024,2|0,0:0|0:0,0:0:0:0:
245,178,13346,1,0,0:0:0:0:
204,307,13496,6,0,L|114:308,1,77.0000023498536,2|0,0:0|0:0,0:0:0:0:
155,232,14021,2,0,L|231:231,1,77.0000023498536,2|0,0:0|0:0,0:3:0:0:
334,232,14546,1,0,0:0:0:0:
334,232,14696,1,0,0:0:0:0:
334,232,14846,2,0,B|393:182|389:144|389:144|390:102|321:113,1,192.500005874634,2|0,0:0|0:0,0:0:0:0:
160,160,15746,1,0,0:0:0:0:
160,160,15896,2,0,L|190:114,1,38.5000011749268
256,192,16196,1,0,0:0:0:0:
128,256,16346,1,0,0:0:0:0:
243,319,16496,1,0,0:0:0:0:
243,319,16646,2,0,L|282:291,1,38.5000011749268
353,211,16946,1,0,0:0:0:0:
420,102,17096,2,0,B|403:149|329:121|391:170|356:211,1,136.49999916687,2|0,0:0|0:0,0:0:0:0:
356,124,19796,5,0,0:0:0:0:
131,221,19946,1,0,0:0:0:0:
240,73,20096,1,0,0:0:0:0:
263,283,20246,1,0,0:0:0:0:
382,209,20396,2,0,B|357:168|371:101|371:101|330:112,1,140,8|0,0:0|0:0,0:0:0:0:
172,142,20696,2,0,B|212:179|212:179|176:263,1,140
222,55,20996,2,0,B|270:86|270:86|317:72|317:72|304:34,1,140
343,225,21296,2,0,B|318:257|282:246|282:246|263:320,1,140
141,210,21596,5,0,0:0:0:0:
168,38,21746,1,0,0:0:0:0:
276,162,21896,1,0,0:0:0:0:
422,94,22046,1,0,0:0:0:0:
385,274,22196,2,0,B|350:249|350:249|341:335|300:314,1,140,8|0,0:0|0:0,0:0:0:0:
240,243,22496,2,0,B|211:219|211:219|221:134|151:170,1,140
337,58,22796,2,0,B|385:98|385:98|327:165,1,140
342,350,23096,2,0,B|347:309|347:309|317:289|357:290|357:290|383:242,1,140
336,146,23396,5,0,0:0:0:0:
176,265,23546,1,0,0:0:0:0:
176,265,23621,1,4,0:0:0:0:
176,265,23696,2,0,L|134:201,1,70
224,64,23996,1,0,0:0:0:0:
283,59,24071,1,0,0:0:0:0:
335,93,24146,1,0,0:0:0:0:
358,150,24221,1,0,0:0:0:0:
345,208,24296,1,0,0:0:0:0:
155,210,24446,6,0,B|149:265|149:265|237:283,1,140,8|0,0:0|0:0,0:0:0:0:
322,272,24746,2,0,B|329:232|329:232|355:246|426:217,1,140
350,82,25046,1,0,0:0:0:0:
186,106,25196,1,0,0:0:0:0:
243,254,25346,1,0,0:0:0:0:
243,254,25496,2,0,B|215:195|215:195|159:264,1,140
311,86,25796,1,0,0:0:0:0:
400,206,25946,1,0,0:0:0:0:
235,167,26096,1,0,0:0:0:0:
235,167,26246,2,0,B|286:178|286:178|285:200|285:200|285:115,1,140
106,221,26546,2,0,B|116:173|116:173|74:178|108:96,1,140
106,100,26846,5,0,0:0:0:0:
219,98,26996,1,0,0:0:0:0:
242,123,27071,1,0,0:0:0:0:
259,154,27146,1,0,0:0:0:0:
269,187,27221,1,0,0:0:0:0:
275,222,27296,1,0,0:0:0:0:
281,256,27371,1,0,0:0:0:0:
291,290,27446,1,0,0:0:0:0:
311,319,27521,1,0,0:0:0:0:
341,336,27596,1,4,0:0:0:0:
376,343,27671,6,0,L|435:306,2,70
343,355,27896,1,0,0:0:0:0:
320,327,27971,1,0,0:0:0:0:
293,306,28046,1,0,0:0:0:0:
261,291,28121,1,0,0:0:0:0:
229,278,28196,1,0,0:0:0:0:
197,263,28271,1,0,0:0:0:0:
171,240,28346,1,0,0:0:0:0:
162,206,28421,1,0,0:0:0:0:
168,172,28496,1,4,0:0:0:0:
186,141,28571,2,0,L|224:80,2,70
215,161,28796,5,0,0:0:0:0:
247,174,28871,1,0,0:0:0:0:
281,181,28946,1,0,0:0:0:0:
316,180,29021,1,0,0:0:0:0:
349,170,29096,1,0,0:0:0:0:
378,151,29171,1,0,0:0:0:0:
403,126,29246,1,0,0:0:0:0:
425,99,29321,1,4,0:0:0:0:
441,68,29396,6,0,L|485:1,2,70,8|0|8,0:0|0:0|0:0,0:0:0:0:
352,240,29846,1,0,0:0:0:0:
311,99,29996,1,0,0:0:0:0:
228,243,30146,1,0,0:0:0:0:
166,113,30296,1,0,0:0:0:0:
76,244,30446,2,0,L|162:243,1,70,8|0,0:0|0:0,0:0:0:0:
382,247,30746,2,0,L|283:247,1,70
142,100,31046,1,0,0:0:0:0:
203,101,31121,1,0,0:0:0:0:
264,101,31196,1,0,0:0:0:0:
355,315,31346,1,0,0:0:0:0:
289,315,31421,1,0,0:0:0:0:
227,315,31496,1,0,0:0:0:0:
138,236,31646,5,0,0:0:0:0:
365,242,31796,1,0,0:0:0:0:
166,114,31946,1,0,0:0:0:0:
411,117,32096,1,0,0:0:0:0:
231,283,32246,1,0,0:0:0:0:
278,55,32396,1,0,0:0:0:0:
278,55,32546,6,0,L|343:25,1,70
152,112,32846,1,0,0:0:0:0:
353,168,32996,1,0,0:0:0:0:
184,274,33146,1,0,0:0:0:0:
184,274,33296,2,0,L|219:343,1,70
258,89,33596,1,0,0:0:0:0:
401,214,33746,1,0,0:0:0:0:
245,319,33896,1,0,0:0:0:0:
269,161,34046,1,0,0:0:0:0:
269,161,34121,2,0,L|329:143,2,35
84,179,34421,5,0,0:0:0:0:
91,119,34496,1,0,0:0:0:0:
115,65,34571,1,0,0:0:0:0:
170,34,34646,1,0,0:0:0:0:
160,232,34796,2,0,L|89:200,1,70
142,52,35096,1,0,0:0:0:0:
301,258,35246,1,0,0:0:0:0:
67,132,35396,1,0,0:0:0:0:
173,330,35546,1,0,0:0:0:0:
370,130,35696,5,0,0:0:0:0:
323,91,35771,1,0,0:0:0:0:
280,71,35846,2,0,P|248:55|215:46,1,70
352,296,36146,2,0,P|398:269|406:225,1,70
246,119,36446,1,0,0:0:0:0:
294,264,36596,1,0,0:0:0:0:
371,121,36746,1,0,0:0:0:0:
143,193,36896,1,0,0:0:0:0:
224,22,37046,1,0,0:0:0:0:
295,179,37196,1,0,0:0:0:0:
140,294,37346,1,0,0:0:0:0:
314,263,37496,6,0,P|267:268|219:211,1,70
247,258,37646,2,0,P|267:229|270:195,1,70
270,195,37796,2,0,P|236:185|212:161,1,70
212,161,37946,2,0,P|232:132|235:98,1,70
235,98,38096,2,0,P|201:88|177:64,1,70
177,64,38246,2,0,P|173:98|153:126,1,70
153,126,38396,2,0,P|119:135|95:159,1,70
95,159,38546,2,0,P|91:210|127:229,7,70
193,217,39071,6,0,B|321:200|321:200|261:274|331:298,1,245,2|0,0:0|0:0,0:0:0:0:
362,74,39896,1,0,0:0:0:0:
362,74,40046,2,0,B|287:64|287:64|323:121|272:151,1,175
111,335,40571,1,0,0:0:0:0:
111,335,40721,1,0,0:0:0:0:
111,335,40871,1,0,0:0:0:0:
223,291,41021,1,0,0:0:0:0:
334,346,41171,2,0,P|334:282|366:282,1,105
410,171,41546,1,0,0:0:0:0:
349,92,41696,1,0,0:0:0:0:
349,92,41846,2,0,B|293:84|293:84|266:42|266:42|245:109|200:70,1,175
189,188,42371,6,0,B|180:223|91:126|102:216|102:216|198:266|189:302,1,245,2|0,0:0|0:0,0:0:0:0:
312,188,43046,6,0,B|362:116|219:149|219:149|305:49|280:51,1,245,2|0,0:0|0:0,0:0:0:0:
201,308,43721,2,0,P|181:266|141:246,1,70,8|0,0:0|0:0,0:0:0:0:
232,165,44021,2,0,P|260:188|270:227,1,70
379,154,44321,2,0,P|346:121|337:80,1,70
338,275,44621,2,0,P|309:308|269:316,1,70
213,203,44921,2,0,P|253:191|294:162,1,70
219,52,45221,2,0,P|171:58|132:87,1,70
78,197,45521,5,0,0:0:0:0:
78,197,45596,1,4,0:0:0:0:
78,197,45671,1,0,0:0:0:0:
154,91,45821,2,0,L|254:74,1,70,8|0,0:0|0:0,0:0:0:0:
334,281,46121,2,0,L|240:311,1,70
323,149,46421,1,0,0:0:0:0:
367,117,46496,1,0,0:0:0:0:
409,152,46571,1,0,0:0:0:0:
165,335,46721,6,0,L|98:274,1,70,8|0,0:0|0:0,0:0:0:0:
383,301,47021,2,0,L|440:244,1,70
287,82,47321,1,0,0:0:0:0:
228,82,47396,1,0,0:0:0:0:
208,137,47471,1,0,0:0:0:0:
281,334,47621,2,0,L|223:294,1,70,8|0,0:0|0:0,0:0:0:0:
138,76,47921,1,0,0:0:0:0:
138,76,47996,1,4,0:0:0:0:
138,76,48071,1,0,0:0:0:0:
396,152,48221,1,0,0:0:0:0:
411,210,48296,1,0,0:0:0:0:
377,257,48371,1,0,0:0:0:0:
236,60,48521,1,0,0:0:0:0:
236,60,48596,6,0,B|212:129|212:129|146:137,1,140
128,265,48896,2,0,B|175:246|175:246|148:347,1,140
365,227,49196,2,0,B|324:205|324:205|291:217|291:217|286:152,1,140
131,82,49496,2,0,B|205:63|205:63|211:89|211:89|193:3,1,140
352,96,49796,2,0,B|302:164|302:164|279:87,1,140
179,260,50096,5,0,0:0:0:0:
179,260,50246,1,0,0:0:0:0:
224,96,50396,1,0,0:0:0:0:
224,96,50546,1,0,0:0:0:0:
362,100,50696,2,0,B|334:133|334:133|292:112|283:210,1,140,8|0,0:0|0:0,0:0:0:0:
96,302,50996,2,0,B|85:248|85:248|136:253|136:253|123:225|123:225|134:196,1,140
321,272,51296,6,0,B|401:248|401:248|347:217,1,140
210,75,51596,2,0,B|234:76|234:76|138:11,1,140
182,284,51896,2,0,B|164:366|164:366|109:347,1,140
360,139,52196,1,0,0:0:0:0:
360,139,52346,1,0,0:0:0:0:
349,331,52496,5,0,0:0:0:0:
349,331,52646,1,0,0:0:0:0:
288,64,52796,2,0,B|226:159|226:159|224:128,1,140
128,256,53096,2,0,B|196:263|196:263|142:315|192:320,1,140
426,207,53396,2,0,B|359:220|359:220|362:143,1,140
121,81,53696,6,0,B|106:31|106:31|153:17|153:17|192:32,1,140
362,103,53996,2,0,B|390:196|447:81|447:81|472:132,1,140
236,307,54296,2,0,B|219:337|155:319|155:319|193:372,1,140
151,41,54596,2,0,B|200:76|200:76|222:0,1,140
456,184,54896,2,0,B|404:194|404:194|478:253|427:265,1,140
82,308,55196,2,0,B|143:281|181:308|181:308|146:340,1,140
175,77,55496,5,0,0:0:0:0:
314,263,55646,1,0,0:0:0:0:
379,65,55796,1,0,0:0:0:0:
135,205,55946,1,0,0:0:0:0:
410,207,56096,1,0,0:0:0:0:
267,41,56246,1,0,0:0:0:0:
233,296,56396,1,0,0:0:0:0:
135,90,56546,1,0,0:0:0:0:
328,278,56696,1,0,0:0:0:0:
336,152,56846,1,2,0:0:0:0:
317,122,56921,5,0,0:0:0:0:
291,98,56996,1,0,0:0:0:0:
260,83,57071,1,0,0:0:0:0:
226,76,57146,1,0,0:0:0:0:
191,78,57221,1,0,0:0:0:0:
158,90,57296,1,0,0:0:0:0:
130,110,57371,1,0,0:0:0:0:
108,137,57446,1,0,0:0:0:0:
93,169,57521,1,0,0:0:0:0:
88,203,57596,1,0,0:0:0:0:
93,238,57671,1,4,0:0:0:0:
117,282,57746,6,0,L|212:256,1,70,8|0,0:0|0:0,0:0:0:0:
158,327,57896,6,0,L|253:301,1,70,8|0,0:0|0:0,0:0:0:0:
198,370,58046,6,0,L|293:344,1,70,8|0,0:0|0:0,0:0:0:0:
381,308,58196,1,0,0:0:0:0:
421,140,58346,1,0,0:0:0:0:
234,208,58496,1,0,0:0:0:0:
320,94,58646,2,0,L|236:43,1,70,8|0,0:0|0:0,0:0:0:0:
127,152,58946,1,0,0:0:0:0:
260,57,59096,1,0,0:0:0:0:
127,152,59246,1,0,0:0:0:0:
276,334,59396,2,0,L|368:333,1,70,8|0,0:0|0:0,0:0:0:0:
195,256,59696,5,0,0:0:0:0:
146,185,59771,1,0,0:0:0:0:
166,106,59846,1,0,0:0:0:0:
325,150,59996,2,0,L|273:67,1,70
436,317,60296,2,0,L|349:316,1,70
426,144,60596,1,0,0:0:0:0:
374,217,60671,1,0,0:0:0:0:
290,231,60746,1,0,0:0:0:0:
216,183,60821,1,0,0:0:0:0:
183,105,60896,1,0,0:0:0:0:
132,285,61046,1,0,0:0:0:0:
132,285,61196,6,0,L|205:254,1,70,8|0,0:0|0:0,0:0:0:0:
296,152,61496,2,0,L|360:212,1,70
334,347,61796,1,0,0:0:0:0:
414,316,61871,1,0,0:0:0:0:
450,238,61946,1,0,0:0:0:0:
269,214,62096,2,0,L|202:168,1,70,8|0,0:0|0:0,0:0:0:0:
102,341,62396,2,0,L|107:259,1,70
116,67,62696,1,0,0:0:0:0:
192,33,62771,1,4,0:0:0:0:
275,51,62846,1,0,0:0:0:0:
321,160,62996,5,0,0:0:0:0:
127,153,63146,1,0,0:0:0:0:
321,160,63296,1,0,0:0:0:0:
127,153,63446,1,0,0:0:0:0:
314,230,63596,1,0,0:0:0:0:
180,355,63746,1,0,0:0:0:0:
205,183,63896,1,0,0:0:0:0:
356,320,64046,1,0,0:0:0:0:
351,145,64196,1,0,0:0:0:0:
245,263,64346,1,0,0:0:0:0:
201,92,64496,6,0,L|142:162,1,70,8|0,0:0|0:0,0:0:0:0:
373,37,64796,1,0,0:0:0:0:
420,102,64871,1,4,0:0:0:0:
424,184,64946,1,0,0:0:0:0:
183,290,65096,2,0,L|280:260,1,70,8|0,0:0|0:0,0:0:0:0:
341,178,65396,1,0,0:0:0:0:
190,87,65546,1,0,0:0:0:0:
341,178,65696,1,0,0:0:0:0:
190,87,65846,1,0,0:0:0:0:
375,266,65996,1,0,0:0:0:0:
308,312,66071,1,4,0:0:0:0:
227,313,66146,5,0,0:0:0:0:
166,266,66221,1,0,0:0:0:0:
241,75,66371,1,0,0:0:0:0:
372,184,66521,1,0,0:0:0:0:
310,235,66596,1,0,0:0:0:0:
236,233,66671,5,0,0:0:0:0:
174,184,66746,1,0,0:0:0:0:
96,87,66821,1,0,0:0:0:0:
96,87,66896,1,0,0:0:0:0:
96,87,66971,1,0,0:0:0:0:
96,87,67046,1,0,0:0:0:0:
89,120,67121,1,0,0:0:0:0:
67,176,67196,1,0,0:0:0:0:
47,230,67271,1,0,0:0:0:0:
27,289,67346,1,0,0:0:0:0:
356,331,67496,6,0,B|289:333|273:280|273:280|237:276,1,140,8|0,0:0|0:0,0:0:0:0:
389,166,67796,2,0,B|376:98|326:86|326:86|305:122,1,140
143,134,68096,2,0,B|181:109|181:109|170:66|202:102|202:102|254:78,1,140
222,249,68396,2,0,B|256:232|256:232|170:312,1,140
367,310,68696,2,0,B|388:290|388:290|374:208|456:283,1,140
319,68,68996,2,0,B|354:53|354:53|334:133|334:133|370:123,1,140
239,248,69296,1,0,0:0:0:0:
202,172,69371,1,0,0:0:0:0:
120,153,69446,1,0,0:0:0:0:
50,266,69596,5,0,0:0:0:0:
154,73,69746,1,0,0:0:0:0:
250,259,69896,1,0,0:0:0:0:
154,73,70046,1,0,0:0:0:0:
250,259,70196,1,0,0:0:0:0:
50,266,70346,1,0,0:0:0:0:
272,87,70496,1,0,0:0:0:0:
184,167,70646,5,0,0:0:0:0:
140,240,70721,1,0,0:0:0:0:
157,328,70796,1,0,0:0:0:0:
379,198,70946,1,0,0:0:0:0:
92,129,71096,2,0,B|190:186|190:186|140:190,1,140
395,310,71396,2,0,B|336:341|336:341|339:258,1,140
375,41,71696,2,0,B|420:43|420:43|330:100,1,140
110,301,71996,2,0,B|73:310|115:239|115:239|174:246,1,140
227,114,72296,5,0,0:0:0:0:
341,202,72446,1,0,0:0:0:0:
235,312,72596,1,0,0:0:0:0:
287,142,72746,1,0,0:0:0:0:
171,217,72896,1,0,0:0:0:0:
345,308,73046,1,0,0:0:0:0:
408,246,73121,1,0,0:0:0:0:
430,162,73196,1,0,0:0:0:0:
212,139,73346,5,0,0:0:0:0:
321,337,73496,1,0,0:0:0:0:
352,149,73646,1,0,0:0:0:0:
167,273,73796,1,0,0:0:0:0:
256,98,73946,1,0,0:0:0:0:
263,315,74096,1,0,0:0:0:0:
382,227,74246,1,0,0:0:0:0:
180,176,74396,1,0,0:0:0:0:
180,176,74471,1,4,0:0:0:0:
180,176,74546,5,0,0:0:0:0:
333,288,74696,1,0,0:0:0:0:
299,94,74846,1,0,0:0:0:0:
443,159,74996,1,0,0:0:0:0:
432,192,75071,1,0,0:0:0:0:
422,225,75146,1,0,0:0:0:0:
411,259,75221,1,0,0:0:0:0:
401,292,75296,1,0,0:0:0:0:
391,326,75371,1,0,0:0:0:0:
372,298,75446,1,0,0:0:0:0:
350,270,75521,1,4,0:0:0:0:
325,246,75596,1,0,0:0:0:0:
296,227,75671,1,0,0:0:0:0:
263,215,75746,1,0,0:0:0:0:
228,215,75821,1,0,0:0:0:0:
196,228,75896,1,0,0:0:0:0:
172,253,75971,1,0,0:0:0:0:
158,285,76046,1,0,0:0:0:0:
153,319,76121,1,0,0:0:0:0:
137,352,76196,5,0,0:0:0:0:
121,279,76271,1,0,0:0:0:0:
135,206,76346,1,0,0:0:0:0:
155,134,76421,1,0,0:0:0:0:
155,60,76496,1,0,0:0:0:0:
90,35,76571,1,0,0:0:0:0:
34,81,76646,1,0,0:0:0:0:
59,144,76721,1,0,0:0:0:0:
132,154,76796,1,0,0:0:0:0:
206,142,76871,1,0,0:0:0:0:
278,122,76946,1,0,0:0:0:0:
348,96,77021,1,0,0:0:0:0:
409,50,77096,5,0,0:0:0:0:
409,134,77171,1,0,0:0:0:0:
378,213,77246,1,0,0:0:0:0:
308,258,77321,1,0,0:0:0:0:
232,284,77396,6,0,L|190:296,1,42
100,151,78296,2,0,L|129:118,1,42,2|0,0:0|0:0,0:0:0:0:
367,73,79196,2,0,L|323:88,1,42,2|0,0:0|0:0,0:0:0:0:
137,166,80096,2,0,L|166:202,1,42,2|0,0:0|0:0,0:0:0:0:
390,236,80996,6,0,L|355:268,1,42,2|0,0:0|0:0,0:0:0:0:
135,138,81896,2,0,L|165:172,1,42,2|0,0:0|0:0,0:0:0:0:
318,42,82796,2,0,L|283:74,1,42,2|0,0:0|0:0,0:0:0:0:
192,232,83696,6,0,L|166:194,1,42,2|0,0:0|0:0,0:0:0:0:
246,58,84596,2,0,L|246:105,1,42,2|0,0:0|0:0,0:0:0:0:
325,271,85496,2,0,L|344:251,1,28,2|0,0:0|0:0,0:0:0:0:
366,88,86246,5,0,0:0:0:0:
291,41,86321,1,0,0:0:0:0:
210,66,86396,1,0,0:0:0:0:
159,218,86546,1,0,0:0:0:0:
362,196,86696,1,0,0:0:0:0:
128,192,86846,1,0,0:0:0:0:
398,178,86996,1,0,0:0:0:0:
122,253,87146,2,0,L|58:253,2,35
352,160,87446,2,0,L|416:160,2,35
198,307,87746,5,0,0:0:0:0:
201,24,87896,1,0,0:0:0:0:
181,335,88046,1,0,0:0:0:0:
215,34,88196,1,0,0:0:0:0:
87,246,88346,5,0,0:0:0:0:
384,290,88496,1,0,0:0:0:0:
71,216,88646,1,0,0:0:0:0:
404,326,88796,1,0,0:0:0:0:
170,275,88946,5,0,0:0:0:0:
189,183,89021,1,0,0:0:0:0:
267,138,89096,1,0,0:0:0:0:
414,210,89246,2,0,L|490:211,1,70
272,346,89546,2,0,L|254:392,2,35
365,112,89846,1,0,0:0:0:0:
133,226,89996,1,0,0:0:0:0:
453,209,90146,1,0,0:0:0:0:
108,146,90296,1,0,0:0:0:0:
93,292,90446,5,0,0:0:0:0:
158,334,90521,1,0,0:0:0:0:
232,313,90596,1,0,0:0:0:0:
430,142,90746,1,0,0:0:0:0:
365,97,90821,1,0,0:0:0:0:
293,129,90896,1,0,0:0:0:0:
128,70,91046,5,0,0:0:0:0:
290,234,91196,1,0,0:0:0:0:
128,70,91346,1,0,0:0:0:0:
222,298,91496,1,0,0:0:0:0:
128,70,91646,1,0,0:0:0:0:
133,314,91796,1,0,0:0:0:0:
364,113,91946,5,0,0:0:0:0:
123,260,92096,1,0,0:0:0:0:
112,118,92246,1,0,0:0:0:0:
377,255,92396,1,0,0:0:0:0:
139,31,92546,5,0,0:0:0:0:
398,199,92696,1,0,0:0:0:0:
100,36,92846,1,0,0:0:0:0:
428,175,92996,1,0,0:0:0:0:
198,319,93146,5,0,0:0:0:0:
389,88,93296,1,0,0:0:0:0:
206,356,93446,1,0,0:0:0:0:
382,51,93596,1,0,0:0:0:0:
95,72,93746,5,0,0:0:0:0:
302,308,93896,1,0,0:0:0:0:
96,26,94046,1,0,0:0:0:0:
299,350,94196,1,0,0:0:0:0:
373,57,94346,5,0,0:0:0:0:
124,251,94496,1,0,0:0:0:0:
375,19,94646,1,0,0:0:0:0:
86,267,94796,1,0,0:0:0:0:
367,235,94946,5,0,0:0:0:0:
352,69,95096,1,0,0:0:0:0:
126,144,95246,1,0,0:0:0:0:
268,315,95396,1,0,0:0:0:0:
407,182,95546,2,0,L|351:110,1,70,8|0,0:0|0:0,0:0:0:0:
337,94,95696,1,0,0:0:0:0:
162,232,95846,2,0,L|106:299,1,70
94,311,95996,1,0,0:0:0:0:
366,337,96146,5,0,0:0:0:0:
366,337,96221,1,4,0:0:0:0:
366,337,96296,1,0,0:0:0:0:
180,341,96446,1,0,0:0:0:0:
269,107,96596,1,0,0:0:0:0:
423,188,96746,1,0,0:0:0:0:
176,210,96896,2,0,L|116:261,1,70,8|0,0:0|0:0,0:0:0:0:
94,279,97046,1,0,0:0:0:0:
321,150,97196,2,0,L|341:79,1,70
352,44,97346,1,0,0:0:0:0:
131,125,97496,1,0,0:0:0:0:
131,125,97571,1,4,0:0:0:0:
131,125,97646,5,0,0:0:0:0:
245,37,97796,2,0,B|294:0|294:0|308:81,1,140,8|0,0:0|0:0,0:0:0:0:
208,212,98096,2,0,B|220:240|220:240|164:252|164:252|168:196,1,140
314,204,98396,5,0,0:0:0:0:
498,55,98546,1,0,0:0:0:0:
314,204,98696,1,0,0:0:0:0:
498,55,98846,1,0,0:0:0:0:
314,204,98996,2,0,L|280:234,1,35
19,72,99296,5,0,0:0:0:0:
293,126,99446,1,0,0:0:0:0:
19,72,99596,1,0,0:0:0:0:
293,126,99746,1,0,0:0:0:0:
19,72,99896,2,0,L|-19:57,1,35
246,287,100196,5,0,0:0:0:0:
304,3,100346,1,0,0:0:0:0:
246,287,100496,1,0,0:0:0:0:
304,3,100646,1,0,0:0:0:0:
246,287,100796,2,0,L|234:335,1,35
40,282,101096,5,0,0:0:0:0:
345,108,101246,1,0,0:0:0:0:
40,282,101396,1,0,0:0:0:0:
345,108,101546,1,0,0:0:0:0:
40,282,101696,2,0,L|-3:310,1,35
71,24,101996,5,0,0:0:0:0:
375,326,102146,1,0,0:0:0:0:
71,24,102296,1,0,0:0:0:0:
375,326,102446,1,0,0:0:0:0:
71,24,102596,1,0,0:0:0:0:
48,79,102671,1,0,0:0:0:0:
28,122,102746,1,0,0:0:0:0:
7,182,102821,1,0,0:0:0:0:
7,182,102896,1,0,0:0:0:0:
7,182,102971,1,0,0:0:0:0:
7,182,103046,1,0,0:0:0:0:
313,92,103196,5,0,0:0:0:0:
349,308,103346,1,0,0:0:0:0:
116,286,103496,1,0,0:0:0:0:
139,68,103646,1,0,0:0:0:0:
315,265,103796,1,0,0:0:0:0:
60,230,103946,1,0,0:0:0:0:
331,87,104096,1,0,0:0:0:0:
284,208,104246,2,0,B|227:255|227:255|257:294|257:294|238:348,1,140,8|0,0:0|0:0,0:0:0:0:
156,108,104546,2,0,B|129:158|129:158|45:130,1,140
425,275,104846,2,0,B|451:338|451:338|381:325,2,140
204,92,105296,5,0,0:0:0:0:
296,57,105371,1,0,0:0:0:0:
373,115,105446,1,0,0:0:0:0:
306,268,105596,1,0,0:0:0:0:
76,147,105746,1,0,0:0:0:0:
115,326,105896,1,0,0:0:0:0:
190,212,106046,2,0,B|227:180|227:180|260:187|255:101,1,140,8|0,0:0|0:0,0:0:0:0:
120,74,106346,2,0,B|130:25|130:25|202:90,1,140
423,91,106646,2,0,B|364:91|364:91|398:180,1,140
271,276,106946,5,0,0:0:0:0:
85,179,107096,1,0,0:0:0:0:
306,46,107246,1,0,0:0:0:0:
85,179,107396,1,0,0:0:0:0:
306,46,107546,1,0,0:0:0:0:
271,276,107696,1,0,0:0:0:0:
271,276,107771,1,0,0:0:0:0:
271,276,107846,1,0,0:0:0:0:
181,47,107996,2,0,B|193:88|193:88|91:66,2,140
261,178,108446,5,0,0:0:0:0:
261,178,108521,1,4,0:0:0:0:
261,178,108596,1,0,0:0:0:0:
84,32,108746,1,0,0:0:0:0:
71,306,108896,1,0,0:0:0:0:
202,99,109046,1,0,0:0:0:0:
318,277,109196,6,0,L|450:222,1,140,2|0,0:0|0:0,0:0:0:0:
289,116,109496,1,0,0:0:0:0:
318,277,109646,2,0,L|441:203,1,140,2|0,0:0|0:0,0:0:0:0:
242,84,109946,1,0,0:0:0:0:
318,277,110096,2,0,L|425:171,1,140,2|0,0:0|0:0,0:0:0:0:
184,60,110396,1,0,0:0:0:0:
196,222,110546,1,0,0:0:0:0:
346,88,110696,5,0,0:0:0:0:
391,284,110846,1,0,0:0:0:0:
198,320,110996,1,0,0:0:0:0:
155,316,111071,1,0,0:0:0:0:
119,295,111146,1,0,0:0:0:0:
94,261,111221,1,0,0:0:0:0:
84,220,111296,1,0,0:0:0:0:
93,178,111371,1,0,0:0:0:0:
124,151,111446,1,0,0:0:0:0:
166,152,111521,1,0,0:0:0:0:
206,166,111596,1,0,0:0:0:0:
245,183,111671,1,0,0:0:0:0:
284,197,111746,1,0,0:0:0:0:
328,202,111821,1,0,0:0:0:0:
368,191,111896,1,0,0:0:0:0:
396,159,111971,1,0,0:0:0:0:
402,117,112046,1,0,0:0:0:0:
387,78,112121,1,0,0:0:0:0:
358,47,112196,1,0,0:0:0:0:
356,331,112346,6,0,B|289:333|273:280|273:280|237:276,1,140,8|0,0:0|0:0,0:0:0:0:
389,166,112646,2,0,B|376:98|326:86|326:86|305:122,1,140
143,134,112946,2,0,B|181:109|181:109|170:66|202:102|202:102|254:78,1,140
222,249,113246,2,0,B|256:232|256:232|170:312,1,140
367,310,113546,2,0,B|388:290|388:290|374:208|456:283,1,140
319,68,113846,2,0,B|354:53|354:53|334:133|334:133|370:123,1,140
239,248,114146,1,0,0:0:0:0:
202,172,114221,1,0,0:0:0:0:
120,153,114296,1,0,0:0:0:0:
36,263,114446,5,0,0:0:0:0:
154,73,114596,1,0,0:0:0:0:
250,259,114746,1,0,0:0:0:0:
322,122,114896,1,0,0:0:0:0:
129,163,115046,1,0,0:0:0:0:
193,318,115196,1,0,0:0:0:0:
327,230,115346,1,0,0:0:0:0:
157,68,115496,5,0,0:0:0:0:
205,141,115571,1,0,0:0:0:0:
286,183,115646,1,0,0:0:0:0:
410,63,115796,1,0,0:0:0:0:
318,323,115946,2,0,B|416:380|416:380|366:384,1,140
180,81,116246,1,0,0:0:0:0:
406,238,116396,1,0,0:0:0:0:
180,81,116546,1,0,0:0:0:0:
406,238,116696,1,0,0:0:0:0:
127,249,116846,2,0,B|76:219|76:219|9:268|48:274,1,140
227,114,117146,5,0,0:0:0:0:
341,202,117296,1,0,0:0:0:0:
235,312,117446,1,0,0:0:0:0:
287,142,117596,1,0,0:0:0:0:
171,217,117746,1,0,0:0:0:0:
345,308,117896,1,0,0:0:0:0:
408,246,117971,1,0,0:0:0:0:
430,162,118046,1,0,0:0:0:0:
212,139,118196,5,0,0:0:0:0:
321,337,118346,1,0,0:0:0:0:
352,149,118496,1,0,0:0:0:0:
167,273,118646,1,0,0:0:0:0:
256,98,118796,1,0,0:0:0:0:
263,315,118946,1,0,0:0:0:0:
382,227,119096,1,0,0:0:0:0:
180,176,119246,1,0,0:0:0:0:
180,176,119321,1,4,0:0:0:0:
180,176,119396,5,0,0:0:0:0:
333,288,119546,1,0,0:0:0:0:
299,94,119696,1,0,0:0:0:0:
160,275,119846,1,0,0:0:0:0:
111,99,119996,1,0,0:0:0:0:
135,64,120071,5,0,0:0:0:0:
171,41,120146,1,0,0:0:0:0:
212,42,120221,1,0,0:0:0:0:
240,73,120296,1,0,0:0:0:0:
254,114,120371,1,0,0:0:0:0:
259,156,120446,1,0,0:0:0:0:
257,198,120521,1,0,0:0:0:0:
254,241,120596,1,0,0:0:0:0:
264,282,120671,1,0,0:0:0:0:
290,316,120746,1,0,0:0:0:0:
327,336,120821,1,0,0:0:0:0:
369,331,120896,1,0,0:0:0:0:
402,305,120971,1,0,0:0:0:0:
426,270,121046,1,0,0:0:0:0:
426,228,121121,1,0,0:0:0:0:
408,189,121196,1,0,0:0:0:0:
378,159,121271,1,0,0:0:0:0:
343,135,121346,1,0,0:0:0:0:
288,118,121421,2,0,L|214:100,3,70
89,127,121796,6,0,B|110:181|110:181|155:189|107:249|107:249|83:222,1,140
366,100,122096,1,0,0:0:0:0:
190,302,122246,1,0,0:0:0:0:
366,100,122396,1,0,0:0:0:0:
190,302,122546,1,0,0:0:0:0:
209,135,122696,1,0,0:0:0:0:
420,313,122846,1,0,0:0:0:0:
209,135,122996,1,0,0:0:0:0:
420,313,123146,1,0,0:0:0:0:
191,56,123296,2,0,B|235:85|204:132|204:132|262:108,1,140
130,260,123596,5,0,0:0:0:0:
207,302,123671,1,0,0:0:0:0:
289,269,123746,1,0,0:0:0:0:
262,52,123896,1,0,0:0:0:0:
353,215,124046,1,0,0:0:0:0:
289,269,124121,1,0,0:0:0:0:
211,239,124196,1,0,0:0:0:0:
96,61,124346,1,0,0:0:0:0:
297,111,124496,1,0,0:0:0:0:
96,61,124646,5,0,0:0:0:0:
264,190,124796,1,0,0:0:0:0:
96,61,124946,5,0,0:0:0:0:
198,251,125096,1,0,0:0:0:0:
171,41,125246,2,0,B|230:21|250:72|250:72|280:29,1,140
377,280,125546,2,0,B|338:323|338:323|329:274|256:275,1,140
111,296,125846,5,0,0:0:0:0:
101,210,125921,1,0,0:0:0:0:
129,132,125996,1,0,0:0:0:0:
372,85,126146,1,0,0:0:0:0:
219,245,126296,1,0,0:0:0:0:
233,50,126446,1,0,0:0:0:0:
359,246,126596,6,0,B|387:189|387:189|301:181,1,140
83,252,126896,1,0,0:0:0:0:
323,83,127046,1,0,0:0:0:0:
83,252,127196,1,0,0:0:0:0:
323,83,127346,1,0,0:0:0:0:
238,316,127496,2,0,B|268:271|310:268|310:268|219:225,1,140
111,159,127796,1,0,0:0:0:0:
315,103,127946,1,0,0:0:0:0:
127,37,128096,1,0,0:0:0:0:
304,5,128246,2,0,B|355:11|376:2|376:2|288:50,2,140
203,27,128696,1,0,0:0:0:0:
118,42,128846,1,0,0:0:0:0:
34,63,128996,6,0,L|5:-1,4,70
82,113,129371,1,0,0:0:0:0:
134,162,129446,1,0,0:0:0:0:
203,187,129521,1,0,0:0:0:0:
276,198,129596,1,0,0:0:0:0:
346,218,129671,1,0,0:0:0:0:
409,256,129746,1,0,0:0:0:0:
399,302,129821,1,0,0:0:0:0:
327,312,129896,1,0,0:0:0:0:
259,287,129971,1,0,0:0:0:0:
231,222,130046,1,0,0:0:0:0:
250,151,130121,1,0,0:0:0:0:
299,97,130196,5,0,0:0:0:0:
221,58,130271,1,0,0:0:0:0:
136,69,130346,1,0,0:0:0:0:
70,125,130421,1,0,0:0:0:0:
46,208,130496,1,0,0:0:0:0:
72,290,130571,1,0,0:0:0:0:
139,344,130646,1,0,0:0:0:0:
225,353,130721,1,0,0:0:0:0:
301,313,130796,1,0,0:0:0:0:
343,237,130871,1,0,0:0:0:0:
336,151,130946,1,0,0:0:0:0:
286,88,131021,1,0,0:0:0:0:
208,49,131096,1,0,0:0:0:0:
123,60,131171,1,0,0:0:0:0:
57,116,131246,1,0,0:0:0:0:
33,199,131321,1,0,0:0:0:0:
59,281,131396,1,0,0:0:0:0:
126,335,131471,1,0,0:0:0:0:
250,121,132896,5,0,0:0:0:0:
250,121,133046,1,0,0:0:0:0:
250,121,133196,1,0,0:0:0:0:
320,288,133421,2,0,L|140:287,1,175,2|0,0:0|0:0,0:0:0:0:
93,147,133946,5,0,0:0:0:0:
361,118,134096,1,0,0:0:0:0:
157,117,134246,1,0,0:0:0:0:
437,78,134396,1,0,0:0:0:0:
239,272,134546,5,0,0:0:0:0:
296,44,134696,1,0,0:0:0:0:
210,358,134846,1,0,0:0:0:0:
301,117,134996,1,0,0:0:0:0:
338,259,135146,5,0,0:0:0:0:
86,127,135296,1,0,0:0:0:0:
266,273,135446,1,0,0:0:0:0:
56,55,135596,1,0,0:0:0:0:
402,301,135746,5,0,0:0:0:0:
76,229,135896,1,0,0:0:0:0:
462,50,136046,1,0,0:0:0:0:
45,94,136196,1,0,0:0:0:0:
344,193,136346,1,0,0:0:0:0:
121,82,136496,1,0,0:0:0:0:
423,176,136646,5,0,0:0:0:0:
96,306,136796,1,0,0:0:0:0:
296,57,136946,1,0,0:0:0:0:
144,263,137096,1,0,0:0:0:0:
363,32,137246,1,0,0:0:0:0:
383,281,137396,5,0,0:0:0:0:
128,73,137546,1,0,0:0:0:0:
352,211,137696,1,0,0:0:0:0:
36,84,137846,1,0,0:0:0:0:
237,265,137996,5,0,0:0:0:0:
418,37,138146,1,0,0:0:0:0:
232,192,138296,1,0,0:0:0:0:
492,31,138446,1,0,0:0:0:0:
90,192,138596,6,0,P|101:113|145:76,1,140
196,103,138821,2,0,P|238:85|263:88,1,70
299,129,138971,2,0,P|347:152|360:176,1,70
292,211,139121,2,0,P|321:245|361:255,1,70
160,347,139346,5,0,0:0:0:0:
86,288,139421,1,0,0:0:0:0:
90,192,139496,1,0,0:0:0:0:
253,149,139646,5,0,0:0:0:0:
253,149,139721,1,0,0:0:0:0:
253,149,139796,1,0,0:0:0:0:
335,325,139946,5,0,0:0:0:0:
240,325,140021,1,0,0:0:0:0:
180,256,140096,1,0,0:0:0:0:
164,90,140246,5,0,0:0:0:0:
164,90,140321,1,0,0:0:0:0:
164,90,140396,1,0,0:0:0:0:
386,170,140546,2,0,P|341:223|267:227,1,140
89,192,140846,1,0,0:0:0:0:
89,192,140921,5,0,0:0:0:0:
89,192,140996,2,0,P|95:260|144:307,1,140
196,281,141221,2,0,P|226:297|261:296,1,70
298,255,141370,2,0,P|332:244|355:219,1,70
291,173,141521,2,0,P|312:145|343:130,1,70
299,73,141671,2,0,P|246:44|204:50,1,70
158,343,141896,1,0,0:0:0:0:
76,297,141971,5,0,0:0:0:0:
84,202,142046,1,0,0:0:0:0:
301,108,142196,1,0,0:0:0:0:
301,108,142271,1,0,0:0:0:0:
301,108,142346,1,0,0:0:0:0:
335,325,142496,1,0,0:0:0:0:
242,325,142571,1,0,0:0:0:0:
202,246,142646,1,0,0:0:0:0:
408,185,142796,1,0,0:0:0:0:
408,185,142871,1,0,0:0:0:0:
408,185,142946,1,0,0:0:0:0:
393,40,143096,5,0,0:0:0:0:
93,147,143246,1,0,0:0:0:0:
351,70,143396,1,0,0:0:0:0:
34,152,143546,1,0,0:0:0:0:
285,16,143696,5,0,0:0:0:0:
237,325,143846,1,0,0:0:0:0:
295,53,143996,1,0,0:0:0:0:
210,358,144146,1,0,0:0:0:0:
136,287,144296,5,0,0:0:0:0:
71,36,144446,1,0,0:0:0:0:
258,262,144596,1,0,0:0:0:0:
256,3,144746,1,0,0:0:0:0:
372,306,144896,1,0,0:0:0:0:
469,47,145046,1,0,0:0:0:0:
247,318,145196,5,0,0:0:0:0:
224,5,145346,1,0,0:0:0:0:
133,342,145496,1,0,0:0:0:0:
47,40,145646,1,0,0:0:0:0:
349,265,145796,1,0,0:0:0:0:
42,330,145946,1,0,0:0:0:0:
409,140,146096,1,0,0:0:0:0:
103,199,146246,1,0,0:0:0:0:
381,25,146396,1,0,0:0:0:0:
106,43,146546,6,0,B|13:69|13:69|53:11,1,140,8|0,0:0|0:0,0:0:0:0:
303,353,146846,2,0,B|384:278|384:278|435:295,1,140
415,82,147146,2,0,B|355:30|355:30|274:35,1,140
146,297,147446,1,0,0:0:0:0:
256,32,147596,1,0,0:0:0:0:
324,353,147746,1,0,0:0:0:0:
167,28,147896,1,0,0:0:0:0:
378,115,148046,5,0,0:0:0:0:
400,197,148121,1,0,0:0:0:0:
341,264,148196,1,0,0:0:0:0:
231,132,148346,5,0,0:0:0:0:
231,132,148421,1,0,0:0:0:0:
231,132,148496,1,0,0:0:0:0:
453,138,148646,5,0,0:0:0:0:
448,223,148721,1,0,0:0:0:0:
405,293,148796,1,0,0:0:0:0:
130,68,148946,5,0,0:0:0:0:
130,68,149021,1,0,0:0:0:0:
130,68,149096,1,0,0:0:0:0:
417,344,149246,6,0,B|481:299|481:299|476:235,1,105.000004005432
268,96,149546,1,0,0:0:0:0:
166,298,149696,1,0,0:0:0:0:
411,226,149846,2,0,P|356:217|321:225,1,52.5000020027161
306,134,149996,2,0,P|255:156|230:182,1,52.5000020027161
155,140,150146,2,0,P|116:180|103:214,1,52.5000020027161
168,38,150371,1,0,0:0:0:0:
119,309,150521,1,0,0:0:0:0:
257,250,150671,6,0,B|291:297|291:297|333:288|333:288|354:361,1,140,8|0,0:0|0:0,0:0:0:0:
224,104,150971,2,0,B|243:68|243:68|262:46|218:16|174:14,1,140
86,272,151271,2,0,B|91:236|91:236|13:273|0:349,1,140
291,211,151571,2,0,B|352:227|366:166|366:166|412:181,1,140
153,127,151871,1,0,0:0:0:0:
236,340,152021,1,0,0:0:0:0:
338,96,152171,1,0,0:0:0:0:
407,296,152321,1,0,0:0:0:0:
241,202,152471,2,0,P|183:201|114:258,1,105.000004005432,8|0,0:0|0:0,0:0:0:0:
409,107,152696,1,0,0:0:0:0:
152,103,152846,5,0,0:0:0:0:
152,101,152921,2,0,L|78:26,1,70
114,192,153071,2,0,L|33:192,1,70
163,279,153221,2,0,L|101:338,1,70
256,314,153371,6,0,L|256:391,1,70
341,275,153521,2,0,L|404:323,1,70
368,189,153671,2,0,L|462:189,1,70
331,111,153821,2,0,L|383:45,1,70
253,84,153971,6,0,L|256:-9,1,70
182,129,154121,2,0,L|115:56,1,70
175,212,154271,2,0,L|95:231,1,70
239,266,154421,2,0,L|204:351,1,70
328,244,154571,6,0,L|395:304,1,70
320,152,154721,2,0,L|394:103,1,70
238,124,154871,2,0,L|217:23,1,70
200,207,155021,2,0,L|126:225,1,70
298,234,155171,6,0,L|357:287,1,70
256,191,155321,2,0,L|256:98,1,70
